osu file format v14

[General]
AudioFilename: MLP_Halloween_Rocks.mp3
AudioLeadIn: 0
PreviewTime: 19578
Countdown: 0
SampleSet: Normal
StackLeniency: 0.7
Mode: 0
LetterboxInBreaks: 0
WidescreenStoryboard: 0

[Editor]
Bookmarks: 20328,24828,25578,54228,58578,73878,88878
DistanceSpacing: 1.4
BeatDivisor: 4
GridSize: 4
TimelineZoom: 1

[Metadata]
Title:Halloween Rocks
TitleUnicode:Halloween Rocks
Artist:Oodorato2
ArtistUnicode:オオドラ
Creator:Elirac
Version:Insane
Source:My Little Pony : Friendship Is Magic
Tags:mlp fim vocal splicing nightmare night twilight sparkle rainbow dash pinkie pie rarity fluttershy applejack
BeatmapID:940845
BeatmapSetID:436857

[Difficulty]
HPDrainRate:5.5
CircleSize:5
OverallDifficulty:7
ApproachRate:7.5
SliderMultiplier:2
SliderTickRate:1

[Events]
//Background and Video events
0,0,"background.jpg",0,0
Video,0,"Halloween Rocks.avi"
//Break Periods
2,40477,48153
2,92077,95853
//Storyboard Layer 0 (Background)
//Storyboard Layer 1 (Fail)
//Storyboard Layer 2 (Pass)
//Storyboard Layer 3 (Foreground)
//Storyboard Sound Samples

[TimingPoints]
978,600,4,2,0,40,1,0
10278,-100,4,1,0,50,0,0
17628,-100,4,1,0,55,0,0
20328,-100,4,1,0,65,0,0
29478,-100,4,1,0,75,0,0
39378,-133.333333333333,4,1,0,75,0,0
48978,-100,4,1,0,75,0,1
58278,-100,4,1,0,75,0,0
96528,-100,4,1,0,100,0,1
115878,-100,4,2,0,55,0,0
120678,-100,4,2,0,45,0,0
123078,-100,4,2,0,30,0,0

[Colours]
Combo1 : 163,174,96
Combo2 : 0,64,128
Combo3 : 170,170,255
Combo4 : 210,115,45

[HitObjects]
88,48,978,5,0,0:0:0:0:
90,112,1128,1,0,0:0:0:0:
136,160,1278,2,0,L|196:176,1,50
231,60,1578,1,0,0:0:0:0:
303,83,1728,1,0,0:0:0:0:
368,44,1878,2,0,L|380:100,1,50
378,92,2178,1,0,0:0:0:0:
304,188,2478,2,2,P|332:240|400:256,1,100,2|2,2:0|0:0,0:0:0:0:
206,262,3378,5,0,0:0:0:0:
109,341,3678,1,0,2:0:0:0:
89,218,3978,1,0,0:0:0:0:
206,262,4278,2,2,L|270:251|270:251,1,50,2|2,2:0|2:0,2:0:0:0:
327,240,4578,1,0,0:0:0:0:
215,185,4878,1,0,2:0:0:0:
334,143,5178,1,0,0:0:0:0:
151,53,5778,6,0,P|202:53|248:90,1,100
309,186,6378,1,0,0:0:0:0:
304,317,6678,2,2,P|248:317|200:273,1,100,2|2,2:0|0:0,0:0:0:0:
171,182,7278,2,2,P|227:167|285:181,1,100,2|2,2:0|0:0,0:0:0:0:
459,70,8178,5,0,0:0:0:0:
411,190,8478,1,0,2:0:0:0:
296,131,8778,1,0,0:0:0:0:
411,190,9078,2,2,P|386:286|289:313,1,200,2|2,2:0|2:0,2:0:0:0:
203,241,9978,1,2,0:0:0:0:
104,72,10578,5,2,0:2:0:0:
108,76,10728,1,2,0:2:0:0:
112,80,10878,1,2,0:2:0:0:
241,64,11178,1,0,0:0:0:0:
107,223,11628,5,0,0:0:0:0:
176,332,11928,2,0,L|288:292,1,100,0|0,3:0|3:0,3:0:0:0:
270,298,12378,1,0,0:0:0:0:
408,336,12678,1,0,3:0:0:0:
420,196,12978,5,2,0:2:0:0:
420,128,13128,1,2,0:2:0:0:
388,68,13278,1,2,0:2:0:0:
300,176,13578,1,0,0:0:0:0:
95,131,14028,5,0,0:0:0:0:
228,88,14328,2,0,L|344:56,1,100,0|0,3:0|3:0,3:0:0:0:
324,61,14778,1,0,0:0:0:0:
448,132,15078,1,0,3:0:0:0:
388,260,15378,5,2,0:2:0:0:
324,292,15528,1,2,0:2:0:0:
256,288,15678,1,2,0:2:0:0:
296,156,15978,1,0,0:0:0:0:
160,288,16428,5,0,0:0:0:0:
160,148,16728,2,0,P|184:96|240:68,1,100,0|0,3:0|3:0,3:0:0:0:
218,73,17178,1,0,0:0:0:0:
361,91,17478,1,0,3:0:0:0:
392,228,17778,5,2,0:2:0:0:
340,276,17928,1,2,0:2:0:0:
272,296,18078,1,2,0:2:0:0:
204,292,18228,1,2,0:2:0:0:
144,256,18378,1,2,0:2:0:0:
144,116,18678,6,0,L|188:148,1,50,0|0,3:0|3:0,3:0:0:0:
310,210,19128,1,0,3:0:0:0:
374,182,19278,1,0,3:0:0:0:
284,64,19578,5,2,0:2:0:0:
228,108,19728,1,2,0:2:0:0:
192,168,19878,1,2,0:2:0:0:
168,232,20028,1,2,0:2:0:0:
160,300,20178,5,10,0:2:0:0:
272,216,20478,2,0,L|304:264,1,50,0|0,3:0|3:0,3:0:0:0:
340,316,20778,1,0,0:0:0:0:
480,332,21078,5,2,3:2:0:0:
440,276,21228,1,2,3:2:0:0:
488,224,21378,1,10,0:2:0:0:
428,188,21528,1,2,0:2:0:0:
484,144,21678,1,2,0:2:0:0:
330,42,21978,1,0,0:0:0:0:
176,56,22278,5,0,3:0:0:0:
110,81,22428,1,0,2:3:0:0:
70,138,22578,1,8,0:2:0:0:
87,276,22878,1,2,0:2:0:0:
147,310,23028,1,2,0:2:0:0:
216,310,23178,1,2,0:2:0:0:
180,172,23478,5,0,3:0:0:0:
207,107,23628,1,0,0:0:0:0:
285,54,23778,2,0,L|372:130,1,100,8|0,0:2|3:0,0:0:0:0:
492,237,24378,1,0,0:0:0:0:
277,305,24828,5,2,3:2:0:0:
202,303,24978,2,2,L|144:345,1,50,10|2,0:2|3:2,0:2:0:0:
93,300,25278,1,2,3:2:0:0:
60,232,25428,1,2,3:2:0:0:
55,157,25578,1,2,0:2:0:0:
196,207,25878,5,0,0:0:0:0:
345,193,26178,1,10,0:2:0:0:
329,119,26328,1,2,0:2:0:0:
268,74,26478,1,2,0:2:0:0:
196,207,26778,1,0,0:0:0:0:
325,281,27078,6,0,P|289:317|233:317,1,100,0|0,3:0|3:0,3:0:0:0:
255,170,27678,2,0,P|291:134|347:134,1,100,0|0,3:0|3:0,3:0:0:0:
325,281,28278,2,0,P|289:317|233:317,1,100,0|0,3:0|3:0,3:0:0:0:
255,170,28878,2,0,P|291:134|347:134,1,100,0|0,3:0|3:0,3:0:0:0:
184,260,29778,5,4,0:1:0:0:
187,80,30078,1,0,3:0:0:0:
319,202,30378,1,0,0:0:0:0:
408,94,30678,5,0,3:0:0:0:
457,145,30828,1,0,0:0:0:0:
469,213,30978,1,10,0:2:0:0:
457,282,31128,1,2,0:2:0:0:
413,336,31278,1,2,0:2:0:0:
232,351,31578,1,0,0:0:0:0:
263,214,31878,5,0,3:0:0:0:
332,223,32028,1,0,3:0:0:0:
397,199,32178,2,0,L|425:143,1,50,8|0,0:2|3:0,0:0:0:0:
352,133,32478,2,0,P|290:127|251:97,1,100,0|0,3:0|0:0,0:0:0:0:
105,104,33078,5,0,3:0:0:0:
155,152,33228,1,0,0:0:0:0:
223,164,33378,2,0,L|188:259,1,100,8|0,0:2|3:0,0:0:0:0:
324,140,33978,1,0,0:0:0:0:
436,228,34278,5,0,3:0:0:0:
380,268,34428,2,0,L|340:300,1,50,0|8,3:0|0:2,0:0:0:0:
260,136,34878,1,0,3:0:0:0:
216,312,35178,1,0,0:0:0:0:
98,253,35478,5,2,3:2:0:0:
69,189,35628,1,2,3:2:0:0:
79,119,35778,1,10,0:2:0:0:
128,69,35928,1,2,0:2:0:0:
196,52,36078,1,2,0:2:0:0:
335,54,36378,1,0,0:0:0:0:
236,176,36678,6,0,L|288:156,1,50,0|0,0:3|0:3,0:3:0:0:
352,176,36978,1,4,0:0:0:0:
400,224,37128,1,4,0:0:0:0:
416,292,37278,1,4,0:0:0:0:
284,332,37578,6,0,B|212:356|120:308,1,150,0|0,0:0|3:0,0:0:0:0:
184,264,38178,2,0,P|241:252|274:196,1,100,0|0,0:0|3:0,0:0:0:0:
196,184,38628,2,0,P|140:172|112:134,1,100,0|0,0:0|3:0,0:0:0:0:
187,102,39078,2,0,L|255:118,1,50,0|0,0:0|3:0,0:0:0:0:
256,44,39378,6,0,B|328:45|363:80|377:109|377:109|380:118|399:153|453:157,1,225.000008583069,0|0,0:0|3:0,0:0:0:0:
132,84,48978,5,4,0:0:0:0:
248,180,49278,2,0,L|284:136,1,50,4|0,0:0|3:0,0:0:0:0:
342,100,49578,1,0,3:0:0:0:
420,88,49728,1,0,0:0:0:0:
476,226,50028,1,0,0:0:0:0:
402,241,50178,1,8,0:2:0:0:
348,294,50328,6,0,L|312:338,1,50,0|4,0:2|0:0,0:0:0:0:
300,258,50628,2,0,L|260:306,1,50,0|4,0:0|0:0,0:0:0:0:
196,278,50928,2,0,L|152:242,1,50,0|4,0:0|0:0,0:0:0:0:
157,323,51228,2,0,L|111:286,1,50,0|8,0:0|0:2,0:0:0:0:
67,240,51528,5,0,0:2:0:0:
61,161,51678,2,0,L|128:176,1,50,0|0,3:0|3:2,0:0:0:0:
184,188,51978,1,0,0:0:0:0:
159,112,52128,1,0,0:2:0:0:
185,37,52278,2,0,L|241:46,1,50,0|0,3:0|3:2,3:0:0:0:
310,59,52578,1,8,0:2:0:0:
379,95,52728,1,0,0:0:0:0:
424,244,53028,5,2,0:2:0:0:
353,262,53178,1,2,0:2:0:0:
281,246,53328,1,2,0:2:0:0:
221,202,53478,1,2,0:2:0:0:
185,134,53628,1,2,0:2:0:0:
185,58,53778,1,10,0:2:0:0:
256,192,54228,12,0,56178,0:0:0:0:
96,212,56478,6,0,L|144:248,1,50,8|0,0:2|3:0,3:0:0:0:
197,284,56778,1,0,3:0:0:0:
262,321,56928,1,0,0:2:0:0:
445,226,57228,1,0,0:2:0:0:
418,154,57378,1,0,3:0:0:0:
360,104,57528,6,2,L|308:88,1,50,2|2,0:2|3:2,3:2:0:0:
236,88,57828,1,2,3:2:0:0:
169,122,57978,2,2,P|138:154|124:208,1,100,2|2,0:2|3:2,0:2:0:0:
120,344,58578,5,8,0:2:0:0:
388,104,59178,1,0,0:2:0:0:
212,64,59478,1,0,3:0:0:0:
135,57,59628,1,0,3:0:0:0:
64,80,59778,2,0,L|88:128,1,50,8|0,0:2|3:0,0:0:0:0:
123,190,60078,1,0,3:0:0:0:
51,211,60228,5,0,3:0:0:0:
98,269,60378,2,0,L|98:329,1,50,0|0,0:0|3:0,0:0:0:0:
171,333,60678,1,0,3:0:0:0:
239,302,60828,1,0,3:0:0:0:
274,235,60978,1,8,0:2:0:0:
264,40,61278,1,0,3:0:0:0:
334,74,61428,6,0,L|279:99,1,50,0|0,3:0|0:0,0:0:0:0:
176,148,61878,1,2,3:2:0:0:
116,196,62028,1,2,3:2:0:0:
116,272,62178,1,10,0:2:0:0:
172,324,62328,1,2,3:2:0:0:
172,324,62478,1,2,3:2:0:0:
331,314,62778,6,0,L|301:264,1,50,8|0,0:2|3:0,0:0:0:0:
266,206,63078,1,0,3:0:0:0:
346,79,63378,2,0,L|373:120,1,50,8|0,0:2|3:0,0:0:0:0:
411,185,63678,1,0,0:0:0:0:
278,254,63978,5,0,0:0:0:0:
320,315,64128,2,0,L|384:279,1,50,0|0,3:0|3:0,3:0:0:0:
429,253,64428,1,0,3:0:0:0:
449,180,64578,1,8,0:2:0:0:
411,115,64728,6,0,L|351:139,1,50,0|0,3:0|3:0,3:0:0:0:
289,134,65028,2,0,L|235:94,1,50,0|0,3:0|0:0,0:0:0:0:
132,36,65478,2,0,P|72:48|32:80,1,100,0|8,3:0|0:2,0:0:0:0:
88,200,66078,1,0,3:0:0:0:
88,200,66228,1,0,3:0:0:0:
88,200,66378,6,0,B|96:320|208:348,1,200,0|8,0:0|0:2,0:0:0:0:
340,288,67278,1,0,3:0:0:0:
396,148,67578,1,8,0:2:0:0:
288,44,67878,1,0,3:0:0:0:
140,48,68178,1,8,0:2:0:0:
40,160,68478,1,0,3:0:0:0:
76,324,68778,5,0,0:2:0:0:
148,340,68928,2,0,L|148:280,1,50,0|0,3:0|3:0,3:0:0:0:
208,252,69228,2,0,L|208:302,1,50,0|8,3:0|0:2,3:0:0:0:
332,220,69678,1,0,0:0:0:0:
456,304,69978,6,0,L|456:244,1,50,0|0,0:2|3:0,0:0:0:0:
396,208,70278,1,0,0:0:0:0:
340,160,70428,1,2,3:2:0:0:
384,104,70578,2,0,L|320:20,1,100,10|0,0:2|3:0,0:0:0:0:
200,104,71178,5,0,0:2:0:0:
140,136,71328,2,0,L|176:184,1,50,0|0,3:0|3:0,3:0:0:0:
124,232,71628,2,0,L|88:276,1,50,0|8,3:0|0:2,0:0:0:0:
232,328,72078,1,0,3:0:0:0:
380,332,72378,5,10,0:2:0:0:
424,272,72528,1,2,3:2:0:0:
372,216,72678,1,2,3:2:0:0:
432,172,72828,1,2,3:2:0:0:
372,128,72978,1,10,0:2:0:0:
228,176,73278,1,0,3:0:0:0:
128,64,73578,5,0,0:2:0:0:
64,104,73728,2,0,L|40:160,1,50,0|0,3:0|3:0,3:0:0:0:
48,224,74028,1,0,3:0:0:0:
48,224,74178,1,8,0:2:0:0:
192,260,74478,5,2,3:2:0:0:
260,232,74628,1,2,3:2:0:0:
304,172,74778,1,2,0:2:0:0:
320,100,74928,1,2,3:2:0:0:
292,32,75078,1,2,3:2:0:0:
396,76,75378,6,2,P|400:244|200:340,1,400,10|2,0:2|0:2,0:2:0:0:
84,284,76878,1,2,3:2:0:0:
164,172,77178,1,2,0:2:0:0:
208,116,77328,1,2,3:2:0:0:
348,272,77778,5,8,0:2:0:0:
204,280,78078,1,0,0:2:0:0:
108,164,78378,1,0,0:0:0:0:
164,116,78528,1,0,0:0:0:0:
232,84,78678,1,0,3:0:0:0:
308,80,78828,1,0,0:0:0:0:
268,144,78978,1,8,0:2:0:0:
244,216,79128,1,0,0:0:0:0:
268,288,79278,1,0,3:0:0:0:
408,236,79578,5,0,0:2:0:0:
268,184,79878,1,0,3:0:0:0:
192,184,80028,1,0,3:0:0:0:
128,224,80178,1,8,0:2:0:0:
188,340,80478,6,0,L|224:296,1,50,0|0,3:0|3:0,3:0:0:0:
264,240,80778,1,0,0:2:0:0:
20,232,81078,2,0,L|64:184,1,50,0|0,3:0|3:0,3:0:0:0:
104,140,81378,1,8,0:2:0:0:
196,32,81678,1,0,3:0:0:0:
298,137,81978,2,0,L|231:223,1,100,0|0,0:2|3:2,0:2:0:0:
332,316,82578,5,8,0:2:0:0:
416,204,82878,1,0,3:0:0:0:
456,140,83028,1,0,3:0:0:0:
408,84,83178,2,0,L|284:68,1,100,0|0,0:2|3:0,0:0:0:0:
232,60,83628,1,0,3:0:0:0:
156,76,83778,1,8,0:2:0:0:
96,212,84078,1,0,3:0:0:0:
204,316,84378,1,0,0:2:0:0:
248,180,84678,5,0,3:0:0:0:
320,168,84828,1,0,3:0:0:0:
384,208,84978,1,8,0:2:0:0:
336,348,85278,1,0,3:0:0:0:
384,208,85578,1,0,0:2:0:0:
448,172,85728,6,0,L|420:124,1,50,0|0,3:0|3:0,3:0:0:0:
372,76,86028,2,0,L|292:56,1,50,0|8,3:0|0:2,0:0:0:0:
248,56,86328,1,0,3:0:0:0:
176,84,86478,1,0,3:0:0:0:
320,192,86778,1,0,0:2:0:0:
184,320,87078,1,0,3:0:0:0:
256,340,87228,1,0,0:0:0:0:
328,324,87378,1,8,0:2:0:0:
452,244,87678,5,0,3:0:0:0:
304,256,87978,2,2,L|260:204,1,50,2|2,0:2|3:2,0:2:0:0:
248,148,88278,1,2,3:2:0:0:
272,76,88428,1,2,0:2:0:0:
340,48,88578,1,10,0:2:0:0:
416,56,88728,2,2,L|465:88,1,50,2|2,0:2|3:2,0:2:0:0:
448,284,89178,5,0,0:2:0:0:
272,316,89478,1,0,3:0:0:0:
204,284,89628,1,0,3:0:0:0:
160,224,89778,1,8,0:2:0:0:
104,84,90078,6,0,P|144:44|208:60,1,100,0|0,3:0|0:2,0:0:0:0:
236,188,90678,2,0,P|288:220|336:184,1,100,0|0,3:0|0:0,0:0:0:0:
448,284,91278,1,0,3:0:0:0:
452,144,91578,2,0,L|359:90,1,100,0|0,0:0|3:0,0:0:0:0:
212,336,96678,5,2,3:2:0:0:
340,280,96978,1,8,0:2:0:0:
416,172,97278,1,4,0:0:0:0:
312,76,97578,1,2,0:2:0:0:
269,131,97728,1,2,3:2:0:0:
200,145,97878,1,2,3:2:0:0:
57,97,98178,2,0,P|52:148|69:203,1,100,8|0,0:2|3:0,0:0:0:0:
144,312,98778,2,0,P|208:332|252:312,2,100,8|0|8,0:2|0:0|0:2,0:0:0:0:
79,272,99528,5,0,0:0:0:0:
40,204,99678,2,0,L|62:144,1,50
96,53,99978,1,2,0:2:0:0:
148,106,100128,1,2,3:2:0:0:
228,46,100278,2,0,L|236:104,1,50
250,204,100578,5,10,0:2:0:0:
204,263,100728,1,2,3:2:0:0:
129,264,100878,1,2,3:2:0:0:
172,178,101028,2,2,L|216:146,1,50,2|2,3:2|0:2,0:2:0:0:
286,132,101328,2,2,L|346:132,1,50,2|2,3:2|3:2,3:2:0:0:
408,149,101628,2,2,L|456:177,1,50,2|10,0:2|0:2,0:2:0:0:
224,340,102228,6,0,L|184:308,1,50,0|0,3:0|0:2,0:0:0:0:
128,268,102528,2,0,L|84:312,1,50,0|0,3:0|3:0,3:0:0:0:
40,256,102828,2,0,L|32:192,1,50,0|8,3:0|0:2,0:0:0:0:
112,80,103278,1,0,3:0:0:0:
280,72,103578,2,0,P|408:120|404:288,1,300,0|0,0:2|3:0,0:0:0:0:
372,324,104628,5,2,0:2:0:0:
300,340,104778,1,2,0:2:0:0:
228,320,104928,1,2,3:2:0:0:
338,196,105228,1,0,3:0:0:0:
286,142,105378,1,8,0:2:0:0:
208,116,105528,2,0,L|144:112,1,50,0|2,3:0|3:2,3:0:0:0:
84,124,105828,2,0,L|56:176,1,50,0|2,3:0|0:2,0:0:0:0:
68,244,106128,2,0,L|91:292,1,50,0|2,3:0|3:2,3:0:0:0:
148,336,106428,5,2,3:2:0:0:
223,315,106578,2,2,L|252:261,1,50,10|2,0:2|3:2,0:2:0:0:
318,116,107028,2,0,L|346:62,1,50,0|8,3:0|0:2,0:0:0:0:
444,184,107478,5,2,2:0:0:0:
376,216,107628,1,2,2:0:0:0:
301,206,107778,2,2,L|251:179,1,50,2|2,2:0|2:0,2:0:0:0:
190,148,108078,1,2,2:0:0:0:
28,252,108378,1,8,0:2:0:0:
92,68,108678,1,0,3:0:0:0:
184,224,108978,6,0,L|241:257,1,50,8|0,0:2|3:2,0:0:0:0:
295,279,109278,1,0,3:0:0:0:
369,271,109428,1,0,3:0:0:0:
427,223,109578,1,8,0:2:0:0:
332,96,109878,5,2,2:0:0:0:
260,75,110028,2,2,L|202:60,1,50,2|2,2:0|2:0,2:0:0:0:
114,33,110328,1,2,2:0:0:0:
135,104,110478,1,2,2:0:0:0:
184,288,110778,1,8,0:2:0:0:
320,172,111078,1,0,3:0:0:0:
388,308,111378,6,0,L|424:256,1,50,8|0,0:2|3:0,0:0:0:0:
428,192,111678,1,0,0:0:0:0:
404,120,111828,2,0,L|364:64,1,50,0|8,3:0|0:2,0:0:0:0:
224,80,112278,2,0,L|204:128,1,50,0|0,3:0|3:0,3:0:0:0:
204,200,112578,5,0,0:0:0:0:
216,276,112728,1,0,3:0:0:0:
156,320,112878,2,2,L|80:352,1,50,2|2,3:2|3:2,3:2:0:0:
40,312,113178,2,2,L|-8:248,1,50,10|2,0:2|3:2,0:2:0:0:
16,196,113478,2,2,L|44:132,1,50,2|2,3:2|3:2,3:2:0:0:
80,88,113778,5,8,0:2:0:0:
152,68,113928,1,0,3:0:0:0:
192,264,114228,1,0,3:0:0:0:
248,316,114378,1,8,0:2:0:0:
304,172,114678,2,0,L|348:196,1,50,0|0,3:0|3:0,3:0:0:0:
412,168,114978,2,0,P|400:104|256:64,1,200,0|8,0:0|0:2,0:0:0:0:
216,172,115878,1,0,3:0:0:0:
116,272,116178,5,0,0:0:0:0:
252,300,116478,1,2,0:0:0:0:
244,232,116628,1,2,0:0:0:0:
196,184,116778,1,2,0:0:0:0:
268,72,117078,2,2,P|328:64|360:104,1,100
304,220,117678,2,2,P|352:256|400:244,1,100
252,312,118278,1,0,0:0:0:0:
119,265,118578,5,0,0:0:0:0:
101,126,118878,1,0,0:0:0:0:
214,43,119178,1,0,0:0:0:0:
332,117,119478,2,2,L|292:149,1,50
236,190,119778,1,2,0:0:0:0:
113,258,120078,1,0,0:0:0:0:
244,305,120378,1,0,0:0:0:0:
430,96,120978,5,0,0:2:0:0:
292,72,121278,1,0,0:0:0:0:
340,203,121578,1,0,0:0:0:0:
292,72,121878,1,0,0:0:0:0:
203,180,122178,1,0,0:0:0:0:
292,72,122478,1,0,0:0:0:0:
153,53,122778,1,0,0:0:0:0:
83,324,123378,6,0,P|131:336|175:304,1,100
236,186,123978,2,0,P|284:170|324:210,1,100
399,313,124578,2,0,P|455:293|475:241,1,100
454,120,125178,2,0,P|426:76|370:64,1,100
242,72,125778,1,0,0:0:0:0:
