osu file format v14

[General]
AudioFilename: MLP_Halloween_Rocks.mp3
AudioLeadIn: 0
PreviewTime: 19578
Countdown: 0
SampleSet: Normal
StackLeniency: 0.7
Mode: 0
LetterboxInBreaks: 0
WidescreenStoryboard: 0

[Editor]
Bookmarks: 38478,40278,54228,58578,73878,102228,104478
DistanceSpacing: 1.2
BeatDivisor: 4
GridSize: 4
TimelineZoom: 1

[Metadata]
Title:Halloween Rocks
TitleUnicode:Halloween Rocks
Artist:Oodorato2
ArtistUnicode:オオドラ
Creator:Elirac
Version:Hard
Source:My Little Pony : Friendship Is Magic
Tags:mlp fim vocal splicing nightmare night twilight sparkle rainbow dash pinkie pie rarity fluttershy applejack
BeatmapID:940844
BeatmapSetID:436857

[Difficulty]
HPDrainRate:4.5
CircleSize:4.4
OverallDifficulty:5.5
ApproachRate:6.5
SliderMultiplier:2
SliderTickRate:1

[Events]
//Background and Video events
0,0,"background.jpg",0,0
Video,0,"Halloween Rocks.avi"
//Break Periods
2,40478,47928
2,91778,95628
//Storyboard Layer 0 (Background)
//Storyboard Layer 1 (Fail)
//Storyboard Layer 2 (Pass)
//Storyboard Layer 3 (Foreground)
//Storyboard Sound Samples

[TimingPoints]
978,600,4,2,0,40,1,0
10278,-100,4,1,0,50,0,0
17628,-100,4,1,0,55,0,0
19878,-100,4,1,0,65,0,0
29478,-100,4,1,0,75,0,0
48978,-100,4,1,0,75,0,1
58278,-100,4,1,0,75,0,0
96528,-100,4,1,0,100,0,1
116028,-100,4,2,0,55,0,0
120678,-100,4,2,0,45,0,0
123078,-100,4,2,0,30,0,0

[Colours]
Combo1 : 163,174,96
Combo2 : 0,64,128
Combo3 : 170,170,255
Combo4 : 210,115,45

[HitObjects]
72,128,978,5,0,0:0:0:0:
224,312,1578,1,0,0:0:0:0:
460,276,2178,1,0,0:0:0:0:
508,164,2478,1,0,0:0:0:0:
452,60,2778,1,0,0:0:0:0:
244,184,3378,5,0,0:0:0:0:
220,68,3678,1,0,0:0:0:0:
100,60,3978,1,0,0:0:0:0:
40,164,4278,1,0,0:0:0:0:
40,164,4428,1,0,0:0:0:0:
40,164,4578,1,0,0:0:0:0:
40,284,4878,2,2,P|96:320|148:320,1,100
204,96,5778,6,2,P|256:88|308:108,1,100
408,152,6378,2,2,P|388:204|312:208,1,100
229,212,6978,1,0,0:0:0:0:
204,96,7278,1,0,0:0:0:0:
318,59,7578,1,0,0:0:0:0:
240,316,8178,5,0,0:0:0:0:
128,276,8478,1,0,0:0:0:0:
240,236,8778,1,0,0:0:0:0:
128,196,9078,1,0,0:0:0:0:
240,152,9378,2,0,P|296:155|344:128,1,100
270,34,9978,1,0,0:0:0:0:
28,88,10578,5,0,0:0:0:0:
28,88,10728,2,0,L|36:144,1,50,0|0,3:0|3:0,3:0:0:0:
56,256,11178,2,0,P|96:292|200:320,1,150,0|0,0:2|3:2,0:2:0:0:
304,336,11928,1,0,3:0:0:0:
252,228,12228,2,0,L|316:224,1,50,0|0,3:0|0:2,0:0:0:0:
424,220,12678,1,0,3:0:0:0:
494,122,12978,6,0,L|436:126,1,50,0|0,0:0|3:0,0:0:0:0:
368,191,13428,1,0,0:0:0:0:
340,244,13578,2,0,P|300:296|216:336,1,150,0|0,3:0|0:0,0:0:0:0:
192,220,14328,1,0,3:0:0:0:
288,148,14628,2,0,L|260:216,1,50,0|0,3:0|0:2,0:0:0:0:
164,288,15078,1,0,3:0:0:0:
36,188,15378,5,2,0:2:0:0:
72,140,15528,2,2,L|112:92,1,50,2|2,3:2|3:2,3:2:0:0:
152,64,15828,2,2,L|212:60,1,50,2|2,3:2|0:2,0:2:0:0:
192,240,16428,1,0,3:0:0:0:
300,188,16728,2,0,L|356:164,1,50,0|0,3:0|3:0,3:0:0:0:
456,120,17178,1,0,0:2:0:0:
484,236,17478,1,0,3:0:0:0:
436,346,17778,5,2,0:2:0:0:
376,352,17928,1,2,3:2:0:0:
316,341,18078,1,2,3:2:0:0:
260,319,18228,2,2,L|248:268,1,50,2|2,3:2|0:2,0:2:0:0:
210,156,18678,2,0,L|161:188,1,50,0|0,3:0|3:0,3:0:0:0:
68,252,19128,2,0,P|48:184|92:108,1,150,0|0,3:0|0:2,0:0:0:0:
180,44,19878,1,0,3:0:0:0:
328,156,20178,5,8,0:2:0:0:
404,64,20478,2,0,P|448:116|448:160,1,100,0|0,3:0|0:2,0:0:0:0:
424,296,21078,1,0,3:0:0:0:
316,256,21378,1,10,0:2:0:0:
316,256,21528,1,2,3:2:0:0:
316,256,21678,1,2,3:2:0:0:
208,312,21978,1,0,0:2:0:0:
348,40,22578,5,8,0:2:0:0:
240,68,22878,2,0,L|188:84,1,50,0|0,3:0|3:0,3:0:0:0:
192,82,23178,1,0,0:2:0:0:
168,200,23478,1,0,3:0:0:0:
92,56,23778,1,8,0:2:0:0:
16,200,24078,1,0,3:0:0:0:
168,200,24378,1,0,0:2:0:0:
468,340,24978,5,8,0:2:0:0:
376,216,25278,1,0,3:0:0:0:
488,112,25578,1,0,0:2:0:0:
376,216,25878,1,0,3:0:0:0:
224,216,26178,1,10,0:2:0:0:
224,216,26328,1,2,3:2:0:0:
224,216,26478,1,2,3:2:0:0:
296,120,26778,1,0,0:2:0:0:
176,136,27079,6,0,P|150:86|97:57,1,100,0|0,0:0|3:0,0:0:0:0:
63,170,27678,2,0,P|89:220|142:249,1,100,0|0,0:0|3:0,0:0:0:0:
240,287,28278,2,0,P|295:302|352:282,1,100,0|0,0:0|3:0,0:0:0:0:
450,251,28878,2,0,P|455:194|426:141,1,100,0|0,0:0|3:0,0:0:0:0:
236,72,29778,5,4,0:0:0:0:
116,52,30078,1,0,3:0:0:0:
159,166,30378,1,0,0:2:0:0:
236,72,30678,1,0,3:0:0:0:
248,192,30978,1,10,0:2:0:0:
248,240,31128,1,2,3:2:0:0:
216,276,31278,1,2,3:2:0:0:
72,200,31578,1,0,0:2:0:0:
364,320,32178,5,8,0:2:0:0:
456,236,32478,1,2,3:2:0:0:
480,192,32628,1,2,3:2:0:0:
484,144,32778,1,2,0:2:0:0:
395,62,33078,1,0,3:0:0:0:
276,84,33378,2,0,P|240:120|188:116,1,100,8|0,0:2|3:0,0:0:0:0:
48,72,33978,1,0,0:2:0:0:
172,228,34428,6,0,L|224:252,1,50,0|8,3:0|0:2,0:0:0:0:
328,300,34878,1,0,3:0:0:0:
308,180,35178,1,0,0:2:0:0:
484,148,35478,1,0,3:0:0:0:
400,60,35778,5,10,0:2:0:0:
352,64,35928,1,2,3:2:0:0:
308,84,36078,1,2,3:2:0:0:
380,184,36378,2,0,L|292:284,1,100,0|0,0:0|3:0,0:0:0:0:
228,344,36978,1,10,0:2:0:0:
228,224,37278,1,2,3:2:0:0:
112,232,37578,6,2,P|36:136|48:44,1,200,10|2,0:2|0:2,0:2:0:0:
160,62,38478,2,0,P|214:157|310:186,1,200
292,48,39378,2,0,B|405:73|426:153|426:153|387:216|445:272|445:272,1,300
396,172,48978,5,12,0:2:0:0:
300,64,49278,2,0,L|228:76,1,50
112,92,49728,1,0,0:0:0:0:
232,164,50028,1,0,0:0:0:0:
368,124,50328,1,0,0:0:0:0:
388,180,50478,2,2,L|444:192,2,50,2|2|2,0:2|3:2|0:2,0:2:0:0:
360,232,50928,1,0,3:0:0:0:
312,268,51078,2,2,L|244:276,1,50,2|2,0:2|3:2,0:2:0:0:
104,288,51528,5,0,0:0:0:0:
132,232,51678,2,2,L|186:240,1,50,2|2,0:2|3:2,0:2:0:0:
340,268,52128,1,0,0:0:0:0:
308,320,52278,2,2,L|258:325,1,50,2|2,0:2|3:2,0:2:0:0:
208,172,52728,1,0,0:0:0:0:
324,92,53028,2,2,L|340:168,1,50,2|2,0:2|3:2,0:2:0:0:
328,200,53328,2,2,L|308:252,1,50,2|2,0:2|3:2,0:2:0:0:
264,288,53628,2,2,L|212:320,1,50,2|2,0:2|3:2,0:2:0:0:
256,192,54228,12,0,57978,0:0:0:0:
84,293,58578,5,8,0:2:0:0:
328,156,59178,1,0,0:2:0:0:
453,170,59478,1,0,3:0:0:0:
475,225,59628,1,0,3:0:0:0:
461,284,59778,1,8,0:2:0:0:
416,324,59928,2,0,L|344:330,1,50,0|0,3:0|3:0,3:0:0:0:
204,321,60378,5,0,0:2:0:0:
148,301,60528,2,0,L|92:265,1,50,0|0,3:0|3:0,3:0:0:0:
54,143,60978,1,8,0:2:0:0:
186,189,61278,1,0,3:0:0:0:
186,189,61428,1,0,3:0:0:0:
186,189,61578,5,0,0:2:0:0:
224,54,61878,1,0,3:0:0:0:
224,54,62028,1,0,3:0:0:0:
224,54,62178,1,8,0:2:0:0:
360,86,62478,1,0,3:0:0:0:
438,202,62778,1,8,0:2:0:0:
192,336,63378,1,8,0:2:0:0:
465,275,63978,5,2,0:2:0:0:
363,178,64278,1,0,3:0:0:0:
363,178,64428,1,0,3:0:0:0:
363,178,64578,1,8,0:2:0:0:
247,99,64878,6,0,P|203:153|211:211,1,100,0|0,3:0|0:2,0:0:0:0:
235,316,65478,1,0,3:0:0:0:
96,338,65778,1,8,0:2:0:0:
42,208,66078,2,0,L|74:144,1,50,0|0,3:0|3:0,3:0:0:0:
91,109,66378,5,2,0:2:0:0:
222,60,66678,1,0,3:0:0:0:
222,60,66828,1,0,3:0:0:0:
222,60,66978,1,8,0:2:0:0:
328,150,67278,1,0,0:0:0:0:
424,48,67578,1,8,0:2:0:0:
389,325,68178,1,8,0:2:0:0:
50,333,68778,5,0,0:2:0:0:
57,193,69078,1,0,3:0:0:0:
69,133,69228,1,0,3:0:0:0:
101,81,69378,1,8,0:2:0:0:
237,48,69678,1,0,3:0:0:0:
187,178,69978,2,0,L|295:130,1,100,0|0,0:2|3:0,0:0:0:0:
229,287,70578,1,8,0:2:0:0:
426,64,71178,5,0,0:2:0:0:
459,199,71478,1,0,3:0:0:0:
403,223,71628,1,0,3:0:0:0:
343,211,71778,1,8,0:2:0:0:
76,46,72378,1,8,0:2:0:0:
178,348,72978,1,8,0:2:0:0:
417,106,73578,5,0,0:2:0:0:
370,237,73878,1,0,3:0:0:0:
310,229,74028,1,0,3:0:0:0:
274,277,74178,1,8,0:2:0:0:
214,289,74328,6,2,L|154:261,1,50,2|2,3:2|3:2,3:2:0:0:
118,233,74628,2,2,L|90:173,1,50,2|2,3:2|0:2,0:2:0:0:
94,129,74928,1,2,3:2:0:0:
118,73,75078,1,2,3:2:0:0:
255,46,75378,6,2,P|448:195|407:326,1,400,10|2,0:2|0:2,0:2:0:0:
283,341,76878,1,2,0:2:0:0:
164,266,77178,2,2,L|152:202,1,50,2|2,0:2|0:2,0:2:0:0:
366,115,77778,5,8,0:2:0:0:
252,60,78078,1,0,0:2:0:0:
136,84,78378,2,0,L|80:128,1,50
59,216,78828,1,0,3:0:0:0:
144,320,79128,6,2,L|228:320,1,50,2|2,0:2|3:2,0:2:0:0:
136,216,79578,2,2,L|228:216,1,50,2|2,0:2|3:2,0:2:0:0:
244,216,79878,1,0,0:0:0:0:
328,304,80178,1,8,0:2:0:0:
428,236,80478,5,0,0:0:0:0:
428,236,80628,1,0,0:0:0:0:
428,236,80778,1,0,0:2:0:0:
412,116,81078,1,0,0:0:0:0:
412,116,81228,1,0,0:0:0:0:
412,116,81378,1,8,0:2:0:0:
312,52,81678,1,0,0:0:0:0:
340,164,81978,1,0,0:2:0:0:
120,68,82578,5,8,0:2:0:0:
228,212,83028,1,0,0:0:0:0:
228,212,83178,2,0,P|192:264|140:256,1,100,0|0,0:2|3:0,0:0:0:0:
48,219,83778,1,8,0:2:0:0:
62,99,84078,1,0,0:0:0:0:
144,185,84378,1,0,0:2:0:0:
332,324,84978,1,8,0:2:0:0:
228,108,85578,5,0,0:2:0:0:
228,108,85728,2,0,P|276:80|364:116,1,150,0|8,3:0|0:2,0:0:0:0:
408,220,86478,1,0,3:0:0:0:
360,328,86778,1,0,0:2:0:0:
124,292,87378,5,8,0:2:0:0:
36,212,87678,2,0,P|80:180|128:172,1,100,0|0,0:0|0:2,0:0:0:0:
124,171,88128,1,0,3:0:0:0:
152,56,88428,1,0,0:0:0:0:
198,158,88728,2,0,P|239:232|321:257,1,150,0|0,0:0|0:2,0:0:0:0:
314,138,89478,1,0,3:0:0:0:
321,318,89778,1,8,0:2:0:0:
188,312,90078,6,0,P|116:280|100:240,1,100,0|0,3:0|0:2,3:0:0:0:
80,148,90678,2,0,P|88:96|144:60,1,100,0|0,3:0|0:0,3:0:0:0:
240,52,91278,1,0,3:0:0:0:
352,92,91578,1,0,0:2:0:0:
408,96,96678,5,0,3:0:0:0:
436,256,96978,1,8,0:2:0:0:
316,196,97278,1,0,3:0:0:0:
296,56,97578,2,0,P|232:48|200:72,1,100,0|0,0:2|3:0,0:0:0:0:
84,200,98178,1,8,0:2:0:0:
216,244,98478,1,0,0:0:0:0:
204,66,98778,1,0,0:2:0:0:
156,196,99078,1,0,3:0:0:0:
320,128,99378,5,8,0:2:0:0:
280,256,99678,1,0,3:0:0:0:
411,162,99978,1,0,0:2:0:0:
432,206,100128,1,2,0:2:0:0:
427,265,100278,2,2,L|411:317,1,50
280,256,100728,5,0,0:0:0:0:
153,320,101028,2,2,L|177:256,1,50,2|2,3:2|0:2,0:2:0:0:
189,216,101328,2,2,L|193:156,1,50,2|2,3:2|3:2,3:2:0:0:
173,108,101628,2,2,L|145:60,1,50,2|10,3:2|0:2,0:2:0:0:
256,192,102378,12,0,104178,0:0:0:0:
212,112,104778,5,0,0:0:0:0:
336,48,105078,1,0,0:0:0:0:
472,76,105378,1,0,0:0:0:0:
436,124,105528,2,2,L|400:164,1,50,2|2,3:2|0:2,3:2:0:0:
360,204,105828,2,2,L|315:227,1,50,2|2,3:2|0:2,3:2:0:0:
264,256,106128,2,2,L|264:308,2,50,2|2|2,3:2|3:2|0:2,0:2:0:0:
212,228,106578,6,0,L|167:204,1,50,8|0,0:2|3:0,0:0:0:0:
164,64,107028,2,0,L|208:87,1,50,0|8,3:0|0:2,0:0:0:0:
416,64,107628,1,0,0:0:0:0:
292,128,107928,1,0,3:0:0:0:
292,128,108078,1,0,3:0:0:0:
436,236,108378,1,8,0:2:0:0:
296,228,108678,1,0,3:0:0:0:
140,320,108978,6,0,L|95:296,1,50,8|0,0:2|3:0,0:0:0:0:
232,264,109428,2,0,L|187:240,1,50,0|8,3:0|0:2,0:0:0:0:
4,136,110028,1,0,0:0:0:0:
36,272,110328,1,0,3:0:0:0:
36,272,110478,1,0,3:0:0:0:
169,85,110778,1,8,0:2:0:0:
240,192,111078,1,0,3:0:0:0:
339,100,111378,6,0,L|375:136,1,50,8|0,0:2|3:0,0:0:0:0:
505,96,111828,2,0,L|475:136,1,50,0|8,3:0|0:2,0:0:0:0:
425,264,112278,2,0,L|424:207,1,50,0|0,3:0|0:0,0:0:0:0:
272,292,112728,1,2,3:2:0:0:
272,292,112878,1,2,3:2:0:0:
329,67,113178,1,10,0:2:0:0:
140,180,113478,1,2,0:2:0:0:
44,80,113778,6,0,L|64:152,1,50,8|0,0:2|3:0,0:0:0:0:
24,264,114228,2,0,L|56:208,1,50,0|8,3:0|0:2,0:0:0:0:
123,322,114678,1,2,3:2:0:0:
181,335,114828,1,2,3:2:0:0:
239,324,114978,1,2,0:2:0:0:
295,303,115128,2,2,L|352:284,1,50,2|2,3:2|3:2,3:2:0:0:
399,267,115428,1,2,3:2:0:0:
391,148,115728,2,0,L|318:173,1,50,0|0,3:0|3:0,3:0:0:0:
222,208,116178,5,0,0:0:0:0:
176,108,116478,1,2,0:0:0:0:
136,76,116628,1,2,0:0:0:0:
88,64,116778,1,2,0:0:0:0:
68,208,117078,1,0,0:0:0:0:
172,300,117378,1,0,0:0:0:0:
312,312,117678,1,0,0:0:0:0:
416,220,117978,1,0,0:0:0:0:
196,208,118578,5,0,0:0:0:0:
328,252,118878,1,0,0:0:0:0:
304,116,119178,1,0,0:0:0:0:
172,64,119478,2,0,P|96:44|64:68,1,100
124,184,120078,1,0,0:0:0:0:
208,296,120378,1,0,0:0:0:0:
388,80,120978,5,0,0:0:0:0:
258,132,121278,1,0,0:0:0:0:
371,214,121578,1,0,0:0:0:0:
243,271,121878,1,0,0:0:0:0:
131,186,122178,1,0,0:0:0:0:
149,47,122478,1,0,0:0:0:0:
258,132,122778,1,0,0:0:0:0:
108,304,123378,6,2,P|56:272|48:216,1,100
51,96,123978,2,2,P|90:66|139:71,1,100
248,159,124578,2,2,P|212:243|228:255,1,100
270,355,125178,2,2,P|323:281|311:265,1,100
319,154,125778,1,0,0:0:0:0:
