osu file format v14

[General]
AudioFilename: MLP_Halloween_Rocks.mp3
AudioLeadIn: 0
PreviewTime: 19578
Countdown: 0
SampleSet: Soft
StackLeniency: 0.7
Mode: 0
LetterboxInBreaks: 0
WidescreenStoryboard: 0

[Editor]
Bookmarks: 33978,38178,39978,54228,58578,73878,76578
DistanceSpacing: 1
BeatDivisor: 4
GridSize: 4
TimelineZoom: 1

[Metadata]
Title:Halloween Rocks
TitleUnicode:Halloween Rocks
Artist:Oodorato2
ArtistUnicode:オオドラ
Creator:Elirac
Version:Easy
Source:My Little Pony : Friendship Is Magic
Tags:mlp fim vocal splicing nightmare night twilight sparkle rainbow dash pinkie pie rarity fluttershy applejack
BeatmapID:987216
BeatmapSetID:436857

[Difficulty]
HPDrainRate:2
CircleSize:3
OverallDifficulty:2
ApproachRate:3
SliderMultiplier:1.2
SliderTickRate:1

[Events]
//Background and Video events
0,0,"background.jpg",0,0
Video,0,"Halloween Rocks.avi"
//Break Periods
2,39577,47538
2,91778,95538
//Storyboard Layer 0 (Background)
//Storyboard Layer 1 (Fail)
//Storyboard Layer 2 (Pass)
//Storyboard Layer 3 (Foreground)
//Storyboard Sound Samples

[TimingPoints]
978,600,4,2,0,40,1,0
10279,-100,4,1,0,50,0,0
17628,-100,4,1,0,55,0,0
19878,-100,4,1,0,65,0,0
29478,-100,4,1,0,75,0,0
48978,-100,4,1,0,75,0,1
58278,-100,4,1,0,75,0,0
96378,-100,4,1,0,100,0,1
115878,-100,4,2,0,55,0,0
120678,-100,4,2,0,45,0,0
123078,-100,4,2,0,30,0,0

[Colours]
Combo1 : 163,174,96
Combo2 : 0,64,128
Combo3 : 170,170,255
Combo4 : 210,115,45

[HitObjects]
320,56,978,5,0,0:0:0:0:
204,89,1578,1,0,0:0:0:0:
123,177,2178,2,0,P|130:243|171:281,1,120
275,329,3378,5,0,0:0:0:0:
343,230,3978,1,0,0:0:0:0:
439,301,4578,2,0,P|461:235|449:176,1,120
386,86,5778,5,0,0:0:0:0:
269,59,6378,1,0,0:0:0:0:
149,69,6978,2,2,P|168:130|211:166,1,120,2|2,0:2|0:2,0:2:0:0:
318,214,8178,2,2,P|299:275|256:311,1,120,2|2,0:2|0:2,0:2:0:0:
138,324,9378,2,2,P|65:298|31:248,1,120,2|2,0:2|0:2,0:2:0:0:
29,146,10578,6,0,P|62:88|115:58,1,120,0|0,0:2|0:2,0:2:0:0:
143,174,11778,1,0,0:0:0:0:
239,103,12378,1,0,0:2:0:0:
339,37,12978,6,0,P|376:89|374:154,1,120,0|0,0:0|0:2,0:0:0:0:
347,259,14178,1,0,0:0:0:0:
245,323,14778,1,0,0:2:0:0:
127,297,15378,6,2,P|93:252|91:182,1,120,2|2,0:2|0:2,0:2:0:0:
207,208,16578,2,0,P|267:205|316:144,1,120,0|0,0:0|0:2,0:0:0:0:
343,50,17778,2,2,P|284:49|239:88,1,120,2|2,0:2|0:2,0:2:0:0:
223,144,18678,2,2,P|228:203|251:240,2,90,2|2|2,0:2|3:2|0:2,0:2:0:0:
239,86,19878,1,2,3:2:0:0:
279,41,20178,6,0,P|348:35|402:61,1,120,8|0,0:2|0:2,0:0:0:0:
482,134,21378,2,0,P|487:193|451:248,1,120,8|0,0:2|0:2,0:0:0:0:
360,313,22578,5,8,0:2:0:0:
273,229,23178,1,0,0:2:0:0:
324,120,23778,2,0,P|275:73|208:68,1,120,8|0,0:2|0:2,0:0:0:0:
111,102,24978,5,8,0:2:0:0:
49,205,25578,1,0,0:2:0:0:
115,304,26178,2,0,P|174:332|252:323,1,120,8|0,0:2|0:2,0:0:0:0:
195,215,27378,5,0,0:2:0:0:
136,109,27978,1,0,0:2:0:0:
234,40,28578,2,0,P|299:46|355:92,1,120,0|0,0:2|0:0,0:0:0:0:
417,170,29778,5,4,0:0:0:0:
364,277,30378,1,0,0:2:0:0:
256,331,30978,2,0,P|190:339|128:298,1,120,8|0,0:2|0:2,0:0:0:0:
69,221,32178,6,0,P|121:175|184:174,1,120,8|0,0:2|0:2,0:0:0:0:
281,213,33378,1,8,0:2:0:0:
389,162,33978,1,0,0:2:0:0:
311,70,34578,6,0,P|251:38|181:52,1,120,8|0,0:2|0:2,0:0:0:0:
96,102,35778,1,8,0:2:0:0:
67,218,36378,1,0,0:2:0:0:
141,312,36978,5,4,0:0:0:0:
257,341,37578,2,2,P|420:262|369:101,1,360,10|2,0:2|0:2,0:2:0:0:
96,60,48978,5,4,0:0:0:0:
215,70,49578,1,0,0:0:0:0:
334,80,50178,2,0,P|365:138|358:199,1,120,8|0,0:2|0:0,0:0:0:0:
287,285,51378,5,8,0:2:0:0:
189,215,51978,1,0,0:0:0:0:
77,260,52578,2,0,P|44:199|53:140,1,120,8|0,0:2|0:0,0:0:0:0:
79,34,53777,1,8,0:2:0:0:
256,192,54378,12,0,56178,0:0:0:0:
64,101,57378,6,0,P|56:159|85:211,1,120,8|0,0:0|0:0,0:0:0:0:
179,284,58578,5,8,0:2:0:0:
244,183,59178,1,0,0:2:0:0:
315,86,59778,2,0,P|369:124|390:188,1,120,8|0,0:2|0:2,0:0:0:0:
400,292,60978,6,0,P|340:308|272:300,1,120,8|0,0:2|0:2,0:0:0:0:
170,260,62178,1,8,0:2:0:0:
119,151,62778,1,8,0:2:0:0:
157,37,63378,1,8,0:2:0:0:
239,123,63978,6,0,P|306:162|366:148,1,120,8|0,0:2|0:0,0:0:0:0:
458,117,65178,2,0,P|478:192|455:253,1,120,8|0,0:2|0:0,0:0:0:0:
396,328,66378,6,0,P|329:340|267:318,1,120,8|0,0:2|0:0,0:0:0:0:
184,253,67578,1,8,0:2:0:0:
285,188,68178,1,8,0:2:0:0:
376,110,68778,6,0,P|332:60|273:48,1,120,8|0,0:2|0:0,0:0:0:0:
164,73,69978,2,0,P|124:119|119:182,1,120,8|0,0:2|0:0,0:0:0:0:
145,292,71178,6,0,P|207:304|269:289,1,120,8|0,0:2|0:0,0:0:0:0:
368,236,72378,1,8,0:2:0:0:
386,117,72978,1,0,0:0:0:0:
287,49,73578,6,0,P|225:35|163:60,1,120,8|0,0:2|0:2,0:2:0:0:
83,132,74778,1,0,0:2:0:0:
59,249,75378,6,2,P|159:317|274:255,1,240,10|2,0:2|0:2,0:2:0:0:
168,196,77178,1,0,0:2:0:0:
189,77,77778,1,8,0:2:0:0:
306,53,78378,6,0,P|365:66|413:115,1,120,0|8,0:2|0:2,0:0:0:0:
456,215,79578,1,0,0:2:0:0:
390,315,80178,2,0,P|339:332|271:319,1,120,8|0,0:2|0:2,0:0:0:0:
326,213,81378,6,0,P|273:163|202:151,1,120,8|4,0:2|0:2,0:0:0:0:
113,185,82578,2,0,P|127:255|167:293,1,120,8|0,0:2|0:2,0:0:0:0:
272,330,83778,2,0,P|326:315|364:258,1,120,8|0,3:2|3:2,3:0:0:0:
396,149,84978,5,8,0:2:0:0:
299,77,85578,2,10,P|195:47|65:97,1,240,2|2,0:2|0:2,0:2:0:0:
70,209,87378,6,10,P|180:250|294:221,1,240,10|10,0:2|0:2,0:2:0:0:
393,152,89178,1,0,0:2:0:0:
305,70,89778,6,2,P|187:46|88:125,1,240,10|2,0:2|0:2,0:2:0:0:
52,223,91578,1,8,0:2:0:0:
256,72,96978,5,8,0:2:0:0:
351,144,97578,1,0,0:2:0:0:
347,263,98178,1,8,0:2:0:0:
238,313,98778,2,0,P|174:315|108:275,1,120,0|8,0:2|0:2,0:0:0:0:
201,197,99978,5,0,0:2:0:0:
285,111,100578,1,8,0:2:0:0:
404,105,101178,2,0,P|400:171|366:219,1,120,0|8,0:2|0:2,0:0:0:0:
268,276,102378,6,2,P|136:274|83:174,1,240,2|2,0:2|0:2,0:2:0:0:
71,71,104178,1,8,0:2:0:0:
186,105,104778,1,0,0:2:0:0:
232,215,105378,5,8,0:2:0:0:
337,272,105978,1,0,0:2:0:0:
440,211,106578,6,0,P|476:161|457:95,1,120,8|0,0:2|0:2,0:2:0:0:
367,37,107778,2,0,P|307:45|258:82,1,120,8|0,0:2|0:0,0:0:0:0:
351,157,108978,6,0,P|315:213|243:227,1,120,8|0,0:2|0:0,0:0:0:0:
151,262,110178,2,0,P|191:313|247:324,1,120,8|0,0:2|0:0,0:0:0:0:
362,314,111378,6,0,P|416:290|443:228,1,120,8|0,0:2|0:0,0:0:0:0:
433,117,112578,2,2,L|422:48,2,60,10|2|2,0:2|3:2|0:2,0:2:0:0:
441,176,113478,1,2,3:2:0:0:
442,237,113778,6,0,P|415:290|362:314,1,120,8|0,0:2|0:0,0:0:0:0:
242,321,114978,2,0,P|180:314|134:263,1,120,8|0,0:2|0:2,0:2:0:0:
103,161,116178,5,0,0:0:0:0:
190,79,116778,1,0,0:0:0:0:
309,89,117378,1,0,0:0:0:0:
383,182,117978,1,0,0:0:0:0:
287,254,118578,6,0,P|226:275|169:259,1,120
79,188,119778,1,0,0:0:0:0:
164,103,120378,1,0,0:0:0:0:
268,162,120978,6,0,P|327:175|387:153,1,120
320,53,122178,1,0,0:0:0:0:
201,37,122778,1,0,0:0:0:0:
89,80,123378,6,0,P|90:144|135:189,1,120
233,236,124578,1,0,0:0:0:0:
342,187,125178,1,0,0:0:0:0:
390,77,125778,1,0,0:0:0:0:
