osu file format v14

[General]
AudioFilename: audio.mp3
AudioLeadIn: 0
PreviewTime: 70960
Countdown: 0
SampleSet: Soft
StackLeniency: 0.7
Mode: 0
LetterboxInBreaks: 0
WidescreenStoryboard: 0

[Editor]
DistanceSpacing: 0.5
BeatDivisor: 6
GridSize: 32
TimelineZoom: 1.3

[Metadata]
Title:LAST STARDUST
TitleUnicode:LAST STARDUST
Artist:Onsei Project
ArtistUnicode:Onsei Project
Creator:Trynna
Version:Estelar
Source:Fate/stay night [Unlimited Blade Works]
Tags:insert song season 2 portuguese adaptation cover unnoficial Mariana Sayuri Larissa Crispim Nato Vieira ultima poeira Aimer UBW Dawn TYPE-MOON
BeatmapID:1855834
BeatmapSetID:887807

[Difficulty]
HPDrainRate:6
CircleSize:4
OverallDifficulty:8
ApproachRate:8.5
SliderMultiplier:2.2
SliderTickRate:1

[Events]
//Background and Video events
Video,360,"last stardust.mp4"
0,0,"saber is the worst waifu someone could have.jpg",0,0
//Break Periods
2,101550,108727
2,173875,179577
//Storyboard Layer 0 (Background)
//Storyboard Layer 1 (Fail)
//Storyboard Layer 2 (Pass)
//Storyboard Layer 3 (Foreground)
//Storyboard Sound Samples

[TimingPoints]
9855,737.707941425989,4,2,1,30,1,0
15018,-100,4,2,1,45,0,0
15756,-71.4285714285714,4,2,1,60,0,0
26822,-100,4,2,1,30,0,0
27559,-90.9090909090909,4,2,1,40,0,0
51165,-90.9090909090909,4,2,1,50,0,0
62969,-133.333333333333,4,2,1,40,0,0
65920,-105.263157894737,4,2,1,60,0,0
69117,-79.9999999999999,4,2,1,60,0,0
69240,-79.9999999999999,4,2,1,5,0,0
69362,-79.9999999999999,4,2,1,60,0,0
69485,-79.9999999999999,4,2,1,5,0,0
69608,-79.9999999999999,4,2,1,60,0,0
69731,-79.9999999999999,4,2,1,5,0,0
69854,-79.9999999999999,4,2,1,60,0,0
69977,-79.9999999999999,4,2,1,5,0,0
70100,-79.9999999999999,4,2,1,60,0,0
70223,-79.9999999999999,4,2,1,5,0,0
70347,-133.333333333333,4,2,1,60,0,0
71842,737.707941425989,4,2,1,80,1,1
71842,-68.9655172413792,4,2,1,80,0,1
95449,-100,4,2,1,50,0,1
98399,-133.333333333333,4,2,1,60,0,0
101350,-133.333333333333,4,2,1,30,0,0
110203,-100,4,2,1,40,0,0
122006,-90.9090909090909,4,2,1,50,0,0
132836,737.707941425989,4,2,1,60,1,0
132836,-90.9090909090909,4,2,1,60,0,0
133819,737.707941425989,4,2,1,60,1,0
133819,-90.9090909090909,4,2,1,40,0,0
136769,-90.9090909090909,4,2,1,60,0,0
139967,-79.9999999999999,4,2,1,60,0,0
140090,-79.9999999999999,4,2,1,5,0,0
140212,-79.9999999999999,4,2,1,60,0,0
140335,-79.9999999999999,4,2,1,5,0,0
140458,-79.9999999999999,4,2,1,60,0,0
140581,-79.9999999999999,4,2,1,5,0,0
140704,-79.9999999999999,4,2,1,60,0,0
140827,-79.9999999999999,4,2,1,5,0,0
140950,-79.9999999999999,4,2,1,60,0,0
141073,-79.9999999999999,4,2,1,5,0,0
141197,-133.333333333333,4,2,1,60,0,0
142692,737.707941425989,4,2,1,80,1,1
142692,-68.9655172413792,4,2,1,80,0,1
166299,-100,4,2,1,50,0,1
169249,-133.333333333333,4,2,1,60,0,0
173675,-133.333333333333,4,2,1,30,0,0
181052,-111.111111111111,4,2,1,40,0,0
192856,-100,4,2,1,40,0,0
204659,-90.9090909090909,4,2,1,60,0,0
228266,-83.3333333333333,4,2,1,70,0,0
231231,737.707941425989,4,2,1,60,1,0
231231,-83.3333333333333,4,2,1,50,0,0
234422,-79.9999999999999,4,2,1,60,0,0
234546,-79.9999999999999,4,2,1,5,0,0
234669,-79.9999999999999,4,2,1,60,0,0
234792,-79.9999999999999,4,2,1,5,0,0
234915,-79.9999999999999,4,2,1,60,0,0
235038,-79.9999999999999,4,2,1,5,0,0
235161,-79.9999999999999,4,2,1,60,0,0
235284,-79.9999999999999,4,2,1,5,0,0
235407,-79.9999999999999,4,2,1,60,0,0
235530,-79.9999999999999,4,2,1,5,0,0
235652,-133.333333333333,4,2,1,60,0,0
237142,737.707941425989,4,2,1,80,1,1
237142,-68.9655172413792,4,2,1,80,0,1
260010,-68.9655172413792,4,2,1,80,0,0
260748,-68.9655172413792,4,2,1,80,0,1
284365,737.707941425989,4,2,1,50,1,1
284365,-100,4,2,1,50,0,1
287325,737.707941425989,4,2,1,60,1,0
287325,-79.9999999999999,4,2,1,60,0,0
287448,-79.9999999999999,4,2,1,5,0,0
287570,-79.9999999999999,4,2,1,60,0,0
287693,-79.9999999999999,4,2,1,5,0,0
287816,-79.9999999999999,4,2,1,60,0,0
287939,-79.9999999999999,4,2,1,5,0,0
288062,-79.9999999999999,4,2,1,60,0,0
288185,-79.9999999999999,4,2,1,5,0,0
288308,-79.9999999999999,4,2,1,60,0,0
288431,-79.9999999999999,4,2,1,5,0,0
288554,-79.9999999999999,4,2,1,60,0,0
288677,-79.9999999999999,4,2,1,5,0,0
288800,-79.9999999999999,4,2,1,60,0,0
290275,-79.9999999999999,4,2,1,60,0,0
290398,-79.9999999999999,4,2,1,5,0,0
290521,-79.9999999999999,4,2,1,60,0,0
290644,-79.9999999999999,4,2,1,5,0,0
290767,-79.9999999999999,4,2,1,60,0,0
290890,-79.9999999999999,4,2,1,5,0,0
291013,-79.9999999999999,4,2,1,60,0,0
295668,737.707941425989,4,2,1,60,1,0
295668,-79.9999999999999,4,2,1,60,0,0
296159,-79.9999999999999,4,2,1,60,0,0
296282,-79.9999999999999,4,2,1,5,0,0
296404,-79.9999999999999,4,2,1,60,0,0
296527,-79.9999999999999,4,2,1,5,0,0
296650,-79.9999999999999,4,2,1,60,0,0
296773,-79.9999999999999,4,2,1,5,0,0
296896,-79.9999999999999,4,2,1,60,0,0
297019,-79.9999999999999,4,2,1,5,0,0
297142,-79.9999999999999,4,2,1,60,0,0
297265,-79.9999999999999,4,2,1,5,0,0
297388,-79.9999999999999,4,2,1,60,0,0
297511,-79.9999999999999,4,2,1,5,0,0
297634,-79.9999999999999,4,2,1,60,0,0
299109,-79.9999999999999,4,2,1,60,0,0
299232,-79.9999999999999,4,2,1,5,0,0
299355,-79.9999999999999,4,2,1,60,0,0
299478,-79.9999999999999,4,2,1,5,0,0
299601,-79.9999999999999,4,2,1,60,0,0
299724,-79.9999999999999,4,2,1,5,0,0
299847,-79.9999999999999,4,2,1,60,0,0
307962,-79.9999999999999,4,2,1,30,0,0

[Colours]
Combo1 : 149,156,247
Combo2 : 219,152,248
Combo3 : 142,196,249
Combo4 : 252,141,230

[HitObjects]
153,304,9855,6,0,P|118:315|81:316,2,73.3333333333333,2|2|2,0:0|0:0|0:0,0:0:0:0:
158,217,10592,2,0,P|222:245|239:313,1,146.666666666667,2|0,0:0|0:0,0:0:0:0:
316,358,11330,1,2,0:0:0:0:
332,249,11576,2,0,L|340:176,1,73.3333333333333,2|0,0:0|0:0,0:0:0:0:
393,313,12068,1,2,0:0:0:0:
365,160,12314,2,0,L|356:87,1,73.3333333333333,2|0,0:0|0:0,0:0:0:0:
432,23,12805,6,0,P|466:33|491:59,2,73.3333333333333,2|2|2,0:0|0:0|0:0,0:0:0:0:
274,47,13543,1,2,0:0:0:0:
264,34,13789,1,0,0:0:0:0:
284,31,14035,1,0,0:0:0:0:
255,122,14281,1,2,0:0:0:0:
191,78,14527,1,0,0:0:0:0:
190,0,14773,1,0,0:0:0:0:
172,162,15018,5,0,1:0:0:0:
56,247,15264,1,2,3:0:0:0:
257,324,15510,1,8,1:3:0:0:
89,348,15756,6,0,P|83:241|70:143,1,205.333327067058,4|0,0:0|0:0,0:0:0:0:
41,43,16494,1,0,1:0:0:0:
172,162,16740,1,2,0:0:0:0:
172,162,16863,1,2,0:0:0:0:
172,162,16986,1,2,0:0:0:0:
243,1,17232,2,0,L|232:105,1,102.666663533529,0|0,3:0|0:0,0:0:0:0:
282,251,17723,1,0,0:0:0:0:
479,116,17969,2,0,B|395:106|422:170|336:155,1,153.999995300293,0|0,1:0|0:0,0:0:0:0:
320,171,18461,2,0,P|315:146|313:121,1,51.3333317667644,2|2,0:0|0:0,0:0:0:0:
470,209,18707,6,0,L|460:334,1,102.666663533529,0|0,3:0|0:0,0:0:0:0:
376,360,19199,1,0,0:0:0:0:
240,273,19445,1,0,1:0:0:0:
142,281,19691,1,2,0:0:0:0:
95,362,19937,1,2,0:0:0:0:
194,362,20182,1,0,3:0:0:0:
98,203,20428,1,0,0:0:0:0:
219,370,20674,1,0,0:0:0:0:
221,184,20920,2,0,P|224:105|239:14,1,153.999995300293,0|0,1:0|0:0,0:0:0:0:
119,66,21412,1,2,0:0:0:0:
89,78,21535,1,2,0:0:0:0:
57,86,21658,6,0,P|70:139|72:201,1,102.666663533529,4|0,0:0|0:0,0:0:0:0:
38,288,22150,1,0,0:0:0:0:
155,358,22396,1,0,1:0:0:0:
231,300,22641,1,2,0:0:0:0:
231,300,22764,1,2,0:0:0:0:
231,300,22887,1,2,0:0:0:0:
353,373,23133,2,0,P|339:323|334:272,1,102.666663533529,0|0,3:0|0:0,0:0:0:0:
387,163,23625,1,0,0:0:0:0:
452,237,23871,2,0,P|484:169|460:98,1,153.999995300293,0|0,1:0|0:0,0:0:0:0:
400,29,24363,1,2,0:0:0:0:
369,32,24486,1,2,0:0:0:0:
338,35,24609,6,0,L|233:19,1,102.666663533529,4|0,0:0|0:0,0:0:0:0:
167,85,24978,2,0,L|108:98,2,51.3333317667644,0|0|0,0:0|0:0|0:0,0:0:0:0:
255,147,25346,5,0,1:0:0:0:
122,10,25592,1,0,0:0:0:0:
65,200,25838,1,0,0:0:0:0:
279,165,26084,5,0,1:0:0:0:
52,222,26330,1,0,0:0:0:0:
146,112,26576,1,0,0:0:0:0:
190,282,26822,6,0,P|201:316|206:353,2,73.3333333333333,2|2|2,0:0|0:0|0:0,0:0:0:0:
296,306,27559,6,0,B|385:288|359:360|446:339,1,161.333338256836,4|2,0:0|0:0,0:0:0:0:
454,174,28297,2,0,P|437:223|428:255,1,80.6666691284181,0|2,1:2|0:0,0:0:0:0:
369,117,28789,1,2,0:2:0:0:
448,62,29035,2,0,B|413:44|383:14|383:14|350:39|309:43,1,161.333338256836,2|2,3:2|0:0,0:0:0:0:
214,96,29773,1,0,1:0:0:0:
214,96,30019,5,2,0:0:0:0:
180,180,30264,1,2,0:0:0:0:
121,111,30510,2,0,P|140:35|212:7,1,161.333338256836,2|2,3:2|0:0,0:0:0:0:
269,164,31248,2,0,P|306:171|353:172,1,80.6666691284181,0|2,1:2|0:0,0:0:0:0:
425,123,31740,1,2,0:0:0:0:
479,274,31986,2,0,B|426:289|426:289|390:325|390:325|332:342,1,161.333338256836,2|2,3:2|0:0,0:0:0:0:
476,370,32723,1,0,1:0:0:0:
338,250,32969,5,2,0:0:0:0:
255,301,33215,1,2,0:0:0:0:
208,191,33461,2,0,B|192:129|192:129|217:35,1,161.333338256836,2|2,3:2|0:0,0:0:0:0:
290,134,34199,2,0,P|353:130|391:135,1,80.6666691284181,0|2,1:2|0:0,0:0:0:0:
117,69,34691,1,2,0:0:0:0:
60,139,34937,2,0,P|28:102|58:2,1,161.333338256836,2|2,3:2|0:0,0:0:0:0:
76,157,35674,1,0,1:0:0:0:
25,234,35920,6,0,L|34:324,1,80.6666691284181,2|2,0:0|0:0,0:0:0:0:
154,213,36412,2,0,B|242:199|217:263|305:247,1,161.333338256836,2|0,3:2|0:0,0:0:0:0:
180,296,37150,2,0,P|166:341|168:374,1,80.6666691284181,0|2,1:2|0:0,0:0:0:0:
284,166,37642,1,2,0:0:0:0:
326,283,37887,2,0,L|495:264,1,161.333338256836,0|2,3:2|0:0,0:0:0:0:
486,264,38501,1,2,0:0:0:0:
486,264,38625,5,0,1:0:0:0:
394,178,38871,1,2,0:0:0:0:
478,93,39117,1,2,0:0:0:0:
478,93,39240,1,2,0:0:0:0:
478,93,39363,2,0,P|413:87|387:-8,1,161.333338256836,2|2,3:2|0:0,0:0:0:0:
273,76,40101,2,0,P|227:94|202:133,1,80.6666691284181,0|2,1:0|0:0,0:0:0:0:
282,161,40592,1,2,0:0:0:0:
128,207,40838,2,0,P|124:126|111:46,1,161.333338256836,2|2,3:2|0:0,0:0:0:0:
33,134,41576,1,0,1:0:0:0:
210,259,41822,5,2,0:0:0:0:
78,285,42068,1,2,0:0:0:0:
202,350,42314,2,0,P|241:344|276:324,1,80.6666691284181,2|0,3:2|0:0,0:0:0:0:
279,191,42805,2,0,P|244:170|204:165,1,80.6666691284181,2|0,0:0|1:0,0:0:0:0:
351,259,43297,1,2,0:0:0:0:
431,191,43543,1,2,0:0:0:0:
452,359,43789,2,0,B|446:308|446:308|459:257|459:257|452:199,1,161.333338256836,2|2,3:2|0:0,0:0:0:0:
481,98,44527,1,0,1:0:0:0:
299,41,44773,5,2,0:0:0:0:
226,102,45019,1,2,0:0:0:0:
325,171,45264,2,0,L|331:257,1,80.6666691284181,2|0,3:2|0:0,0:0:0:0:
374,340,45756,2,0,P|335:351|297:342,1,80.6666691284181,2|0,0:0|1:0,0:0:0:0:
179,280,46248,1,2,0:2:0:0:
90,340,46494,1,2,0:0:0:0:
0,273,46740,2,0,P|8:200|10:100,1,161.333338256836,2|2,3:2|0:0,0:0:0:0:
52,30,47478,1,0,1:0:0:0:
145,132,47724,5,2,0:0:0:0:
225,74,47969,1,2,0:2:0:0:
321,115,48215,2,0,B|383:133|383:133|473:99,1,161.333338256836,2|2,3:2|0:2,0:0:0:0:
375,34,48953,1,0,1:0:0:0:
395,220,49199,2,0,L|404:319,1,80.6666691284181,2|2,0:0|0:0,0:0:0:0:
415,383,49691,1,0,3:0:0:0:
330,346,49937,5,2,0:0:0:0:
483,254,50183,1,2,0:0:0:0:
303,189,50428,2,0,P|263:195|225:210,1,80.6666691284181,0|2,1:0|0:0,0:0:0:0:
151,272,50920,1,2,0:0:0:0:
117,138,51166,6,0,L|130:299,1,161.333338256836,6|0,0:0|0:0,0:0:0:0:
76,373,51904,1,0,1:0:0:0:
58,358,52396,1,2,0:0:0:0:
205,364,52642,2,0,B|297:375|269:318|357:329,1,161.333338256836,2|0,3:2|0:0,0:0:0:0:
463,338,53379,1,0,1:0:0:0:
460,317,53625,1,0,0:0:0:0:
481,325,53871,1,2,0:0:0:0:
397,212,54117,6,0,P|413:133|414:52,1,161.333338256836,2|0,3:2|0:0,0:0:0:0:
310,7,54855,1,0,1:0:0:0:
293,22,55346,1,2,0:0:0:0:
210,94,55592,2,0,B|153:97|153:97|109:75|109:75|53:76,1,161.333338256836,2|0,3:2|0:0,0:0:0:0:
89,164,56330,2,0,L|65:255,1,80.6666691284181,0|0,1:2|0:0,0:0:0:0:
98,325,56822,1,2,0:0:0:0:
194,227,57068,6,0,P|231:240|254:272,1,80.6666691284181,2|0,3:2|0:0,0:0:0:0:
350,339,57560,2,0,P|342:299|359:263,1,80.6666691284181,2|0,0:2|1:0,0:0:0:0:
368,147,58051,2,0,P|337:172|298:176,1,80.6666691284181,2|0,0:2|0:0,0:0:0:0:
194,227,58543,6,0,P|186:187|203:151,1,80.6666691284181,2|0,3:2|0:0,0:0:0:0:
368,147,59035,2,0,P|405:160|428:192,1,80.6666691284181,2|0,0:0|1:0,0:0:0:0:
350,339,59527,2,0,P|319:364|280:368,1,80.6666691284181,2|0,0:0|0:0,0:0:0:0:
305,237,60019,6,0,P|284:161|276:61,1,161.333338256836,2|0,3:2|0:0,0:0:0:0:
325,6,60756,1,0,1:0:0:0:
346,16,61248,1,2,0:0:0:0:
190,93,61494,2,0,P|128:80|81:79,1,80.6666691284181,2|0,3:2|0:0,0:0:0:0:
30,118,61986,1,0,0:0:0:0:
145,228,62232,5,0,1:0:0:0:
130,179,62478,1,0,0:0:0:0:
90,213,62724,1,0,0:3:0:0:
118,317,62969,6,0,P|172:314|215:282,1,110.000004196167,6|0,0:2|0:0,0:0:0:0:
279,212,63707,2,0,P|333:214|376:246,1,110.000004196167,2|0,3:2|0:0,0:0:0:0:
472,287,64445,2,0,L|467:159,1,110.000004196167,2|0,3:2|0:0,0:0:0:0:
410,75,65183,1,6,0:2:0:0:
314,106,65428,1,0,3:0:0:0:
242,36,65674,1,0,3:0:0:0:
337,4,65920,5,2,1:2:0:0:
295,190,66166,1,0,3:0:0:0:
131,140,66412,1,0,3:0:0:0:
25,191,66658,5,2,1:2:0:0:
50,16,66904,1,0,3:0:0:0:
109,240,67150,1,0,3:0:0:0:
222,181,67396,5,2,1:2:0:0:
326,257,67642,1,0,3:0:0:0:
334,128,67888,1,0,3:0:0:0:
217,316,68133,5,2,1:2:0:0:
233,58,68379,1,0,3:0:0:0:
441,210,68625,1,2,1:2:0:0:
455,232,69117,6,0,L|371:222,1,45.8333333333333,8|0,0:3|0:0,0:0:0:0:
173,156,69363,2,0,L|257:146,1,45.8333333333333,8|0,0:3|0:0,0:0:0:0:
385,66,69609,2,0,L|366:123,1,45.8333333333333,8|0,0:3|0:0,0:0:0:0:
273,301,69855,2,0,L|258:257,1,45.8333333333333,8|0,0:3|0:0,0:0:0:0:
105,60,70101,2,0,L|86:117,1,45.8333333333333,8|0,0:3|0:0,0:0:0:0:
14,207,70347,6,0,P|56:239|110:239,1,110.000004196167,0|0,3:0|0:0,0:0:0:0:
173,312,71084,5,8,3:3:0:0:
195,193,71330,1,8,3:3:0:0:
217,74,71576,1,8,3:3:0:0:
279,268,71842,6,0,B|351:275|420:297|420:297|447:271|436:235,1,212.666673156739,6|0,0:0|0:0,0:0:0:0:
496,162,72579,1,0,1:0:0:0:
346,34,72825,2,0,P|346:87|350:140,1,106.333336578369,2|2,0:0|0:0,0:0:0:0:
279,268,73317,2,0,P|215:286|223:177,1,212.666673156739,2|0,3:2|0:0,0:0:0:0:
139,346,74055,1,0,1:0:0:0:
139,346,74301,5,2,0:2:0:0:
79,243,74547,1,2,0:2:0:0:
126,130,74793,2,0,B|172:110|204:62|204:62|240:107|292:119,1,212.666673156739,2|2,3:2|0:2,0:0:0:0:
438,92,75531,5,2,1:2:0:0:
422,76,75776,5,2,0:2:0:0:
444,67,76022,5,2,0:2:0:0:
459,179,76268,6,0,B|371:199|402:126|312:141,1,159.500004867554,2|0,3:2|0:0,0:0:0:0:
292,119,76760,2,0,P|277:176|277:197,1,53.1666682891846,2|2,0:0|0:0,0:0:0:0:
339,308,77005,5,0,1:0:0:0:
181,267,77251,1,2,0:2:0:0:
154,271,77374,1,2,0:2:0:0:
129,280,77497,1,2,0:2:0:0:
107,295,77620,1,2,0:2:0:0:
89,315,77743,6,0,P|92:261|71:90,1,212.666673156739,6|0,0:2|0:2,0:0:0:0:
189,158,78481,1,0,1:0:0:0:
284,42,78727,2,0,P|349:52|401:51,1,106.333336578369,2|2,0:2|0:2,0:0:0:0:
470,230,79219,2,0,B|472:182|439:141|439:141|496:102|489:42,1,212.666673156739,2|0,3:2|0:0,0:0:0:0:
378,209,79956,5,2,1:2:0:0:
492,314,80202,1,2,0:2:0:0:
334,361,80448,1,2,0:2:0:0:
294,251,80694,6,0,P|311:151|408:124,1,212.666673156739,2|2,3:2|0:0,0:0:0:0:
276,269,81432,2,0,P|225:246|173:241,1,106.333336578369,0|2,1:0|0:2,0:0:0:0:
78,291,81924,1,2,0:2:0:0:
168,358,82170,1,0,3:0:0:0:
185,151,82416,2,0,L|197:36,1,106.333336578369,0|0,1:0|0:0,0:0:0:0:
103,93,82908,5,2,1:2:0:0:
282,81,83153,1,2,3:2:0:0:
83,111,83399,1,2,3:2:0:0:
320,3,83645,6,0,P|362:34|370:85,1,106.333336578369,6|0,0:0|0:0,0:0:0:0:
349,187,84137,1,0,0:0:0:0:
486,58,84383,2,0,P|471:121|446:282,1,212.666673156739,0|0,1:0|0:0,0:0:0:0:
368,358,85121,2,0,P|298:323|338:214,1,212.666673156739,2|2,3:2|0:2,0:0:0:0:
209,341,85858,5,0,1:2:0:0:
136,274,86104,1,2,0:2:0:0:
136,274,86227,1,2,0:2:0:0:
136,274,86350,1,2,0:2:0:0:
22,343,86596,6,0,B|10:269|10:269|27:211|27:211|18:134,1,212.666673156739,2|0,3:2|0:2,0:0:0:0:
157,52,87334,2,0,P|137:101|129:153,1,106.333336578369,0|0,1:0|0:2,0:0:0:0:
76,16,87826,1,2,0:2:0:0:
242,91,88072,2,0,B|356:105|319:38|452:51,1,212.666673156739,2|2,3:2|0:2,0:0:0:0:
290,185,88809,5,0,1:0:0:0:
235,269,89055,1,2,3:2:0:0:
292,358,89301,1,2,3:2:0:0:
351,269,89547,2,0,P|453:272|504:360,1,212.666673156739,6|0,0:2|0:0,0:0:0:0:
468,241,90285,6,0,L|479:122,1,106.333336578369,0|2,1:0|3:2,0:0:0:0:
421,47,90776,1,2,3:2:0:0:
321,142,91022,2,0,P|242:143|162:121,1,159.500004867554,6|0,0:0|0:0,0:0:0:0:
146,108,91514,1,0,0:0:0:0:
255,36,91760,5,6,0:2:0:0:
233,245,92006,1,0,0:0:0:0:
51,214,92252,1,0,0:0:0:0:
127,292,92498,5,6,0:2:0:0:
117,68,92744,1,0,3:0:0:0:
101,53,92990,1,0,3:0:0:0:
245,354,93235,5,2,1:2:0:0:
255,130,93481,1,0,3:0:0:0:
271,115,93727,1,0,3:0:0:0:
441,290,93973,5,2,1:2:0:0:
277,244,94219,1,0,3:0:0:0:
499,160,94465,1,0,3:0:0:0:
391,28,94711,6,0,L|400:133,2,106.333336578369,2|0|0,1:2|3:0|3:0,0:0:0:0:
321,190,95449,6,0,B|204:218|233:131|112:158,1,220,6|2,0:2|0:2,0:0:0:0:
154,257,96432,1,2,0:2:0:0:
154,257,96678,1,2,0:2:0:0:
241,289,96924,2,0,B|339:315|339:315|358:296|354:274,1,146.666666666667,6|0,0:2|0:0,0:0:0:0:
324,173,97662,2,0,P|425:198|452:299,1,220,2|6,0:2|0:2,0:0:0:0:
256,192,98522,12,2,101350,0:0:0:0:
258,192,109465,5,2,0:0:0:0:
258,192,109711,1,2,0:0:0:0:
258,192,109957,1,2,0:0:0:0:
337,106,110203,6,0,P|263:100|191:86,1,146.666666666667,6|2,0:0|0:0,0:0:0:0:
109,32,110940,2,0,P|43:58|22:126,1,146.666666666667,0|2,1:0|0:0,0:0:0:0:
77,202,111678,2,0,L|60:354,1,146.666666666667,2|2,3:2|0:2,0:0:0:0:
153,311,112416,1,0,1:2:0:0:
267,354,112661,6,0,P|289:325|321:307,1,73.3333333333333,2|0,0:0|0:0,0:0:0:0:
409,351,113154,2,0,P|415:279|365:228,1,146.666666666667,2|2,3:2|0:0,0:0:0:0:
423,151,113891,2,0,P|425:114|438:81,1,73.3333333333333,0|0,1:0|0:0,0:0:0:0:
512,39,114383,1,2,0:0:0:0:
391,12,114629,2,0,B|340:15|340:15|296:34|296:34|248:35,1,146.666666666667,2|2,3:2|0:0,0:0:0:0:
182,129,115366,5,0,0:0:0:0:
80,119,115612,2,0,P|51:96|36:63,1,73.3333333333333,2|0,0:0|0:0,0:0:0:0:
121,205,116104,2,0,L|109:371,1,146.666666666667,2|2,3:2|0:0,0:0:0:0:
207,292,116842,2,0,P|254:279|294:272,2,73.3333333333333,0|2|0,1:2|0:0|0:0,0:0:0:0:
223,187,117580,2,0,B|199:134|199:134|216:47,1,146.666666666667,2|2,3:2|0:0,0:0:0:0:
296,122,118318,1,0,1:0:0:0:
439,57,118563,6,0,P|457:88|461:124,1,73.3333333333333,2|0,0:0|0:0,0:0:0:0:
409,197,119055,2,0,P|395:269|408:341,1,146.666666666667,2|2,3:2|0:0,0:0:0:0:
302,269,119793,2,0,L|228:274,1,73.3333333333333,0|2,1:0|0:0,0:0:0:0:
160,331,120285,1,2,0:0:0:0:
93,221,120531,2,0,P|90:160|78:75,1,146.666666666667,0|2,3:0|0:2,0:0:0:0:
78,75,121268,5,2,1:2:0:0:
172,36,121514,1,2,0:2:0:0:
269,81,121760,1,2,0:2:0:0:
382,3,122006,6,0,P|388:82|398:163,1,161.333338256836,6|0,0:0|0:0,0:0:0:0:
435,268,122744,1,0,1:0:0:0:
452,287,123236,1,2,0:0:0:0:
347,357,123482,2,0,B|257:373|285:313|195:319,1,161.333338256836,2|0,3:2|0:0,0:0:0:0:
89,355,124219,1,0,1:0:0:0:
96,336,124465,1,0,3:0:0:0:
114,352,124711,1,2,0:2:0:0:
57,241,124957,6,0,B|49:183|49:183|62:137|62:137|57:83,1,161.333338256836,2|0,3:2|0:0,0:0:0:0:
178,2,125695,1,0,1:0:0:0:
163,93,125941,1,0,3:0:0:0:
163,93,126063,1,0,3:0:0:0:
163,93,126186,1,0,3:0:0:0:
230,183,126432,2,0,B|316:161,1,80.6666691284181,2|0,3:2|0:0,0:0:0:0:
326,179,127170,1,0,1:0:0:0:
349,54,127416,1,0,3:0:0:0:
349,54,127539,1,0,3:0:0:0:
349,54,127662,1,0,3:0:0:0:
393,236,127908,6,0,P|362:260|323:268,1,80.6666691284181,2|0,3:2|0:0,0:0:0:0:
300,358,128400,2,0,P|262:343|236:312,1,80.6666691284181,2|0,0:0|1:0,0:0:0:0:
147,337,128891,2,0,P|141:297|154:259,1,80.6666691284181,2|0,0:0|0:0,0:0:0:0:
262,124,129383,6,0,L|247:30,1,80.6666691284181,2|0,3:2|0:0,0:0:0:0:
163,93,129875,2,0,L|74:58,1,80.6666691284181,2|0,0:0|1:0,0:0:0:0:
86,163,130367,2,0,L|12:222,1,80.6666691284181,2|0,3:2|0:0,0:0:0:0:
199,188,130859,6,0,P|271:216|338:177,1,161.333338256836,2|0,3:2|0:0,0:0:0:0:
350,162,131473,1,0,1:0:0:0:
350,162,131596,1,0,1:0:0:0:
421,247,131842,1,0,0:0:0:0:
445,88,132088,1,2,0:0:0:0:
440,262,132334,2,0,L|450:358,1,80.6666691284181,2|0,3:2|0:0,0:0:0:0:
310,315,132836,1,0,1:0:0:0:
310,315,132958,1,0,1:0:0:0:
310,315,133081,2,0,L|204:324,1,80.6666691284181,0|0,1:0|3:0,0:0:0:0:
129,331,133573,1,0,3:0:0:0:
260,231,133819,6,0,P|231:155|224:75,1,161.333338256836,6|0,0:2|0:0,0:0:0:0:
317,101,134557,2,0,P|375:107|327:165,1,161.333338256836,2|0,3:2|0:0,0:0:0:0:
153,23,135294,2,0,B|57:20|96:80|10:84,1,161.333338256836,2|0,3:2|0:0,0:0:0:0:
11,84,135910,1,0,0:0:0:0:
11,84,136033,1,2,1:2:0:0:
42,177,136278,1,0,3:0:0:0:
69,270,136524,1,0,3:0:0:0:
7,361,136770,5,2,1:2:0:0:
172,258,137016,1,0,3:0:0:0:
259,371,137262,1,0,3:0:0:0:
397,212,137508,5,2,1:2:0:0:
266,278,137754,1,0,3:0:0:0:
264,116,138000,1,0,3:0:0:0:
431,306,138246,5,2,1:2:0:0:
504,227,138492,1,0,3:0:0:0:
455,129,138737,1,0,3:0:0:0:
167,196,138983,5,2,1:2:0:0:
263,27,139229,1,0,3:0:0:0:
374,190,139475,1,2,1:2:0:0:
107,139,139967,6,0,L|48:148,1,45.8333333333333,8|0,0:3|0:0,0:0:0:0:
144,246,140213,2,0,L|85:237,1,45.8333333333333,8|0,0:3|0:0,0:0:0:0:
218,73,140459,2,0,L|159:82,1,45.8333333333333,8|0,0:3|0:0,0:0:0:0:
258,313,140705,2,0,L|199:304,1,45.8333333333333,8|0,0:3|0:0,0:0:0:0:
352,192,140951,2,0,L|301:193,1,45.8333333333333,8|0,0:3|0:0,0:0:0:0:
445,246,141197,6,0,P|464:195|448:144,1,110.000004196167,0|0,3:0|0:0,0:0:0:0:
499,55,141934,5,8,3:3:0:0:
378,61,142180,1,8,3:3:0:0:
257,68,142426,1,8,3:3:0:0:
187,224,142692,6,0,B|212:100|128:143|160:20,1,212.666673156739,6|0,0:0|0:0,0:0:0:0:
99,186,143429,1,0,1:0:0:0:
11,126,143676,2,0,P|20:70|25:14,1,106.333336578369,2|2,0:0|0:0,0:0:0:0:
0,240,144167,2,0,P|60:320|158:301,1,212.666673156739,2|0,3:2|0:0,0:0:0:0:
259,360,144905,1,0,1:0:0:0:
259,360,145151,5,2,0:0:0:0:
292,218,145397,1,2,0:0:0:0:
418,308,145642,2,0,B|452:234|452:234|423:105,1,212.666673156739,2|2,3:2|0:0,0:0:0:0:
327,33,146380,1,0,1:0:0:0:
492,20,146626,1,2,0:2:0:0:
492,20,146749,1,2,0:2:0:0:
492,20,146872,1,2,0:2:0:0:
313,60,147118,2,0,B|237:65|237:65|181:38|181:38|106:43,1,212.666673156739,2|0,3:2|0:0,0:0:0:0:
0,135,147855,5,0,1:0:0:0:
137,216,148101,1,2,0:2:0:0:
161,244,148224,1,2,0:2:0:0:
174,278,148347,1,2,0:2:0:0:
170,315,148470,1,2,0:2:0:0:
147,345,148593,6,0,P|252:329|357:344,1,212.666673156739,6|0,0:2|0:2,0:0:0:0:
477,193,149331,1,0,1:0:0:0:
376,236,149577,1,2,0:2:0:0:
311,87,149823,1,2,0:2:0:0:
260,195,150069,2,0,B|148:227|173:136|57:168,1,212.666673156739,2|0,3:2|0:0,0:0:0:0:
225,82,150806,6,0,P|243:32|286:3,1,106.333336578369,0|2,1:0|0:0,0:0:0:0:
395,52,151298,1,2,0:0:0:0:
433,237,151544,6,0,B|411:161|411:161|429:107|429:107|409:32,1,212.666673156739,2|2,3:2|0:0,0:0:0:0:
418,260,152282,2,0,P|366:252|313:253,1,106.333336578369,0|2,1:0|0:2,0:0:0:0:
229,310,152774,1,2,0:2:0:0:
96,227,153019,1,2,3:2:0:0:
57,316,153265,2,0,L|39:157,1,159.500004867554,0|0,1:0|0:0,0:0:0:0:
24,138,153757,5,2,1:2:0:0:
187,106,154003,1,2,3:2:0:0:
8,119,154249,1,2,3:2:0:0:
154,6,154495,6,0,B|229:17|229:17|278:51|278:51|354:61,1,212.666673156739,6|0,0:0|0:0,0:0:0:0:
435,178,155233,2,0,L|420:297,1,106.333336578369,0|2,1:0|0:0,0:0:0:0:
510,124,155724,1,2,0:0:0:0:
341,215,155970,2,0,P|267:231|304:140,1,212.666673156739,2|0,3:2|0:0,0:0:0:0:
210,303,156708,6,0,P|173:265|161:214,1,106.333336578369,0|2,1:0|0:0,0:0:0:0:
164,188,157077,1,2,0:0:0:0:
164,188,157200,1,2,0:0:0:0:
226,64,157446,6,0,B|71:81|71:81|106:36,1,212.666673156739,2|0,3:2|0:0,0:0:0:0:
77,176,158183,2,0,P|72:228|62:281,1,106.333336578369,0|2,1:0|0:2,0:0:0:0:
118,358,158675,1,2,0:2:0:0:
262,286,158921,1,2,3:2:0:0:
357,324,159167,2,0,B|393:285|393:285|355:247,1,106.333336578369,0|0,0:0|0:0,0:0:0:0:
257,195,159659,5,2,1:2:0:0:
271,384,159905,1,2,3:2:0:0:
338,152,160151,1,2,3:2:0:0:
258,100,160396,2,0,P|193:118|182:254,1,212.666673156739,4|0,0:0|0:0,0:0:0:0:
139,133,161134,6,0,P|83:121|32:134,1,106.333336578369,2|2,1:2|3:2,0:0:0:0:
93,34,161626,1,2,3:2:0:0:
258,100,161872,2,0,L|386:85,1,106.333336578369,6|0,0:2|0:0,0:0:0:0:
383,68,162241,1,0,0:0:0:0:
383,68,162364,1,0,0:0:0:0:
451,2,162610,5,6,0:2:0:0:
494,83,162856,1,0,0:0:0:0:
431,149,163101,1,0,0:0:0:0:
500,239,163347,5,6,0:0:0:0:
388,254,163593,1,0,3:0:0:0:
349,360,163839,1,0,3:0:0:0:
464,348,164085,5,2,1:2:0:0:
332,177,164331,1,0,3:0:0:0:
238,367,164577,1,0,3:0:0:0:
150,222,164823,5,2,1:2:0:0:
245,247,165069,1,0,3:0:0:0:
345,279,165315,1,0,3:0:0:0:
345,279,165437,1,0,3:0:0:0:
345,279,165560,5,2,1:2:0:0:
298,77,165806,1,0,3:0:0:0:
322,298,166052,1,0,3:0:0:0:
383,111,166298,6,0,P|359:13|207:93,1,319.000009735108,6|2,0:2|0:2,0:0:0:0:
112,57,167282,1,2,0:2:0:0:
112,57,167528,1,2,0:2:0:0:
135,147,167774,2,0,P|146:223|134:297,1,146.666666666667,6|0,0:0|0:0,0:0:0:0:
44,369,168511,2,0,B|98:355|136:313|136:313|170:355|225:375,1,220,2|6,0:0|0:0,0:0:0:0:
256,192,169372,12,2,173675,0:0:0:0:
84,90,180315,6,0,P|138:100|179:148,1,110.000004196167,2|0,0:0|0:0,0:0:0:0:
128,245,181052,6,0,L|258:225,1,131.99999597168,6|0,0:0|0:0,0:0:0:0:
331,159,181790,1,2,0:0:0:0:
401,230,182036,2,0,P|404:262|417:292,1,65.9999979858399
419,123,182528,2,0,P|438:96|465:77,2,65.9999979858399,2|2|0,0:0|0:0|0:0,0:0:0:0:
330,158,183265,1,2,0:0:0:0:
270,101,183511,1,2,0:0:0:0:
270,18,183757,1,2,0:0:0:0:
247,116,184003,6,0,B|180:131|191:88|118:101,1,131.99999597168,2|0,0:0|0:0,0:0:0:0:
140,184,184741,2,0,P|124:213|116:245,1,65.9999979858399,2|0,0:0|0:0,0:0:0:0:
207,246,185233,1,0,0:0:0:0:
207,246,185479,2,0,L|281:265,1,65.9999979858399,2|2,0:0|0:0,0:0:0:0:
265,358,185970,1,0,0:0:0:0:
265,358,186216,2,0,L|339:339,1,65.9999979858399,2|2,0:0|0:0,0:0:0:0:
415,282,186708,1,2,0:0:0:0:
459,348,186954,6,0,L|461:213,1,131.99999597168,2|0,0:0|0:0,0:0:0:0:
427,108,187692,2,0,P|449:84|479:70,2,65.9999979858399,2|0|0,0:0|0:0|0:0,0:0:0:0:
369,183,188429,1,2,0:0:0:0:
369,183,188675,1,2,0:0:0:0:
369,183,188921,1,0,0:0:0:0:
267,130,189167,2,0,L|258:203,1,65.9999979858399,2|2,0:0|0:0,0:0:0:0:
290,277,189659,1,2,0:0:0:0:
224,344,189905,6,0,P|160:333|92:327,1,131.99999597168,2|0,0:0|0:0,0:0:0:0:
119,235,190643,2,0,P|87:215|56:191,2,65.9999979858399,2|0|0,0:0|0:0|0:0,0:0:0:0:
143,147,191380,1,2,0:0:0:0:
139,59,191626,1,2,0:0:0:0:
222,99,191872,1,0,0:0:0:0:
312,23,192118,2,0,L|388:32,1,65.9999979858399,2|2,0:0|0:0,0:0:0:0:
440,94,192610,1,2,0:0:0:0:
382,184,192856,6,0,P|307:190|237:207,1,146.666666666667,6|0,0:0|3:0,0:0:0:0:
164,289,193593,2,0,P|217:301|240:308,1,73.3333333333333,0|2,1:0|0:0,0:0:0:0:
318,355,194085,1,2,0:0:0:0:
407,277,194331,2,0,L|403:189,2,73.3333333333333,0|0|0,3:0|0:0|0:0,0:0:0:0:
505,325,195069,2,0,L|509:237,2,73.3333333333333,0|2|2,1:0|0:0|0:0,0:0:0:0:
469,146,195806,5,2,3:2:0:0:
384,129,196052,1,0,0:0:0:0:
324,191,196298,1,0,3:2:0:0:
444,54,196544,2,0,P|480:57|516:66,1,73.3333333333333,0|2,1:0|0:0,0:0:0:0:
355,6,197036,1,2,3:2:0:0:
280,106,197282,2,0,P|231:95|195:96,1,73.3333333333333,0|2,1:0|0:0,0:0:0:0:
182,108,197651,1,2,0:2:0:0:
182,108,197774,1,2,0:2:0:0:
95,47,198020,1,0,1:0:0:0:
116,194,198265,1,2,3:2:0:0:
48,279,198511,1,2,3:2:0:0:
169,323,198757,6,0,P|204:315|232:292,1,73.3333333333333,2|2,3:2|0:2,0:0:0:0:
238,260,199126,1,2,0:2:0:0:
238,260,199249,1,2,0:2:0:0:
335,326,199495,1,0,1:0:0:0:
318,181,199741,2,0,L|311:101,1,73.3333333333333,2|2,3:2|3:2,0:0:0:0:
416,239,200233,2,0,P|451:245|483:262,2,73.3333333333333,0|2|2,1:0|0:0|0:2,0:0:0:0:
389,256,200847,1,2,0:0:0:0:
389,256,200970,1,2,1:2:0:0:
428,146,201216,1,0,1:0:0:0:
366,37,201462,1,2,0:2:0:0:
366,37,201585,1,2,0:2:0:0:
366,37,201708,6,0,L|330:29,1,36.6666666666667,0|0,1:0|1:0,0:0:0:0:
132,8,202077,1,0,1:0:0:0:
172,195,202323,1,2,0:0:0:0:
172,195,202446,2,0,P|192:150|196:113,2,73.3333333333333,0|2|2,1:0|0:0|0:0,0:0:0:0:
97,254,203184,2,0,P|52:234|15:230,2,73.3333333333333,0|2|2,3:0|0:0|0:0,0:0:0:0:
106,282,203798,1,2,0:2:0:0:
106,282,203921,1,2,1:2:0:0:
201,330,204167,1,2,3:2:0:0:
297,265,204413,1,2,3:2:0:0:
391,344,204659,5,4,0:0:0:0:
380,320,204905,1,0,3:0:0:0:
362,337,205151,1,0,3:0:0:0:
476,302,205397,1,0,1:0:0:0:
393,225,205643,1,0,3:0:0:0:
297,265,205888,1,0,3:0:0:0:
257,158,206134,5,0,1:0:0:0:
240,112,206380,1,0,1:0:0:0:
261,63,206626,1,0,1:0:0:0:
367,9,206872,1,0,3:0:0:0:
380,118,207118,1,0,3:0:0:0:
391,227,207364,1,0,3:0:0:0:
256,319,207610,5,0,1:0:0:0:
233,333,207856,1,0,3:0:0:0:
226,307,208102,1,0,3:0:0:0:
141,361,208348,1,0,1:0:0:0:
148,253,208593,1,0,3:0:0:0:
252,222,208839,1,0,3:0:0:0:
106,171,209085,5,0,1:0:0:0:
54,148,209331,1,0,1:0:0:0:
0,166,209577,1,0,1:0:0:0:
141,53,209823,1,0,3:0:0:0:
239,83,210069,1,0,3:0:0:0:
337,117,210315,1,0,3:0:0:0:
413,38,210561,6,0,L|498:27,2,80.6666691284181,0|0|0,1:0|3:0|3:0,0:0:0:0:
484,202,211298,2,0,L|470:122,1,80.6666691284181,0|0,1:0|3:0,0:0:0:0:
430,282,211790,1,0,3:0:0:0:
502,342,212036,5,0,1:0:0:0:
512,362,212282,1,0,1:0:0:0:
488,358,212528,1,0,1:0:0:0:
342,361,212774,1,0,3:0:0:0:
313,263,213020,1,0,3:0:0:0:
374,179,213266,1,0,3:0:0:0:
292,279,213511,6,0,L|211:278,1,80.6666691284181,0|0,1:0|3:0,0:0:0:0:
87,206,214003,1,0,3:0:0:0:
192,174,214249,2,0,P|197:140|226:158,2,80.6666691284181,0|0|0,1:0|3:0|3:0,0:0:0:0:
257,65,214987,5,0,1:0:0:0:
207,48,215233,1,0,1:0:0:0:
153,59,215479,1,0,1:0:0:0:
38,122,215725,1,0,3:0:0:0:
87,206,215970,1,0,3:0:0:0:
89,310,216216,1,0,3:0:0:0:
180,254,216463,6,0,P|221:246|260:253,1,80.6666691284181,0|0,1:0|3:0,0:0:0:0:
403,308,216954,1,0,3:0:0:0:
353,211,217200,2,0,L|374:125,2,80.6666691284181,0|0|0,1:0|3:0|3:0,0:0:0:0:
500,144,217938,1,0,1:0:0:0:
476,149,218184,1,0,1:0:0:0:
482,125,218430,1,0,1:0:0:0:
356,43,218676,1,0,3:0:0:0:
262,93,218921,1,0,3:0:0:0:
243,88,219044,1,0,3:0:0:0:
222,82,219167,1,0,3:0:0:0:
202,76,219290,1,0,3:0:0:0:
183,68,219413,6,0,L|189:148,1,80.6666691284181,0|0,1:0|3:0,0:0:0:0:
203,259,219905,1,0,3:0:0:0:
120,215,220151,2,0,P|75:208|30:221,2,80.6666691284181,0|0|0,1:0|3:0|3:0,0:0:0:0:
278,197,220889,2,0,P|323:190|368:203,2,80.6666691284181,0|0|0,1:0|1:0|1:0,0:0:0:0:
219,351,221626,1,0,3:0:0:0:
343,303,221872,1,0,3:0:0:0:
362,307,221995,1,0,3:0:0:0:
381,310,222118,1,0,3:0:0:0:
400,314,222241,1,0,3:0:0:0:
419,316,222364,6,0,P|456:303|484:274,1,80.6666691284181,0|0,1:0|3:0,0:0:0:0:
398,211,222856,1,0,3:0:0:0:
481,79,223102,2,0,L|487:159,2,80.6666691284181,0|0|0,1:0|3:0|3:0,0:0:0:0:
354,111,223839,1,0,1:0:0:0:
305,25,224085,1,0,1:0:0:0:
240,99,224331,1,0,1:0:0:0:
286,195,224577,1,0,3:0:0:0:
260,292,224823,1,0,3:0:0:0:
240,297,224946,1,0,3:0:0:0:
220,300,225069,1,0,3:0:0:0:
199,301,225192,1,0,3:0:0:0:
178,299,225315,6,0,L|138:289,1,40.333334564209,0|0,1:0|1:0,0:0:0:0:
47,327,225561,1,0,1:0:0:0:
67,221,225807,1,0,3:0:0:0:
89,116,226052,1,0,1:0:0:0:
182,188,226298,1,0,3:0:0:0:
202,82,226544,2,0,L|212:35,2,40.333334564209,0|0|0,1:0|1:0|1:0,0:0:0:0:
306,152,227036,1,0,3:0:0:0:
324,144,227159,1,0,3:0:0:0:
343,140,227282,1,0,3:0:0:0:
363,140,227405,1,0,3:0:0:0:
382,142,227528,1,0,1:0:0:0:
355,233,227775,1,0,1:0:0:0:
330,54,228021,1,0,1:0:0:0:
449,234,228266,6,0,P|421:307|326:325,1,175.999994628906,4|0,0:0|3:0,0:0:0:0:
257,273,229004,1,0,1:0:0:0:
136,358,229250,1,0,3:0:0:0:
136,358,229373,1,0,3:0:0:0:
136,358,229496,1,0,3:0:0:0:
149,173,229742,2,0,L|161:260,1,87.9999973144532,0|0,1:0|1:0,0:0:0:0:
58,226,230234,1,0,1:0:0:0:
246,187,230480,2,0,P|289:193|326:216,1,87.9999973144532,0|0,3:0|3:0,0:0:0:0:
345,237,230848,1,0,3:0:0:0:
345,237,230971,2,0,L|341:288,1,43.9999986572266,0|0,3:0|3:0,0:0:0:0:
427,313,231231,6,0,L|434:225,1,87.9999973144532,0|0,1:0|3:0,0:0:0:0:
373,123,231722,1,0,3:0:0:0:
432,52,231968,2,0,P|393:31|349:33,2,87.9999973144532,0|0|0,1:0|3:0|3:0,0:0:0:0:
355,143,232706,2,0,L|234:149,1,87.9999973144532,0|0,1:0|1:0,0:0:0:0:
246,166,233075,1,0,1:0:0:0:
246,166,233198,1,0,1:0:0:0:
51,101,233443,1,0,3:0:0:0:
180,27,233689,1,0,3:0:0:0:
116,230,233935,1,0,3:0:0:0:
116,230,234427,6,0,L|124:300,1,45.8333333333333,8|0,0:3|0:0,0:0:0:0:
251,351,234673,2,0,L|257:306,1,45.8333333333333,8|0,0:3|0:0,0:0:0:0:
310,130,234919,2,0,L|318:200,1,45.8333333333333,8|0,0:3|0:0,0:0:0:0:
444,384,235165,2,0,L|449:338,1,45.8333333333333,8|0,0:3|0:0,0:0:0:0:
469,198,235411,2,0,L|424:206,1,45.8333333333333,8|0,0:3|0:0,0:0:0:0:
237,86,235657,6,0,P|279:52|333:50,1,110.000004196167,0|0,3:0|0:0,0:0:0:0:
315,175,236394,5,8,3:3:0:0:
193,169,236640,1,8,3:3:0:0:
70,164,236886,1,8,3:3:0:0:
154,370,237142,6,0,B|133:240|213:298|193:169,1,212.666673156739,6|0,0:0|0:0,0:0:0:0:
136,82,237879,1,0,1:0:0:0:
304,202,238125,2,0,P|360:196|411:176,1,106.333336578369,2|2,0:0|0:0,0:0:0:0:
332,12,238617,2,0,P|273:53|372:83,1,212.666673156739,2|0,3:2|0:0,0:0:0:0:
437,34,239354,1,0,1:0:0:0:
492,250,239600,5,2,0:2:0:0:
406,178,239846,1,2,0:2:0:0:
367,318,240092,2,0,B|294:329|294:329|227:303|227:303|160:312,1,212.666673156739,2|2,3:2|0:2,0:0:0:0:
42,232,240830,5,2,1:2:0:0:
50,208,241075,5,2,0:2:0:0:
72,223,241321,5,2,0:2:0:0:
26,104,241568,6,0,P|127:117|179:206,1,212.666673156739,2|0,3:2|0:0,0:0:0:0:
362,94,242305,5,0,1:0:0:0:
283,143,242551,1,2,0:2:0:0:
270,119,242674,1,2,0:2:0:0:
267,92,242797,1,2,0:2:0:0:
460,25,243043,6,0,B|460:96|446:178|446:178|477:128,1,212.666673156739,6|0,0:2|0:2,0:0:0:0:
496,310,243780,1,0,1:0:0:0:
391,257,244027,2,0,P|320:264|268:311,1,106.333336578369,2|2,0:2|0:2,0:0:0:0:
237,376,244518,2,0,L|253:146,1,212.666673156739,2|0,3:2|0:0,0:0:0:0:
176,101,245256,5,2,1:2:0:0:
334,65,245502,1,2,0:2:0:0:
133,20,245748,1,2,0:2:0:0:
62,125,245994,6,0,L|74:284,1,159.500004867554,2|0,3:2|0:0,0:0:0:0:
66,304,246485,1,0,0:0:0:0:
191,357,246732,2,0,P|283:315|292:214,1,212.666673156739,0|2,1:0|0:2,0:0:0:0:
197,257,247469,1,0,3:0:0:0:
308,332,247715,2,0,P|374:318|439:318,1,106.333336578369,0|0,1:0|0:0,0:0:0:0:
484,181,248207,5,2,1:2:0:0:
291,213,248452,1,2,3:2:0:0:
354,42,248698,1,2,3:2:0:0:
377,149,248945,6,0,P|278:114|172:101,1,212.666673156739,6|0,0:0|0:0,0:0:0:0:
117,187,249682,2,0,P|70:149|112:22,1,212.666673156739,0|0,1:0|0:0,0:0:0:0:
134,209,250420,2,0,L|122:314,1,106.333336578369,2|0,3:2|0:0,0:0:0:0:
44,368,250912,1,2,0:2:0:0:
212,364,251158,2,0,B|266:337|266:337|379:351,1,159.500004867554,0|0,1:2|0:2,0:0:0:0:
390,354,251649,1,0,0:2:0:0:
330,244,251895,6,0,P|346:178|378:114,2,106.333336578369,2|0|0,3:2|0:0|0:2,0:0:0:0:
183,183,252633,2,0,P|167:117|135:53,2,106.333336578369,4|0|0,0:0|0:2|0:2,0:0:0:0:
288,78,253371,2,0,P|386:53|457:127,1,212.666673156739,2|0,3:2|0:2,0:0:0:0:
506,251,254108,5,0,1:0:0:0:
292,308,254354,1,2,3:2:0:0:
431,359,254600,1,2,3:2:0:0:
313,223,254846,2,0,P|260:225|217:255,1,106.333336578369,6|0,0:2|0:0,0:0:0:0:
194,263,255215,1,0,0:0:0:0:
194,263,255338,1,0,0:0:0:0:
83,339,255584,6,0,L|67:233,1,106.333336578369,0|2,1:0|3:2,0:0:0:0:
105,100,256075,1,2,3:2:0:0:
192,165,256322,2,0,L|207:59,1,106.333336578369,6|0,0:0|0:0,0:0:0:0:
196,35,256691,1,0,0:0:0:0:
196,35,256814,1,0,0:0:0:0:
315,114,257059,5,6,0:2:0:0:
401,71,257305,1,0,0:0:0:0:
485,120,257551,1,0,0:0:0:0:
316,209,257797,5,2,0:2:0:0:
315,2,258042,1,4,0:0:0:0:
403,162,258288,1,0,3:0:0:0:
292,223,258534,5,2,1:2:0:0:
460,290,258780,1,4,0:0:0:0:
332,349,259026,1,0,3:0:0:0:
329,123,259272,5,2,1:2:0:0:
206,273,259518,1,4,0:0:0:0:
122,107,259764,1,0,3:0:0:0:
215,167,260010,5,8,3:3:0:0:
242,29,260256,1,8,3:3:0:0:
111,7,260502,1,8,3:3:0:0:
111,7,260625,1,8,3:0:0:0:
111,7,260748,6,0,P|57:29|44:169,1,212.666673156739,6|0,0:0|0:0,0:0:0:0:
122,273,261485,1,0,1:0:0:0:
74,366,261732,2,0,L|180:360,1,106.333336578369,2|2,0:0|0:0,0:0:0:0:
277,273,262224,2,0,B|401:248|356:340|474:319,1,212.666673156739,2|0,3:2|0:0,0:0:0:0:
317,357,262961,1,0,1:0:0:0:
449,240,263207,2,0,P|460:188|456:135,1,106.333336578369,2|2,0:0|0:0,0:0:0:0:
301,53,263699,6,0,B|375:62|375:62|431:39|431:39|508:47,1,212.666673156739,2|2,3:2|0:0,0:0:0:0:
318,145,264436,1,0,1:0:0:0:
221,9,264682,1,2,0:2:0:0:
151,150,264928,1,2,0:2:0:0:
237,217,265174,2,0,B|227:297|237:376|237:376|217:325,1,212.666673156739,2|0,3:2|0:0,0:0:0:0:
136,267,265912,5,0,1:0:0:0:
332,311,266157,1,2,0:2:0:0:
352,305,266280,1,2,0:2:0:0:
372,298,266403,1,2,0:2:0:0:
85,335,266650,6,0,P|52:280|144:184,1,212.666673156739,6|0,0:2|0:2,0:0:0:0:
207,113,267387,1,0,1:0:0:0:
79,0,267633,2,0,L|86:106,1,106.333336578369,2|2,0:2|0:2,0:0:0:0:
273,198,268125,2,0,B|289:140|332:110|332:110|285:81|271:27,1,212.666673156739,2|0,3:2|0:0,0:0:0:0:
474,114,268862,5,0,1:0:0:0:
372,200,269108,1,2,0:0:0:0:
378,220,269231,1,0,0:0:0:0:
383,240,269354,1,2,0:0:0:0:
477,362,269600,6,0,B|408:324|408:324|350:368|282:356,1,212.666673156739,6|0,0:2|0:0,0:0:0:0:
203,275,270338,2,0,P|193:221|208:166,2,106.333336578369,0|2|2,1:0|0:2|0:2,0:0:0:0:
133,328,271076,1,6,0:2:0:0:
288,229,271321,1,0,1:0:0:0:
146,115,271567,1,0,0:0:0:0:
57,222,271813,5,2,1:2:0:0:
57,33,272059,1,2,3:2:0:0:
38,239,272305,1,2,3:2:0:0:
161,95,272551,6,0,B|279:71|240:157|362:133,1,212.666673156739,6|0,0:0|0:0,0:0:0:0:
388,0,273289,2,0,P|328:23|327:59,1,106.333336578369,0|2,1:0|0:0,0:0:0:0:
431,90,273780,1,2,0:0:0:0:
335,216,274027,2,0,B|332:284|349:361|349:361|330:323|306:308,1,212.666673156739,2|0,3:2|0:0,0:0:0:0:
226,272,274764,1,0,1:0:0:0:
418,229,275010,1,2,0:0:0:0:
439,231,275133,1,2,0:0:0:0:
462,237,275256,1,2,0:0:0:0:
243,137,275502,6,0,P|157:196|54:179,1,212.666673156739,2|0,3:2|0:0,0:0:0:0:
88,45,276240,2,0,P|117:113|145:24,1,212.666673156739,0|0,1:0|0:2,0:0:0:0:
353,14,276978,1,2,3:2:0:0:
263,157,277224,1,0,0:0:0:0:
432,163,277470,1,0,0:0:0:0:
352,109,277715,5,2,1:2:0:0:
343,225,277961,1,2,3:2:0:0:
331,339,278207,1,2,3:2:0:0:
434,303,278453,5,4,0:0:0:0:
439,284,278699,1,0,0:0:0:0:
452,299,278945,1,0,0:0:0:0:
248,275,279191,2,0,P|144:296|37:299,1,212.666673156739,2|2,1:2|3:2,0:0:0:0:
152,196,279929,5,6,0:2:0:0:
129,152,280175,1,0,0:0:0:0:
99,190,280420,1,0,0:0:0:0:
266,70,280666,2,0,B|140:27|140:27|64:52,1,212.666673156739,6|0,0:2|0:0,0:0:0:0:
251,179,281404,5,6,0:0:0:0:
362,24,281650,1,0,3:0:0:0:
414,232,281896,1,0,3:0:0:0:
236,198,282143,5,6,1:2:0:0:
484,136,282389,1,0,3:0:0:0:
351,314,282633,1,0,3:0:0:0:
348,135,282880,5,6,1:2:0:0:
217,296,283126,1,0,3:0:0:0:
144,108,283372,1,0,3:0:0:0:
48,270,283618,5,2,1:2:0:0:
264,46,283864,1,0,3:0:0:0:
349,336,284110,1,0,3:0:0:0:
237,193,284365,6,0,B|380:207|380:207|419:183|400:138,1,220,6|2,0:2|0:2,0:0:0:0:
371,60,285348,1,2,0:2:0:0:
371,60,285594,1,2,0:2:0:0:
269,39,285840,2,0,B|199:43|199:43|134:15|134:15|49:24,1,220,6|2,0:0|0:0,0:0:0:0:
162,346,287325,6,0,P|150:326|141:265,1,45.8333333333333,4|0,0:0|0:0,0:0:0:0:
257,297,287570,2,0,P|257:274|279:216,1,45.8333333333333,0|0,3:0|0:0,0:0:0:0:
352,345,287816,2,0,P|363:325|411:286,1,45.8333333333333,0|0,3:0|0:0,0:0:0:0:
165,209,288062,6,0,L|100:201,1,45.8333333333333,0|0,3:0|0:0,0:0:0:0:
347,209,288308,2,0,L|412:201,1,45.8333333333333,0|0,3:0|0:0,0:0:0:0:
256,69,288554,2,0,L|256:115,1,45.8333333333333,0|0,3:0|0:0,0:0:0:0:
120,114,288801,5,0,1:0:0:0:
399,81,289046,1,0,3:0:0:0:
136,86,289292,1,0,3:0:0:0:
368,180,289538,5,0,1:0:0:0:
256,21,289784,1,0,3:0:0:0:
144,180,290030,1,0,3:0:0:0:
261,287,290275,6,0,L|274:354,1,45.8333333333333,0|0,3:0|0:0,0:0:0:0:
162,281,290521,2,0,L|175:348,1,45.8333333333333,0|0,3:0|0:0,0:0:0:0:
66,275,290767,2,0,L|79:342,1,45.8333333333333,0|0,3:0|0:0,0:0:0:0:
144,180,291013,5,0,1:0:0:0:
269,331,291259,1,0,3:0:0:0:
375,127,291505,1,0,3:0:0:0:
448,203,291751,2,0,P|364:231|289:184,1,183.333333333333,0|0,1:0|3:0,0:0:0:0:
177,100,292488,6,0,P|119:95|67:135,2,91.6666666666667,0|0|0,1:0|3:0|3:0,0:0:0:0:
348,14,293226,2,0,B|383:58|383:58|257:40,1,183.333333333333,4|0,0:0|0:0,0:0:0:0:
141,181,293964,6,0,L|150:282,1,91.6666666666667,0|0,1:0|3:0,0:0:0:0:
167,295,294333,1,0,3:0:0:0:
167,295,294456,1,0,3:0:0:0:
278,335,294702,2,0,P|321:346|366:337,2,91.6666666666667,0|0|0,1:0|3:0|3:0,0:0:0:0:
322,232,295439,5,0,1:0:0:0:
441,95,295668,1,0,1:0:0:0:
263,61,295913,1,0,1:0:0:0:
242,67,296036,1,0,1:0:0:0:
221,75,296159,6,0,L|176:65,1,45.8333333333333,4|0,0:0|0:0,0:0:0:0:
89,113,296405,2,0,L|44:103,1,45.8333333333333,0|0,3:0|0:0,0:0:0:0:
204,225,296651,2,0,L|159:215,1,45.8333333333333,0|0,3:0|0:0,0:0:0:0:
51,342,296897,6,0,P|66:324|86:314,1,45.8333333333333,0|0,3:0|0:0,0:0:0:0:
201,256,297143,2,0,P|223:260|242:272,1,45.8333333333333,0|0,3:0|0:0,0:0:0:0:
370,302,297389,2,0,P|377:323|376:346,1,45.8333333333333,0|0,3:0|0:0,0:0:0:0:
318,214,297635,5,0,1:0:0:0:
352,16,297881,1,0,3:0:0:0:
314,236,298127,1,0,3:0:0:0:
461,184,298373,5,0,1:0:0:0:
337,108,298619,1,0,3:0:0:0:
194,149,298864,1,0,3:0:0:0:
99,100,299110,6,0,P|90:76|88:55,1,45.8333333333333,0|0,3:0|0:0,0:0:0:0:
208,173,299356,2,0,P|206:196|198:218,1,45.8333333333333,0|0,3:0|0:0,0:0:0:0:
53,263,299602,2,0,P|44:239|42:218,1,45.8333333333333,0|0,3:0|0:0,0:0:0:0:
151,342,299848,5,0,1:0:0:0:
287,329,300094,1,0,3:0:0:0:
422,304,300340,1,0,3:0:0:0:
347,225,300586,2,0,B|325:157|325:157|337:41,1,183.333333333333,0|0,1:0|3:0,0:0:0:0:
336,45,301323,5,8,3:0:0:0:
228,105,301569,1,8,3:0:0:0:
437,156,301815,1,8,3:0:0:0:
186,205,302061,2,0,P|124:141|136:53,1,183.333333333333,4|0,0:0|0:0,0:0:0:0:
203,230,302799,6,8,L|182:358,2,91.6666666666667,8|8|8,3:0|3:0|3:0,3:0:0:0:
257,384,303537,1,0,1:0:0:0:
298,206,303782,1,0,3:0:0:0:
293,183,303905,1,0,3:0:0:0:
289,160,304028,1,0,3:0:0:0:
283,137,304151,1,0,3:0:0:0:
278,114,304274,5,0,1:0:0:0:
410,87,304520,1,0,1:0:0:0:
305,231,304766,1,0,1:0:0:0:
118,160,305012,1,4,0:0:0:0:
256,192,305135,12,2,307963,0:0:0:0:
