osu file format v14

[General]
AudioFilename: audio.mp3
AudioLeadIn: 0
PreviewTime: -1
Countdown: 1
SampleSet: Soft
StackLeniency: 0.7
Mode: 0
LetterboxInBreaks: 0
WidescreenStoryboard: 0

[Editor]
DistanceSpacing: 0.8
BeatDivisor: 4
GridSize: 8
TimelineZoom: 3

[Metadata]
Title:Black Rover (TV Size)
TitleUnicode:Black Rover (TV Size)
Artist:Onsei Project
ArtistUnicode:Onsei Project
Creator:DJKratos
Version:Seja Forte!
Source:ブラッククローバー
Tags:clover opening op cover kuroame brazilian
BeatmapID:1751597
BeatmapSetID:836433

[Difficulty]
HPDrainRate:6
CircleSize:4
OverallDifficulty:9
ApproachRate:9.5
SliderMultiplier:2
SliderTickRate:1

[Events]
//Background and Video events
0,0,"thumb-1920-918477.jpg",0,0
//Break Periods
//Storyboard Layer 0 (Background)
//Storyboard Layer 1 (Fail)
//Storyboard Layer 2 (Pass)
//Storyboard Layer 3 (Foreground)
//Storyboard Sound Samples

[TimingPoints]
1000,294.117647058824,4,2,1,50,1,0
1000,-200,4,2,1,50,0,0
5705,294.117647058824,4,2,1,50,1,0
5705,-200,4,2,1,50,0,0
7322,255.31914893617,4,2,1,50,1,0
7449,303.030303030303,4,2,1,50,1,0
7600,283.018867924528,4,2,1,50,1,0
7741,294.117647058824,4,2,1,50,1,0
7896,329.67032967033,4,2,1,50,1,0
8225,294.117647058824,4,2,1,50,1,0
8356,294.117647058824,4,2,1,50,1,0
17179,-133.333333333333,4,2,1,50,0,0
26885,-100,4,2,1,50,0,0
36738,-133.333333333333,4,2,1,50,0,0
45708,-333.333333333333,4,2,1,50,0,0
45782,-333.333333333333,4,2,1,5,0,0
46223,-333.333333333333,4,2,1,50,0,0
46370,-333.333333333333,4,2,1,5,0,0
46885,-333.333333333333,4,2,1,50,0,0
47326,-133.333333333333,4,2,1,50,0,0
47914,-100,4,2,1,50,0,1
56297,-66.6666666666667,4,2,1,50,0,1
57767,-100,4,2,1,50,0,1
65120,-100,4,2,1,50,0,0
66003,294.117647058824,4,2,1,50,1,1
76003,-200,4,2,1,50,0,1
76214,-200,4,2,1,50,0,1
76288,294.117647058824,4,2,1,50,1,0
76288,-142.857142857143,4,2,1,50,0,0
76361,-142.857142857143,4,2,1,5,0,0
76802,-100,4,2,1,50,0,0
76949,-142.857142857143,4,2,1,5,0,0
77390,-100,4,2,1,50,0,0
77538,-142.857142857143,4,2,1,5,0,0
77979,-100,4,2,1,50,0,0
78199,-200,4,2,1,50,0,0
78640,-133.333333333333,4,2,1,50,0,0
79817,-200,4,2,1,50,0,0
79854,-200,4,2,1,5,0,0
79964,-200,4,2,1,50,0,0
80001,-200,4,2,1,5,0,0
80111,-200,4,2,1,50,0,0
80148,-200,4,2,1,5,0,0
80258,-200,4,2,1,50,0,0
80295,-200,4,2,1,5,0,0
80405,-200,4,2,1,50,0,0
80589,-200,4,2,1,5,0,0
80699,-200,4,2,1,50,0,0
80736,-200,4,2,1,5,0,0
80846,-200,4,2,1,50,0,0
80993,-133.333333333333,4,2,1,50,0,0
82170,-200,4,2,1,50,0,0
82207,-200,4,2,1,5,0,0
82317,-200,4,2,1,50,0,0
82354,-200,4,2,1,5,0,0
82464,-200,4,2,1,50,0,0
82501,-200,4,2,1,5,0,0
82611,-200,4,2,1,50,0,0
82648,-200,4,2,1,5,0,0
82758,-200,4,2,1,50,0,0
82942,-200,4,2,1,5,0,0
83052,-200,4,2,1,50,0,0
83089,-200,4,2,1,5,0,0
83199,-133.333333333333,4,2,1,50,0,0

[Colours]
Combo1 : 93,93,93
Combo2 : 192,192,192

[HitObjects]
84,185,1000,6,0,P|57:188|22:209,1,50,2|0,0:0|0:0,0:0:0:0:
160,183,1294,2,0,P|157:156|136:121,1,50,2|0,0:0|0:0,0:0:0:0:
162,259,1588,2,0,P|189:256|224:235,1,50,2|0,0:0|0:0,0:0:0:0:
86,261,1882,2,0,P|89:288|110:323,1,50,2|0,0:0|0:0,0:0:0:0:
285,358,2176,6,0,L|301:289,1,50,2|0,0:0|0:0,0:0:0:0:
430,359,2470,2,0,L|414:290,1,50,2|0,0:0|0:0,0:0:0:0:
296,309,2764,2,0,L|312:240,1,50,2|0,0:0|0:0,0:0:0:0:
418,310,3058,2,0,L|402:241,1,50,2|0,0:0|0:0,0:0:0:0:
368,73,3352,6,0,P|331:63|304:66,1,50,2|0,0:0|0:0,0:0:0:0:
181,64,3647,2,0,P|218:54|245:57,1,50,2|0,0:0|0:0,0:0:0:0:
319,187,3941,2,0,L|331:122,1,50,2|0,0:0|0:0,0:0:0:0:
227,180,4235,2,0,L|215:115,1,50,2|0,0:0|0:0,0:0:0:0:
47,41,4529,6,0,L|27:107,1,50,2|0,0:0|0:0,0:0:0:0:
15,179,4823,2,0,L|1:227,1,50,2|0,0:0|0:0,0:0:0:0:
146,129,5117,2,0,L|126:195,1,50,2|0,0:0|0:0,0:0:0:0:
114,267,5411,2,0,L|99:314,1,50,2|0,0:0|0:0,0:0:0:0:
194,248,5705,6,0,L|205:296,1,50,2|0,0:0|0:0,0:0:0:0:
252,191,5999,2,0,L|286:227,1,50,2|0,0:0|0:0,0:0:0:0:
274,113,6293,2,0,L|321:127,1,50,2|0,0:0|0:0,0:0:0:0:
254,34,6587,2,0,L|302:22,1,50,2|0,0:0|0:0,0:0:0:0:
100,82,6881,6,0,L|77:140,1,50,2|0,0:0|0:0,0:0:0:0:
30,277,7175,1,2,0:0:0:0:
166,159,7322,2,0,L|205:118,1,50,0|0,1:0|1:0,0:0:0:0:
46,366,7449,1,8,0:0:0:0:
14,188,7600,1,0,1:0:0:0:
198,338,7741,1,8,0:0:0:0:
252,192,7896,6,0,B|368:193|368:193|456:227,1,200,4|0,0:0|0:0,0:0:0:0:
339,360,8356,6,0,P|330:311|355:261,1,100,8|0,0:0|0:0,0:0:0:0:
484,117,8650,1,0,1:0:0:0:
416,323,8797,1,0,1:0:0:0:
373,108,8944,2,0,B|320:92|272:108|272:108|216:128|164:108,1,200,8|0,0:0|1:2,0:0:0:0:
71,256,9385,1,2,1:2:0:0:
71,146,9532,5,10,0:0:0:0:
240,201,9679,1,2,0:0:0:0:
176,290,9826,1,2,1:2:0:0:
176,112,9973,1,2,1:2:0:0:
71,256,10120,1,10,0:0:0:0:
240,201,10267,2,0,B|325:201|325:201|354:192|354:192|440:192,1,200,4|0,0:0|1:0,0:0:0:0:
448,337,10708,6,0,P|397:317|376:252,1,100,8|0,0:0|0:0,0:0:0:0:
376,89,11003,1,0,1:0:0:0:
451,262,11150,1,0,1:0:0:0:
297,105,11297,2,0,P|300:55|350:13,1,100,8|0,0:0|0:0,0:0:0:0:
422,153,11591,1,0,1:0:0:0:
220,240,11738,1,2,1:0:0:0:
220,150,11885,5,10,0:0:0:0:
297,195,12032,1,2,0:0:0:0:
142,195,12179,1,2,1:0:0:0:
297,105,12326,1,2,1:0:0:0:
297,285,12473,1,10,0:0:0:0:
142,105,12620,2,0,P|61:168|83:259,1,200,4|0,0:0|1:0,0:0:0:0:
205,263,13061,6,0,P|185:218|122:194,1,100,8|0,0:0|0:0,0:0:0:0:
24,362,13356,1,0,1:0:0:0:
32,142,13503,1,0,1:0:0:0:
177,352,13650,2,0,P|272:327|289:220,1,200,8|0,0:0|1:0,0:0:0:0:
301,46,14091,1,2,1:0:0:0:
165,175,14238,6,0,P|177:230|212:268,1,100,10|2,0:0|0:0,0:0:0:0:
399,243,14532,1,2,1:0:0:0:
243,187,14679,1,2,1:0:0:0:
405,329,14826,2,0,P|449:312|480:253,1,100,10|2,0:0|0:0,0:0:0:0:
488,73,15120,2,0,P|432:53|386:58,1,100,2|0,1:0|1:0,0:0:0:0:
399,243,15414,6,0,L|424:137,1,100,10|0,0:0|0:0,0:0:0:0:
373,333,15708,1,2,1:0:0:0:
295,197,15856,1,0,1:0:0:0:
236,358,16003,2,0,P|186:348|146:304,1,100,8|0,0:0|0:0,0:0:0:0:
116,135,16297,2,0,P|189:162|215:293,1,200,2|8,1:0|0:0,0:0:0:0:
71,355,16738,1,0,1:0:0:0:
37,108,16885,5,10,1:0:0:0:
123,239,17032,1,0,1:0:0:0:
212,94,17179,2,0,L|248:23,1,75.0000028610231,0|0,1:0|1:0,0:0:0:0:
169,169,17473,1,6,1:0:0:0:
323,110,17620,1,0,1:0:0:0:
254,257,17767,2,0,P|314:275|399:246,1,150.000005722046,8|0,0:0|1:0,0:0:0:0:
458,67,18208,1,0,1:0:0:0:
298,34,18356,6,0,P|262:56|245:104,1,75.0000028610231,10|0,0:0|0:0,0:0:0:0:
323,110,18650,2,0,P|301:146|253:163,1,75.0000028610231,2|2,1:0|1:0,0:0:0:0:
111,169,18944,2,0,B|159:150|159:150|197:150,1,75.0000028610231,10|0,0:0|0:0,0:0:0:0:
170,233,19238,2,0,B|122:252|122:252|84:252,1,75.0000028610231,2|0,1:0|1:0,0:0:0:0:
26,198,19532,1,10,0:0:0:0:
45,112,19679,1,2,0:0:0:0:
45,112,19753,1,2,0:0:0:0:
45,112,19826,6,0,B|103:58|103:58|207:58,1,150.000005722046,2|8,1:0|0:0,0:0:0:0:
253,79,20267,1,0,0:0:0:0:
332,100,20414,2,0,L|318:186,1,75.0000028610231,0|0,1:0|1:0,0:0:0:0:
229,179,20708,2,0,L|243:265,1,75.0000028610231,10|0,0:0|0:0,0:0:0:0:
332,258,21003,2,0,L|318:344,1,75.0000028610231,2|0,1:0|1:0,0:0:0:0:
225,355,21297,6,0,B|176:355|176:355|131:340,1,75.0000028610231,10|2,0:0|0:0,0:0:0:0:
155,268,21591,2,0,B|131:260|131:260|82:260,1,75.0000028610231,2|2,1:0|1:0,0:0:0:0:
76,340,21885,1,8,0:0:0:0:
26,189,22032,1,2,0:0:0:0:
26,189,22106,1,2,0:0:0:0:
26,189,22179,6,0,B|140:189|140:189|181:202,1,150.000005722046,2|8,0:0|0:0,0:0:0:0:
249,263,22620,1,0,0:0:0:0:
250,161,22767,2,0,L|250:78,1,75.0000028610231,0|0,1:0|1:0,0:0:0:0:
340,6,23061,2,0,L|340:89,1,75.0000028610231,10|0,0:0|0:0,0:0:0:0:
160,166,23356,2,0,L|160:83,1,75.0000028610231,2|0,1:0|1:0,0:0:0:0:
250,11,23650,6,0,L|250:94,1,75.0000028610231,10|0,0:0|0:0,0:0:0:0:
70,171,23944,2,0,L|70:88,1,75.0000028610231,2|0,1:0|1:0,0:0:0:0:
160,16,24238,2,0,L|160:99,1,75.0000028610231,10|2,0:0|1:0,0:0:0:0:
160,166,24458,1,2,0:0:0:0:
160,166,24532,2,0,B|228:166|228:166|243:172|243:172|316:171,1,150.000005722046,2|8,1:0|0:0,0:0:0:0:
349,259,24973,1,0,0:0:0:0:
392,346,25120,6,0,P|354:356|304:345,1,75.0000028610231,2|0,1:0|1:0,0:0:0:0:
210,232,25414,1,8,0:0:0:0:
243,384,25561,1,0,0:0:0:0:
289,195,25708,2,0,P|268:166|216:143,1,75.0000028610231,2|0,1:0|1:0,0:0:0:0:
67,232,26003,1,8,0:0:0:0:
75,226,26297,5,10,0:0:0:0:
276,32,26444,1,8,0:0:0:0:
228,307,26591,1,8,0:0:0:0:
105,56,26738,1,8,0:0:0:0:
352,187,26885,2,0,P|439:133|450:39,1,200,6|8,1:0|0:0,0:0:0:0:
276,32,27326,1,0,0:0:0:0:
272,214,27473,6,0,P|299:259|372:272,1,100,2|0,1:0|1:0,0:0:0:0:
311,110,27767,2,0,P|256:104|194:133,1,100,10|0,0:0|0:0,0:0:0:0:
108,292,28061,1,2,1:0:0:0:
272,214,28208,1,0,1:0:0:0:
35,262,28356,2,0,P|31:315|65:358,1,100,10|2,0:0|0:0,0:0:0:0:
310,301,28650,1,0,1:0:0:0:
108,292,28797,1,2,1:0:0:0:
365,359,28944,2,0,P|388:318|370:248,1,100,8|0,0:0|0:0,0:0:0:0:
364,175,29164,1,2,0:0:0:0:
364,175,29238,2,0,L|248:200,1,100,6|0,1:0|1:0,0:0:0:0:
88,132,29532,6,0,L|185:110,1,100,8|0,0:0|0:0,0:0:0:0:
406,64,29826,1,2,1:0:0:0:
266,196,29973,1,0,1:0:0:0:
233,27,30120,2,0,P|290:31|353:86,1,100,10|0,0:0|0:0,0:0:0:0:
405,217,30414,1,2,1:0:0:0:
263,106,30561,1,0,1:0:0:0:
182,273,30708,6,0,P|133:282|83:275,1,100,10|0,0:0|0:0,0:0:0:0:
221,203,31003,2,0,P|255:240|262:289,1,100,2|0,1:0|1:0,0:0:0:0:
142,204,31297,2,0,P|157:157|196:128,1,100,10|0,0:0|0:0,0:0:0:0:
296,107,31517,1,2,0:0:0:0:
296,107,31591,2,0,L|329:205,1,100,6|0,1:0|1:0,0:0:0:0:
383,353,31885,1,8,0:0:0:0:
451,178,32032,1,0,0:0:0:0:
305,301,32179,6,0,B|262:301|262:301|245:295|245:295|196:296,1,100,2|0,1:0|1:0,0:0:0:0:
106,151,32473,2,0,L|83:252,1,100,10|0,0:0|0:0,0:0:0:0:
172,98,32767,2,0,P|129:70|68:79,1,100,2|0,1:0|1:0,0:0:0:0:
23,301,33061,2,0,P|63:326|143:304,1,100,10|2,0:0|0:0,0:0:0:0:
268,154,33356,1,0,1:0:0:0:
32,125,33503,1,2,1:0:0:0:
218,224,33650,2,0,B|266:248|314:224|314:224|362:200|434:224,1,200,10|0,0:0|1:0,0:0:0:0:
358,294,34091,1,0,1:0:0:0:
268,154,34238,6,0,P|317:130|385:132,1,100,8|0,0:0|1:0,0:0:0:0:
250,253,34532,2,0,P|182:209|181:95,1,200,8|0,0:0|1:0,0:0:0:0:
358,37,34973,2,0,P|412:52|446:90,1,100,8|0,0:0|1:0,0:0:0:0:
358,294,35267,1,0,1:0:0:0:
260,61,35414,2,0,P|222:21|164:11,1,100,8|0,0:0|1:0,0:0:0:0:
24,99,35708,1,2,1:0:0:0:
179,189,35856,1,0,1:0:0:0:
102,54,36003,1,2,1:0:0:0:
102,144,36150,1,0,1:0:0:0:
179,99,36297,6,0,P|257:142|243:251,1,200,6|0,0:0|1:0,0:0:0:0:
157,310,36738,1,2,0:0:0:0:
157,310,36811,1,2,0:0:0:0:
157,310,36885,2,0,P|185:343|242:356,1,75.0000028610231,2|0,1:0|0:0,0:0:0:0:
355,301,37179,1,2,1:0:0:0:
355,301,37253,1,2,0:0:0:0:
355,301,37326,2,0,P|409:302|453:330,1,75.0000028610231,2|0,1:0|1:0,0:0:0:0:
499,180,37620,1,0,0:0:0:0:
347,193,37767,5,2,1:0:0:0:
475,254,37914,1,2,0:0:0:0:
392,122,38061,2,0,P|336:111|294:132,1,75.0000028610231,2|0,1:0|0:0,0:0:0:0:
193,202,38356,2,0,P|136:184|116:145,1,75.0000028610231,2|0,1:0|0:0,0:0:0:0:
119,77,38576,1,0,0:0:0:0:
119,77,38650,2,0,L|295:52,1,150.000005722046,2|0,1:0|1:0,0:0:0:0:
371,40,39091,1,0,0:0:0:0:
478,30,39238,6,0,L|453:206,1,150.000005722046,2|2,1:0|1:0,0:0:0:0:
436,281,39679,1,0,0:0:0:0:
333,288,39826,2,0,B|241:282|241:282|161:296,1,150.000005722046,2|2,1:0|1:0,0:0:0:0:
92,90,40267,2,0,L|107:35,1,37.5000014305115,0|0,1:0|1:0,0:0:0:0:
47,263,40414,1,10,0:0:0:0:
178,67,40561,1,2,1:0:0:0:
220,217,40708,1,8,0:0:0:0:
70,176,40856,1,0,1:0:0:0:
157,153,41003,5,2,1:0:0:0:
157,153,41076,1,2,0:0:0:0:
157,153,41150,2,0,B|209:137|209:137|318:137,1,150.000005722046,2|0,0:0|0:0,0:0:0:0:
403,143,41591,1,2,1:0:0:0:
403,143,41664,1,2,0:0:0:0:
403,143,41738,2,0,B|419:195|419:195|419:304,1,150.000005722046,2|0,0:0|0:0,0:0:0:0:
343,343,42179,5,2,1:0:0:0:
343,343,42252,1,2,0:0:0:0:
343,343,42326,2,0,B|291:359|291:359|195:359,1,150.000005722046,2|0,0:0|0:0,0:0:0:0:
47,289,42767,2,0,B|99:273|99:273|208:273,1,150.000005722046,2|0,1:0|1:0,0:0:0:0:
110,353,43208,1,0,0:0:0:0:
117,200,43356,2,0,L|290:200,1,150.000005722046,2|0,1:0|1:0,0:0:0:0:
369,203,43797,1,0,0:0:0:0:
412,113,43944,6,0,B|310:92|354:137|252:113,1,150.000005722046,2|0,1:0|1:0,0:0:0:0:
299,24,44385,1,0,0:0:0:0:
192,45,44532,2,0,P|163:97|200:189,1,150.000005722046,2|0,1:0|1:0,0:0:0:0:
347,245,44973,1,0,1:0:0:0:
264,115,45120,1,0,1:0:0:0:
352,258,45414,1,0,1:0:0:0:
204,213,45708,6,0,P|147:204|80:233,2,119.999996337891,4|0|0,0:0|0:0|0:0,0:0:0:0:
387,318,47326,2,0,L|403:368,1,37.5000014305115,0|0,1:0|1:0,0:0:0:0:
294,56,47473,1,8,0:0:0:0:
205,318,47620,1,0,1:0:0:0:
382,109,47767,1,8,0:0:0:0:
204,213,47914,2,0,P|112:209|73:106,1,200,6|0,1:0|0:0,0:0:0:0:
232,118,48356,6,0,P|274:142|301:209,1,100,10|0,0:0|0:0,0:0:0:0:
112,359,48650,1,2,1:0:0:0:
160,132,48797,1,0,1:0:0:0:
308,277,48944,2,0,P|360:255|392:199,1,100,8|0,0:0|0:0,0:0:0:0:
396,29,49238,1,2,1:0:0:0:
298,186,49385,1,0,1:0:0:0:
479,140,49532,6,0,P|501:196|498:267,1,100,10|0,0:0|0:0,0:0:0:0:
328,361,49826,1,2,1:0:0:0:
345,111,49973,1,0,1:0:0:0:
212,286,50120,1,10,0:0:0:0:
481,327,50267,2,0,B|355:330|412:268|277:285,1,200,4|0,0:0|1:0,0:0:0:0:
159,351,50708,6,0,P|199:370|267:350,1,100,10|0,0:0|0:0,0:0:0:0:
345,111,51003,1,2,1:0:0:0:
212,286,51150,1,0,1:0:0:0:
413,163,51297,2,0,P|430:120|408:50,1,100,8|0,0:0|0:0,0:0:0:0:
170,75,51591,2,0,P|121:95|93:155,1,100,2|0,1:0|1:0,0:0:0:0:
240,228,51885,6,0,L|174:151,1,100,10|0,0:0|0:0,0:0:0:0:
244,305,52179,2,0,P|293:285|321:225,1,100,2|0,1:0|1:0,0:0:0:0:
265,35,52473,1,8,0:0:0:0:
96,133,52620,2,0,P|62:212|137:309,1,200,6|0,1:0|1:0,0:0:0:0:
188,122,53061,2,0,P|172:75|120:39,1,100,10|0,0:0|0:0,0:0:0:0:
118,301,53356,1,2,1:0:0:0:
96,133,53503,1,0,1:0:0:0:
199,305,53650,2,0,P|179:359|108:385,1,100,8|0,0:0|0:0,0:0:0:0:
27,192,53944,2,0,P|7:150|16:80,1,100,2|0,1:0|1:0,0:0:0:0:
269,25,54238,6,0,P|289:67|280:137,1,100,10|0,0:0|0:0,0:0:0:0:
199,305,54532,1,2,1:0:0:0:
197,86,54679,1,0,1:0:0:0:
386,208,54826,1,8,0:0:0:0:
113,178,54973,2,0,P|66:103|113:-7,1,200,6|0,1:0|1:0,0:0:0:0:
192,219,55414,6,0,P|159:258|108:269,1,100,8|0,0:0|0:0,0:0:0:0:
197,86,55708,1,0,1:0:0:0:
308,254,55856,1,0,1:0:0:0:
51,218,56003,2,0,P|30:269|53:330,1,100,8|0,0:0|0:0,0:0:0:0:
99,156,56297,6,0,B|101:5|101:5|192:3|136:77|136:77|210:84|211:166|101:156,1,450.000017166138,2|0,0:0|0:0,0:0:0:0:
268,193,56885,6,0,P|186:227|313:291,1,300.000011444092,2|0,0:0|0:0,0:0:0:0:
376,202,57326,6,0,B|429:341|429:341|486:162,1,300.000011444092,6|0,0:0|1:0,0:0:0:0:
315,110,57767,6,0,P|281:143|270:210,1,100,10|0,0:0|0:0,0:0:0:0:
356,353,58061,1,2,1:0:0:0:
421,101,58208,1,0,1:0:0:0:
243,283,58356,2,0,P|195:257|177:208,1,100,8|0,0:0|0:0,0:0:0:0:
225,0,58650,1,2,1:0:0:0:
267,192,58797,1,0,1:0:0:0:
99,52,58944,6,0,P|58:72|22:132,1,100,10|0,0:0|0:0,0:0:0:0:
211,344,59238,1,2,1:0:0:0:
118,145,59385,1,0,1:0:0:0:
15,327,59532,1,10,0:0:0:0:
153,240,59679,2,0,B|202:224|252:240|252:240|306:259|358:240,1,200,6|0,1:0|1:0,0:0:0:0:
408,60,60120,6,0,P|353:71|307:129,1,100,10|0,0:0|0:0,0:0:0:0:
410,333,60414,1,2,1:0:0:0:
402,153,60561,1,0,1:0:0:0:
252,252,60708,2,0,P|269:302|336:335,1,100,8|0,0:0|0:0,0:0:0:0:
321,99,61003,2,0,P|267:75|207:64,1,100,2|0,1:0|1:0,0:0:0:0:
37,184,61297,6,0,P|91:208|151:219,1,100,10|0,0:0|0:0,0:0:0:0:
343,177,61591,2,0,P|385:152|399:77,1,100,2|0,1:0|1:0,0:0:0:0:
227,66,61885,1,8,0:0:0:0:
256,291,62032,2,0,P|325:330|438:283,1,200,6|2,1:0|1:0,0:0:0:0:
231,187,62473,2,0,P|183:202|145:273,1,100,10|0,0:0|0:0,0:0:0:0:
301,384,62767,1,2,1:0:0:0:
350,157,62914,1,0,1:0:0:0:
132,320,63061,2,0,P|84:294|71:232,1,100,8|0,0:0|0:0,0:0:0:0:
245,80,63356,6,0,L|244:204,1,100,2|0,1:0|1:0,0:0:0:0:
436,266,63650,2,0,L|437:142,1,100,10|0,0:0|0:0,0:0:0:0:
289,10,63944,2,0,P|237:-1|175:30,1,100,2|0,1:0|1:0,0:0:0:0:
43,213,64238,1,10,0:0:0:0:
261,254,64385,2,0,P|294:173|228:70,1,200,6|0,1:0|1:0,0:0:0:0:
172,300,64826,6,0,P|203:340|265:350,1,100,8|0,0:0|0:0,0:0:0:0:
388,192,65120,1,8,0:0:0:0:
249,272,65267,1,0,1:0:0:0:
388,272,65414,1,0,1:0:0:0:
319,232,65561,1,0,1:0:0:0:
319,312,65708,2,0,P|381:352|467:281,1,200,6|8,1:0|0:0,0:0:0:0:
482,59,66150,1,0,1:0:0:0:
482,59,66223,1,0,1:0:0:0:
482,59,66297,1,10,0:0:0:0:
388,272,66444,1,0,1:0:0:0:
295,29,66591,5,8,0:0:0:0:
477,336,66738,1,2,1:0:0:0:
482,59,66885,5,8,0:0:0:0:
262,314,67032,1,0,1:0:0:0:
108,76,67179,5,10,0:0:0:0:
472,64,67326,1,0,1:0:0:0:
16,165,67473,5,10,0:0:0:0:
358,69,67620,1,0,1:0:0:0:
117,336,67767,5,10,0:0:0:0:
43,30,67914,1,0,1:0:0:0:
3,341,68061,5,10,0:0:0:0:
184,42,68208,1,0,1:0:0:0:
281,352,68355,5,10,0:0:0:0:
144,102,68503,1,2,1:0:0:0:
117,336,68650,5,8,0:0:0:0:
387,169,68797,1,2,1:0:0:0:
198,349,68944,5,10,0:0:0:0:
276,43,69091,1,0,1:0:0:0:
458,355,69238,5,10,0:0:0:0:
248,121,69385,1,0,1:0:0:0:
276,362,69532,5,10,0:0:0:0:
472,82,69679,1,0,1:0:0:0:
160,41,69826,5,10,0:0:0:0:
392,315,69973,1,0,1:0:0:0:
340,41,70120,5,10,0:0:0:0:
186,320,70267,1,2,1:0:0:0:
441,216,70414,5,10,0:0:0:0:
86,85,70561,1,0,1:0:0:0:
197,312,70708,5,10,0:0:0:0:
144,18,70855,1,2,1:0:0:0:
0,272,71003,5,8,0:0:0:0:
249,37,71150,1,2,1:0:0:0:
146,321,71297,5,8,0:0:0:0:
63,17,71444,1,0,1:0:0:0:
286,170,71591,5,10,0:0:0:0:
54,238,71738,1,0,1:0:0:0:
175,87,71885,5,8,0:0:0:0:
270,328,72032,1,0,1:0:0:0:
111,164,72179,5,10,0:0:0:0:
372,128,72326,1,0,1:0:0:0:
167,284,72473,5,8,0:0:0:0:
428,248,72620,1,0,1:0:0:0:
206,143,72767,5,10,0:0:0:0:
352,359,72914,1,0,1:0:0:0:
501,132,73061,5,8,0:0:0:0:
308,268,73208,1,0,1:0:0:0:
346,28,73355,5,10,0:0:0:0:
428,248,73503,1,0,1:0:0:0:
245,145,73650,5,8,0:0:0:0:
466,42,73797,1,0,1:0:0:0:
341,199,73944,5,10,0:0:0:0:
220,2,74091,1,0,1:0:0:0:
149,201,74238,5,8,0:0:0:0:
381,98,74385,1,0,1:0:0:0:
292,306,74532,5,10,0:0:0:0:
231,74,74679,1,0,1:0:0:0:
117,326,74826,5,8,0:0:0:0:
305,158,74973,1,0,1:0:0:0:
101,108,75120,5,10,0:0:0:0:
223,331,75267,1,0,1:0:0:0:
32,215,75414,5,8,0:0:0:0:
286,185,75561,1,0,1:0:0:0:
109,283,75708,5,10,0:0:0:0:
202,109,75855,1,0,1:0:0:0:
276,276,76003,2,0,P|311:276|354:252,1,75,0|0,1:0|0:0,0:0:0:0:
353,248,76288,2,0,P|407:216|391:344,3,279.999991455078,6|2|2|2,1:0|1:0|1:0|1:0,1:0:0:0:
303,324,78199,1,0,1:0:0:0:
270,223,78346,2,0,P|277:194|293:172,1,50,0|0,1:0|1:0,0:0:0:0:
383,142,78640,6,0,P|342:87|242:88,1,150.000005722046,6|2,0:0|1:0,0:0:0:0:
381,224,79082,2,0,P|421:217|459:175,1,75.0000028610231,2|8,0:0|0:0,0:0:0:0:
359,58,79376,1,0,0:0:0:0:
300,212,79523,2,0,P|302:251|343:305,1,75.0000028610231,2|0,0:0|0:0,0:0:0:0:
428,342,79817,2,0,L|428:322,1,12.5,2|0,0:0|0:0,0:0:0:0:
355,360,79964,2,0,L|355:341,1,12.5,2|0,0:0|0:0,0:0:0:0:
282,378,80111,2,0,L|282:359,1,12.5,2|0,0:0|0:0,0:0:0:0:
209,360,80258,2,0,L|209:347,1,12.5,2|0,0:0|0:0,0:0:0:0:
116,250,80405,5,8,0:0:0:0:
267,219,80552,2,0,L|267:200,1,12.5,2|0,0:0|0:0,0:0:0:0:
194,237,80699,2,0,L|194:218,1,12.5,2|0,0:0|0:0,0:0:0:0:
38,263,80846,1,0,0:0:0:0:
81,112,80993,2,0,B|151:112|151:112|166:117|166:117|236:116,1,150.000005722046,6|0,0:0|1:0,0:0:0:0:
387,44,81435,2,0,L|294:43,1,75.0000028610231,2|8,0:0|0:0,0:0:0:0:
174,39,81729,1,0,0:0:0:0:
421,122,81876,2,0,P|452:98|473:51,1,75.0000028610231,2|0,0:0|0:0,0:0:0:0:
279,129,82170,6,0,L|279:149,1,12.5,2|0,0:0|0:0,0:0:0:0:
344,175,82317,2,0,L|344:195,1,12.5,2|0,0:0|0:0,0:0:0:0:
279,221,82464,2,0,L|279:241,1,12.5,2|0,0:0|0:0,0:0:0:0:
344,267,82611,2,0,L|344:287,1,12.5,2|0,0:0|0:0,0:0:0:0:
279,313,82758,1,8,0:0:0:0:
136,194,82905,2,0,L|136:214,1,12.5,2|0,0:0|0:0,0:0:0:0:
135,258,83052,2,0,L|135:278,1,12.5,2|0,0:0|0:0,0:0:0:0:
135,322,83199,1,0,0:0:0:0:
208,133,83346,6,0,P|136:102|59:139,1,150.000005722046,6|0,0:0|1:0,0:0:0:0:
234,212,83788,2,0,P|267:195|292:139,1,75.0000028610231,2|8,0:0|0:0,0:0:0:0:
149,64,84082,1,0,0:0:0:0:
179,268,84229,2,0,P|210:288|271:281,1,75.0000028610231,2|0,0:0|0:0,0:0:0:0:
401,187,84523,1,2,0:0:0:0:
401,187,84670,1,2,0:0:0:0:
340,353,84817,5,2,0:0:0:0:
340,353,84964,2,0,L|248:365,1,75.0000028610231,2|8,0:0|0:0,0:0:0:0:
85,311,85258,1,2,0:0:0:0:
85,311,85405,2,0,L|51:163,1,150.000005722046,2|6,0:0|0:0,0:0:0:0:
