osu file format v14

[General]
AudioFilename: audio.mp3
AudioLeadIn: 0
PreviewTime: -1
Countdown: 1
SampleSet: Soft
StackLeniency: 0.7
Mode: 0
LetterboxInBreaks: 0
WidescreenStoryboard: 1

[Editor]
DistanceSpacing: 2.1
BeatDivisor: 4
GridSize: 32
TimelineZoom: 3.1

[Metadata]
Title:Black Rover (TV Size)
TitleUnicode:Black Rover (TV Size)
Artist:Onsei Project
ArtistUnicode:Onsei Project
Creator:DJKratos
Version:Extra
Source:ブラッククローバー
Tags:clover opening op cover kuroame brazilian
BeatmapID:1765891
BeatmapSetID:836433

[Difficulty]
HPDrainRate:6
CircleSize:4
OverallDifficulty:9
ApproachRate:9.3
SliderMultiplier:2
SliderTickRate:1

[Events]
//Background and Video events
0,0,"thumb-1920-918477.jpg",0,0
//Break Periods
//Storyboard Layer 0 (Background)
//Storyboard Layer 1 (Fail)
//Storyboard Layer 2 (Pass)
//Storyboard Layer 3 (Foreground)
//Storyboard Sound Samples

[TimingPoints]
1000,294.117647058824,4,2,1,50,1,0
1000,-153.846153846153,4,2,1,50,0,0
5705,294.117647058824,4,2,1,50,1,0
5705,-153.846153846153,4,2,1,50,0,0
7278,-133.333333333333,4,2,1,50,0,0
7322,255.31914893617,4,2,1,50,1,0
7449,303.030303030303,4,2,1,50,1,0
7600,283.018867924528,4,2,1,50,1,0
7741,294.117647058824,4,2,1,50,1,0
7896,329.67032967033,4,2,1,50,1,0
7896,-133.333333333333,4,2,1,50,0,0
8086,-133.333333333333,4,2,1,5,0,0
8160,-133.333333333333,4,2,1,50,0,0
8225,294.117647058824,4,2,1,50,1,0
8356,294.117647058824,4,2,1,50,1,0
8356,-133.333333333333,4,2,1,50,0,0
8527,-133.333333333333,4,2,1,50,0,0
8601,-133.333333333333,4,2,1,50,0,0
10257,-133.333333333333,4,2,1,50,0,0
10439,-133.333333333333,4,2,1,5,0,0
10512,-133.333333333333,4,2,1,50,0,0
12792,-133.333333333333,4,2,1,50,0,0
12865,-133.333333333333,4,2,1,50,0,0
13233,-133.333333333333,4,2,1,50,0,0
13307,-133.333333333333,4,2,1,50,0,0
14998,-133.333333333333,4,2,1,50,0,0
15071,-133.333333333333,4,2,1,50,0,0
15293,-133.333333333333,4,2,1,50,0,0
15366,-133.333333333333,4,2,1,50,0,0
16174,-133.333333333333,4,2,1,50,0,0
16248,-133.333333333333,4,2,1,50,0,0
22351,-133.333333333333,4,2,1,50,0,0
26864,-133.333333333333,4,2,1,50,0,0
27084,-133.333333333333,4,2,1,50,0,0
27130,-133.333333333333,4,2,1,50,0,0
27131,-133.333333333333,4,2,1,50,0,0
31468,-133.333333333333,4,2,1,50,0,0
31469,-133.333333333333,4,2,1,50,0,0
31542,-133.333333333333,4,2,1,50,0,0
31543,-133.333333333333,4,2,1,50,0,0
33821,-133.333333333333,4,2,1,50,0,0
33822,-133.333333333333,4,2,1,50,0,0
33895,-133.333333333333,4,2,1,50,0,0
33896,-133.333333333333,4,2,1,50,0,0
34704,-133.333333333333,4,2,1,50,0,0
34777,-133.333333333333,4,2,1,50,0,0
36174,-133.333333333333,4,2,1,50,0,0
36248,-133.333333333333,4,2,1,50,0,0
45659,-500,4,2,1,50,0,0
45660,-181.818181818181,4,2,1,50,0,0
47204,-133.333333333333,4,2,1,50,0,0
47277,-133.333333333333,4,2,1,50,0,0
47278,-133.333333333333,4,2,1,50,0,0
48527,-133.333333333333,4,2,1,50,0,0
48601,-133.333333333333,4,2,1,50,0,0
49115,-133.333333333333,4,2,1,50,0,0
49189,-133.333333333333,4,2,1,50,0,0
49704,-133.333333333333,4,2,1,50,0,0
49777,-133.333333333333,4,2,1,50,0,0
50880,-133.333333333333,4,2,1,50,0,0
50954,-133.333333333333,4,2,1,50,0,0
51468,-133.333333333333,4,2,1,50,0,0
51542,-133.333333333333,4,2,1,50,0,0
52351,-133.333333333333,4,2,1,50,0,0
52424,-133.333333333333,4,2,1,50,0,0
53874,-133.333333333333,4,2,1,50,0,0
53948,-133.333333333333,4,2,1,50,0,0
54115,-133.333333333333,4,2,1,50,0,0
54189,-133.333333333333,4,2,1,50,0,0
55586,-133.333333333333,4,2,1,50,0,0
55659,-133.333333333333,4,2,1,50,0,0
56276,-100,4,2,1,50,0,0
56889,-80,4,2,1,50,0,0
57645,-100,4,2,1,50,0,0
57698,-133.333333333333,4,2,1,50,0,0
57718,-133.333333333333,4,2,1,50,0,0
65982,-100,4,2,1,50,0,1
66003,294.117647058824,4,2,1,50,1,1
75981,-133.333333333333,4,2,1,50,0,0
76288,294.117647058824,4,2,1,50,1,0
76288,-250,4,2,1,50,0,0
78640,-133.333333333333,4,2,1,50,0,0
87464,-133.333333333333,4,2,1,50,0,0

[Colours]
Combo1 : 93,93,93
Combo2 : 192,192,192

[HitObjects]
51,71,1000,6,0,L|129:34,1,64.9999970245363,2|0,0:0|0:0,0:0:0:0:
118,133,1294,2,0,L|204:139,1,64.9999970245363,2|0,0:0|0:0,0:0:0:0:
145,220,1588,2,0,L|216:269,1,64.9999970245363,2|0,0:0|0:0,2:0:0:0:
124,308,1882,2,0,L|161:386,1,64.9999970245363,2|0,0:0|0:0,2:0:0:0:
319,344,2176,6,0,P|300:310|304:257,1,64.9999970245363,2|0,0:0|0:0,0:0:0:0:
432,316,2470,2,0,P|394:305|359:265,1,64.9999970245363,2|0,0:0|0:0,0:0:0:0:
493,216,2764,2,0,P|458:235|406:230,1,64.9999970245363,2|0,0:0|0:0,0:0:0:0:
466,102,3058,2,0,P|455:139|415:174,1,64.9999970245363,2|0,0:0|0:0,0:0:0:0:
366,41,3352,2,0,P|385:75|380:128,1,64.9999970245363,2|0,0:0|0:0,0:0:0:0:
341,182,3647,6,0,P|279:204|213:173,1,129.999994049073,2|2,0:0|0:0,0:0:0:0:
281,127,4088,1,0,0:0:0:0:
57,140,4235,6,0,P|84:123|116:118,1,64.9999970245363,2|0,0:0|0:0,0:0:0:0:
84,254,4529,2,0,P|91:222|111:196,1,64.9999970245363,2|0,0:0|0:0,0:0:0:0:
183,315,4823,2,0,P|166:287|161:255,1,64.9999970245363,2|0,0:0|0:0,0:0:0:0:
295,288,5117,2,0,P|263:280|237:261,1,64.9999970245363,2|0,0:0|0:0,0:0:0:0:
355,189,5411,2,0,P|327:205|295:210,1,64.9999970245363,2|0,0:0|0:0,0:0:0:0:
240,154,5705,2,0,P|267:137|299:132,1,64.9999970245363,2|0,0:0|0:0,0:0:0:0:
165,251,5999,1,2,0:0:0:0:
295,210,6146,1,0,0:0:0:0:
250,340,6294,6,0,P|197:311|164:237,1,129.999994049073,2|2,0:0|0:0,0:0:0:0:
114,103,6735,1,0,0:0:0:0:
56,167,6882,2,0,P|115:186|181:157,1,129.999994049073,2|2,0:0|0:0,0:0:0:0:
287,44,7323,1,0,1:0:0:0:
287,44,7385,1,0,1:0:0:0:
287,44,7449,1,8,0:0:0:0:
360,193,7600,1,0,1:0:0:0:
259,117,7741,1,10,0:0:0:0:
296,277,7896,2,0,P|355:294|449:264,1,150.000005722046,14|0,0:0|0:0,0:0:0:0:
482,103,8356,6,0,P|456:81|402:60,1,75.0000028610231,8|0,0:0|0:0,0:0:0:0:
360,193,8650,1,2,1:0:0:0:
320,42,8797,1,0,1:0:0:0:
171,86,8944,2,0,B|137:99|98:87|98:87,1,75.0000028610231,14|0,0:0|0:0,0:0:0:0:
27,22,9238,1,0,1:0:0:0:
133,17,9385,1,0,1:0:0:0:
62,157,9532,1,10,0:0:0:0:
171,86,9679,1,0,0:0:0:0:
100,226,9826,1,0,1:0:0:0:
209,155,9973,1,0,1:0:0:0:
136,333,10120,5,10,0:0:0:0:
244,267,10267,2,0,P|319:255|397:294,1,150.000005722046,2|0,1:0|0:0,0:0:0:0:
274,338,10708,2,0,P|308:334|360:358,1,75.0000028610231,10|0,0:0|0:0,0:0:0:0:
464,293,11002,1,2,1:0:0:0:
423,374,11149,1,0,1:0:0:0:
361,212,11296,2,0,B|375:157|375:157|397:128|397:128|414:70,1,150.000005722046,14|2,0:0|1:0,0:0:0:0:
285,77,11738,1,2,1:0:0:0:
191,163,11885,6,0,P|159:117|154:72,1,75.0000028610231,8|2,0:0|0:0,0:0:0:0:
66,232,12179,1,2,1:0:0:0:
71,104,12326,1,0,1:0:0:0:
137,212,12473,1,8,0:0:0:0:
27,306,12620,2,0,B|63:320|104:305|104:305|142:291|183:306,1,150.000005722046,6|0,0:0|0:0,0:0:0:0:
228,231,13061,2,0,P|260:276|264:308,1,75.0000028610231,8|0,0:0|0:0,0:0:0:0:
385,212,13355,1,0,1:0:0:0:
375,339,13502,1,0,1:0:0:0:
303,166,13649,6,0,P|362:120|445:142,1,150.000005722046,8|0,0:0|1:0,0:0:0:0:
385,212,14090,1,2,1:0:0:0:
257,107,14238,2,0,P|281:78|341:58,1,75.0000028610231,8|2,0:0|0:0,0:0:0:0:
431,131,14532,1,2,1:0:0:0:
303,166,14679,1,0,1:0:0:0:
466,214,14826,2,0,P|457:251|411:289,1,75.0000028610231,8|0,0:0|0:0,0:0:0:0:
303,166,15120,2,0,B|239:148|258:188|183:167,1,112.500004291535,0|0,1:0|0:0,0:0:0:0:
122,148,15414,2,0,P|155:165|194:169,1,75.0000028610231,8|2,0:0|0:0,0:0:0:0:
184,77,15708,5,0,1:0:0:0:
38,155,15855,1,2,1:0:0:0:
85,84,16002,2,0,P|111:114|122:153,1,75.0000028610231,8|0,0:0|0:0,0:0:0:0:
59,294,16296,1,0,1:0:0:0:
192,169,16443,1,0,1:0:0:0:
163,331,16590,5,8,0:0:0:0:
283,271,16738,2,0,P|321:253|379:250,1,75.0000028610231,0|8,0:0|0:0,0:0:0:0:
455,335,17032,1,0,1:0:0:0:
489,252,17179,1,8,0:0:0:0:
456,192,17326,1,0,1:0:0:0:
420,178,17473,2,0,P|400:92|434:34,1,150.000005722046,2|2,1:0|0:0,0:0:0:0:
94,136,18061,5,0,1:0:0:0:
223,61,18208,1,0,1:0:0:0:
223,211,18355,1,8,0:0:0:0:
96,159,18649,5,2,1:0:0:0:
202,53,18796,1,0,1:0:0:0:
240,198,18943,1,8,0:0:0:0:
105,180,19238,5,2,1:0:0:0:
179,50,19385,1,0,1:0:0:0:
254,180,19532,1,8,0:0:0:0:
136,255,19679,1,0,0:0:0:0:
136,255,19753,1,0,0:0:0:0:
136,255,19826,2,0,B|164:244|209:264|209:264|251:283|302:268,1,150.000005722046,0|8,1:0|0:0,0:0:0:0:
254,180,20414,5,0,1:0:0:0:
225,50,20561,1,0,1:0:0:0:
318,72,20708,1,8,0:0:0:0:
254,180,21003,5,0,1:0:0:0:
384,151,21150,1,0,1:0:0:0:
362,244,21297,1,8,0:0:0:0:
448,43,21591,5,0,1:0:0:0:
477,173,21738,1,0,1:0:0:0:
384,151,21885,1,8,0:0:0:0:
493,263,22032,1,0,0:0:0:0:
493,263,22105,1,0,0:0:0:0:
493,263,22179,2,0,P|423:292|370:358,1,150.000005722046,0|8,1:0|0:0,0:0:0:0:
83,314,22767,6,0,P|70:279|81:223,1,75.0000028610231,0|0,1:0|1:0,0:0:0:0:
229,260,23061,1,8,0:0:0:0:
110,161,23355,6,0,P|133:132|187:113,1,75.0000028610231,0|0,1:0|1:0,0:0:0:0:
229,260,23649,1,8,0:0:0:0:
256,108,23944,6,0,P|292:114|335:151,1,75.0000028610231,0|0,1:0|1:0,0:0:0:0:
229,260,24238,1,8,0:0:0:0:
175,124,24385,1,0,0:0:0:0:
175,124,24458,1,0,0:0:0:0:
175,124,24532,2,0,P|121:76|35:73,1,150.000005722046,0|8,1:0|0:0,0:0:0:0:
66,201,25120,2,0,P|58:240|36:276,2,75.0000028610231,0|0|8,1:0|1:0|0:0,0:0:0:0:
175,322,25708,2,0,P|208:300|249:290,1,75.0000028610231,0|0,1:0|1:0,0:0:0:0:
376,369,26003,1,8,0:0:0:0:
408,196,26297,5,8,0:0:0:0:
242,361,26444,1,8,0:0:0:0:
243,196,26591,1,10,0:0:0:0:
407,361,26738,1,8,0:0:0:0:
491,194,26885,2,0,P|477:152|396:112,1,112.500004291535,14|0,0:0|0:0,0:0:0:0:
397,106,27179,6,0,P|355:87|331:44,1,75.0000028610231,2|0,0:0|0:0,0:0:0:0:
416,16,27473,1,0,1:0:0:0:
408,196,27620,1,0,1:0:0:0:
282,125,27767,2,0,P|247:139|212:179,1,75.0000028610231,8|0,0:0|0:0,0:0:0:0:
238,265,28061,2,0,P|273:251|308:211,1,75.0000028610231,0|0,1:0|1:0,0:0:0:0:
158,203,28355,2,0,P|123:217|88:257,1,75.0000028610231,8|0,0:0|0:0,0:0:0:0:
114,343,28649,2,0,P|149:329|184:289,1,75.0000028610231,0|0,1:0|1:0,0:0:0:0:
34,281,28944,5,8,0:0:0:0:
158,203,29091,1,0,0:0:0:0:
78,80,29238,2,0,P|142:41|229:74,2,150.000005722046,14|0|0,0:0|0:0|1:0,0:0:0:0:
158,178,29973,1,0,1:0:0:0:
278,98,30120,6,0,P|314:107|364:103,1,75.0000028610231,8|0,0:0|0:0,0:0:0:0:
425,188,30414,2,0,P|389:197|339:193,1,75.0000028610231,0|0,1:0|1:0,0:0:0:0:
278,277,30708,2,0,P|314:286|364:282,1,75.0000028610231,8|0,0:0|0:0,0:0:0:0:
260,191,31003,1,0,1:0:0:0:
183,330,31150,1,0,1:0:0:0:
79,250,31297,2,0,P|58:203|67:117,1,112.500004291535,8|0,0:0|0:0,0:0:0:0:
85,75,31591,2,0,P|81:106|52:147,1,75.0000028610231,14|0,0:0|0:0,0:0:0:0:
217,108,31885,5,8,0:0:0:0:
156,251,32032,1,0,0:0:0:0:
262,192,32179,2,0,P|297:183|352:194,1,75.0000028610231,0|0,1:0|1:0,0:0:0:0:
302,336,32473,2,0,B|262:348|226:334|226:334|188:317|141:336,1,150.000005722046,8|0,0:0|1:0,0:0:0:0:
263,263,32914,1,0,1:0:0:0:
375,330,33061,6,0,P|414:296|427:258,1,75.0000028610231,8|0,0:0|0:0,0:0:0:0:
335,187,33355,1,0,1:0:0:0:
455,91,33503,1,0,1:0:0:0:
329,52,33650,2,0,P|283:93|259:155,1,112.500004291535,8|0,0:0|0:0,0:0:0:0:
251,151,33944,2,0,P|216:162|166:148,1,75.0000028610231,10|0,0:0|0:0,0:0:0:0:
71,94,34238,5,10,0:0:0:0:
210,68,34385,1,0,0:0:0:0:
179,156,34532,2,0,L|126:225,1,75.0000028610231,10|0,0:0|0:0,0:0:0:0:
132,323,34826,1,8,0:0:0:0:
231,291,34973,2,0,L|309:345,1,75.0000028610231,10|0,0:0|0:0,0:0:0:0:
132,323,35267,1,10,0:0:0:0:
270,237,35414,2,0,L|348:291,1,75.0000028610231,8|8,0:0|0:0,0:0:0:0:
450,325,35708,5,0,1:0:0:0:
488,227,35855,1,0,1:0:0:0:
434,163,36003,1,0,1:0:0:0:
374,161,36150,1,0,1:0:0:0:
336,159,36297,2,0,B|246:135|274:188|175:158,1,150.000005722046,2|2,1:0|0:0,0:0:0:0:
85,92,36738,1,0,0:0:0:0:
44,205,36885,6,0,P|77:283|152:304,1,150.000005722046,0|2,1:0|0:0,0:0:0:0:
273,295,37326,1,0,0:0:0:0:
273,295,37400,1,0,0:0:0:0:
273,295,37473,2,0,B|307:275|345:295|345:295|386:317|426:293,1,150.000005722046,0|2,0:0|0:0,0:0:0:0:
317,174,37914,1,2,0:0:0:0:
362,99,38061,2,0,P|403:156|373:241,1,150.000005722046,2|0,1:0|0:0,0:0:0:0:
317,174,38503,1,2,0:0:0:0:
271,96,38650,6,0,B|221:103|221:103|180:128|180:128|109:136,1,150.000005722046,2|2,1:0|0:0,0:0:0:0:
57,69,39091,1,0,0:0:0:0:
37,161,39238,2,0,B|44:211|44:211|69:252|69:252|77:323,1,150.000005722046,0|0,1:0|0:0,0:0:0:0:
151,368,39679,1,0,0:0:0:0:
166,275,39826,2,0,B|160:223|160:223|135:182|135:182|128:132,1,150.000005722046,0|0,1:0|0:0,0:0:0:0:
240,66,40267,2,0,L|269:22,2,37.5000014305115,2|0|10,1:0|1:0|0:0,0:0:0:0:
270,246,40561,1,0,1:0:0:0:
201,135,40708,1,10,0:0:0:0:
298,155,40855,1,0,1:0:0:0:
318,63,41003,6,0,P|380:108|385:188,1,150.000005722046,0|0,1:0|0:0,0:0:0:0:
418,248,41591,2,0,B|386:256|346:245|346:245|306:234|269:245,1,150.000005722046,0|2,1:0|0:0,0:0:0:0:
311,333,42179,2,0,B|279:341|239:330|239:330|199:319|162:330,1,150.000005722046,0|0,1:0|0:0,0:0:0:0:
55,249,42767,2,0,B|86:257|126:246|126:246|166:235|203:246,1,150.000005722046,0|2,1:0|0:0,0:0:0:0:
93,176,43208,1,0,0:0:0:0:
199,100,43355,2,0,P|143:49|54:52,1,150.000005722046,0|0,1:0|0:0,0:0:0:0:
93,176,43797,1,0,0:0:0:0:
199,100,43944,6,0,B|253:100|253:100|289:126|289:126|368:126,1,150.000005722046,0|0,1:0|0:0,0:0:0:0:
452,175,44532,2,0,B|398:175|398:175|362:201|362:201|283:201,1,150.000005722046,0|0,1:0|0:0,0:0:0:0:
198,249,45120,2,0,B|252:249|252:249|288:275|288:275|367:275,1,150.000005722046,2|0,1:0|0:0,0:0:0:0:
218,328,45561,1,0,0:0:0:0:
72,304,45708,2,0,B|80:256|108:212|108:212|108:116|4:116|4:212|108:212|108:212|200:192|224:136|212:76|212:76|160:76|144:136,1,605.000018463135,0|2,0:0|1:0,0:0:0:0:
146,127,47400,1,0,1:0:0:0:
146,127,47473,5,8,0:0:0:0:
160,288,47620,1,2,1:0:0:0:
260,156,47767,1,8,0:0:0:0:
288,324,47914,2,0,P|360:304|416:228,1,150.000005722046,4|0,1:0|0:0,0:0:0:0:
433,87,48355,2,0,P|391:105|354:148,1,75.0000028610231,8|0,0:0|0:0,0:0:0:0:
196,193,48650,2,0,P|238:175|275:132,1,75.0000028610231,0|0,1:0|0:0,0:0:0:0:
56,116,48944,2,0,P|123:87|195:122,1,150.000005722046,10|0,0:0|1:0,0:0:0:0:
117,191,49385,1,0,1:0:0:0:
240,331,49532,6,0,P|282:318|313:292,1,75.0000028610231,10|0,0:0|0:0,0:0:0:0:
470,192,49826,2,0,P|428:205|397:231,1,75.0000028610231,2|0,1:0|1:0,0:0:0:0:
486,326,50120,1,10,0:0:0:0:
508,127,50267,2,0,P|448:83|363:69,1,150.000005722046,4|0,0:0|0:0,0:0:0:0:
254,166,50708,2,0,B|219:178|184:160|184:160|141:142|104:166,1,150.000005722046,8|0,0:0|1:0,0:0:0:0:
229,92,51150,1,0,1:0:0:0:
148,228,51297,6,0,B|131:274|131:274|133:322|133:322|116:374,1,150.000005722046,10|2,0:0|1:0,0:0:0:0:
218,282,51738,1,0,1:0:0:0:
62,313,51885,2,0,P|40:287|34:220,1,75.0000028610231,8|0,0:0|0:0,0:0:0:0:
13,373,52179,1,2,1:0:0:0:
115,248,52326,1,0,1:0:0:0:
217,373,52473,5,10,0:0:0:0:
319,247,52620,2,0,P|397:266|435:331,1,150.000005722046,0|2,0:0|1:0,0:0:0:0:
465,168,53061,2,0,L|508:99,1,75.0000028610231,8|0,0:0|0:0,0:0:0:0:
405,13,53355,2,0,L|362:82,1,75.0000028610231,0|0,1:0|1:0,0:0:0:0:
270,103,53650,2,0,P|273:47|302:0,1,112.500004291535,8|0,0:0|0:0,0:0:0:0:
312,6,53944,6,0,P|320:41|312:78,1,75.0000028610231,0|0,1:0|1:0,0:0:0:0:
182,149,54238,2,0,P|174:114|182:77,1,75.0000028610231,8|0,0:0|0:0,0:0:0:0:
311,151,54532,2,0,P|319:186|311:223,1,75.0000028610231,2|0,1:0|1:0,0:0:0:0:
178,297,54826,1,10,0:0:0:0:
56,208,54973,2,0,B|57:154|57:154|72:118|72:118|73:53,1,150.000005722046,0|0,1:0|1:0,0:0:0:0:
134,210,55414,6,0,P|123:248|77:286,1,75.0000028610231,10|0,0:0|0:0,0:0:0:0:
16,365,55708,1,10,0:0:0:0:
56,208,55855,1,0,0:0:0:0:
139,347,56003,2,0,B|184:347|184:347|228:316|228:316,1,75.0000028610231,10|0,0:0|0:0,0:0:0:0:
376,182,56297,6,0,B|445:234|450:303|450:303|416:305|374:268,1,200,4|0,0:0|0:0,0:0:0:0:
278,182,56885,2,0,B|289:101|374:84|374:84|342:38|291:48,1,200,4|0,0:0|0:0,0:0:0:0:
180,160,57326,2,0,B|147:162|111:118|111:118|47:30|208:64|111:118|111:118|55:126|43:166,1,312.5,4|0,0:0|0:0,0:0:0:0:
60,172,57767,2,0,P|72:220|64:260,1,75.0000028610231,10|0,0:0|0:0,0:0:0:0:
173,333,58061,2,0,B|214:333|214:333|261:320|261:320,1,75.0000028610231,0|0,1:0|1:0,0:0:0:0:
371,222,58355,6,0,P|420:289|406:357,1,150.000005722046,12|2,0:0|1:0,0:0:0:0:
328,305,58797,1,0,1:0:0:0:
492,253,58944,2,0,P|462:193|431:165,1,75.0000028610231,8|0,0:0|0:0,0:0:0:0:
336,156,59238,2,0,P|366:216|397:244,1,75.0000028610231,0|0,1:0|1:0,0:0:0:0:
413,40,59532,1,10,0:0:0:0:
231,82,59679,2,0,B|136:101|176:58|68:82,1,150.000005722046,4|0,0:0|0:0,0:0:0:0:
209,14,60120,6,0,P|268:22|304:82,1,112.500004291535,8|0,0:0|0:0,0:0:0:0:
313,86,60414,2,0,P|319:128|338:158,1,75.0000028610231,14|0,0:0|0:0,0:0:0:0:
186,268,60708,2,0,P|190:230|208:198,1,75.0000028610231,0|0,0:0|0:0,0:0:0:0:
235,356,61003,1,0,1:0:0:0:
111,235,61150,1,0,1:0:0:0:
17,365,61297,1,8,0:0:0:0:
186,268,61444,1,0,0:0:0:0:
69,167,61591,6,0,P|77:119|99:77,1,75.0000028610231,0|0,1:0|1:0,0:0:0:0:
243,54,61885,2,0,P|235:102|213:144,1,75.0000028610231,10|4,0:0|0:0,0:0:0:0:
186,268,62179,2,0,P|194:220|216:178,1,75.0000028610231,0|0,0:0|1:0,0:0:0:0:
360,155,62473,2,0,P|352:203|330:245,1,75.0000028610231,8|0,0:0|0:0,0:0:0:0:
275,163,62767,1,0,1:0:0:0:
426,101,62914,1,0,0:0:0:0:
459,252,63061,6,0,B|411:279|411:279|388:314|388:314|326:348,1,150.000005722046,8|0,0:0|1:0,0:0:0:0:
207,227,63503,1,0,1:0:0:0:
212,324,63650,2,0,P|247:313|282:285,1,75.0000028610231,8|0,0:0|0:0,0:0:0:0:
202,130,63944,2,0,P|167:141|132:169,1,75.0000028610231,0|0,1:0|1:0,0:0:0:0:
141,258,64238,1,8,0:0:0:0:
16,165,64385,2,0,P|37:90|106:41,1,150.000005722046,4|14,0:0|0:0,0:0:0:0:
136,163,64826,6,0,P|184:143|219:113,1,75.0000028610231,12|0,0:0|0:0,0:0:0:0:
401,36,65120,1,8,0:0:0:0:
357,216,65267,1,0,1:0:0:0:
272,68,65414,1,0,1:0:0:0:
380,124,65561,1,8,0:0:0:0:
458,238,65708,2,0,L|475:314,1,75.0000028610231,2|0,1:0|0:0,0:0:0:0:
281,229,66003,5,8,0:0:0:0:
378,348,66150,1,0,1:0:0:0:
378,348,66223,1,0,1:0:0:0:
378,348,66297,1,10,0:0:0:0:
369,187,66444,1,0,0:0:0:0:
270,338,66591,6,0,L|165:368,1,100,10|0,0:0|1:0,0:0:0:0:
33,236,66885,2,0,L|138:206,1,100,10|0,0:0|1:0,0:0:0:0:
351,86,67179,5,10,0:0:0:0:
196,247,67326,1,0,1:0:0:0:
361,92,67473,5,10,0:0:0:0:
254,288,67620,1,0,1:0:0:0:
373,95,67767,5,10,0:0:0:0:
320,312,67914,1,0,1:0:0:0:
385,94,68061,5,10,0:0:0:0:
390,318,68208,1,0,1:0:0:0:
489,229,68355,2,0,P|454:196|380:177,1,100,10|0,0:0|1:0,0:0:0:0:
236,261,68650,2,0,P|271:294|345:313,1,100,10|0,0:0|1:0,0:0:0:0:
321,127,68944,2,0,P|286:94|212:75,1,100,10|0,0:0|1:0,0:0:0:0:
68,159,69239,2,0,P|103:192|177:211,1,100,10|0,0:0|1:0,0:0:0:0:
237,76,69532,5,10,0:0:0:0:
76,231,69679,1,0,1:0:0:0:
70,92,69826,5,10,0:0:0:0:
225,253,69973,1,0,1:0:0:0:
224,137,70120,5,10,0:0:0:0:
63,292,70267,1,0,1:0:0:0:
61,187,70414,5,10,0:0:0:0:
216,348,70561,1,0,1:0:0:0:
215,188,70708,2,0,P|263:176|319:132,1,100,10|0,0:0|1:0,0:0:0:0:
468,168,71003,2,0,P|420:180|364:224,1,100,10|0,0:0|1:0,0:0:0:0:
464,333,71297,5,10,0:0:0:0:
426,83,71444,1,0,1:0:0:0:
366,334,71591,5,10,0:0:0:0:
349,81,71738,1,0,1:0:0:0:
268,326,71885,5,10,0:0:0:0:
273,72,72032,1,0,1:0:0:0:
171,309,72179,5,10,0:0:0:0:
198,56,72326,1,0,1:0:0:0:
75,283,72473,5,10,0:0:0:0:
124,33,72620,1,0,1:0:0:0:
29,98,72746,5,10,0:0:0:0:
171,309,72893,1,0,1:0:0:0:
306,139,73040,2,0,P|264:96|219:81,1,100,10|0,0:0|1:0,0:0:0:0:
29,98,73334,2,0,P|71:141|116:156,1,100,10|0,0:0|1:0,0:0:0:0:
171,309,73628,2,0,L|213:214,1,100,10|0,0:0|1:0,0:0:0:0:
412,185,73922,2,0,L|370:280,1,100,10|0,0:0|1:0,0:0:0:0:
289,107,74216,6,0,P|313:53|353:20,1,100,10|0,0:0|1:0,0:0:0:0:
224,154,74510,2,0,P|218:96|237:47,1,100,10|0,0:0|1:0,0:0:0:0:
191,227,74804,2,0,P|157:179|148:127,1,100,10|0,0:0|1:0,0:0:0:0:
73,370,75098,2,0,L|-3:287,1,100,10|0,0:0|1:0,0:0:0:0:
191,227,75393,2,0,L|267:310,1,100,10|0,0:0|1:0,0:0:0:0:
72,153,75687,5,0,1:0:0:0:
229,47,75834,1,8,0:0:0:0:
65,54,75981,1,0,1:0:0:0:
171,124,76128,1,0,1:0:0:0:
313,138,76288,2,0,L|461:63,1,160,0|0,1:0|0:0,0:0:0:0:
452,314,77464,6,0,P|359:328|306:283,1,160,0|0,0:0|0:0,0:0:0:0:
76,277,78640,6,0,P|86:210|156:166,1,150.000005722046,2|2,1:0|1:0,0:0:0:0:
170,260,79082,1,2,0:0:0:0:
245,201,79229,2,0,P|252:167|225:104,1,75.0000028610231,8|2,0:0|1:0,0:0:0:0:
152,92,79523,2,0,P|194:42|276:38,1,150.000005722046,2|2,1:0|1:0,0:0:0:0:
347,156,79964,1,0,1:0:0:0:
347,64,80111,5,0,1:0:0:0:
245,126,80258,2,0,P|240:167|264:220,1,75.0000028610231,0|0,1:0|0:0,0:0:0:0:
347,156,80552,1,0,1:0:0:0:
166,151,80699,2,0,P|168:195|197:248,1,75.0000028610231,0|0,1:0|0:0,0:0:0:0:
281,343,80993,6,0,B|375:328|339:365|455:341,1,150.000005722046,2|2,1:0|1:0,0:0:0:0:
383,269,81435,2,0,P|334:259|295:261,1,75.0000028610231,2|8,1:0|0:0,0:0:0:0:
429,345,81729,1,0,0:0:0:0:
480,254,81876,2,0,P|505:178|470:114,1,150.000005722046,2|0,1:0|1:0,0:0:0:0:
416,191,82317,1,0,1:0:0:0:
382,109,82464,6,0,P|401:60|436:33,1,75.0000028610231,0|0,1:0|1:0,0:0:0:0:
329,11,82758,1,0,0:0:0:0:
268,127,82905,1,0,1:0:0:0:
217,45,83052,2,0,P|140:28|67:47,1,150.000005722046,0|2,1:0|1:0,0:0:0:0:
141,115,83493,1,0,0:0:0:0:
59,168,83640,2,0,P|71:201|61:247,1,75.0000028610231,2|2,1:0|1:0,0:0:0:0:
12,318,83935,5,8,0:0:0:0:
105,343,84082,2,0,P|150:313|174:269,1,75.0000028610231,0|2,0:0|1:0,0:0:0:0:
196,181,84376,2,0,P|151:211|127:255,1,75.0000028610231,0|0,0:0|1:0,0:0:0:0:
226,266,84670,1,0,1:0:0:0:
311,308,84817,2,0,L|352:228,1,75.0000028610231,0|0,1:0|1:0,0:0:0:0:
226,266,85111,1,0,0:0:0:0:
375,337,85258,2,0,L|416:257,1,75.0000028610231,0|0,1:0|1:0,0:0:0:0:
371,117,85699,5,14,0:0:0:0:
256,192,85773,12,0,87464,0:0:0:0:
