osu file format v14

[General]
AudioFilename: audio.mp3
AudioLeadIn: 0
PreviewTime: 109906
Countdown: 1
SampleSet: Normal
StackLeniency: 0.7
Mode: 0
LetterboxInBreaks: 0
WidescreenStoryboard: 1

[Editor]
Bookmarks: 180551
DistanceSpacing: 3.1
BeatDivisor: 4
GridSize: 4
TimelineZoom: 1.4

[Metadata]
Title:Ramua
TitleUnicode:Ramua
Artist:Onoken
ArtistUnicode:Onoken
Creator:Neptune
Version:Home
Source:
Tags:
BeatmapID:1484686
BeatmapSetID:696170

[Difficulty]
HPDrainRate:6
CircleSize:4
OverallDifficulty:8
ApproachRate:9.1
SliderMultiplier:1.4
SliderTickRate:1

[Events]
//Background and Video events
0,0,"alena-aenami-atlast2k2.jpg",0,0
//Break Periods
2,135848,144742
//Storyboard Layer 0 (Background)
//Storyboard Layer 1 (Fail)
//Storyboard Layer 2 (Pass)
//Storyboard Layer 3 (Foreground)
//Storyboard Sound Samples

[TimingPoints]
61326,387.096774193548,4,1,0,11,1,0
61326,-200,4,1,0,11,0,0
63842,-100,4,1,0,11,0,0
63938,-200,4,1,0,5,0,0
64035,-200,4,1,0,11,0,0
64132,-100,4,1,0,5,0,0
64229,-100,4,1,0,30,0,0
65390,-133.333333333333,4,1,0,11,0,0
66745,-133.333333333333,4,1,0,31,0,0
66938,-100,4,1,0,11,0,0
67326,-100,4,1,0,30,0,0
67519,-200,4,1,0,11,0,0
67519,-200,4,1,0,11,0,0
69938,-200,4,1,0,5,0,0
70035,-200,4,1,0,11,0,0
70326,-100,4,1,0,5,0,0
70422,-100,4,1,0,28,0,0
71003,-80,4,1,0,30,0,0
71390,-100,4,1,0,9,0,0
71777,-133.333333333333,4,1,0,7,0,0
72164,-200,4,1,0,5,0,0
72358,-100,4,1,0,16,0,0
72938,-100,4,1,0,31,0,0
73713,-200,4,1,0,11,0,0
75745,-200,4,1,0,5,0,0
75842,-200,4,1,0,11,0,0
76132,-100,4,1,0,5,0,0
76229,-100,4,1,0,31,0,0
78164,-100,4,1,0,5,0,0
79326,-100,4,1,0,45,0,0
79906,-200,4,1,0,11,0,0
82326,-200,4,1,0,5,0,0
82422,-200,4,1,0,11,0,0
83003,-100,4,1,0,63,0,0
85229,-100,4,1,0,5,0,0
85422,-66.6666666666667,4,1,0,45,0,0
86680,-133.333333333333,4,1,0,45,0,0
87261,-66.6666666666667,4,1,0,45,0,0
92874,-133.333333333333,4,1,0,45,0,0
93455,-66.6666666666667,4,1,0,45,0,0
95196,-50,4,1,0,45,0,0
98487,-66.6666666666667,4,1,0,45,0,0
99067,-133.333333333333,4,1,0,45,0,0
99648,-66.6666666666667,4,1,0,45,0,0
100616,-66.6666666666667,4,1,0,75,0,0
101196,-66.6666666666667,4,1,0,45,0,0
105261,-133.333333333333,4,1,0,45,0,0
105361,-66.6666666666667,4,1,0,45,0,0
110874,-50,4,1,0,45,0,1
111455,-66.6666666666667,4,1,0,45,0,1
112035,-50,4,1,0,45,0,1
112422,-50,4,1,0,45,0,1
113584,-100,4,1,0,45,0,1
113971,-50,4,1,0,45,0,1
126358,-50,4,1,0,55,0,1
132551,-50,4,1,0,55,0,0
140293,-133.333333333333,4,1,0,45,0,0
154229,-133.333333333333,4,1,0,24,0,0
154616,-133.333333333333,4,1,0,45,0,0
155777,-133.333333333333,4,1,0,25,0,0
156164,-133.333333333333,4,1,0,45,0,0
157326,-133.333333333333,4,1,0,70,0,0
158874,-133.333333333333,4,1,0,60,0,0
159648,-133.333333333333,4,1,0,45,0,0
160422,-133.333333333333,4,1,0,60,0,0
161584,-133.333333333333,4,1,0,30,0,0
161971,-133.333333333333,4,1,0,60,0,0
163132,-133.333333333333,4,1,0,30,0,0
163519,-133.333333333333,4,1,0,60,0,0
164680,-133.333333333333,4,1,0,30,0,0
165067,-133.333333333333,4,1,0,60,0,0
166229,-133.333333333333,4,1,0,30,0,0
166616,-133.333333333333,4,1,0,60,0,0
167584,-133.333333333333,4,1,0,30,0,0
167777,-133.333333333333,4,1,0,60,0,0
169326,-133.333333333333,4,1,0,30,0,0
169713,-133.333333333333,4,1,0,60,0,0
170680,-133.333333333333,4,1,0,30,0,0
170874,-133.333333333333,4,1,0,60,0,0
172422,-133.333333333333,4,1,0,30,0,0
172809,-133.333333333333,4,1,0,60,0,0
173971,-133.333333333333,4,1,0,30,0,0
174358,-133.333333333333,4,1,0,60,0,0
175519,-133.333333333333,4,1,0,30,0,0
175906,-133.333333333333,4,1,0,60,0,0
176874,-133.333333333333,4,1,0,30,0,0
177067,-133.333333333333,4,1,0,60,0,0
178616,-133.333333333333,4,1,0,30,0,0
178809,-133.333333333333,4,1,0,60,0,0
179003,-166.666666666667,4,1,0,45,0,0
179777,-166.666666666667,4,1,0,60,0,0
180164,-166.666666666667,4,1,0,30,0,0
180551,-200,4,1,0,35,0,0
181326,-200,4,1,0,60,0,0
181713,-200,4,1,0,30,0,0
182100,-133.333333333333,4,1,0,70,0,0
182487,-133.333333333333,4,1,0,60,0,0
183261,-133.333333333333,4,1,0,30,0,0
183455,-133.333333333333,4,1,0,60,0,0
183648,-133.333333333333,4,1,0,35,0,0
184422,-133.333333333333,4,1,0,45,0,0

[Colours]
Combo1 : 242,216,223
Combo2 : 0,255,168
Combo3 : 231,232,226

[HitObjects]
136,136,61326,6,0,P|172:122|248:146,1,105
343,259,62487,2,0,P|267:327|156:280,1,227.5
132,204,63842,6,0,P|128:180|136:132,1,70
216,56,64229,5,0,0:0:0:0:
256,160,64422,1,0,0:0:0:0:
252,266,64616,1,0,0:0:0:0:
220,366,64809,2,0,P|185:367|150:361,1,70
34,247,65390,6,0,P|52:280|69:297,1,52.5000020027161
220,356,65777,1,0,0:0:0:0:
402,191,66745,5,0,0:0:0:0:
367,284,66938,2,0,P|336:298|291:299,1,70
188,273,67326,1,0,0:0:0:0:
180,115,67519,6,0,P|239:104|291:119,1,105
345,275,68680,2,0,P|267:327|156:267,1,227.5
143,199,70035,2,0,P|142:181|149:153,1,35
275,86,70422,6,0,P|321:84|344:91,1,70
455,167,70809,1,0,0:0:0:0:
327,221,71003,6,0,L|327:174,1,43.75
329,78,71197,1,0,0:0:0:0:
244,220,71390,6,0,L|244:185,1,35
244,96,71583,1,0,0:0:0:0:
164,225,71777,6,0,L|164:199,1,26.2500010013581
161,121,71970,1,0,0:0:0:0:
84,226,72164,6,0,L|85:194,1,17.5
83,153,72358,1,0,0:0:0:0:
14,223,72551,5,0,0:0:0:0:
46,346,72745,1,0,0:0:0:0:
238,311,72938,5,0,0:0:0:0:
176,217,73132,2,0,P|121:215|81:228,1,70
0,281,73519,1,0,0:0:0:0:
65,115,73713,6,0,P|114:101|172:122,1,105
261,196,74874,2,0,P|195:229|44:190,1,227.5
26,123,76229,6,0,P|34:88|66:55,1,70
150,31,76616,1,0,0:0:0:0:
245,63,76809,1,0,0:0:0:0:
290,164,77003,1,0,0:0:0:0:
284,275,77196,1,0,0:0:0:0:
208,359,77390,6,0,P|180:318|176:229,1,140
238,42,78164,1,0,0:0:0:0:
238,42,79132,1,0,0:0:0:0:
141,97,79326,2,0,P|115:139|109:175,1,70
117,260,79713,1,0,0:0:0:0:
242,308,79906,6,0,P|298:316|352:304,1,105
398,155,81067,2,0,P|303:123|182:164,1,227.5
149,225,82422,2,0,P|148:250|150:264,1,35
300,332,83003,6,0,P|303:292|300:272,1,35
256,192,83196,12,0,85326,0:0:0:0:
60,120,85519,5,0,0:0:0:0:
116,196,85713,1,0,0:0:0:0:
120,296,85906,1,0,0:0:0:0:
12,336,86100,6,2,P|104:296|216:344,1,210.000008010865,2|0,0:0|0:0,0:0:0:0:
296,212,86680,2,0,P|264:216|236:208,1,52.5000020027161,2|0,0:0|0:0,0:0:0:0:
128,56,87067,1,2,0:0:0:0:
324,56,87261,2,0,P|408:68|472:128,1,157.500006008148,2|0,0:0|0:0,0:0:0:0:
488,212,87648,6,0,P|500:264|492:328,1,105.000004005432,8|0,0:0|0:0,0:0:0:0:
328,360,88035,1,0,0:0:0:0:
280,376,88132,1,0,0:0:0:0:
232,384,88229,1,0,0:0:0:0:
184,380,88326,1,0,0:0:0:0:
140,364,88422,1,0,0:0:0:0:
152,76,88616,1,0,0:0:0:0:
264,216,88809,1,0,0:0:0:0:
264,216,88906,1,0,0:0:0:0:
264,216,89003,6,0,P|144:244|28:196,1,210.000008010865,2|0,0:0|0:0,0:0:0:0:
48,28,89584,5,0,0:0:0:0:
36,80,89680,1,0,0:0:0:0:
20,132,89777,1,0,0:0:0:0:
8,185,89874,1,0,0:0:0:0:
21,187,89971,5,2,0:0:0:0:
128,44,90164,1,0,0:0:0:0:
228,48,90358,5,0,0:0:0:0:
216,100,90454,1,0,0:0:0:0:
200,152,90551,1,0,0:0:0:0:
185,204,90648,1,0,0:0:0:0:
197,204,90745,5,2,0:0:0:0:
312,64,90938,1,0,0:0:0:0:
404,80,91132,5,0,0:0:0:0:
392,132,91228,1,0,0:0:0:0:
376,184,91325,1,0,0:0:0:0:
360,236,91422,1,0,0:0:0:0:
372,236,91519,5,2,0:0:0:0:
504,104,91713,5,0,0:0:0:0:
448,180,91907,1,0,0:0:0:0:
444,280,92100,1,0,0:0:0:0:
496,348,92294,6,0,P|404:308|292:360,1,210.000008010865,2|0,0:0|0:0,0:0:0:0:
228,212,92874,2,0,P|260:216|288:208,1,52.5000020027161,2|0,0:0|0:0,0:0:0:0:
388,44,93261,1,2,0:0:0:0:
200,40,93455,2,0,P|116:52|52:112,1,157.500006008148,2|0,0:0|0:0,0:0:0:0:
32,212,93842,6,0,P|20:264|28:328,1,105.000004005432
328,252,94229,1,0,0:0:0:0:
284,237,94326,1,0,0:0:0:0:
236,237,94423,1,0,0:0:0:0:
188,245,94520,1,0,0:0:0:0:
148,265,94616,5,0,0:0:0:0:
140,288,94809,1,0,0:0:0:0:
140,320,95003,1,0,0:0:0:0:
256,352,95196,6,0,P|268:284|249:217,1,140
104,104,95583,5,2,0:0:0:0:
103,104,95648,2,2,P|98:150|108:195,1,93.3333333333333
248,352,95971,1,0,0:0:0:0:
268,356,96067,1,0,0:0:0:0:
288,352,96164,5,8,0:0:0:0:
392,188,96358,1,8,0:0:0:0:
288,8,96551,1,0,0:0:0:0:
196,156,96745,1,0,0:0:0:0:
192,176,96841,1,0,0:0:0:0:
196,196,96938,5,4,0:0:0:0:
288,352,97132,1,12,0:0:0:0:
400,204,97326,1,2,0:0:0:0:
412,164,97422,1,2,0:0:0:0:
408,120,97519,1,2,0:0:0:0:
400,80,97616,1,2,0:0:0:0:
380,44,97713,1,2,0:0:0:0:
184,20,97906,5,0,0:0:0:0:
144,120,98100,1,0,0:0:0:0:
164,236,98293,1,0,0:0:0:0:
233,333,98487,6,0,P|129:298|27:342,1,210.000008010865,2|0,0:0|0:0,0:0:0:0:
185,193,99067,2,0,P|213:198|256:184,1,52.5000020027161,2|0,0:0|0:0,0:0:0:0:
428,194,99454,1,2,0:0:0:0:
334,18,99648,2,0,P|252:-1|162:21,1,157.500006008148,2|0,0:0|0:0,0:0:0:0:
101,91,100035,6,0,P|73:151|85:223,1,105.000004005432
436,155,100422,1,0,0:0:0:0:
436,155,100616,6,0,B|387:140|387:141|376:167|360:159|370:146|354:135|324:140|310:152|304:160|276:137|258:175|168:149,1,262.500010013581
124,221,101196,1,0,0:0:0:0:
51,89,101390,1,0,0:0:0:0:
51,89,101487,1,0,0:0:0:0:
51,89,101584,5,0,0:0:0:0:
49,284,101777,1,0,0:0:0:0:
160,153,101971,1,0,0:0:0:0:
204,138,102068,1,0,0:0:0:0:
252,138,102165,1,0,0:0:0:0:
300,146,102262,1,0,0:0:0:0:
340,166,102358,5,0,0:0:0:0:
438,284,102551,1,0,0:0:0:0:
308,345,102745,1,0,0:0:0:0:
264,360,102842,1,0,0:0:0:0:
216,360,102939,1,0,0:0:0:0:
168,352,103036,1,0,0:0:0:0:
128,332,103132,5,0,0:0:0:0:
0,197,103326,1,0,0:0:0:0:
130,57,103520,5,0,0:0:0:0:
130,57,103713,2,2,P|206:45|298:77,1,157.500006008148
360,140,104100,5,0,0:0:0:0:
248,200,104294,1,0,0:0:0:0:
116,200,104487,1,0,0:0:0:0:
38,112,104680,6,0,P|14:168|54:320,1,210.000008010865,2|0,0:0|0:0,0:0:0:0:
280,208,105261,2,0,P|236:208|220:212,1,52.5000020027161,2|0,0:0|0:0,0:0:0:0:
132,348,105648,1,0,0:0:0:0:
392,344,105842,2,2,P|392:268|336:168,1,157.500006008148
268,104,106229,6,4,P|204:104|164:132,1,105.000004005432
36,264,106616,1,0,0:0:0:0:
288,264,106809,1,0,0:0:0:0:
296,216,106906,1,0,0:0:0:0:
300,168,107003,1,0,0:0:0:0:
296,120,107100,1,0,0:0:0:0:
284,76,107196,1,0,0:0:0:0:
80,16,107390,5,0,0:0:0:0:
72,64,107487,1,0,0:0:0:0:
68,112,107584,1,0,0:0:0:0:
72,160,107681,1,0,0:0:0:0:
80,212,107777,6,2,L|152:212,1,70.0000026702882
296,312,108035,1,0,0:0:0:0:
296,312,108164,2,2,L|200:332,1,70.0000026702882
56,320,108422,1,0,0:0:0:0:
56,320,108551,2,2,L|124:304,1,70.0000026702882
264,184,108809,1,0,0:0:0:0:
264,184,108938,2,2,L|256:304,1,70.0000026702882
55,255,109196,1,0,0:0:0:0:
55,255,109326,2,0,L|44:163,3,70.0000026702882,6|4|4|0,0:0|0:0|0:0|0:0,0:0:0:0:
264,256,109906,6,0,P|360:280|452:236,1,157.500006008148
492,188,110293,1,0,0:0:0:0:
396,48,110487,6,0,P|324:48|304:60,1,52.5000020027161
224,76,110680,2,0,P|208:108|216:148,1,52.5000020027161
208,236,110874,6,0,P|309:327|405:241,1,280,2|0,0:0|0:0,0:0:0:0:
416,92,111455,2,2,P|336:92|296:112,1,105.000004005432
164,312,111842,1,0,0:0:0:0:
424,312,112035,2,0,P|420:204|340:120,1,210,2|0,0:0|0:0,0:0:0:0:
216,96,112422,6,0,P|132:116|80:176,1,140
52,308,112809,6,0,P|52:332|68:380,1,70
198,268,113003,2,0,P|195:241|170:200,1,70
34,136,113196,1,2,0:0:0:0:
34,136,113390,1,0,0:0:0:0:
34,136,113584,6,0,L|33:73,3,35
34,220,113971,6,0,P|142:300|246:220,1,280,2|0,0:0|0:0,0:0:0:0:
296,98,114551,6,0,P|296:74|280:26,1,70
152,142,114745,2,0,P|144:167|148:214,1,70
344,210,114938,1,2,0:0:0:0:
344,210,115132,1,0,0:0:0:0:
344,210,115326,6,0,P|344:234|328:282,1,70
199,173,115520,2,0,P|191:148|195:101,1,70
408,103,115713,1,2,0:0:0:0:
408,103,115907,1,0,0:0:0:0:
408,103,116100,6,0,P|310:55|203:117,1,210
164,196,116487,5,0,0:0:0:0:
256,272,116680,1,0,0:0:0:0:
376,272,116874,1,0,0:0:0:0:
464,164,117067,6,2,P|353:84|251:181,1,280
209,331,117648,2,2,P|281:351|361:319,1,140
472,48,118035,1,0,0:0:0:0:
154,45,118228,2,2,P|158:161|238:245,1,210
320,318,118616,6,0,P|248:334|184:314,1,140
132,136,119003,1,0,0:0:0:0:
164,120,119100,1,0,0:0:0:0:
196,112,119196,1,0,0:0:0:0:
232,112,119293,1,0,0:0:0:0:
264,124,119390,1,0,0:0:0:0:
260,264,119584,5,0,0:0:0:0:
64,268,119777,2,0,P|68:180|192:112,1,210
192,212,120164,5,0,0:0:0:0:
240,300,120358,1,0,0:0:0:0:
292,384,120551,1,0,0:0:0:0:
288,168,120745,5,0,0:0:0:0:
272,168,120842,1,0,0:0:0:0:
256,168,120938,1,0,0:0:0:0:
240,168,121035,1,0,0:0:0:0:
220,168,121132,1,0,0:0:0:0:
48,184,121326,5,0,0:0:0:0:
140,368,121519,1,0,0:0:0:0:
451,46,121713,5,0,0:0:0:0:
407,130,121906,1,0,0:0:0:0:
363,218,122100,1,0,0:0:0:0:
451,46,122294,5,0,0:0:0:0:
451,46,122391,1,0,0:0:0:0:
451,46,122487,2,0,P|474:80|484:135,2,70
197,51,122874,6,0,P|224:70|246:100,1,70
293,187,123068,2,0,P|305:217|304:251,1,70
289,348,123261,6,2,P|197:388|21:332,1,280,2|0,0:0|0:0,0:0:0:0:
28,58,123841,2,0,P|100:46|180:70,1,140,2|0,0:0|0:0,0:0:0:0:
434,334,124228,1,2,0:0:0:0:
152,336,124422,2,0,P|68:324|0:196,1,210,2|0,0:0|0:0,0:0:0:0:
0,112,124809,6,0,P|88:112|140:136,1,140
88,312,125196,5,0,0:0:0:0:
80,292,125293,1,0,0:0:0:0:
76,272,125390,1,0,0:0:0:0:
72,252,125487,1,0,0:0:0:0:
72,204,125584,5,0,0:0:0:0:
104,212,125680,1,0,0:0:0:0:
140,212,125777,1,0,0:0:0:0:
176,208,125874,1,0,0:0:0:0:
220,200,125971,6,0,P|224:160|204:108,1,70
88,36,126164,2,0,P|84:68|100:116,1,70
185,180,126358,5,2,0:0:0:0:
231,201,126455,1,2,0:0:0:0:
278,197,126551,1,2,0:0:0:0:
320,173,126648,1,2,0:0:0:0:
362,148,126745,5,2,0:0:0:0:
413,159,126842,1,2,0:0:0:0:
444,193,126938,1,2,0:0:0:0:
441,246,127035,1,2,0:0:0:0:
417,286,127132,1,2,0:0:0:0:
368,311,127229,1,2,0:0:0:0:
324,297,127326,1,2,0:0:0:0:
278,284,127422,1,2,0:0:0:0:
231,280,127519,1,2,0:0:0:0:
189,304,127616,1,2,0:0:0:0:
113,311,127713,6,0,P|129:259|153:231,1,70,2|0,0:0|0:0,0:0:0:0:
275,154,127906,2,0,P|259:206|235:234,1,70,2|0,0:0|0:0,0:0:0:0:
44,208,128100,5,0,0:0:0:0:
40,160,128196,1,0,0:0:0:0:
60,116,128293,2,0,P|104:108|152:128,1,70
188,284,128487,5,0,0:0:0:0:
176,232,128584,1,0,0:0:0:0:
192,180,128680,2,0,P|240:180|300:200,1,70
352,228,128874,5,0,0:0:0:0:
316,96,129067,1,0,0:0:0:0:
184,44,129261,1,0,0:0:0:0:
40,84,129455,6,0,P|-12:148|60:340,1,280
328,140,130035,2,0,P|244:128|192:148,1,140
104,368,130422,1,0,0:0:0:0:
472,364,130616,2,0,P|504:266|468:169,1,210
388,76,131003,6,0,P|304:56|248:80,1,140
40,220,131390,2,0,P|61:263|78:276,1,70
168,320,131584,2,0,P|248:332|316:312,1,140
488,112,131971,1,0,0:0:0:0:
368,36,132164,2,0,P|288:28|228:44,1,140
64,232,132551,6,0,P|57:266|66:299,2,70
136,120,132938,1,0,0:0:0:0:
356,320,133132,5,0,0:0:0:0:
300,328,133229,1,0,0:0:0:0:
244,324,133326,1,0,0:0:0:0:
144,188,133519,2,0,P|216:168|288:192,1,140
412,272,133906,1,0,0:0:0:0:
368,56,134100,5,0,0:0:0:0:
312,44,134197,1,0,0:0:0:0:
260,56,134294,1,0,0:0:0:0:
136,244,134487,6,0,P|88:248|32:236,1,70
0,152,134681,1,0,0:0:0:0:
132,100,134874,6,0,L|132:170,1,70
132,292,135068,1,0,0:0:0:0:
408,328,135261,6,0,L|408:258,1,70
408,200,135455,1,0,0:0:0:0:
408,144,135551,1,0,0:0:0:0:
408,88,135648,1,0,0:0:0:0:
256,192,145326,12,0,147842,0:0:0:0:
54,94,148035,6,0,L|64:161,1,52.5000020027161
74,224,148422,1,0,0:0:0:0:
78,248,148616,1,0,0:0:0:0:
184,324,148809,6,0,L|184:256,1,52.5000020027161
184,192,149196,1,0,0:0:0:0:
184,168,149390,1,0,0:0:0:0:
458,94,149584,6,0,L|450:145,1,52.5000020027161
434,238,149971,1,0,0:0:0:0:
430,262,150165,1,0,0:0:0:0:
328,324,150358,6,0,L|328:271,1,52.5000020027161
328,166,150745,1,0,0:0:0:0:
328,142,150939,1,0,0:0:0:0:
204,44,151132,6,0,P|180:52|156:76,1,52.5000020027161
124,160,151519,1,0,0:0:0:0:
124,192,151713,1,0,0:0:0:0:
114,124,151906,6,0,P|103:146|103:180,1,52.5000020027161
140,262,152293,1,0,0:0:0:0:
162,285,152487,1,0,0:0:0:0:
308,44,152680,6,0,P|332:52|356:76,1,52.5000020027161
388,160,153067,1,0,0:0:0:0:
388,192,153261,1,0,0:0:0:0:
398,124,153454,6,0,P|409:146|409:180,1,52.5000020027161
372,262,153841,1,0,0:0:0:0:
350,285,154035,1,0,0:0:0:0:
256,56,154229,6,0,L|256:100,2,26.2500010013581
256,192,154616,1,0,0:0:0:0:
256,212,154809,1,0,0:0:0:0:
140,188,155003,5,0,0:0:0:0:
364,188,155196,1,0,0:0:0:0:
136,216,155390,1,0,0:0:0:0:
356,156,155584,1,0,0:0:0:0:
256,328,155777,6,0,L|256:301,2,26.2500010013581
256,192,156164,1,0,0:0:0:0:
256,172,156357,1,0,0:0:0:0:
120,188,156551,5,0,0:0:0:0:
382,188,156744,1,0,0:0:0:0:
115,216,156938,1,0,0:0:0:0:
372,156,157132,1,0,0:0:0:0:
256,56,157326,6,0,L|256:96,1,26.2500010013581
256,164,157519,2,0,L|256:200,1,26.2500010013581
256,288,157713,1,0,0:0:0:0:
256,312,157906,1,0,0:0:0:0:
112,268,158100,5,0,0:0:0:0:
368,136,158293,2,0,L|368:184,1,26.2500010013581
368,260,158487,1,0,0:0:0:0:
368,284,158680,1,0,0:0:0:0:
149,228,158874,6,0,L|149:255,2,26.2500010013581
149,99,159261,1,0,0:0:0:0:
149,75,159455,1,0,0:0:0:0:
47,89,159648,5,0,0:0:0:0:
251,113,159842,1,0,0:0:0:0:
15,225,160035,1,0,0:0:0:0:
263,301,160229,1,0,0:0:0:0:
9,342,160422,6,0,P|46:372|153:326,1,157.500006008148
142,155,161196,2,8,P|78:147|14:159,1,105.000004005432
180,264,161971,5,0,0:0:0:0:
180,240,162164,1,0,0:0:0:0:
308,256,162358,5,0,0:0:0:0:
56,256,162551,1,0,0:0:0:0:
168,128,162745,2,8,P|218:117|269:129,1,105.000004005432
348,264,163519,5,0,0:0:0:0:
348,292,163713,1,0,0:0:0:0:
204,296,163906,5,0,0:0:0:0:
464,296,164100,1,0,0:0:0:0:
344,136,164293,2,8,P|277:124|226:134,1,105.000004005432
160,280,165067,5,0,0:0:0:0:
160,250,165260,1,0,0:0:0:0:
320,269,165454,5,0,0:0:0:0:
4,269,165647,1,0,0:0:0:0:
148,91,165841,2,8,P|200:79|248:95,1,105.000004005432
369,280,166616,5,0,0:0:0:0:
369,315,166810,1,0,0:0:0:0:
192,319,167003,5,0,0:0:0:0:
511,319,167197,1,0,0:0:0:0:
343,120,167390,2,8,L|307:182,1,52.5000020027161
409,223,167777,5,0,0:0:0:0:
456,142,167971,1,0,0:0:0:0:
280,48,168164,5,0,0:0:0:0:
208,240,168358,1,0,0:0:0:0:
416,312,168551,5,0,0:0:0:0:
496,108,168745,1,0,0:0:0:0:
256,20,168938,2,8,P|184:36|160:60,1,105.000004005432
142,280,169713,5,0,0:0:0:0:
142,315,169907,1,0,0:0:0:0:
319,319,170100,5,0,0:0:0:0:
0,319,170294,1,0,0:0:0:0:
163,118,170487,2,8,L|191:186,1,52.5000020027161
108,236,170874,5,0,0:0:0:0:
72,144,171068,1,0,0:0:0:0:
232,48,171261,5,0,0:0:0:0:
304,240,171455,1,0,0:0:0:0:
96,312,171648,5,0,0:0:0:0:
16,108,171842,1,0,0:0:0:0:
256,20,172035,2,8,P|328:36|352:60,1,105.000004005432
188,132,172809,5,0,0:0:0:0:
188,164,173002,1,0,0:0:0:0:
52,60,173196,5,0,0:0:0:0:
308,60,173390,1,0,0:0:0:0:
186,239,173584,2,8,L|72:241,1,105.000004005432
340,162,174358,5,0,0:0:0:0:
341,128,174551,1,0,0:0:0:0:
452,24,174745,5,0,0:0:0:0:
183,24,174939,1,0,0:0:0:0:
339,223,175133,2,8,L|444:223,1,105.000004005432
332,96,175906,5,0,0:0:0:0:
332,125,176099,1,0,0:0:0:0:
196,24,176293,5,0,0:0:0:0:
452,24,176487,1,0,0:0:0:0:
305,202,176680,2,8,L|239:203,1,52.5000020027161
204,104,177067,5,0,0:0:0:0:
356,108,177261,1,0,0:0:0:0:
264,244,177455,5,0,0:0:0:0:
148,244,177648,1,0,0:0:0:0:
44,104,177842,5,0,0:0:0:0:
140,104,178035,1,0,0:0:0:0:
243,300,178229,2,8,L|123:300,1,105.000004005432
60,53,178809,1,0,0:0:0:0:
60,53,179003,6,4,L|156:82,1,83.9999974365235,2|0,0:0|0:0,0:0:0:0:
256,316,179584,1,0,0:0:0:0:
256,316,179777,2,8,L|160:292,1,83.9999974365235,10|8,0:0|0:0,0:0:0:0:
98,100,180358,1,0,0:0:0:0:
98,100,180551,6,0,L|116:173,1,70,2|0,0:0|0:0,0:0:0:0:
247,242,181132,1,0,0:0:0:0:
247,242,181326,2,8,L|221:163,1,70
93,118,181906,1,0,0:0:0:0:
93,118,182100,6,0,L|82:78,2,26.2500010013581
133,240,182487,1,0,0:0:0:0:
15,289,182680,1,0,0:0:0:0:
0,170,182874,2,8,P|56:161|109:175,1,105.000004005432
205,240,183455,1,0,0:0:0:0:
331,218,183648,5,0,0:0:0:0:
372,199,183745,1,0,0:0:0:0:
416,203,183842,1,0,0:0:0:0:
452,227,183938,1,0,0:0:0:0:
467,280,184035,5,0,0:0:0:0:
426,318,184132,1,0,0:0:0:0:
371,326,184229,1,0,0:0:0:0:
318,308,184326,1,0,0:0:0:0:
274,266,184422,5,8,0:0:0:0:
208,245,184519,1,0,0:0:0:0:
144,244,184616,1,2,0:0:0:0:
79,275,184713,1,2,0:0:0:0:
61,351,184809,1,2,0:0:0:0:
33,274,184906,1,2,0:0:0:0:
35,192,185003,1,2,0:0:0:0:
53,112,185100,1,2,0:0:0:0:
108,53,185196,5,10,0:0:0:0:
256,192,185293,12,0,192841,0:0:0:0:
