osu file format v14

[General]
AudioFilename: audio.mp3
AudioLeadIn: 0
PreviewTime: 1633
Countdown: 0
SampleSet: Soft
StackLeniency: 0.2
Mode: 0
LetterboxInBreaks: 0
WidescreenStoryboard: 0

[Editor]
DistanceSpacing: 0.5
BeatDivisor: 4
GridSize: 8
TimelineZoom: 1

[Metadata]
Title:BIOTONIC
TitleUnicode:BIOTONIC
Artist:onoken
ArtistUnicode:onoken
Creator:Hailie
Version:Expert
Source:Cytus II
Tags:Aeril ylvy deemo ani instrumental video game electronic
BeatmapID:1920769
BeatmapSetID:919719

[Difficulty]
HPDrainRate:6
CircleSize:4.2
OverallDifficulty:8.5
ApproachRate:8.7
SliderMultiplier:1.65
SliderTickRate:1

[Events]
//Background and Video events
0,0,"bg.jpg",0,0
//Break Periods
//Storyboard Layer 0 (Background)
//Storyboard Layer 1 (Fail)
//Storyboard Layer 2 (Pass)
//Storyboard Layer 3 (Foreground)
//Storyboard Sound Samples

[TimingPoints]
2721,342.857142857143,4,2,0,40,1,0
2721,-125,4,2,0,40,0,0
13341,-250,4,2,0,40,0,0
13684,-100,4,2,0,60,0,0
16770,-83.3333333333333,4,2,0,60,0,0
16941,-71.4285714285714,4,2,0,60,0,0
17798,-55.5555555555556,4,2,0,60,0,0
18313,-100,4,2,0,60,0,0
18827,-250,4,2,0,60,0,0
19170,-100,4,2,0,60,0,0
21913,-111.111111111111,4,2,0,60,0,0
23284,-83.3333333333333,4,2,0,60,0,0
23970,-71.4285714285714,4,2,0,60,0,0
24141,-62.5,4,2,0,60,0,0
24313,-35.7142857142857,4,2,0,60,0,0
24655,-111.111111111111,4,2,0,50,0,0
26370,-100,4,2,0,50,0,0
27055,-111.111111111111,4,2,0,50,0,0
29113,-142.857142857143,4,2,0,50,0,0
30141,-111.111111111111,4,2,0,50,0,0
31855,-100,4,2,0,50,0,0
32541,-111.111111111111,4,2,0,50,0,0
34255,-66.6666666666667,4,2,0,60,0,0
35627,-90.9090909090909,4,2,0,60,0,0
39570,-166.666666666667,4,2,0,60,0,0
39913,-100,4,2,0,60,0,0
40255,-66.6666666666667,4,2,0,60,0,0
40598,-71.4285714285714,4,2,0,60,0,0
40941,-55.5555555555556,4,2,0,60,0,0
41113,-76.9230769230769,4,2,0,60,0,0
45913,-55.5555555555556,4,2,0,60,0,0
46255,-50,4,2,0,60,0,0
46598,-125,4,2,0,50,0,0
51055,-71.4285714285714,4,2,0,50,0,0
51398,-55.5555555555556,4,2,0,50,0,0
51741,-71.4285714285714,4,2,0,50,0,0
52084,-125,4,2,0,50,0,0
56541,-71.4285714285714,4,2,0,50,0,0
56884,-55.5555555555556,4,2,0,50,0,0
57570,-111.111111111111,4,2,0,55,0,0
57913,-76.9230769230769,4,2,0,55,0,0
58941,-111.111111111111,4,2,0,55,0,0
59284,-76.9230769230769,4,2,0,55,0,0
59627,-100,4,2,0,55,0,0
59970,-71.4285714285714,4,2,0,55,0,0
60227,-66.6666666666667,4,2,0,55,0,0
60313,-76.9230769230769,4,2,0,55,0,0
61341,-100,4,2,0,55,0,0
61684,-125,4,2,0,55,0,0
62027,-71.4285714285714,4,2,0,55,0,0
62370,-100,4,2,0,55,0,0
62713,-71.4285714285714,4,2,0,55,0,0
63055,-125,4,2,0,60,0,0
63398,-71.4285714285714,4,2,0,60,0,0
64427,-83.3333333333333,4,2,0,60,0,0
64770,-62.5,4,2,0,60,0,0
65113,-83.3333333333333,4,2,0,60,0,0
65455,-55.5555555555556,4,2,0,60,0,0
65798,-50,4,2,0,60,0,0
67170,-62.5,4,2,0,60,0,0
68198,-50,4,2,0,60,0,0
69913,-55.5555555555556,4,2,0,70,0,0
70427,-71.4285714285714,4,2,0,70,0,0
71284,-62.5,4,2,0,70,0,0
71627,-71.4285714285714,4,2,0,70,0,0
71798,-55.5555555555556,4,2,0,70,0,0
72141,-62.5,4,2,0,70,0,0
72655,-71.4285714285714,4,2,0,70,0,0
73684,-50,4,2,0,70,0,0
74027,-71.4285714285714,4,2,0,70,0,0
76770,-125,4,2,0,70,0,0
78141,-83.3333333333333,4,2,0,70,0,0
78827,-71.4285714285714,4,2,0,70,0,0
78998,-55.5555555555556,4,2,0,70,0,0
79170,-50,4,2,0,70,0,0
79513,-71.4285714285714,4,2,0,70,0,0
82255,-83.3333333333333,4,2,0,70,0,0
82598,-62.5,4,2,0,70,0,0
83284,-55.5555555555556,4,2,0,70,0,0
83455,-50,4,2,0,70,0,0
83970,-62.5,4,2,0,70,0,0
84313,-55.5555555555556,4,2,0,70,0,0
84655,-45.4545454545455,4,2,0,70,0,0
84998,-55.5555555555556,4,2,0,70,0,0
88084,-50,4,2,0,70,0,0
89113,-41.6666666666667,4,2,0,70,0,0
89798,-35.7142857142857,4,2,0,70,0,0
89970,-31.25,4,2,0,70,0,0
90141,-27.7777777777778,4,2,0,70,0,0

[Colours]
Combo1 : 191,79,82
Combo2 : 216,129,151

[HitObjects]
43,51,2721,5,4,3:0:0:0:
43,51,2892,1,4,3:0:0:0:
43,51,3063,2,0,L|81:209,1,132,0|0,1:0|0:0,0:0:0:0:
133,86,3578,2,0,L|170:217,1,132,0|0,1:0|0:0,0:0:0:0:
339,161,4092,5,4,3:0:0:0:
339,161,4263,1,4,3:0:0:0:
339,161,4435,2,0,L|293:298,1,132,0|0,1:0|0:0,0:0:0:0:
399,239,4949,2,0,L|348:369,1,132,0|0,1:0|0:0,0:0:0:0:
201,214,5463,5,4,3:0:0:0:
201,214,5635,1,4,3:0:0:0:
201,214,5806,2,0,L|345:194,1,132,0|0,1:0|0:0,0:0:0:0:
262,117,6321,2,0,L|404:99,1,132,0|0,1:0|0:0,0:0:0:0:
203,241,6835,5,4,3:0:0:0:
203,241,7006,2,0,L|184:169,1,66,4|0,3:0|0:0,0:0:0:0:
94,43,7349,1,4,3:0:0:0:
79,122,7521,1,4,3:0:0:0:
154,93,7692,1,4,3:0:0:0:
57,242,7863,2,0,L|-9:204,1,66,0|0,1:0|0:0,0:0:0:0:
106,351,8206,5,4,3:0:0:0:
106,351,8378,1,4,3:0:0:0:
106,351,8549,2,0,L|254:333,1,132,0|0,1:0|0:0,0:0:0:0:
161,262,9063,2,0,L|317:242,1,132,0|0,1:0|0:0,0:0:0:0:
443,107,9578,5,4,3:0:0:0:
443,107,9749,1,4,3:0:0:0:
443,107,9921,2,0,L|302:122,1,132,0|0,1:0|0:0,0:0:0:0:
364,32,10435,2,0,L|225:44,1,132,0|0,1:0|0:0,0:0:0:0:
192,189,10949,5,4,3:0:0:0:
192,189,11121,1,4,3:0:0:0:
192,189,11292,2,0,L|129:59,1,132,0|0,1:0|0:0,0:0:0:0:
85,176,11806,2,0,L|22:48,1,132,0|0,1:0|0:0,0:0:0:0:
85,176,12321,2,0,L|75:222,1,33,0|0,1:0|0:0,0:0:0:0:
131,345,12663,1,4,3:0:0:0:
131,345,12835,1,4,3:0:0:0:
213,259,13006,1,4,3:0:0:0:
171,166,13178,1,4,3:0:0:0:
171,166,13349,6,0,L|125:137,1,49.5,2|0,1:3|0:0,0:0:0:0:
129,139,13692,6,0,P|108:72|200:22,1,165,4|0,1:0|1:0,0:0:0:0:
293,93,14206,2,0,L|178:93,1,82.5,2|0,0:0|0:0,0:0:0:0:
323,233,14549,2,0,L|420:233,1,82.5,4|0,3:0|1:0,0:0:0:0:
189,186,14892,1,2,0:0:0:0:
123,350,15063,2,0,B|125:269|125:269|86:251|75:224|84:178,1,165,4|0,3:0|1:0,0:0:0:0:
276,19,15578,2,0,B|230:42|240:92|240:92|291:119|270:184,1,165,2|4,0:0|3:0,0:0:0:0:
189,186,16092,1,0,1:0:0:0:
439,67,16263,2,0,L|470:2,1,41.25,2|0,0:0|0:0,0:0:0:0:
456,29,16435,2,0,L|421:153,1,123.75,4|0,3:0|0:0,0:0:0:0:
422,148,16778,6,0,L|403:92,1,49.4999984893799,0|0,1:0|0:0,0:0:0:0:
406,101,16949,2,0,B|432:183|432:183|392:244|392:244|422:342,1,230.99999295044,2|4,0:0|3:0,0:0:0:0:
195,360,17463,2,0,L|212:289,1,57.7499982376099,0|0,1:0|0:0,0:0:0:0:
198,246,17635,2,0,L|212:329,1,57.7499982376099,2|0,0:0|0:0,0:0:0:0:
207,302,17806,2,0,B|197:74|197:74|147:1,1,296.99999093628,4|0,3:0|1:0,0:0:0:0:
158,17,18492,5,2,0:0:0:0:
158,17,18663,1,4,3:0:0:0:
158,17,18835,2,0,L|217:3,1,49.5,2|0,1:3|0:0,0:0:0:0:
206,5,19178,6,0,P|255:48|246:155,1,165,4|0,1:0|1:0,0:0:0:0:
172,270,19692,2,0,L|173:180,1,82.5,2|0,0:0|0:0,0:0:0:0:
322,80,20035,2,0,L|322:173,1,82.5,4|0,3:0|1:0,0:0:0:0:
486,107,20378,1,2,0:0:0:0:
404,277,20549,2,0,B|324:278|324:278|287:220|236:225,1,165,4|0,3:0|1:0,0:0:0:0:
126,299,21063,1,2,0:0:0:0:
99,100,21235,2,0,L|70:33,1,41.25,0|0,1:0|0:0,0:0:0:0:
82,62,21406,2,0,L|91:162,1,82.5,4|0,3:0|1:0,0:0:0:0:
46,376,21749,1,2,0:0:0:0:
281,237,21921,6,0,L|281:198,1,37.1249988670349,4|0,1:0|0:0,0:0:0:0:
296,200,22092,2,0,L|295:246,1,37.1249988670349,4|0,3:0|0:0,0:0:0:0:
295,237,22263,2,0,L|379:267,1,74.2499977340699,0|0,1:0|0:0,0:0:0:0:
210,206,22606,1,4,3:0:0:0:
434,286,22778,2,0,L|350:256,1,74.2499977340699,0|0,1:0|0:0,0:0:0:0:
421,85,23121,1,4,3:0:0:0:
145,73,23292,6,0,L|130:23,1,49.4999984893799,4|0,1:0|0:0,0:0:0:0:
131,26,23463,2,0,L|79:88,1,49.4999984893799,4|0,0:3|0:0,0:0:0:0:
119,109,23635,2,0,L|98:61,1,49.4999984893799,0|0,1:0|0:0,0:0:0:0:
99,63,23806,2,0,L|56:112,1,49.4999984893799,4|0,0:3|0:0,0:0:0:0:
30,206,23978,6,0,L|104:204,1,57.7499982376099,4|0,0:3|0:0,0:0:0:0:
87,204,24149,2,0,L|170:176,1,66,0|0,1:0|0:0,0:0:0:0:
149,182,24321,2,0,B|193:219|242:204|242:204|286:252|251:326|251:326|288:387|445:328,1,346.499989425659,6|0,1:0|0:0,0:0:0:0:
356,353,24663,2,0,P|347:291|333:252,1,74.2499977340699,4|0,1:0|0:0,0:0:0:0:
458,128,25006,2,0,L|446:207,1,74.2499977340699,0|0,1:0|0:0,0:0:0:0:
357,75,25349,1,4,3:0:0:0:
252,102,25521,2,0,L|241:13,1,74.2499977340699,0|0,1:0|3:0,0:0:0:0:
274,199,25863,1,0,3:0:0:0:
111,133,26035,5,0,3:0:0:0:
111,133,26206,1,0,0:0:0:0:
142,250,26378,2,0,L|106:229,1,41.25,0|0,1:0|0:0,0:0:0:0:
69,246,26549,2,0,L|131:219,1,41.25,2|0,0:0|0:0,0:0:0:0:
106,188,26721,2,0,L|106:241,1,41.25,0|0,0:0|0:0,0:0:0:0:
109,289,26892,2,0,L|108:223,1,41.25,4|0,0:3|0:0,0:0:0:0:
108,247,27063,2,0,L|189:192,1,74.2499977340699,0|0,1:0|0:0,0:0:0:0:
342,114,27406,6,0,P|345:159|346:207,1,74.2499977340699,0|0,1:0|0:0,0:0:0:0:
459,355,27749,2,0,L|453:270,1,74.2499977340699,0|0,1:0|0:0,0:0:0:0:
345,188,28092,1,4,3:0:0:0:
250,252,28263,2,0,L|237:148,1,74.2499977340699,0|2,1:0|0:0,0:0:0:0:
79,59,28606,5,0,3:0:0:0:
79,59,28778,1,0,3:0:0:0:
79,59,28949,1,4,0:3:0:0:
97,184,29121,6,0,L|95:149,1,28.874999118805,0|0,1:0|0:0,0:0:0:0:
115,153,29292,2,0,L|123:189,1,28.874999118805,0|0,1:0|0:0,0:0:0:0:
152,169,29463,2,0,L|131:127,1,28.874999118805,0|0,1:0|0:0,0:0:0:0:
174,127,29635,2,0,L|182:169,1,28.874999118805,4|0,0:3|0:0,0:0:0:0:
243,164,29806,2,0,L|222:123,1,28.874999118805,0|0,1:0|0:0,0:0:0:0:
293,83,29978,2,0,L|296:117,1,28.874999118805,4|0,3:0|0:0,0:0:0:0:
373,141,30149,6,0,P|413:132|464:127,1,74.2499977340699,4|0,1:0|0:0,0:0:0:0:
311,277,30492,2,0,L|205:266,1,74.2499977340699,0|0,1:0|0:0,0:0:0:0:
160,114,30835,1,4,3:0:0:0:
211,23,31006,2,0,L|305:17,1,74.2499977340699,0|0,1:0|3:0,0:0:0:0:
49,22,31349,1,0,3:0:0:0:
31,231,31521,5,0,3:0:0:0:
31,231,31692,1,0,0:0:0:0:
203,241,31863,2,0,L|150:239,1,41.25,0|0,1:0|0:0,0:0:0:0:
161,280,32035,2,0,L|162:227,1,41.25,2|0,0:0|0:0,0:0:0:0:
180,202,32206,2,0,L|156:249,1,41.25,0|0,0:0|0:0,0:0:0:0:
118,238,32378,2,0,L|192:239,1,41.25,4|0,0:3|0:0,0:0:0:0:
159,238,32549,2,0,L|251:237,1,74.2499977340699,0|0,1:0|0:0,0:0:0:0:
394,209,32892,6,0,P|394:173|402:117,1,74.2499977340699,4|0,1:0|0:0,0:0:0:0:
197,42,33235,2,0,L|215:131,1,74.2499977340699,0|0,1:0|0:0,0:0:0:0:
149,298,33578,1,4,3:0:0:0:
43,232,33749,2,0,L|51:159,1,74.2499977340699,0|0,1:0|3:0,0:0:0:0:
252,32,34092,2,0,L|322:17,1,37.1249988670349,0|0,3:0|0:0,0:0:0:0:
366,142,34263,6,0,P|383:82|395:22,1,123.750004720688,4|0,1:0|3:0,0:0:0:0:
305,183,34606,2,0,L|323:256,1,61.875002360344,0|0,1:0|0:0,0:0:0:0:
319,243,34778,2,0,L|356:306,1,61.875002360344,0|0,1:0|0:0,0:0:0:0:
164,315,34949,2,0,L|194:246,1,61.875002360344,4|0,1:0|0:0,0:0:0:0:
188,258,35121,2,0,L|187:174,1,61.875002360344,0|0,1:0|0:0,0:0:0:0:
181,115,35292,2,0,L|132:57,1,61.875002360344,6|0,0:3|0:0,0:0:0:0:
62,44,35463,2,0,L|-27:55,1,61.875002360344,0|0,1:0|0:0,0:0:0:0:
0,127,35635,6,0,P|-11:179|-2:251,1,90.7500027694703,4|2,1:0|0:0,0:0:0:0:
102,347,35978,2,0,L|106:291,1,45.3750013847352,0|0,1:0|0:0,0:0:0:0:
105,301,36149,2,0,P|166:257|207:236,1,90.7500027694703,2|4,0:3|0:3,0:0:0:0:
372,125,36492,2,0,L|372:71,1,45.3750013847352,0|0,1:0|0:0,0:0:0:0:
372,79,36663,1,2,0:0:0:0:
483,262,36835,2,0,B|429:278|429:278|358:223|300:241,1,181.500005538941,4|2,0:3|0:0,0:0:0:0:
298,333,37349,2,0,P|334:334|361:326,1,45.3750013847352,0|0,1:0|0:0,0:0:0:0:
342,332,37521,2,0,P|380:302|371:153,1,181.500005538941,2|0,0:3|1:0,0:0:0:0:
328,101,38035,2,0,P|304:128|290:160,1,45.3750013847352,2|0,0:0|0:0,0:0:0:0:
299,135,38206,2,0,P|307:202|395:273,1,181.500005538941,4|2,0:3|0:0,0:0:0:0:
254,328,38721,2,0,P|226:344|202:362,1,45.3750013847352,0|0,1:0|0:0,0:0:0:0:
215,351,38892,2,0,P|144:357|71:278,1,181.500005538941,2|0,0:3|1:0,0:0:0:0:
67,180,39406,2,0,P|108:183|135:193,1,45.3750013847352,2|0,0:0|0:0,0:0:0:0:
112,184,39578,2,0,P|158:205|174:220,1,49.4999984893799,4|4,0:3|3:0,0:0:0:0:
405,88,39921,6,0,P|382:127|372:150,1,41.25,6|0,0:3|0:0,0:0:0:0:
372,128,40092,2,0,P|374:166|386:206,1,41.25,0|0,1:0|0:0,0:0:0:0:
369,214,40263,2,0,P|418:284|463:319,1,123.750004720688,2|4,1:0|3:0,0:0:0:0:
97,318,40606,2,0,P|121:287|140:253,1,57.7499982376099,0|0,1:0|0:0,0:0:0:0:
115,191,40778,2,0,P|115:145|106:94,1,57.7499982376099,0|0,1:0|0:0,0:0:0:0:
175,83,40949,2,0,P|139:32|103:7,1,74.2499977340699,2|0,1:0|1:0,0:0:0:0:
130,24,41121,6,0,P|62:92|9:222,1,214.49999018097,4|0,1:0|1:0,0:0:0:0:
206,359,41635,2,0,P|199:318|177:203,1,107.249995090485,2|4,0:3|0:3,0:0:0:0:
316,59,41977,2,0,L|300:110,1,53.6249975452424,0|0,1:0|0:0,0:0:0:0:
327,156,42149,2,0,L|299:109,1,53.6249975452424,0|0,1:0|0:0,0:0:0:0:
194,112,42321,2,0,P|247:119|322:99,1,107.249995090485,6|0,0:3|1:0,0:0:0:0:
93,263,42663,2,0,L|117:193,1,53.6249975452424,4|0,3:0|0:0,0:0:0:0:
66,181,42835,2,0,L|122:221,1,53.6249975452424,0|0,1:0|0:0,0:0:0:0:
215,215,43006,2,0,L|77:212,1,107.249995090485,2|4,0:3|0:3,0:0:0:0:
360,352,43349,2,0,L|339:292,1,53.6249975452424,0|0,1:0|0:0,0:0:0:0:
356,249,43521,2,0,L|340:309,1,53.6249975452424,0|0,1:0|0:0,0:0:0:0:
448,295,43692,2,0,P|375:295|297:315,1,107.249995090485,6|0,0:3|1:0,0:0:0:0:
200,39,44035,2,0,L|230:94,1,53.6249975452424,4|0,3:0|0:0,0:0:0:0:
240,209,44206,2,0,L|259:134,1,53.6249975452424,0|0,1:0|0:0,0:0:0:0:
59,125,44378,2,0,L|165:133,1,107.249995090485,2|4,0:3|0:3,0:0:0:0:
466,29,44721,2,0,L|437:82,1,53.6249975452424,0|0,1:0|0:0,0:0:0:0:
431,209,44892,2,0,L|424:149,1,53.6249975452424,0|0,1:0|0:0,0:0:0:0:
313,79,45063,2,0,L|383:106,1,53.6249975452424,6|0,0:3|0:0,0:0:0:0:
118,43,45235,5,4,1:0:0:0:
259,166,45406,1,0,3:0:0:0:
260,185,45492,1,0,3:0:0:0:
256,201,45577,1,4,3:0:0:0:
249,219,45663,1,4,3:0:0:0:
236,237,45749,1,4,3:0:0:0:
223,248,45835,1,4,3:0:0:0:
149,315,45921,2,0,P|132:260|124:212,1,74.2499977340699,0|0,1:0|0:0,0:0:0:0:
79,143,46092,2,0,P|96:91|127:33,1,74.2499977340699,0|0,1:0|0:0,0:0:0:0:
210,2,46263,2,0,P|218:80|222:283,1,247.5,0|0,1:0|0:0,0:0:0:0:
223,248,46606,6,0,B|319:233|319:233|388:259|388:259|488:237,1,264,8|8,1:3|0:3,0:0:0:0:
512,277,47635,5,4,3:0:0:0:
496,222,47806,1,4,3:0:0:0:
491,340,47978,2,0,L|454:195,1,132,8|0,1:3|0:0,0:0:0:0:
458,212,48663,2,0,L|421:177,1,33,8|0,0:3|0:0,0:0:0:0:
392,152,49006,5,4,3:0:0:0:
404,212,49178,1,4,3:0:0:0:
376,85,49349,2,0,L|323:230,1,132,8|0,1:3|0:0,0:0:0:0:
330,208,50035,2,0,L|343:264,1,33,8|0,0:3|0:0,0:0:0:0:
358,297,50378,5,4,3:0:0:0:
279,299,50549,1,4,3:0:0:0:
410,265,50721,2,0,L|351:352,1,99,8|0,1:3|0:0,0:0:0:0:
354,346,51063,2,0,B|377:261|377:261|332:178,1,173.24999471283,4|0,3:0|0:0,0:0:0:0:
336,186,51406,2,0,B|266:212|266:212|188:167|188:167|113:175,1,222.74999320221,4|0,3:0|0:0,0:0:0:0:
130,173,51749,2,0,B|190:167|190:167|298:234,1,173.24999471283,0|0,1:0|0:0,0:0:0:0:
285,226,52092,6,0,B|334:296|334:296|423:305|423:305|471:378,1,264,8|8,1:3|0:3,0:0:0:0:
449,315,53121,5,4,3:0:0:0:
490,356,53292,1,4,3:0:0:0:
463,257,53463,2,0,L|307:275,1,132,8|0,1:3|0:0,0:0:0:0:
331,272,54149,2,0,L|316:319,1,33,8|0,0:3|0:0,0:0:0:0:
270,307,54492,5,4,3:0:0:0:
303,373,54663,1,4,3:0:0:0:
259,236,54835,2,0,L|191:354,1,132,8|0,1:3|0:0,0:0:0:0:
193,350,55521,2,0,L|155:375,1,33,8|0,0:3|0:0,0:0:0:0:
81,287,55863,5,4,3:0:0:0:
147,325,56035,1,4,3:0:0:0:
25,321,56206,2,0,L|20:203,1,99,4|0,3:0|0:0,0:0:0:0:
20,222,56549,2,0,B|103:202|103:202|218:222,1,173.24999471283,4|0,3:0|0:0,0:0:0:0:
190,217,56892,2,0,L|213:115,1,98.9999969787599,0|0,1:0|0:0,0:0:0:0:
237,127,57121,1,0,3:0:0:0:
414,118,57235,2,0,L|431:16,1,98.9999969787599,8|0,1:3|0:0,0:0:0:0:
460,21,57463,1,0,3:0:0:0:
499,236,57578,6,0,B|445:247|445:247|387:198,1,111.374996601105,8|0,1:3|0:0,0:0:0:0:
402,210,57921,2,0,B|340:214|340:214|284:276|284:276|293:372,1,214.49999018097,2|8,3:1|0:3,0:0:0:0:
145,122,58606,2,0,L|156:188,1,53.6249975452424,4|0,3:0|0:0,0:0:0:0:
153,174,58777,2,0,L|144:239,1,53.6249975452424,4|0,3:0|0:0,0:0:0:0:
145,227,58949,2,0,B|101:173|101:173|105:123,1,111.374996601105,8|0,1:3|0:0,0:0:0:0:
104,131,59292,2,0,B|180:163|180:163|182:260,1,160.874992635727,0|0,1:0|0:0,0:0:0:0:
181,242,59635,2,0,B|237:293|237:293|285:286,1,123.75,8|0,1:3|0:0,0:0:0:0:
382,220,59978,6,0,L|407:165,1,57.7499982376099,6|0,3:0|0:0,0:0:0:0:
405,167,60149,2,0,L|379:94,1,57.7499982376099,4|0,3:0|0:0,0:0:0:0:
385,112,60321,2,0,B|446:142|446:142|470:227|470:227|449:293,1,214.49999018097,2|0,1:0|0:0,0:0:0:0:
486,326,61006,2,0,L|452:283,1,53.6249975452424,8|0,0:3|0:0,0:0:0:0:
323,286,61349,6,0,L|286:331,1,41.25,4|0,3:0|0:0,0:0:0:0:
307,358,61521,2,0,L|295:310,1,41.25,4|0,3:0|0:0,0:0:0:0:
297,318,61692,2,0,B|242:330|242:330|181:312,1,99,4|0,3:0|0:0,0:0:0:0:
201,318,62035,2,0,B|272:270|272:270|382:298,1,173.24999471283,2|0,1:3|0:0,0:0:0:0:
357,291,62378,2,0,B|313:294|313:294|254:228,1,123.75,0|0,1:0|0:0,0:0:0:0:
259,234,62721,2,0,B|345:222|345:222|447:321,1,173.24999471283,2|0,3:0|0:0,0:0:0:0:
470,359,63063,6,0,L|405:279,1,99,8|0,1:3|0:0,0:0:0:0:
407,282,63406,2,0,B|299:280|299:280|177:345,1,230.99999295044,2|8,3:1|0:3,0:0:0:0:
117,47,64092,6,0,L|182:63,1,57.7499982376099,4|0,3:0|0:0,0:0:0:0:
229,49,64263,2,0,L|163:62,1,57.7499982376099,4|0,3:0|0:0,0:0:0:0:
172,60,64435,2,0,B|126:118|126:118|115:207,1,148.49999546814,8|0,1:3|0:0,0:0:0:0:
116,191,64778,2,0,B|202:230|202:230|216:347,1,198,0|0,1:0|0:0,0:0:0:0:
214,332,65121,2,0,B|141:311|141:311|72:237,1,148.49999546814,8|0,1:3|0:0,0:0:0:0:
68,189,65463,6,0,L|96:272,1,74.2499977340699,6|0,3:0|0:0,0:0:0:0:
96,120,65635,2,0,L|67:191,1,74.2499977340699,4|0,3:0|0:0,0:0:0:0:
234,64,65806,6,0,L|253:157,1,82.5,2|0,1:0|0:0,0:0:0:0:
353,104,65978,2,0,L|345:192,1,82.5,4|0,3:0|0:0,0:0:0:0:
458,127,66149,1,0,1:0:0:0:
312,352,66321,2,0,L|292:251,1,82.5,4|0,3:0|0:0,0:0:0:0:
181,180,66492,2,0,L|168:360,1,165,4|4,0:3|0:3,0:0:0:0:
98,175,66835,2,0,L|69:267,1,82.5,0|0,1:0|0:0,0:0:0:0:
23,149,67006,1,0,1:0:0:0:
8,172,67092,1,4,3:0:0:0:
21,237,67178,6,0,L|7:163,1,66,0|0,1:0|0:0,0:0:0:0:
20,107,67349,2,0,L|5:184,1,66,4|0,3:0|0:0,0:0:0:0:
159,92,67521,2,0,L|132:173,1,66,0|0,1:0|0:0,0:0:0:0:
162,235,67692,2,0,L|134:169,1,66,4|0,3:0|0:0,0:0:0:0:
326,35,67863,2,0,L|280:122,1,66,0|0,1:0|0:0,0:0:0:0:
311,299,68035,2,0,L|272:200,1,66,0|0,1:0|0:0,0:0:0:0:
483,165,68206,2,0,L|223:165,1,247.5,0|0,1:0|0:0,0:0:0:0:
235,165,68549,5,0,3:0:0:0:
235,171,69921,6,0,B|289:212|289:212|449:226|449:226|496:207,1,222.74999320221,4|0,1:0|0:0,0:0:0:0:
500,177,70263,2,0,L|436:233,1,74.2499977340699,0|0,1:0|0:0,0:0:0:0:
444,225,70435,2,0,B|413:149|413:149|334:62,1,173.24999471283,2|0,0:0|0:0,0:0:0:0:
130,45,70778,1,4,3:0:0:0:
63,150,70949,2,0,L|32:87,1,57.7499982376099,0|0,1:0|0:0,0:0:0:0:
37,98,71121,2,0,L|9:173,1,57.7499982376099,2|0,0:0|0:0,0:0:0:0:
16,152,71292,2,0,B|59:230|59:230|186:214,1,198,4|0,3:0|0:0,0:0:0:0:
314,76,71635,6,0,L|375:30,1,57.7499982376099,0|0,1:0|0:0,0:0:0:0:
360,41,71806,2,0,B|367:127|367:127|336:205|336:205|351:281,1,222.74999320221,2|0,0:0|0:0,0:0:0:0:
256,384,72149,2,0,L|302:325,1,66,4|0,3:0|0:0,0:0:0:0:
470,284,72321,2,0,L|384:283,1,66,0|0,1:0|0:0,0:0:0:0:
405,284,72492,2,0,L|338:252,1,66,2|0,0:0|0:0,0:0:0:0:
345,255,72663,2,0,B|248:208|248:208|121:263,1,230.99999295044,4|0,3:0|1:0,0:0:0:0:
498,5,73349,6,0,L|453:66,1,57.7499982376099,0|0,3:0|0:0,0:0:0:0:
477,108,73521,2,0,L|460:34,1,57.7499982376099,4|0,3:0|0:0,0:0:0:0:
385,286,73692,2,0,L|469:35,1,247.5,4|0,1:2|0:0,0:0:0:0:
463,51,74035,6,0,B|345:63|345:63|271:127,1,173.24999471283,4|0,3:0|0:0,0:0:0:0:
263,57,74378,2,0,L|311:106,1,57.7499982376099,0|0,1:0|0:0,0:0:0:0:
303,98,74549,2,0,B|321:202|321:202|278:277,1,173.24999471283,0|0,0:0|0:0,0:0:0:0:
125,273,74892,2,0,L|67:325,1,57.7499982376099,4|0,3:0|0:0,0:0:0:0:
82,311,75063,2,0,L|18:261,1,57.7499982376099,2|0,1:3|0:0,0:0:0:0:
10,384,75235,1,0,0:0:0:0:
162,129,75406,6,0,B|255:162|255:162|342:221,1,173.24999471283,4|0,1:0|0:0,0:0:0:0:
370,181,75749,2,0,L|309:206,1,57.7499982376099,0|0,1:0|0:0,0:0:0:0:
316,202,75921,2,0,L|399:323,1,115.49999647522,2|0,0:0|0:0,0:0:0:0:
100,119,76263,2,0,B|72:67|72:67|120:5,1,115.49999647522,4|0,3:0|1:0,0:0:0:0:
149,196,76606,2,0,L|73:218,1,57.7499982376099,2|0,0:0|0:0,0:0:0:0:
137,295,76778,5,4,1:0:0:0:
137,295,76949,1,4,3:0:0:0:
137,295,77121,2,0,L|216:268,1,66,0|0,1:0|0:0,0:0:0:0:
410,320,77463,1,4,3:0:0:0:
410,320,77635,1,0,1:0:0:0:
313,39,77978,1,4,3:0:0:0:
141,61,78149,6,0,L|122:117,1,49.4999984893799,4|0,1:0|0:0,0:0:0:0:
125,107,78321,2,0,L|107:168,1,49.4999984893799,4|0,0:3|0:0,0:0:0:0:
63,256,78492,6,0,L|99:320,1,49.4999984893799,0|0,1:0|0:0,0:0:0:0:
87,299,78663,2,0,L|130:364,1,49.4999984893799,4|0,0:3|0:0,0:0:0:0:
280,315,78835,6,0,L|214:318,1,57.7499982376099,4|0,0:3|0:0,0:0:0:0:
128,182,79006,2,0,L|168:250,1,74.2499977340699,0|0,1:0|0:0,0:0:0:0:
400,286,79178,2,0,B|333:283|333:283|259:167|259:167|277:106,1,247.5,0|0,1:0|0:0,0:0:0:0:
271,125,79521,6,0,B|173:96|173:96|78:128,1,173.24999471283,4|0,1:0|0:0,0:0:0:0:
50,101,79863,2,0,L|113:121,1,57.7499982376099,0|0,1:0|0:0,0:0:0:0:
105,118,80035,2,0,B|72:198|72:198|105:284,1,173.24999471283,2|0,0:0|0:0,0:0:0:0:
73,328,80378,2,0,L|103:278,1,57.7499982376099,4|0,3:0|0:0,0:0:0:0:
9,262,80549,1,0,1:0:0:0:
253,22,80721,2,0,L|268:93,1,57.7499982376099,2|0,0:0|0:0,0:0:0:0:
264,78,80892,2,0,B|324:119|324:119|388:105|388:105|453:133,1,173.24999471283,4|0,3:0|0:0,0:0:0:0:
464,82,81235,2,0,L|398:136,1,57.7499982376099,0|0,1:0|0:0,0:0:0:0:
419,118,81406,2,0,B|397:191|397:191|424:293,1,173.24999471283,2|0,0:0|0:0,0:0:0:0:
403,340,81749,2,0,L|425:273,1,57.7499982376099,4|0,3:0|0:0,0:0:0:0:
496,341,81921,1,0,1:0:0:0:
204,194,82092,6,0,L|146:220,1,57.7499982376099,2|0,0:0|0:0,0:0:0:0:
151,217,82263,2,0,B|219:216|219:216|304:281,1,148.49999546814,4|0,3:0|0:0,0:0:0:0:
282,264,82606,2,0,B|203:293|203:293|134:273|134:273|20:332,1,264,0|0,1:0|3:0,0:0:0:0:
21,29,83121,2,0,L|46:100,1,66,4|0,3:0|0:0,0:0:0:0:
36,165,83292,2,0,L|44:69,1,74.2499977340699,0|0,1:2|0:0,0:0:0:0:
205,82,83463,2,0,L|109:87,1,82.5,2|0,0:0|0:0,0:0:0:0:
428,149,83635,1,4,3:0:0:0:
428,149,83806,1,0,1:0:0:0:
313,198,83978,2,0,L|300:126,1,66,4|0,3:0|0:0,0:0:0:0:
301,133,84149,2,0,L|333:73,1,66,4|0,3:0|0:0,0:0:0:0:
134,69,84321,6,0,L|197:134,1,74.2499977340699,0|0,1:0|0:0,0:0:0:0:
201,219,84493,2,0,L|177:318,1,74.2499977340699,4|0,3:0|0:0,0:0:0:0:
122,360,84663,2,0,B|227:329|227:329|299:343,1,181.500005538941,6|0,1:0|1:0,0:0:0:0:
297,342,84921,1,4,0:3:0:0:
433,376,85006,6,0,L|400:283,1,74.2499977340699,4|0,1:0|0:0,0:0:0:0:
408,306,85178,2,0,L|458:212,1,74.2499977340699,4|0,3:0|0:0,0:0:0:0:
442,240,85349,1,0,1:0:0:0:
119,241,85521,2,0,L|155:322,1,74.2499977340699,2|0,1:3|0:0,0:0:0:0:
106,369,85692,2,0,L|155:302,1,74.2499977340699,4|0,3:0|0:0,0:0:0:0:
298,309,85863,2,0,L|142:309,1,148.49999546814,4|0,3:0|1:0,0:0:0:0:
49,79,86206,1,4,0:3:0:0:
74,102,86292,1,4,0:3:0:0:
111,124,86378,6,0,L|98:44,1,74.2499977340699,4|0,1:0|0:0,0:0:0:0:
99,50,86549,2,0,L|165:17,1,74.2499977340699,4|0,0:3|0:0,0:0:0:0:
165,17,86721,2,0,L|251:76,1,74.2499977340699,0|0,1:0|0:0,0:0:0:0:
179,199,86892,2,0,L|229:48,1,148.49999546814,2|4,1:0|0:3,0:0:0:0:
446,31,87235,2,0,L|458:134,1,74.2499977340699,4|0,3:0|0:0,0:0:0:0:
427,173,87406,2,0,L|461:86,1,74.2499977340699,0|0,1:0|0:0,0:0:0:0:
340,89,87577,1,4,0:3:0:0:
379,84,87663,1,4,0:3:0:0:
312,123,87749,5,0,1:0:0:0:
56,99,87921,2,0,L|20:25,1,74.2499977340699,4|0,0:3|0:0,0:0:0:0:
23,32,88092,2,0,B|21:126|21:126|104:221,1,165,0|4,1:0|0:3,0:0:0:0:
166,384,88435,2,0,L|182:290,1,82.5,0|0,1:0|0:0,0:0:0:0:
160,151,88606,2,0,B|202:236|202:236|167:339,1,165,4|0,0:3|1:0,0:0:0:0:
419,78,88949,1,12,0:3:0:0:
26,94,89121,6,0,B|13:248|13:248|144:320,1,296.99999093628,6|0,1:0|0:0,0:0:0:0:
256,202,89463,1,0,1:0:0:0:
242,227,89549,1,0,1:0:0:0:
224,256,89635,1,0,1:0:0:0:
204,284,89721,1,0,1:0:0:0:
267,318,89806,6,0,L|256:195,1,115.49999647522,2|0,1:3|0:0,0:0:0:0:
374,143,89978,6,0,L|246:208,1,132,0|0,1:0|0:0,0:0:0:0:
226,64,90149,6,0,B|101:239|101:239|147:364|147:364|267:319|267:319|257:194,1,593.999981872559,6|4,1:0|3:3,0:0:0:0:
