osu file format v14

[General]
AudioFilename: hue.mp3
AudioLeadIn: 0
PreviewTime: 147854
Countdown: 0
SampleSet: Soft
StackLeniency: 1
Mode: 2
LetterboxInBreaks: 0
WidescreenStoryboard: 0

[Editor]
Bookmarks: 2412,23159,31506,39854,56550,73245,76376,76637,76767,76898,77028,81593,98289,114985,123332,131680,148376,156202,156724,165072,169245,173419,181767,190115,194289,198463,215158,231854,240202,248550,265245,269419,273593,277767,281941,298637,313245,315332,317419,319506,321593,325767
DistanceSpacing: 0.5
BeatDivisor: 4
GridSize: 16
TimelineZoom: 2.1

[Metadata]
Title:Suigetsu Kyouka Koubou Issen
TitleUnicode:水月鏡花光芒一閃
Artist:Onocchi, Xenon
ArtistUnicode:おのっち, キセノン
Creator:[Force]
Version:ForCTB
Source:東方Project
Tags:Xenon ForCTB
BeatmapID:876285
BeatmapSetID:402967

[Difficulty]
HPDrainRate:6
CircleSize:4.2
OverallDifficulty:9.5
ApproachRate:9.5
SliderMultiplier:1.8
SliderTickRate:1

[Events]
//Background and Video events
0,0,"iku-nagae-touhou-project-26760-1366x768.jpg",0,0
//Break Periods
//Storyboard Layer 0 (Background)
//Storyboard Layer 1 (Fail)
//Storyboard Layer 2 (Pass)
//Storyboard Layer 3 (Foreground)
//Storyboard Sound Samples

[TimingPoints]
2412,600,4,2,0,30,1,0
16850,631.578947368421,4,2,0,35,1,0
17481,666.666666666667,4,2,0,40,1,0
18145,750,4,2,0,45,1,0
18895,800,4,2,0,40,1,0
19695,869.565217391304,4,2,0,35,1,0
23159,260.869565217391,4,2,0,70,1,0
23159,-166.666666666667,4,2,0,70,0,0
29419,-166.666666666667,4,2,0,80,0,0
30985,-125,4,2,0,70,0,0
31245,-111.111111111111,4,2,0,70,0,0
31506,-100,4,2,0,70,0,0
37767,-100,4,2,0,80,0,0
38811,-100,4,2,0,90,0,0
39854,-90.9090909090909,4,2,0,100,0,1
55506,-90.9090909090909,4,2,0,80,0,1
55767,-100,4,2,0,70,0,1
56028,-111.111111111111,4,2,0,60,0,1
56289,-125,4,2,0,50,0,1
56550,-166.666666666667,4,2,0,30,0,0
63854,-125,4,2,0,40,0,0
64898,-166.666666666667,4,2,0,30,0,0
72202,-166.666666666667,4,2,0,40,0,0
73245,-125,4,2,0,30,0,0
74289,-125,4,3,0,30,0,0
74376,-125,4,2,0,30,0,0
75072,-125,4,3,0,30,0,0
75398,-125,4,2,0,30,0,0
76376,-125,4,3,0,30,0,0
77093,-125,4,2,0,30,0,0
77419,-125,4,3,0,30,0,0
77485,-125,4,2,0,30,0,0
78202,-125,4,3,0,30,0,0
78528,-125,4,2,0,30,0,0
79245,-125,4,3,0,30,0,0
79572,-125,4,2,0,30,0,0
79767,-125,4,2,0,35,0,0
79898,-125,4,2,0,40,0,0
80028,-125,4,2,0,50,0,0
80158,-125,4,2,0,55,0,0
80289,-125,4,2,0,60,0,0
80419,-125,4,2,0,65,0,0
80550,-125,4,2,0,70,0,0
81593,-100,4,2,0,80,0,0
98289,-100,4,2,0,90,0,0
112898,-100,4,2,0,60,0,0
114985,-133.333333333333,4,2,0,60,0,0
123332,-133.333333333333,4,2,0,70,0,0
131680,-133.333333333333,4,2,0,60,0,0
148376,-133.333333333333,4,2,0,100,0,1
181767,-133.333333333333,4,2,0,30,0,0
190115,-133.333333333333,4,2,0,40,0,0
194289,-133.333333333333,4,2,0,50,0,0
196898,-133.333333333333,4,2,0,60,0,0
197419,-133.333333333333,4,2,0,70,0,0
197941,-133.333333333333,4,2,0,80,0,0
198463,-100,4,2,0,90,0,0
231854,-133.333333333333,4,2,0,90,0,0
281941,-90.9090909090909,4,2,0,90,0,1
297593,-90.9090909090909,4,2,0,90,0,1
297854,-100,4,2,0,90,0,1
298115,-111.111111111111,4,2,0,90,0,1
298376,-125,4,2,0,90,0,1
298637,-133.333333333333,4,2,0,90,0,0

[Colours]
Combo1 : 255,91,96
Combo2 : 40,255,250
Combo3 : 145,0,0
Combo4 : 0,155,215

[HitObjects]
32,192,2412,6,0,L|160:192,2,90
96,192,3312,1,0,0:0:0:0:
480,192,3612,6,0,L|352:192,2,90
32,256,4512,1,0,0:0:0:0:
448,192,4812,6,0,L|480:96,1,90
64,192,5412,2,0,L|32:288,1,90
256,192,6012,6,0,L|160:192,2,90
32,192,6912,1,0,0:0:0:0:
448,192,7212,6,0,L|480:192,2,22.5
160,192,7512,2,0,B|64:192,1,90
448,256,8112,1,0,0:0:0:0:
54,192,8412,6,0,L|32:192,2,22.5
352,192,8712,2,0,B|448:192,1,90
32,256,9312,1,0,0:0:0:0:
416,224,9612,6,0,L|512:224,1,90
96,224,10212,2,0,L|0:224,1,90
480,288,10812,1,0,0:0:0:0:
352,192,12012,1,0,0:0:0:0:
256,192,12312,1,0,0:0:0:0:
448,192,12612,1,0,0:0:0:0:
32,192,12912,1,0,0:0:0:0:
480,192,13212,6,0,L|480:288,1,90
32,192,13812,2,0,L|32:288,1,90
304,192,14412,1,0,0:0:0:0:
208,192,14712,1,0,0:0:0:0:
400,192,15012,1,0,0:0:0:0:
32,192,15312,1,0,0:0:0:0:
480,192,15612,6,0,L|480:288,1,90
32,192,16212,2,0,L|128:192,1,90
352,192,16850,1,0,0:0:0:0:
416,160,16928,1,0,0:0:0:0:
448,96,17007,1,0,0:0:0:0:
128,192,17165,6,0,L|32:192,1,90
480,256,17814,1,0,0:0:0:0:
32,192,18145,1,0,0:0:0:0:
96,160,18238,1,0,0:0:0:0:
128,96,18332,1,0,0:0:0:0:
480,224,18520,1,0,0:0:0:0:
432,192,18613,1,0,0:0:0:0:
416,160,18707,1,0,0:0:0:0:
432,128,18801,1,0,0:0:0:0:
480,96,18895,1,0,0:0:0:0:
0,256,19295,1,0,0:0:0:0:
352,192,19695,1,0,0:0:0:0:
256,192,19912,12,0,22955,0:0:0:0:
256,64,23159,6,0,B|200:40|64:64|84:140|192:224|192:224|192:128|448:192|448:192|352:224|448:288|448:320|448:320|320:320,1,863.999973632813
256,320,25637,5,0,0:0:0:0:
32,256,25963,2,0,L|160:256,1,107.999996704102
480,256,26485,2,0,L|352:256,1,107.999996704102
32,256,26876,2,0,L|96:256,1,53.9999983520508
480,256,27137,2,0,L|416:256,1,53.9999983520508
96,256,27332,6,0,B|129:222|243:182|243:182|282:120|240:38|240:38|180:35|118:58|98:140|158:159|200:117|200:117|416:160,1,755.999976928712
160,192,29419,5,0,0:0:0:0:
128,224,29550,1,0,0:0:0:0:
32,256,29680,1,0,0:0:0:0:
64,288,29811,1,0,0:0:0:0:
448,288,29941,1,0,0:0:0:0:
32,288,30202,1,0,0:0:0:0:
352,192,30463,5,0,0:0:0:0:
384,224,30593,1,0,0:0:0:0:
480,256,30724,1,0,0:0:0:0:
448,288,30854,1,0,0:0:0:0:
192,224,30985,2,0,L|256:224,1,36
480,224,31245,2,0,L|384:224,1,80.9999975280763
32,288,31506,6,0,L|224:288,1,180
32,192,32028,6,0,L|128:192,1,90
480,192,32419,1,0,0:0:0:0:
352,192,32550,1,0,0:0:0:0:
480,320,32811,5,0,0:0:0:0:
320,320,32942,1,0,0:0:0:0:
32,192,33202,1,0,0:0:0:0:
160,192,33333,1,0,0:0:0:0:
416,128,33593,6,0,B|224:128,1,180
32,288,33985,1,0,0:0:0:0:
96,288,34115,2,0,L|192:288,1,90
32,224,34376,6,0,L|128:224,1,90
480,224,34637,1,0,0:0:0:0:
32,160,34898,2,0,L|160:160,1,90
32,96,35158,1,0,0:0:0:0:
224,96,35289,1,0,0:0:0:0:
160,96,35419,1,0,0:0:0:0:
480,192,35680,6,0,L|288:192,1,180
384,256,36072,1,0,0:0:0:0:
32,256,36202,2,0,L|224:256,1,180
128,192,36593,5,0,0:0:0:0:
448,192,36724,1,0,0:0:0:0:
224,320,36985,1,0,0:0:0:0:
320,320,37116,1,0,0:0:0:0:
192,256,37376,5,0,0:0:0:0:
384,256,37507,1,0,0:0:0:0:
192,192,37637,1,0,0:0:0:0:
384,192,37767,6,0,B|192:192,1,180
160,192,38093,1,0,0:0:0:0:
128,192,38158,1,0,0:0:0:0:
96,192,38224,1,0,0:0:0:0:
256,256,38289,6,0,L|352:256,2,60
64,288,38550,2,0,L|0:288,2,60
288,192,38811,5,0,0:0:0:0:
320,192,38898,1,0,0:0:0:0:
352,192,38985,1,0,0:0:0:0:
128,128,39072,1,0,0:0:0:0:
96,128,39158,1,0,0:0:0:0:
64,128,39245,1,0,0:0:0:0:
352,32,39332,6,0,L|480:32,1,90
32,32,39593,2,0,L|160:32,1,90
480,256,39854,6,0,B|352:256,1,99.0000030212403
189,256,40115,2,0,B|288:256,1,99.0000030212403
32,256,40376,6,0,B|160:256,1,99.0000030212403
320,256,40637,2,0,B|221:256,1,99.0000030212403
416,256,40898,5,0,0:0:0:0:
448,224,40963,1,0,0:0:0:0:
416,192,41028,1,0,0:0:0:0:
160,192,41158,1,0,0:0:0:0:
352,128,41289,5,0,0:0:0:0:
416,128,41354,1,0,0:0:0:0:
480,128,41419,1,0,0:0:0:0:
352,256,41549,1,0,0:0:0:0:
480,256,41680,5,0,0:0:0:0:
352,256,41811,1,0,0:0:0:0:
32,320,41941,2,0,L|160:320,1,99.0000030212403
384,320,42202,6,0,L|512:320,1,99.0000030212403
208,256,42463,2,0,L|336:256,1,99.0000030212403
32,320,42724,6,0,L|160:320,1,99.0000030212403
320,320,42985,1,0,0:0:0:0:
256,320,43050,1,0,0:0:0:0:
192,320,43115,1,0,0:0:0:0:
384,320,43245,5,0,0:0:0:0:
192,256,43376,1,0,0:0:0:0:
256,256,43441,1,0,0:0:0:0:
320,256,43506,1,0,0:0:0:0:
128,256,43636,1,0,0:0:0:0:
320,192,43768,5,0,0:0:0:0:
352,192,43833,1,0,0:0:0:0:
96,192,43898,1,0,0:0:0:0:
64,192,43963,1,0,0:0:0:0:
288,128,44028,6,0,L|416:128,1,99.0000030212403
32,128,44289,2,0,L|160:128,1,99.0000030212403
384,64,44550,5,0,0:0:0:0:
192,64,44680,1,0,0:0:0:0:
387,128,44811,2,0,L|512:128,1,99.0000030212403
64,128,45072,5,0,0:0:0:0:
32,160,45137,1,0,0:0:0:0:
64,192,45202,1,0,0:0:0:0:
256,192,45332,1,0,0:0:0:0:
480,256,45463,5,0,0:0:0:0:
416,256,45528,1,0,0:0:0:0:
352,256,45593,1,0,0:0:0:0:
128,352,45723,1,0,0:0:0:0:
320,352,45854,5,0,0:0:0:0:
128,288,45985,1,0,0:0:0:0:
320,288,46115,1,0,0:0:0:0:
368,256,46180,1,0,0:0:0:0:
320,224,46245,1,0,0:0:0:0:
32,224,46376,6,0,L|160:224,1,99.0000030212403
352,160,46637,1,0,0:0:0:0:
400,128,46702,1,0,0:0:0:0:
352,96,46767,1,0,0:0:0:0:
128,160,46898,5,0,0:0:0:0:
80,128,46963,1,0,0:0:0:0:
128,96,47028,1,0,0:0:0:0:
384,352,47158,5,0,0:0:0:0:
432,320,47224,1,0,0:0:0:0:
464,272,47289,1,0,0:0:0:0:
480,208,47354,1,0,0:0:0:0:
320,192,47420,5,0,0:0:0:0:
272,224,47485,1,0,0:0:0:0:
240,272,47551,1,0,0:0:0:0:
224,336,47616,1,0,0:0:0:0:
384,352,47680,5,0,0:0:0:0:
416,352,47745,1,0,0:0:0:0:
448,352,47810,1,0,0:0:0:0:
480,352,47876,1,0,0:0:0:0:
256,352,47941,5,0,0:0:0:0:
224,352,48006,1,0,0:0:0:0:
416,288,48072,1,0,0:0:0:0:
448,288,48137,1,0,0:0:0:0:
224,288,48202,6,0,L|96:288,2,99.0000030212403
32,224,48593,1,0,0:0:0:0:
256,224,48724,6,0,L|384:224,1,99.0000030212403
128,160,48985,1,0,0:0:0:0:
352,160,49115,1,0,0:0:0:0:
160,96,49245,5,0,0:0:0:0:
96,96,49311,1,0,0:0:0:0:
32,96,49376,1,0,0:0:0:0:
224,96,49506,1,0,0:0:0:0:
32,160,49637,5,0,0:0:0:0:
96,160,49703,1,0,0:0:0:0:
160,160,49768,1,0,0:0:0:0:
480,160,49898,1,0,0:0:0:0:
352,160,50028,5,0,0:0:0:0:
480,224,50158,1,0,0:0:0:0:
352,224,50289,2,0,L|224:224,1,99.0000030212403
32,288,50550,6,0,L|160:288,1,99.0000030212403
480,288,50811,1,0,0:0:0:0:
288,288,50941,1,0,0:0:0:0:
480,224,51072,6,0,L|352:224,1,99.0000030212403
128,224,51332,1,0,0:0:0:0:
96,192,51398,1,0,0:0:0:0:
128,160,51463,1,0,0:0:0:0:
320,256,51593,1,0,0:0:0:0:
128,288,51724,5,0,0:0:0:0:
96,320,51790,1,0,0:0:0:0:
128,352,51855,1,0,0:0:0:0:
352,288,51985,1,0,0:0:0:0:
448,192,52115,5,0,0:0:0:0:
480,160,52181,1,0,0:0:0:0:
352,192,52246,1,0,0:0:0:0:
320,160,52311,1,0,0:0:0:0:
448,128,52376,6,0,B|480:32,1,99.0000030212403
32,96,52637,2,0,L|160:96,1,99.0000030212403
320,96,52898,6,0,L|192:96,1,99.0000030212403
480,96,53158,2,0,L|352:96,1,99.0000030212403
96,320,53419,5,0,0:0:0:0:
160,320,53485,1,0,0:0:0:0:
224,320,53550,1,0,0:0:0:0:
32,256,53680,1,0,0:0:0:0:
224,256,53811,5,0,0:0:0:0:
288,256,53877,1,0,0:0:0:0:
352,256,53942,1,0,0:0:0:0:
224,192,54072,1,0,0:0:0:0:
352,192,54201,5,0,0:0:0:0:
224,128,54332,1,0,0:0:0:0:
352,128,54463,2,0,L|416:128,2,49.5000015106202
128,256,54724,5,0,0:0:0:0:
352,320,54854,1,0,0:0:0:0:
160,320,54985,2,0,L|96:320,1,49.5000015106202
256,320,55115,1,0,0:0:0:0:
320,320,55180,1,0,0:0:0:0:
384,320,55245,1,0,0:0:0:0:
192,256,55376,1,0,0:0:0:0:
480,256,55506,6,0,L|480:128,1,99.0000030212403
288,256,55767,2,0,L|288:160,1,90
32,256,56028,6,0,L|32:160,1,80.9999975280763
224,256,56289,2,0,L|224:160,1,72
480,192,56550,5,8,0:0:0:0:
432,176,56615,1,0,0:0:0:0:
400,144,56680,1,0,0:0:0:0:
384,96,56745,1,0,0:0:0:0:
384,48,56811,1,2,0:0:0:0:
480,128,57072,1,4,0:0:0:0:
32,192,57332,5,8,0:0:0:0:
80,176,57397,1,0,0:0:0:0:
112,144,57462,1,0,0:0:0:0:
128,96,57527,1,0,0:0:0:0:
128,48,57593,1,2,0:0:0:0:
32,128,57854,1,8,0:0:0:0:
448,192,58115,5,8,0:0:0:0:
480,128,58180,1,0,0:0:0:0:
384,192,58245,1,0,0:0:0:0:
352,128,58311,1,0,0:0:0:0:
384,64,58376,1,2,0:0:0:0:
64,192,58637,5,8,0:0:0:0:
32,128,58702,1,0,0:0:0:0:
128,192,58767,1,0,0:0:0:0:
160,128,58833,1,0,0:0:0:0:
128,64,58898,1,2,0:0:0:0:
480,256,59158,1,4,0:0:0:0:
256,256,59419,5,8,0:0:0:0:
304,256,59485,1,0,0:0:0:0:
320,224,59550,1,0,0:0:0:0:
304,192,59615,1,0,0:0:0:0:
256,192,59680,1,2,0:0:0:0:
32,192,59941,1,8,0:0:0:0:
256,256,60202,5,8,0:0:0:0:
208,256,60268,1,0,0:0:0:0:
192,224,60333,1,0,0:0:0:0:
208,192,60398,1,0,0:0:0:0:
256,192,60463,1,2,0:0:0:0:
480,128,60724,5,8,0:0:0:0:
448,128,60789,1,0,0:0:0:0:
256,128,60854,1,0,0:0:0:0:
224,160,60919,1,0,0:0:0:0:
256,192,60985,1,2,0:0:0:0:
448,192,61245,1,4,0:0:0:0:
32,128,61506,5,8,0:0:0:0:
64,128,61571,1,0,0:0:0:0:
256,128,61636,1,0,0:0:0:0:
288,96,61701,1,0,0:0:0:0:
256,64,61767,1,2,0:0:0:0:
64,64,62028,1,8,0:0:0:0:
480,192,62289,5,8,0:0:0:0:
448,160,62354,1,0,0:0:0:0:
432,128,62419,1,0,0:0:0:0:
448,96,62485,1,0,0:0:0:0:
480,64,62550,1,2,0:0:0:0:
32,192,62811,5,8,0:0:0:0:
64,160,62876,1,0,0:0:0:0:
80,128,62941,1,0,0:0:0:0:
64,96,63007,1,0,0:0:0:0:
32,64,63072,1,2,0:0:0:0:
480,256,63332,1,4,0:0:0:0:
32,256,63593,1,8,0:0:0:0:
256,192,63854,6,0,L|320:192,2,48,8|0|2,0:0|0:0|0:0,0:0:0:0:
96,192,64115,6,0,L|32:192,2,48,8|0|2,0:0|0:0|0:0,0:0:0:0:
288,320,64376,5,8,0:0:0:0:
336,304,64463,1,0,0:0:0:0:
368,256,64550,1,2,0:0:0:0:
160,320,64637,5,8,0:0:0:0:
112,304,64724,1,0,0:0:0:0:
80,256,64811,1,2,0:0:0:0:
320,192,64898,5,8,0:0:0:0:
352,160,64963,1,0,0:0:0:0:
192,192,65028,1,0,0:0:0:0:
160,160,65093,1,0,0:0:0:0:
128,128,65158,1,2,0:0:0:0:
480,192,65419,1,4,0:0:0:0:
96,192,65680,5,8,0:0:0:0:
64,192,65745,1,0,0:0:0:0:
32,192,65811,1,0,0:0:0:0:
112,256,65876,1,0,0:0:0:0:
192,256,65941,1,2,0:0:0:0:
32,256,66202,1,8,0:0:0:0:
384,256,66463,5,8,0:0:0:0:
352,256,66528,1,0,0:0:0:0:
320,256,66594,1,0,0:0:0:0:
400,192,66659,1,0,0:0:0:0:
480,192,66724,1,2,0:0:0:0:
160,320,66985,5,8,0:0:0:0:
112,320,67050,1,0,0:0:0:0:
96,256,67115,1,0,0:0:0:0:
112,192,67180,1,0,0:0:0:0:
160,192,67245,1,2,0:0:0:0:
480,192,67506,1,4,0:0:0:0:
96,320,67767,5,8,0:0:0:0:
144,320,67832,1,0,0:0:0:0:
160,256,67897,1,0,0:0:0:0:
144,192,67962,1,0,0:0:0:0:
96,192,68027,1,2,0:0:0:0:
480,192,68289,1,8,0:0:0:0:
160,160,68550,5,8,0:0:0:0:
128,128,68615,1,0,0:0:0:0:
96,96,68680,1,0,0:0:0:0:
64,64,68745,1,0,0:0:0:0:
32,32,68811,1,2,0:0:0:0:
432,288,69072,5,8,0:0:0:0:
480,288,69137,1,0,0:0:0:0:
352,288,69202,1,0,0:0:0:0:
304,288,69267,1,0,0:0:0:0:
256,288,69332,1,2,0:0:0:0:
16,288,69593,1,4,0:0:0:0:
480,224,69854,5,8,0:0:0:0:
432,224,69919,1,0,0:0:0:0:
304,224,69984,1,0,0:0:0:0:
336,224,70049,1,0,0:0:0:0:
368,224,70115,1,2,0:0:0:0:
32,288,70375,1,8,0:0:0:0:
288,224,70637,5,8,0:0:0:0:
320,192,70702,1,0,0:0:0:0:
160,160,70767,1,0,0:0:0:0:
128,128,70832,1,0,0:0:0:0:
96,96,70898,1,2,0:0:0:0:
416,160,71158,5,8,0:0:0:0:
448,128,71224,1,0,0:0:0:0:
288,96,71289,1,0,0:0:0:0:
224,64,71354,1,0,0:0:0:0:
160,32,71419,1,2,0:0:0:0:
480,224,71680,1,4,0:0:0:0:
96,224,71941,1,8,0:0:0:0:
288,192,72202,5,8,0:0:0:0:
352,160,72289,1,0,0:0:0:0:
416,128,72376,1,2,0:0:0:0:
192,160,72463,5,8,0:0:0:0:
128,128,72550,1,0,0:0:0:0:
64,96,72637,1,2,0:0:0:0:
224,288,72724,5,8,0:0:0:0:
288,256,72811,1,0,0:0:0:0:
352,224,72898,1,2,0:0:0:0:
128,224,72985,5,8,0:0:0:0:
64,192,73072,1,0,0:0:0:0:
0,160,73158,1,2,0:0:0:0:
384,160,73245,6,0,B|448:64|448:64|352:224,1,288,4|2,0:0|0:0,0:0:0:0:
32,192,74028,2,0,L|32:32,2,144,8|4|2,0:0|0:0|0:0,0:0:0:0:
288,256,74680,1,0,0:0:0:0:
192,192,74811,2,0,L|288:192,1,72,2|2,0:0|0:0,0:0:0:0:
32,192,75072,6,0,L|128:192,1,72,8|2,0:0|0:0,0:0:0:0:
480,256,75332,2,0,L|384:256,1,72
176,256,75593,6,2,L|272:256,1,72
16,256,75854,2,2,L|112:256,1,72
288,192,76115,6,2,L|192:192,1,72
416,192,76376,2,0,L|512:192,1,72,4|0,0:0|0:0,0:0:0:0:
32,192,76637,6,0,L|128:192,1,72,8|8,0:0|0:0,0:0:0:0:
416,128,76898,2,0,L|512:128,1,72,4|8,0:0|0:0,0:0:0:0:
288,128,77159,6,2,L|384:128,1,72
32,192,77419,2,0,L|128:192,1,72,4|2,0:0|0:0,0:0:0:0:
304,192,77680,6,2,L|208:192,1,72
480,192,77941,2,2,L|384:192,1,72
32,192,78202,5,0,0:0:0:0:
64,192,78267,1,0,0:0:0:0:
224,192,78332,1,0,0:0:0:0:
256,192,78398,1,0,0:0:0:0:
288,192,78463,2,0,L|384:192,1,72,4|2,0:0|0:0,0:0:0:0:
96,128,78724,6,2,L|0:128,1,72
416,128,78985,2,2,L|512:128,1,72
288,128,79245,5,0,0:0:0:0:
256,128,79311,1,0,0:0:0:0:
96,128,79376,1,0,0:0:0:0:
64,128,79441,1,0,0:0:0:0:
32,128,79506,1,0,0:0:0:0:
224,192,79637,1,2,0:0:0:0:
32,192,79767,5,2,0:0:0:0:
224,256,79898,1,2,0:0:0:0:
416,256,80028,1,2,0:0:0:0:
224,320,80158,1,2,0:0:0:0:
416,320,80289,1,2,0:0:0:0:
224,320,80419,1,2,0:0:0:0:
416,320,80550,1,2,0:0:0:0:
32,128,80811,6,0,L|128:128,1,72,8|0,0:0|0:0,0:0:0:0:
480,128,81072,2,0,L|384:128,1,72,2|0,0:0|0:0,0:0:0:0:
32,128,81332,2,0,L|128:128,1,72,8|0,0:0|0:0,0:0:0:0:
480,64,81593,6,0,L|288:64,1,180,4|0,0:0|0:0,0:0:0:0:
384,128,81985,1,0,0:0:0:0:
128,256,82115,2,0,L|32:256,2,90
32,192,82506,1,0,0:0:0:0:
480,256,82637,6,0,L|480:160,1,90
32,128,82898,2,0,L|160:128,1,90,8|0,0:0|0:0,0:0:0:0:
480,128,83159,2,0,L|352:128,1,90,2|0,0:0|0:0,0:0:0:0:
32,128,83419,2,0,L|160:128,1,90,8|0,0:0|0:0,0:0:0:0:
480,64,83680,6,0,L|288:64,1,180,4|0,0:0|0:0,0:0:0:0:
96,64,84072,1,0,0:0:0:0:
384,288,84202,2,0,L|480:288,2,90
480,160,84593,1,0,0:0:0:0:
32,288,84724,6,0,L|32:192,1,90
384,224,84985,2,0,L|480:224,1,90,8|0,0:0|0:0,0:0:0:0:
128,224,85245,2,0,L|32:224,1,90,2|0,0:0|0:0,0:0:0:0:
384,160,85506,2,0,L|480:160,1,90,8|0,0:0|0:0,0:0:0:0:
32,288,85767,6,0,L|216:188,1,180,4|0,0:0|0:0,0:0:0:0:
384,224,86158,1,0,0:0:0:0:
192,224,86289,1,0,0:0:0:0:
384,160,86419,1,0,0:0:0:0:
192,160,86549,1,0,0:0:0:0:
96,160,86680,1,0,0:0:0:0:
288,288,86810,1,0,0:0:0:0:
96,288,86941,5,0,0:0:0:0:
288,224,87071,1,8,0:0:0:0:
384,224,87202,1,0,0:0:0:0:
192,160,87332,1,2,0:0:0:0:
384,160,87462,1,0,0:0:0:0:
192,224,87593,1,8,0:0:0:0:
96,224,87723,1,0,0:0:0:0:
320,288,87854,1,2,0:0:0:0:
416,288,87984,5,0,0:0:0:0:
224,288,88115,1,8,0:0:0:0:
416,224,88245,1,0,0:0:0:0:
512,224,88376,1,2,0:0:0:0:
320,224,88506,1,0,0:0:0:0:
512,160,88636,1,8,0:0:0:0:
320,160,88767,1,0,0:0:0:0:
384,288,88898,6,0,L|480:288,1,90,4|0,0:0|0:0,0:0:0:0:
224,288,89158,1,8,0:0:0:0:
416,224,89289,1,2,0:0:0:0:
352,224,89354,1,0,0:0:0:0:
288,224,89419,1,8,0:0:0:0:
480,160,89550,1,2,0:0:0:0:
256,160,89680,2,0,L|352:160,1,90,8|0,0:0|0:0,0:0:0:0:
32,64,89941,6,0,L|224:64,1,180,4|0,0:0|0:0,0:0:0:0:
128,128,90333,1,0,0:0:0:0:
384,256,90463,2,0,L|480:256,2,90
480,192,90854,1,0,0:0:0:0:
32,256,90985,6,0,L|32:160,1,90
480,128,91246,2,0,L|352:128,1,90,8|0,0:0|0:0,0:0:0:0:
32,128,91507,2,0,L|160:128,1,90,2|0,0:0|0:0,0:0:0:0:
480,128,91767,2,0,L|352:128,1,90,8|0,0:0|0:0,0:0:0:0:
32,64,92028,6,0,L|224:64,1,180,4|0,0:0|0:0,0:0:0:0:
416,64,92420,1,0,0:0:0:0:
128,288,92550,2,0,L|32:288,2,90
32,160,92941,1,0,0:0:0:0:
480,288,93072,6,0,L|480:192,1,90
128,224,93333,2,0,L|32:224,1,90,8|0,0:0|0:0,0:0:0:0:
384,224,93593,2,0,L|480:224,1,90,2|0,0:0|0:0,0:0:0:0:
128,160,93854,2,0,L|32:160,1,90,8|0,0:0|0:0,0:0:0:0:
384,160,94115,6,0,P|448:160|480:32,1,180,4|0,0:0|0:0,0:0:0:0:
256,64,94506,1,0,0:0:0:0:
160,64,94637,1,0,0:0:0:0:
256,128,94767,1,0,0:0:0:0:
160,128,94898,1,0,0:0:0:0:
256,192,95028,1,0,0:0:0:0:
32,192,95158,6,0,L|32:96,1,90
480,192,95419,2,0,L|352:192,1,90,8|0,0:0|0:0,0:0:0:0:
128,256,95680,2,0,L|0:256,1,90,2|0,0:0|0:0,0:0:0:0:
480,256,95941,2,0,L|352:256,1,90,8|0,0:0|0:0,0:0:0:0:
96,96,96202,6,0,B|288:96,1,180,4|8,0:0|0:0,0:0:0:0:
480,96,96593,1,0,0:0:0:0:
32,160,96724,2,0,B|224:160,1,180,4|8,0:0|0:0,0:0:0:0:
288,160,97050,1,0,0:0:0:0:
480,160,97115,1,0,0:0:0:0:
384,208,97245,5,4,0:0:0:0:
352,224,97311,1,0,0:0:0:0:
336,256,97376,1,0,0:0:0:0:
352,288,97441,1,0,0:0:0:0:
384,304,97506,1,8,0:0:0:0:
416,288,97572,1,0,0:0:0:0:
432,256,97637,1,0,0:0:0:0:
416,224,97702,1,0,0:0:0:0:
96,224,97767,5,4,0:0:0:0:
32,192,97854,1,0,0:0:0:0:
192,224,97941,1,0,0:0:0:0:
224,192,98028,1,8,0:0:0:0:
64,128,98115,1,0,0:0:0:0:
32,96,98202,1,0,0:0:0:0:
352,128,98289,6,0,L|288:224,2,90,4|0|0,0:0|0:0|0:0,0:0:0:0:
160,288,98680,1,0,0:0:0:0:
352,288,98811,1,0,0:0:0:0:
160,224,98941,1,0,0:0:0:0:
384,224,99072,2,0,L|480:224,1,90
288,224,99332,6,0,L|288:128,1,90
64,224,99593,2,0,L|160:224,1,90,8|0,0:0|0:0,0:0:0:0:
448,224,99854,2,0,L|352:224,1,90,2|0,0:0|0:0,0:0:0:0:
32,224,100115,2,0,L|128:224,1,90,8|0,0:0|0:0,0:0:0:0:
352,128,100376,6,0,L|224:128,2,90,4|0|0,0:0|0:0|0:0,0:0:0:0:
160,288,100767,1,0,0:0:0:0:
352,288,100898,1,0,0:0:0:0:
416,224,101028,1,0,0:0:0:0:
128,224,101159,2,0,L|32:224,1,90
224,224,101419,6,0,L|224:128,1,90
448,224,101680,2,0,L|352:224,1,90,8|0,0:0|0:0,0:0:0:0:
64,224,101941,2,0,L|160:224,1,90,2|0,0:0|0:0,0:0:0:0:
448,224,102202,2,0,L|352:224,1,90,8|0,0:0|0:0,0:0:0:0:
32,288,102463,6,0,L|128:288,2,90,4|0|0,0:0|0:0|0:0,0:0:0:0:
128,224,102854,1,0,0:0:0:0:
320,224,102985,1,0,0:0:0:0:
128,160,103115,1,0,0:0:0:0:
320,160,103245,1,0,0:0:0:0:
416,160,103376,1,0,0:0:0:0:
224,288,103506,1,0,0:0:0:0:
416,288,103637,5,0,0:0:0:0:
224,224,103767,1,8,0:0:0:0:
128,224,103898,1,0,0:0:0:0:
320,160,104028,1,2,0:0:0:0:
128,160,104158,1,0,0:0:0:0:
320,224,104289,1,8,0:0:0:0:
416,224,104419,1,0,0:0:0:0:
192,288,104550,1,2,0:0:0:0:
96,288,104680,5,0,0:0:0:0:
288,288,104811,1,8,0:0:0:0:
96,224,104941,1,0,0:0:0:0:
0,224,105072,1,2,0:0:0:0:
192,224,105202,1,0,0:0:0:0:
0,160,105332,1,8,0:0:0:0:
192,160,105463,1,0,0:0:0:0:
0,96,105593,6,0,L|96:96,1,90,4|0,0:0|0:0,0:0:0:0:
192,96,105854,1,8,0:0:0:0:
384,96,105985,1,2,0:0:0:0:
320,96,106050,1,0,0:0:0:0:
256,96,106115,1,8,0:0:0:0:
448,96,106245,1,2,0:0:0:0:
256,160,106376,1,8,0:0:0:0:
448,160,106506,1,0,0:0:0:0:
32,64,106637,6,0,L|160:64,2,90,4|0|0,0:0|0:0|0:0,0:0:0:0:
128,128,107029,1,0,0:0:0:0:
384,256,107159,2,0,L|480:256,2,90
480,192,107550,1,0,0:0:0:0:
32,288,107681,6,0,L|32:192,1,90
480,128,107941,2,0,L|352:128,1,90,8|0,0:0|0:0,0:0:0:0:
32,128,108203,2,0,L|160:128,1,90,2|0,0:0|0:0,0:0:0:0:
480,128,108463,2,0,L|352:128,1,90,8|0,0:0|0:0,0:0:0:0:
32,64,108724,6,0,L|128:64,2,90,4|0|0,0:0|0:0|0:0,0:0:0:0:
480,64,109116,1,0,0:0:0:0:
128,288,109246,2,0,L|32:288,2,90
32,160,109637,1,0,0:0:0:0:
480,288,109768,6,0,L|480:192,1,90
128,224,110029,2,0,L|32:224,1,90,8|0,0:0|0:0,0:0:0:0:
384,224,110289,2,0,L|480:224,1,90,2|0,0:0|0:0,0:0:0:0:
128,160,110550,2,0,L|32:160,1,90,8|0,0:0|0:0,0:0:0:0:
480,288,110811,6,0,L|384:288,2,90,4|0|0,0:0|0:0|0:0,0:0:0:0:
384,224,111202,1,0,0:0:0:0:
480,224,111333,1,0,0:0:0:0:
224,96,111463,1,0,0:0:0:0:
320,96,111594,1,0,0:0:0:0:
32,160,111724,1,0,0:0:0:0:
128,160,111855,6,0,L|128:64,1,90
480,160,112115,2,0,L|384:160,1,90,8|0,0:0|0:0,0:0:0:0:
128,288,112376,2,0,L|32:288,1,90,2|0,0:0|0:0,0:0:0:0:
480,160,112637,2,0,L|384:160,1,90,8|0,0:0|0:0,0:0:0:0:
32,192,112898,6,0,L|224:192,1,180,4|8,0:0|0:0,0:0:0:0:
482,192,113419,6,0,L|288:192,1,180,4|8,0:0|0:0,0:0:0:0:
32,192,113941,6,0,L|224:192,1,180,4|8,0:0|0:0,0:0:0:0:
480,192,114463,6,0,L|288:192,1,180,4|8,0:0|0:0,0:0:0:0:
32,352,114985,5,4,0:0:0:0:
96,352,115050,1,0,0:0:0:0:
160,352,115115,1,2,0:0:0:0:
352,352,115245,1,8,0:0:0:0:
160,288,115376,1,2,0:0:0:0:
352,288,115506,6,0,L|92:208,1,270.000010299683,4|8,0:0|0:0,0:0:0:0:
160,224,116093,1,0,0:0:0:0:
224,224,116158,1,2,0:0:0:0:
32,160,116289,5,8,0:0:0:0:
256,160,116419,1,2,0:0:0:0:
64,96,116550,2,0,L|172:206,1,135.000005149842,4|8,0:0|0:0,0:0:0:0:
352,96,116941,1,2,0:0:0:0:
160,96,117072,5,8,0:0:0:0:
224,96,117137,1,0,0:0:0:0:
288,96,117202,1,2,0:0:0:0:
96,160,117332,1,8,0:0:0:0:
288,160,117463,1,2,0:0:0:0:
96,224,117593,5,8,0:0:0:0:
160,224,117658,1,0,0:0:0:0:
224,224,117724,1,2,0:0:0:0:
416,224,117854,1,8,0:0:0:0:
352,224,117919,1,0,0:0:0:0:
288,224,117985,1,2,0:0:0:0:
32,288,118115,6,0,L|160:288,2,101.250003862381,8|4|8,0:0|0:0|0:0,0:0:0:0:
480,288,118637,2,0,L|214:198,1,270.000010299683,4|8,0:0|0:0,0:0:0:0:
160,192,119224,1,0,0:0:0:0:
96,192,119289,1,2,0:0:0:0:
320,224,119419,5,8,0:0:0:0:
128,224,119550,1,2,0:0:0:0:
320,160,119680,2,0,L|480:160,2,135.000005149842,4|8|8,0:0|0:0|0:0,0:0:0:0:
256,160,120267,1,0,0:0:0:0:
192,160,120332,1,2,0:0:0:0:
384,96,120463,5,8,0:0:0:0:
192,96,120593,1,2,0:0:0:0:
384,32,120724,2,0,L|283:135,1,135.000005149842,4|8,0:0|0:0,0:0:0:0:
96,32,121115,1,2,0:0:0:0:
288,32,121245,5,8,0:0:0:0:
224,32,121311,1,0,0:0:0:0:
160,32,121376,1,2,0:0:0:0:
352,96,121506,1,8,0:0:0:0:
160,96,121637,1,2,0:0:0:0:
352,160,121767,5,8,0:0:0:0:
288,160,121832,1,0,0:0:0:0:
224,160,121898,1,2,0:0:0:0:
416,224,122028,1,8,0:0:0:0:
352,224,122093,1,0,0:0:0:0:
288,224,122158,1,2,0:0:0:0:
32,224,122289,6,0,L|128:224,1,67.5000025749208,8|0,0:0|0:0,0:0:0:0:
288,288,122550,1,4,0:0:0:0:
96,288,122680,1,0,0:0:0:0:
352,224,122811,2,0,L|256:224,1,67.5000025749208,8|2,0:0|0:0,0:0:0:0:
32,160,123072,5,8,0:0:0:0:
96,160,123137,1,0,0:0:0:0:
160,160,123202,1,2,0:0:0:0:
224,160,123267,1,0,0:0:0:0:
288,160,123332,2,0,L|384:160,1,67.5000025749208,4|0,0:0|0:0,0:0:0:0:
224,224,123593,1,8,0:0:0:0:
352,224,123724,1,2,0:0:0:0:
224,288,123854,1,8,0:0:0:0:
352,288,123985,1,0,0:0:0:0:
128,160,124115,6,0,L|32:160,1,67.5000025749208,4|0,0:0|0:0,0:0:0:0:
272,160,124376,1,8,0:0:0:0:
208,160,124441,1,0,0:0:0:0:
144,160,124506,1,2,0:0:0:0:
336,160,124637,1,8,0:0:0:0:
128,96,124767,1,0,0:0:0:0:
192,96,124832,1,0,0:0:0:0:
256,96,124898,1,8,0:0:0:0:
64,96,125028,1,0,0:0:0:0:
256,32,125158,6,0,L|352:32,1,67.5000025749208,4|0,0:0|0:0,0:0:0:0:
96,96,125419,1,8,0:0:0:0:
320,96,125550,1,2,0:0:0:0:
32,160,125680,1,8,0:0:0:0:
240,224,125811,1,2,0:0:0:0:
176,224,125941,1,8,0:0:0:0:
384,288,126072,1,2,0:0:0:0:
96,288,126202,5,8,0:0:0:0:
320,352,126332,1,2,0:0:0:0:
96,352,126463,1,8,0:0:0:0:
160,352,126528,1,2,0:0:0:0:
224,352,126593,1,8,0:0:0:0:
32,352,126724,1,8,0:0:0:0:
224,288,126854,1,8,0:0:0:0:
288,288,126919,1,2,0:0:0:0:
352,288,126985,1,8,0:0:0:0:
160,288,127115,1,8,0:0:0:0:
352,224,127245,1,8,0:0:0:0:
288,224,127311,1,2,0:0:0:0:
224,224,127376,1,8,0:0:0:0:
160,224,127441,1,2,0:0:0:0:
96,224,127506,5,4,0:0:0:0:
224,160,127637,1,2,0:0:0:0:
96,160,127767,1,8,0:0:0:0:
224,96,127898,1,2,0:0:0:0:
96,96,128028,1,8,0:0:0:0:
224,32,128158,1,2,0:0:0:0:
448,96,128289,1,8,0:0:0:0:
256,96,128419,1,2,0:0:0:0:
448,160,128550,5,8,0:0:0:0:
384,160,128615,1,2,0:0:0:0:
320,160,128680,1,8,0:0:0:0:
128,160,128811,1,10,0:0:0:0:
320,224,128941,1,8,0:0:0:0:
384,224,129006,1,2,0:0:0:0:
448,224,129072,1,8,0:0:0:0:
256,224,129202,1,8,0:0:0:0:
448,288,129332,1,10,0:0:0:0:
256,288,129463,1,8,0:0:0:0:
64,288,129593,5,8,0:0:0:0:
0,256,129680,1,2,0:0:0:0:
224,288,129767,1,2,0:0:0:0:
288,256,129854,1,8,0:0:0:0:
128,192,129941,5,2,0:0:0:0:
64,160,130028,1,2,0:0:0:0:
288,192,130115,1,8,0:0:0:0:
352,160,130202,1,2,0:0:0:0:
192,96,130289,5,2,0:0:0:0:
128,64,130376,1,8,0:0:0:0:
64,32,130463,1,2,0:0:0:0:
0,0,130550,1,2,0:0:0:0:
224,32,130637,5,8,0:0:0:0:
288,64,130724,1,2,0:0:0:0:
352,96,130811,1,2,0:0:0:0:
416,128,130898,1,8,0:0:0:0:
160,128,130985,5,2,0:0:0:0:
96,160,131072,1,2,0:0:0:0:
320,128,131158,2,0,L|480:352,1,270.000010299683,4|0,0:0|0:0,0:0:0:0:
416,352,131745,1,0,0:0:0:0:
352,352,131811,1,0,0:0:0:0:
480,288,131941,5,0,0:0:0:0:
32,224,132072,1,0,0:0:0:0:
96,224,132137,1,0,0:0:0:0:
160,224,132202,1,0,0:0:0:0:
32,160,132332,1,0,0:0:0:0:
480,192,132463,5,0,0:0:0:0:
416,192,132528,1,0,0:0:0:0:
352,192,132593,1,0,0:0:0:0:
32,128,132724,2,0,L|192:128,3,135.000005149842
512,128,133767,6,0,L|352:128,1,135.000005149842
448,192,134158,1,0,0:0:0:0:
256,192,134289,1,0,0:0:0:0:
320,192,134354,1,0,0:0:0:0:
384,192,134419,1,0,0:0:0:0:
192,192,134550,1,0,0:0:0:0:
0,192,134680,1,0,0:0:0:0:
192,256,134811,6,0,L|352:256,1,135.000005149842
128,256,135202,1,0,0:0:0:0:
320,192,135332,2,0,L|416:192,1,67.5000025749208
32,128,135593,6,0,L|192:128,2,135.000005149842
480,128,136245,1,0,0:0:0:0:
384,128,136376,1,0,0:0:0:0:
480,192,136637,1,0,0:0:0:0:
368,192,136767,1,0,0:0:0:0:
480,256,136898,1,0,0:0:0:0:
32,256,137158,1,0,0:0:0:0:
416,256,137419,1,0,0:0:0:0:
32,256,137550,1,0,0:0:0:0:
144,256,137680,1,0,0:0:0:0:
32,192,137811,1,0,0:0:0:0:
224,192,137941,5,0,0:0:0:0:
288,192,138006,1,0,0:0:0:0:
352,192,138072,1,0,0:0:0:0:
160,192,138202,1,0,0:0:0:0:
352,128,138332,1,0,0:0:0:0:
160,128,138463,2,0,L|64:128,1,67.5000025749208
416,64,138724,2,0,L|512:64,1,67.5000025749208
256,320,138985,6,0,L|363:220,1,135.000005149842
288,256,139311,1,0,0:0:0:0:
240,256,139376,1,0,0:0:0:0:
352,192,139506,1,0,0:0:0:0:
288,192,139572,1,0,0:0:0:0:
240,192,139637,1,0,0:0:0:0:
352,128,139767,1,0,0:0:0:0:
288,128,139832,1,0,0:0:0:0:
240,128,139898,1,0,0:0:0:0:
208,128,139963,1,0,0:0:0:0:
352,64,140028,5,0,0:0:0:0:
400,64,140093,1,0,0:0:0:0:
432,64,140158,1,0,0:0:0:0:
32,64,140419,1,0,0:0:0:0:
96,64,140485,1,0,0:0:0:0:
144,64,140550,2,0,L|78:189,1,135.000005149842
128,192,140876,1,0,0:0:0:0:
192,192,140941,1,0,0:0:0:0:
480,192,141072,6,0,L|320:192,3,135.000005149842
96,224,142115,2,0,L|171:364,1,135.000005149842
352,256,142506,1,0,0:0:0:0:
160,256,142637,5,0,0:0:0:0:
224,256,142702,1,0,0:0:0:0:
288,256,142767,1,0,0:0:0:0:
160,192,142898,1,0,0:0:0:0:
288,192,143028,1,0,0:0:0:0:
96,128,143158,2,0,L|246:70,1,135.000005149842
352,128,143550,1,0,0:0:0:0:
224,128,143680,1,0,0:0:0:0:
352,192,143811,1,0,0:0:0:0:
224,192,143941,6,0,L|64:192,2,135.000005149842
416,192,144593,1,0,0:0:0:0:
224,128,144724,2,0,L|64:128,1,135.000005149842
320,64,145115,1,0,0:0:0:0:
128,64,145245,6,0,L|288:64,2,135.000005149842
256,128,145898,1,0,0:0:0:0:
128,128,146028,1,0,0:0:0:0:
256,192,146158,1,0,0:0:0:0:
128,192,146289,1,0,0:0:0:0:
192,192,146354,1,0,0:0:0:0:
256,192,146419,1,0,0:0:0:0:
128,192,146550,1,0,0:0:0:0:
256,256,146680,6,0,L|416:256,1,135.000005149842
256,320,147072,1,0,0:0:0:0:
384,320,147202,1,0,0:0:0:0:
192,256,147332,2,0,L|96:256,2,67.5000025749208
384,256,147724,1,0,0:0:0:0:
160,192,147854,2,0,L|64:192,1,67.5000025749208
288,128,148115,1,0,0:0:0:0:
64,128,148245,1,0,0:0:0:0:
256,64,148376,5,0,0:0:0:0:
192,64,148506,1,0,0:0:0:0:
384,64,148637,1,0,0:0:0:0:
128,64,148767,1,0,0:0:0:0:
320,64,148898,1,0,0:0:0:0:
256,64,149028,1,0,0:0:0:0:
448,64,149158,1,0,0:0:0:0:
224,64,149289,1,0,0:0:0:0:
416,128,149419,5,0,0:0:0:0:
448,96,149484,1,0,0:0:0:0:
416,64,149550,1,0,0:0:0:0:
224,128,149680,1,0,0:0:0:0:
32,192,149811,1,0,0:0:0:0:
0,160,149876,1,0,0:0:0:0:
32,128,149941,1,0,0:0:0:0:
320,192,150072,1,0,0:0:0:0:
96,192,150202,1,0,0:0:0:0:
288,256,150332,1,0,0:0:0:0:
224,256,150463,5,0,0:0:0:0:
416,320,150593,1,0,0:0:0:0:
224,320,150724,1,0,0:0:0:0:
416,320,150854,1,0,0:0:0:0:
192,320,150985,1,0,0:0:0:0:
384,320,151115,1,0,0:0:0:0:
320,320,151245,1,0,0:0:0:0:
512,320,151376,1,0,0:0:0:0:
288,320,151506,5,0,0:0:0:0:
224,320,151572,1,0,0:0:0:0:
160,320,151637,1,0,0:0:0:0:
352,320,151767,1,0,0:0:0:0:
128,256,151898,1,0,0:0:0:0:
320,256,152028,1,0,0:0:0:0:
128,192,152158,1,0,0:0:0:0:
320,192,152289,1,0,0:0:0:0:
256,192,152354,1,0,0:0:0:0:
192,192,152419,1,0,0:0:0:0:
128,192,152485,1,0,0:0:0:0:
64,192,152550,5,0,0:0:0:0:
256,128,152680,1,0,0:0:0:0:
64,128,152811,1,0,0:0:0:0:
256,64,152941,1,0,0:0:0:0:
448,128,153072,1,0,0:0:0:0:
256,192,153202,1,0,0:0:0:0:
64,128,153332,1,0,0:0:0:0:
256,128,153463,1,0,0:0:0:0:
64,64,153593,5,0,0:0:0:0:
128,64,153658,1,0,0:0:0:0:
192,64,153724,1,0,0:0:0:0:
384,64,153854,1,0,0:0:0:0:
192,128,153985,1,0,0:0:0:0:
160,160,154050,1,0,0:0:0:0:
192,192,154115,1,0,0:0:0:0:
384,192,154245,1,0,0:0:0:0:
192,256,154376,1,0,0:0:0:0:
384,256,154506,1,0,0:0:0:0:
192,320,154637,5,0,0:0:0:0:
256,320,154702,1,0,0:0:0:0:
320,320,154767,1,0,0:0:0:0:
128,320,154898,1,0,0:0:0:0:
320,256,155028,1,0,0:0:0:0:
128,256,155158,1,0,0:0:0:0:
192,256,155224,1,0,0:0:0:0:
256,256,155289,1,0,0:0:0:0:
64,256,155419,1,0,0:0:0:0:
128,256,155485,1,0,0:0:0:0:
192,256,155550,1,0,0:0:0:0:
0,192,155680,5,0,0:0:0:0:
224,192,155811,1,0,0:0:0:0:
32,128,155941,1,0,0:0:0:0:
96,128,156072,1,0,0:0:0:0:
480,128,156202,2,0,L|416:128,1,53.9999983520508
64,64,156463,2,0,L|128:64,1,53.9999983520508
512,192,156724,6,0,L|416:192,2,67.5000025749208
320,256,157115,2,0,L|416:256,1,67.5000025749208
160,256,157376,1,0,0:0:0:0:
352,128,157506,1,0,0:0:0:0:
288,128,157572,1,0,0:0:0:0:
224,128,157637,2,0,L|128:128,1,67.5000025749208
512,192,157898,6,0,L|416:192,1,67.5000025749208
256,192,158158,1,0,0:0:0:0:
224,192,158224,1,0,0:0:0:0:
384,128,158289,1,0,0:0:0:0:
416,128,158354,1,0,0:0:0:0:
256,192,158419,1,0,0:0:0:0:
224,192,158485,1,0,0:0:0:0:
384,128,158550,1,0,0:0:0:0:
416,128,158615,1,0,0:0:0:0:
384,192,158680,2,0,L|288:192,1,67.5000025749208
128,128,158941,6,0,L|224:128,1,67.5000025749208
400,128,159202,1,0,0:0:0:0:
448,128,159267,1,0,0:0:0:0:
480,160,159332,1,0,0:0:0:0:
480,192,159398,1,0,0:0:0:0:
448,224,159463,1,0,0:0:0:0:
400,224,159528,1,0,0:0:0:0:
368,256,159593,1,0,0:0:0:0:
368,288,159658,1,0,0:0:0:0:
400,320,159724,1,0,0:0:0:0:
448,320,159789,1,0,0:0:0:0:
480,288,159854,5,0,0:0:0:0:
480,256,159919,1,0,0:0:0:0:
448,224,159985,1,0,0:0:0:0:
400,224,160050,1,0,0:0:0:0:
352,224,160115,1,0,0:0:0:0:
304,224,160180,1,0,0:0:0:0:
256,224,160245,1,0,0:0:0:0:
224,224,160311,1,0,0:0:0:0:
352,160,160376,1,0,0:0:0:0:
384,160,160441,1,0,0:0:0:0:
224,160,160506,1,0,0:0:0:0:
192,160,160572,1,0,0:0:0:0:
352,96,160637,1,0,0:0:0:0:
384,96,160702,1,0,0:0:0:0:
224,96,160767,1,0,0:0:0:0:
192,96,160832,1,0,0:0:0:0:
384,32,160898,6,0,L|288:32,1,67.5000025749208
128,32,161158,2,0,L|224:32,1,67.5000025749208
416,160,161419,2,0,L|512:160,1,67.5000025749208
96,160,161680,2,0,L|0:160,1,67.5000025749208
480,224,161941,6,0,L|384:224,1,67.5000025749208
32,224,162202,2,0,L|128:224,1,67.5000025749208
412,224,162463,2,0,L|480:224,1,67.5000025749208
99,224,162724,2,0,L|32:224,1,67.5000025749208
480,224,162985,6,0,L|384:224,1,67.5000025749208
32,224,163246,2,0,L|128:224,1,67.5000025749208
320,224,163506,1,0,0:0:0:0:
384,192,163572,1,0,0:0:0:0:
416,128,163637,1,0,0:0:0:0:
416,64,163702,1,0,0:0:0:0:
192,224,163767,2,0,L|96:224,1,67.5000025749208
320,160,164028,6,0,L|416:160,1,67.5000025749208
192,160,164289,1,0,0:0:0:0:
384,96,164419,1,0,0:0:0:0:
416,96,164485,1,0,0:0:0:0:
288,96,164550,1,0,0:0:0:0:
256,96,164615,1,0,0:0:0:0:
384,96,164680,1,0,0:0:0:0:
416,96,164746,1,0,0:0:0:0:
288,96,164811,1,0,0:0:0:0:
256,96,164876,1,0,0:0:0:0:
384,96,164941,1,0,0:0:0:0:
416,96,165007,1,0,0:0:0:0:
256,64,165072,5,0,0:0:0:0:
192,64,165202,1,0,0:0:0:0:
288,64,165333,1,0,0:0:0:0:
384,64,165463,1,0,0:0:0:0:
192,64,165594,1,0,0:0:0:0:
256,64,165724,1,0,0:0:0:0:
64,64,165854,1,0,0:0:0:0:
288,64,165985,1,0,0:0:0:0:
96,160,166115,5,0,0:0:0:0:
160,160,166180,1,0,0:0:0:0:
224,160,166246,1,0,0:0:0:0:
32,160,166376,1,0,0:0:0:0:
224,96,166507,1,0,0:0:0:0:
288,96,166572,1,0,0:0:0:0:
352,96,166637,1,0,0:0:0:0:
160,192,166768,1,0,0:0:0:0:
352,192,166898,1,0,0:0:0:0:
160,256,167028,1,0,0:0:0:0:
352,256,167159,5,0,0:0:0:0:
160,320,167289,1,0,0:0:0:0:
384,320,167420,1,0,0:0:0:0:
192,320,167550,1,0,0:0:0:0:
256,320,167681,1,0,0:0:0:0:
64,320,167811,1,0,0:0:0:0:
256,320,167941,1,0,0:0:0:0:
32,320,168072,1,0,0:0:0:0:
224,320,168202,5,0,0:0:0:0:
288,320,168268,1,0,0:0:0:0:
352,320,168333,1,0,0:0:0:0:
160,320,168463,1,0,0:0:0:0:
352,256,168594,1,0,0:0:0:0:
288,256,168658,1,0,0:0:0:0:
224,256,168724,1,0,0:0:0:0:
416,192,168854,1,0,0:0:0:0:
224,192,168985,1,0,0:0:0:0:
272,192,169050,1,0,0:0:0:0:
320,192,169115,1,0,0:0:0:0:
368,192,169180,1,0,0:0:0:0:
416,192,169245,5,0,0:0:0:0:
288,128,169311,1,0,0:0:0:0:
256,128,169375,1,0,0:0:0:0:
384,192,169441,1,0,0:0:0:0:
416,192,169505,1,0,0:0:0:0:
288,128,169571,1,0,0:0:0:0:
256,128,169635,1,0,0:0:0:0:
384,192,169702,1,0,0:0:0:0:
416,192,169766,1,0,0:0:0:0:
288,128,169832,1,0,0:0:0:0:
256,128,169896,1,0,0:0:0:0:
384,192,169963,1,0,0:0:0:0:
416,192,170027,1,0,0:0:0:0:
288,128,170093,1,0,0:0:0:0:
256,128,170158,1,0,0:0:0:0:
224,128,170224,1,0,0:0:0:0:
192,128,170289,5,0,0:0:0:0:
160,144,170354,1,0,0:0:0:0:
144,176,170419,1,0,0:0:0:0:
144,208,170485,1,0,0:0:0:0:
352,224,170550,5,0,0:0:0:0:
400,240,170615,1,0,0:0:0:0:
432,272,170680,1,0,0:0:0:0:
432,320,170745,1,0,0:0:0:0:
160,320,170811,5,0,0:0:0:0:
112,304,170876,1,0,0:0:0:0:
80,272,170941,1,0,0:0:0:0:
80,224,171006,1,0,0:0:0:0:
336,224,171072,5,0,0:0:0:0:
384,208,171137,1,0,0:0:0:0:
400,176,171202,1,0,0:0:0:0:
400,128,171267,1,0,0:0:0:0:
32,192,171332,5,0,0:0:0:0:
64,192,171398,1,0,0:0:0:0:
96,192,171463,1,0,0:0:0:0:
480,192,171593,1,0,0:0:0:0:
448,192,171659,1,0,0:0:0:0:
416,192,171724,1,0,0:0:0:0:
128,128,171854,2,0,L|64:128,2,33.7500012874604
352,128,172115,2,0,L|416:128,2,33.7500012874604
496,128,172311,1,0,0:0:0:0:
480,192,172376,5,0,0:0:0:0:
448,240,172441,1,0,0:0:0:0:
400,256,172506,1,0,0:0:0:0:
352,240,172572,1,0,0:0:0:0:
112,208,172637,5,0,0:0:0:0:
64,208,172702,1,0,0:0:0:0:
32,240,172767,1,0,0:0:0:0:
32,288,172832,1,0,0:0:0:0:
160,320,172898,5,0,0:0:0:0:
192,320,172963,1,0,0:0:0:0:
64,320,173028,1,0,0:0:0:0:
32,320,173093,1,0,0:0:0:0:
160,320,173158,1,0,0:0:0:0:
192,320,173223,1,0,0:0:0:0:
64,320,173288,1,0,0:0:0:0:
32,320,173353,1,0,0:0:0:0:
416,192,173419,6,0,L|512:192,1,67.5000025749208
256,192,173680,2,0,L|352:192,1,67.5000025749208
96,192,173941,2,0,L|192:192,1,67.5000025749208
480,128,174202,2,0,L|384:128,1,67.5000025749208
224,128,174463,5,0,0:0:0:0:
288,128,174528,1,0,0:0:0:0:
352,128,174593,1,0,0:0:0:0:
160,128,174724,1,0,0:0:0:0:
352,64,174854,1,0,0:0:0:0:
288,64,174919,1,0,0:0:0:0:
224,64,174985,1,0,0:0:0:0:
416,64,175115,1,0,0:0:0:0:
224,128,175245,2,0,L|320:128,1,67.5000025749208
32,128,175506,6,0,L|128:128,1,67.5000025749208
480,128,175767,2,0,L|384:128,1,67.5000025749208
224,128,176028,2,0,L|320:128,1,67.5000025749208
32,128,176289,2,0,L|128:128,1,67.5000025749208
288,128,176550,6,0,L|192:128,1,67.5000025749208
480,128,176811,2,0,L|384:128,1,67.5000025749208
224,128,177072,2,0,L|320:128,1,67.5000025749208
32,128,177332,2,0,L|128:128,1,67.5000025749208
288,128,177593,6,0,L|192:128,1,67.5000025749208
32,224,177854,2,0,L|128:224,1,67.5000025749208
480,224,178115,2,0,L|384:224,1,67.5000025749208
32,224,178376,2,0,L|128:224,1,67.5000025749208
480,224,178637,5,0,0:0:0:0:
416,224,178702,1,0,0:0:0:0:
352,224,178767,1,0,0:0:0:0:
320,224,178832,1,0,0:0:0:0:
448,160,178898,5,0,0:0:0:0:
480,160,178963,1,0,0:0:0:0:
352,224,179028,1,0,0:0:0:0:
320,224,179093,1,0,0:0:0:0:
448,160,179159,1,0,0:0:0:0:
480,160,179224,1,0,0:0:0:0:
352,224,179289,1,0,0:0:0:0:
320,224,179354,1,0,0:0:0:0:
448,160,179420,1,0,0:0:0:0:
480,160,179485,1,0,0:0:0:0:
288,160,179550,1,0,0:0:0:0:
224,160,179615,1,0,0:0:0:0:
64,224,179680,5,0,0:0:0:0:
32,192,179745,1,0,0:0:0:0:
64,160,179811,2,0,L|160:160,1,67.5000025749208
480,160,180072,2,0,L|384:160,1,67.5000025749208
96,160,180332,2,0,L|192:160,1,67.5000025749208
480,160,180593,6,0,L|384:160,1,67.5000025749208
360,160,180789,1,0,0:0:0:0:
296,160,180854,1,0,0:0:0:0:
224,160,180919,1,0,0:0:0:0:
64,224,180985,5,0,0:0:0:0:
112,224,181050,1,0,0:0:0:0:
176,224,181115,1,0,0:0:0:0:
248,224,181180,1,0,0:0:0:0:
408,288,181245,5,0,0:0:0:0:
360,288,181311,1,0,0:0:0:0:
296,288,181376,1,0,0:0:0:0:
224,288,181441,1,0,0:0:0:0:
64,352,181506,5,0,0:0:0:0:
112,352,181572,1,0,0:0:0:0:
176,352,181637,1,0,0:0:0:0:
256,352,181702,1,0,0:0:0:0:
416,352,181767,6,0,B|448:288|448:160|384:96|384:96|320:256|224:96|320:32|320:32|224:32|192:96,1,675.000025749208
96,160,183332,5,0,0:0:0:0:
480,160,183593,1,0,0:0:0:0:
96,352,183854,6,0,B|64:288|64:160|128:96|128:96|192:256|288:96|192:32|192:32|288:32|320:96,1,675.000025749208
416,160,185419,5,0,0:0:0:0:
32,160,185680,1,0,0:0:0:0:
384,288,185941,6,0,B|360:340|264:340|264:340|360:276|264:116|200:276|200:276|136:212|136:84|168:20,1,675.000025749208
32,192,187506,5,0,0:0:0:0:
480,192,187767,1,0,0:0:0:0:
128,288,188028,6,0,B|152:340|248:340|248:340|152:276|248:116|312:276|312:276|376:212|376:84|344:20,1,675.000025749208
288,32,189463,1,0,0:0:0:0:
192,32,189593,1,0,0:0:0:0:
64,32,189724,1,0,0:0:0:0:
288,128,189985,1,0,0:0:0:0:
32,160,190115,6,0,L|32:256,1,67.5000025749208
224,160,190376,2,0,L|224:256,1,67.5000025749208
480,160,190637,2,0,L|480:256,1,67.5000025749208
288,160,190898,2,0,L|288:256,1,67.5000025749208
32,192,191158,5,0,0:0:0:0:
480,192,191419,1,0,0:0:0:0:
32,128,191680,2,0,L|32:224,2,67.5000025749208
288,64,192072,1,0,0:0:0:0:
96,64,192202,6,0,L|160:192,1,135.000005149842
352,192,192593,1,0,0:0:0:0:
160,192,192724,2,0,L|224:320,1,135.000005149842
32,320,193115,1,0,0:0:0:0:
224,192,193245,6,0,L|160:320,1,135.000005149842
352,192,193637,1,0,0:0:0:0:
160,128,193767,1,0,0:0:0:0:
352,128,193898,1,0,0:0:0:0:
160,64,194028,1,0,0:0:0:0:
352,64,194158,1,0,0:0:0:0:
160,192,194289,6,0,L|0:192,1,135.000005149842
96,192,194680,1,0,0:0:0:0:
288,192,194811,2,0,L|448:192,1,135.000005149842
480,128,195202,1,0,0:0:0:0:
384,96,195332,5,0,0:0:0:0:
256,96,195463,1,0,0:0:0:0:
448,32,195593,1,0,0:0:0:0:
256,32,195724,1,0,0:0:0:0:
448,32,195854,1,0,0:0:0:0:
256,32,195985,1,0,0:0:0:0:
448,32,196115,1,0,0:0:0:0:
256,32,196246,1,0,0:0:0:0:
448,96,196376,6,0,L|448:256,1,135.000005149842
112,64,196898,5,0,0:0:0:0:
80,80,196963,1,0,0:0:0:0:
48,112,197028,1,0,0:0:0:0:
32,160,197093,1,0,0:0:0:0:
32,208,197158,1,0,0:0:0:0:
48,256,197224,1,0,0:0:0:0:
80,288,197289,1,0,0:0:0:0:
112,304,197354,1,0,0:0:0:0:
400,64,197419,5,0,0:0:0:0:
432,80,197484,1,0,0:0:0:0:
464,112,197549,1,0,0:0:0:0:
480,160,197614,1,0,0:0:0:0:
480,208,197679,1,0,0:0:0:0:
464,256,197745,1,0,0:0:0:0:
432,288,197810,1,0,0:0:0:0:
400,304,197875,1,0,0:0:0:0:
256,256,197941,5,0,0:0:0:0:
224,272,198006,1,0,0:0:0:0:
208,304,198071,1,0,0:0:0:0:
224,336,198136,1,0,0:0:0:0:
256,352,198201,1,0,0:0:0:0:
288,336,198267,1,0,0:0:0:0:
304,304,198332,1,0,0:0:0:0:
288,272,198397,1,0,0:0:0:0:
256,256,198463,6,0,L|64:256,1,180,4|0,0:0|0:0,0:0:0:0:
128,128,198855,1,0,0:0:0:0:
474,256,198985,2,0,L|384:256,2,90
384,192,199376,1,0,0:0:0:0:
32,256,199507,6,0,L|32:160,1,90
480,128,199768,2,0,L|352:128,1,90,8|0,0:0|0:0,0:0:0:0:
32,128,200029,2,0,L|160:128,1,90,2|0,0:0|0:0,0:0:0:0:
480,128,200289,2,0,L|352:128,1,90,8|0,0:0|0:0,0:0:0:0:
32,64,200550,6,0,L|224:64,1,180,4|0,0:0|0:0,0:0:0:0:
416,64,200942,1,0,0:0:0:0:
38,288,201072,2,0,L|128:288,2,90
128,224,201463,1,0,0:0:0:0:
480,288,201594,6,0,L|480:192,1,90
128,224,201855,2,0,L|32:224,1,90,8|0,0:0|0:0,0:0:0:0:
384,224,202115,2,0,L|480:224,1,90,2|0,0:0|0:0,0:0:0:0:
128,160,202376,2,0,L|32:160,1,90,8|0,0:0|0:0,0:0:0:0:
480,288,202637,6,0,L|296:188,1,180,4|0,0:0|0:0,0:0:0:0:
128,224,203028,1,0,0:0:0:0:
320,224,203159,1,0,0:0:0:0:
128,160,203289,1,0,0:0:0:0:
320,160,203419,1,0,0:0:0:0:
224,160,203550,1,0,0:0:0:0:
416,160,203680,1,0,0:0:0:0:
224,224,203811,5,0,0:0:0:0:
416,224,203941,1,8,0:0:0:0:
320,224,204072,1,0,0:0:0:0:
512,160,204202,1,2,0:0:0:0:
320,160,204332,1,0,0:0:0:0:
512,224,204463,1,8,0:0:0:0:
320,224,204593,1,0,0:0:0:0:
416,224,204724,1,2,0:0:0:0:
224,224,204854,5,0,0:0:0:0:
416,160,204985,1,8,0:0:0:0:
224,160,205115,1,0,0:0:0:0:
320,160,205246,1,2,0:0:0:0:
128,160,205376,1,0,0:0:0:0:
320,224,205506,1,8,0:0:0:0:
128,224,205637,1,0,0:0:0:0:
320,288,205768,6,0,L|416:288,1,90,4|0,0:0|0:0,0:0:0:0:
288,288,206028,1,8,0:0:0:0:
96,224,206159,1,2,0:0:0:0:
160,224,206224,1,0,0:0:0:0:
224,224,206289,1,8,0:0:0:0:
32,160,206420,1,2,0:0:0:0:
224,160,206550,2,0,L|320:160,1,90,8|0,0:0|0:0,0:0:0:0:
32,64,206811,6,0,L|224:64,1,180,4|0,0:0|0:0,0:0:0:0:
480,128,207203,1,0,0:0:0:0:
128,256,207333,2,0,L|32:256,2,90
32,192,207724,1,0,0:0:0:0:
480,256,207855,6,0,L|480:160,1,90
32,128,208116,2,0,L|32:16,1,90,8|0,0:0|0:0,0:0:0:0:
480,128,208377,2,0,L|480:32,1,90,2|0,0:0|0:0,0:0:0:0:
32,128,208637,2,0,L|32:16,1,90,8|0,0:0|0:0,0:0:0:0:
480,64,208898,6,0,L|288:64,1,180,4|0,0:0|0:0,0:0:0:0:
96,64,209290,1,0,0:0:0:0:
384,288,209420,2,0,L|480:288,2,90
480,160,209811,1,0,0:0:0:0:
32,288,209942,6,0,L|32:192,1,90
176,288,210203,2,0,L|176:192,1,90,8|0,0:0|0:0,0:0:0:0:
320,288,210463,2,0,L|320:192,1,90,2|0,0:0|0:0,0:0:0:0:
464,288,210724,2,0,L|464:192,1,90,8|0,0:0|0:0,0:0:0:0:
128,160,210985,6,0,P|64:160|32:32,1,180,4|0,0:0|0:0,0:0:0:0:
256,64,211376,1,0,0:0:0:0:
448,64,211507,1,0,0:0:0:0:
256,128,211637,1,0,0:0:0:0:
320,128,211768,1,0,0:0:0:0:
256,192,211898,1,0,0:0:0:0:
480,192,212028,6,0,L|480:96,1,90
336,192,212289,2,0,L|336:80,1,90,8|0,0:0|0:0,0:0:0:0:
192,192,212550,2,0,L|192:96,1,90,2|0,0:0|0:0,0:0:0:0:
48,192,212811,2,0,L|48:96,1,90,8|0,0:0|0:0,0:0:0:0:
416,96,213072,6,0,B|224:96,1,180,4|8,0:0|0:0,0:0:0:0:
320,96,213463,1,0,0:0:0:0:
32,160,213594,2,0,B|224:160,1,180,4|8,0:0|0:0,0:0:0:0:
272,160,213920,1,0,0:0:0:0:
336,160,213985,1,0,0:0:0:0:
64,192,214115,5,4,0:0:0:0:
80,208,214181,1,0,0:0:0:0:
96,224,214246,1,0,0:0:0:0:
112,240,214311,1,0,0:0:0:0:
240,256,214376,1,8,0:0:0:0:
256,272,214442,1,0,0:0:0:0:
272,288,214507,1,0,0:0:0:0:
288,304,214572,1,0,0:0:0:0:
416,224,214637,5,4,0:0:0:0:
480,192,214724,1,0,0:0:0:0:
320,224,214811,1,0,0:0:0:0:
288,192,214898,1,8,0:0:0:0:
448,128,214985,1,0,0:0:0:0:
480,96,215072,1,0,0:0:0:0:
160,128,215159,6,0,L|224:224,2,90,4|0|0,0:0|0:0|0:0,0:0:0:0:
352,288,215550,1,0,0:0:0:0:
160,288,215681,1,0,0:0:0:0:
352,224,215811,1,0,0:0:0:0:
128,224,215942,2,0,L|32:224,1,90
224,224,216202,6,0,L|224:128,1,90
448,224,216463,2,0,L|352:224,1,90,8|0,0:0|0:0,0:0:0:0:
64,224,216724,2,0,L|160:224,1,90,2|0,0:0|0:0,0:0:0:0:
480,224,216985,2,0,L|384:224,1,90,8|0,0:0|0:0,0:0:0:0:
160,128,217246,6,0,L|288:128,2,90,4|0|0,0:0|0:0|0:0,0:0:0:0:
352,288,217637,1,0,0:0:0:0:
160,288,217768,1,0,0:0:0:0:
160,224,217898,1,0,0:0:0:0:
384,224,218029,2,0,L|480:224,1,90
288,224,218289,6,0,L|288:128,1,90
64,224,218550,2,0,L|160:224,1,90,8|0,0:0|0:0,0:0:0:0:
448,224,218811,2,0,L|352:224,1,90,2|0,0:0|0:0,0:0:0:0:
64,224,219072,2,0,L|160:224,1,90,8|0,0:0|0:0,0:0:0:0:
480,288,219333,6,0,L|384:288,2,90,4|0|0,0:0|0:0|0:0,0:0:0:0:
384,224,219724,1,0,0:0:0:0:
192,224,219855,1,0,0:0:0:0:
384,160,219985,1,0,0:0:0:0:
192,160,220115,1,0,0:0:0:0:
288,160,220246,1,0,0:0:0:0:
96,160,220376,1,0,0:0:0:0:
288,224,220507,5,0,0:0:0:0:
96,224,220637,1,8,0:0:0:0:
192,224,220768,1,0,0:0:0:0:
0,224,220898,1,2,0:0:0:0:
192,160,221028,1,0,0:0:0:0:
0,160,221159,1,8,0:0:0:0:
192,224,221289,1,0,0:0:0:0:
96,224,221420,1,2,0:0:0:0:
288,160,221550,5,0,0:0:0:0:
96,160,221681,1,8,0:0:0:0:
288,224,221811,1,0,0:0:0:0:
192,224,221942,1,2,0:0:0:0:
384,160,222072,1,0,0:0:0:0:
192,160,222202,1,8,0:0:0:0:
384,224,222333,1,0,0:0:0:0:
512,96,222463,6,0,L|416:96,1,90,4|0,0:0|0:0,0:0:0:0:
320,96,222724,1,8,0:0:0:0:
128,96,222855,1,2,0:0:0:0:
192,96,222920,1,0,0:0:0:0:
256,96,222985,1,8,0:0:0:0:
64,96,223115,1,2,0:0:0:0:
256,160,223246,1,8,0:0:0:0:
64,160,223376,1,0,0:0:0:0:
390,64,223507,6,0,L|480:64,2,90,4|0|0,0:0|0:0|0:0,0:0:0:0:
480,128,223899,1,0,0:0:0:0:
38,256,224029,2,0,L|128:256,2,90
128,192,224420,1,0,0:0:0:0:
480,288,224551,6,0,L|480:192,1,90
32,240,224811,2,0,L|32:112,1,90,8|0,0:0|0:0,0:0:0:0:
480,240,225073,2,0,L|480:144,1,90,2|0,0:0|0:0,0:0:0:0:
32,128,225333,2,0,L|32:32,1,90,8|0,0:0|0:0,0:0:0:0:
390,64,225594,6,0,L|480:64,2,90,4|0|0,0:0|0:0|0:0,0:0:0:0:
32,64,225986,1,0,0:0:0:0:
474,288,226116,2,0,L|384:288,2,90
384,160,226507,1,0,0:0:0:0:
32,288,226638,6,0,L|32:192,1,90
176,288,226899,2,0,L|176:176,1,90,8|0,0:0|0:0,0:0:0:0:
320,288,227159,2,0,L|320:176,1,90,2|0,0:0|0:0,0:0:0:0:
464,288,227420,2,0,L|464:176,1,90,8|0,0:0|0:0,0:0:0:0:
32,288,227681,6,0,L|128:288,2,90,4|0|0,0:0|0:0|0:0,0:0:0:0:
128,224,228072,1,0,0:0:0:0:
32,224,228203,1,0,0:0:0:0:
288,96,228333,1,0,0:0:0:0:
192,96,228464,1,0,0:0:0:0:
480,160,228594,1,0,0:0:0:0:
256,160,228725,6,0,L|256:64,1,90
400,160,228985,2,0,L|400:64,1,90,8|0,0:0|0:0,0:0:0:0:
256,304,229246,2,0,L|256:192,1,90,2|0,0:0|0:0,0:0:0:0:
112,304,229507,2,0,L|112:208,1,90,8|0,0:0|0:0,0:0:0:0:
480,192,229768,6,0,L|288:192,1,180,4|8,0:0|0:0,0:0:0:0:
30,192,230289,6,0,L|224:192,1,180,4|8,0:0|0:0,0:0:0:0:
480,192,230811,6,0,L|288:192,1,180,4|8,0:0|0:0,0:0:0:0:
32,192,231333,6,0,L|224:192,1,180,4|8,0:0|0:0,0:0:0:0:
448,352,231855,5,4,0:0:0:0:
480,352,231920,1,0,0:0:0:0:
448,352,231985,1,2,0:0:0:0:
160,352,232115,1,8,0:0:0:0:
352,288,232246,1,2,0:0:0:0:
160,288,232376,6,0,L|420:208,1,270.000010299683,4|8,0:0|0:0,0:0:0:0:
352,224,232963,1,0,0:0:0:0:
288,224,233028,1,2,0:0:0:0:
480,160,233159,5,8,0:0:0:0:
288,160,233289,1,2,0:0:0:0:
480,96,233420,2,0,L|372:206,1,135.000005149842,4|8,0:0|0:0,0:0:0:0:
160,96,233811,1,2,0:0:0:0:
352,96,233942,5,8,0:0:0:0:
384,96,234007,1,0,0:0:0:0:
352,96,234072,1,2,0:0:0:0:
160,160,234202,1,8,0:0:0:0:
352,160,234333,1,2,0:0:0:0:
160,224,234463,5,8,0:0:0:0:
128,224,234528,1,0,0:0:0:0:
160,224,234594,1,2,0:0:0:0:
352,224,234724,1,8,0:0:0:0:
384,224,234789,1,0,0:0:0:0:
352,224,234855,1,2,0:0:0:0:
160,288,234985,6,0,L|288:288,2,101.250003862381,8|4|8,0:0|0:0|0:0,0:0:0:0:
480,288,235507,2,0,L|214:198,1,270.000010299683,4|8,0:0|0:0,0:0:0:0:
288,192,236094,1,0,0:0:0:0:
352,192,236159,1,2,0:0:0:0:
160,256,236289,5,8,0:0:0:0:
352,256,236420,1,2,0:0:0:0:
160,160,236550,2,0,L|0:160,2,135.000005149842,4|8|8,0:0|0:0|0:0,0:0:0:0:
224,160,237137,1,0,0:0:0:0:
288,160,237202,1,2,0:0:0:0:
96,96,237333,5,8,0:0:0:0:
288,96,237463,1,2,0:0:0:0:
96,32,237594,2,0,L|197:135,1,135.000005149842,4|8,0:0|0:0,0:0:0:0:
384,32,237985,1,2,0:0:0:0:
192,32,238115,5,8,0:0:0:0:
160,32,238181,1,0,0:0:0:0:
192,32,238246,1,2,0:0:0:0:
384,96,238376,1,8,0:0:0:0:
192,96,238507,1,2,0:0:0:0:
384,160,238637,5,8,0:0:0:0:
320,160,238702,1,0,0:0:0:0:
256,160,238768,1,2,0:0:0:0:
64,224,238898,1,8,0:0:0:0:
128,224,238963,1,0,0:0:0:0:
192,224,239028,1,2,0:0:0:0:
480,224,239159,6,0,L|384:224,1,67.5000025749208,8|0,0:0|0:0,0:0:0:0:
224,288,239420,1,4,0:0:0:0:
416,288,239550,1,0,0:0:0:0:
160,224,239681,2,0,L|256:224,1,67.5000025749208,8|2,0:0|0:0,0:0:0:0:
480,160,239942,5,8,0:0:0:0:
416,160,240007,1,0,0:0:0:0:
352,160,240072,1,2,0:0:0:0:
288,160,240137,1,0,0:0:0:0:
224,160,240202,2,0,L|128:160,1,67.5000025749208,4|0,0:0|0:0,0:0:0:0:
352,224,240463,1,8,0:0:0:0:
160,224,240594,1,2,0:0:0:0:
256,288,240724,1,8,0:0:0:0:
160,288,240855,1,0,0:0:0:0:
384,160,240985,6,0,L|480:160,1,67.5000025749208,4|0,0:0|0:0,0:0:0:0:
240,160,241246,1,8,0:0:0:0:
304,160,241311,1,0,0:0:0:0:
368,160,241376,1,2,0:0:0:0:
176,160,241507,1,8,0:0:0:0:
384,96,241637,1,0,0:0:0:0:
320,96,241702,1,0,0:0:0:0:
256,96,241768,1,8,0:0:0:0:
448,96,241898,1,0,0:0:0:0:
256,32,242028,6,0,L|160:32,1,67.5000025749208,4|0,0:0|0:0,0:0:0:0:
416,96,242289,1,8,0:0:0:0:
192,96,242420,1,2,0:0:0:0:
480,160,242550,1,8,0:0:0:0:
272,224,242681,1,2,0:0:0:0:
336,224,242811,1,8,0:0:0:0:
128,288,242942,1,2,0:0:0:0:
416,288,243072,5,8,0:0:0:0:
192,352,243202,1,2,0:0:0:0:
416,352,243333,1,8,0:0:0:0:
352,352,243398,1,2,0:0:0:0:
288,352,243463,1,8,0:0:0:0:
480,352,243594,1,8,0:0:0:0:
288,288,243724,1,8,0:0:0:0:
224,288,243789,1,2,0:0:0:0:
160,288,243855,1,8,0:0:0:0:
352,288,243985,1,8,0:0:0:0:
160,224,244115,1,8,0:0:0:0:
224,224,244181,1,2,0:0:0:0:
288,224,244246,1,8,0:0:0:0:
352,224,244311,1,2,0:0:0:0:
416,224,244376,5,4,0:0:0:0:
224,160,244507,1,2,0:0:0:0:
416,160,244637,1,8,0:0:0:0:
320,96,244768,1,2,0:0:0:0:
416,96,244898,1,8,0:0:0:0:
224,32,245028,1,2,0:0:0:0:
32,96,245159,1,8,0:0:0:0:
224,96,245289,1,2,0:0:0:0:
32,160,245420,5,8,0:0:0:0:
96,160,245485,1,2,0:0:0:0:
160,160,245550,1,8,0:0:0:0:
352,160,245681,1,10,0:0:0:0:
160,224,245811,1,8,0:0:0:0:
96,224,245876,1,2,0:0:0:0:
32,224,245942,1,8,0:0:0:0:
224,224,246072,1,8,0:0:0:0:
32,288,246202,1,10,0:0:0:0:
224,288,246333,1,8,0:0:0:0:
416,288,246463,5,8,0:0:0:0:
480,256,246550,1,2,0:0:0:0:
256,288,246637,1,2,0:0:0:0:
192,256,246724,1,8,0:0:0:0:
352,192,246811,5,2,0:0:0:0:
416,160,246898,1,2,0:0:0:0:
224,192,246985,1,8,0:0:0:0:
160,160,247072,1,2,0:0:0:0:
320,96,247159,5,2,0:0:0:0:
384,64,247246,1,8,0:0:0:0:
448,32,247333,1,2,0:0:0:0:
512,0,247420,1,2,0:0:0:0:
288,32,247507,5,8,0:0:0:0:
224,64,247594,1,2,0:0:0:0:
160,96,247681,1,2,0:0:0:0:
96,128,247768,1,8,0:0:0:0:
320,128,247855,5,2,0:0:0:0:
384,160,247942,1,2,0:0:0:0:
192,128,248028,2,0,L|32:352,1,270.000010299683,4|0,0:0|0:0,0:0:0:0:
96,352,248615,1,0,0:0:0:0:
160,352,248681,1,0,0:0:0:0:
352,352,248811,5,0,0:0:0:0:
160,288,248942,1,0,0:0:0:0:
96,288,249007,1,0,0:0:0:0:
32,288,249072,1,0,0:0:0:0:
224,288,249202,1,0,0:0:0:0:
416,288,249333,5,0,0:0:0:0:
352,288,249398,1,0,0:0:0:0:
288,288,249463,1,0,0:0:0:0:
480,128,249594,2,0,L|320:128,3,135.000005149842
0,128,250637,6,0,L|160:128,1,135.000005149842
64,192,251028,1,0,0:0:0:0:
256,192,251159,1,0,0:0:0:0:
192,192,251224,1,0,0:0:0:0:
128,192,251289,1,0,0:0:0:0:
320,192,251420,1,0,0:0:0:0:
512,192,251550,1,0,0:0:0:0:
320,256,251681,6,0,L|160:256,1,135.000005149842
384,256,252072,1,0,0:0:0:0:
192,192,252202,2,0,L|96:192,1,67.5000025749208
480,128,252463,6,0,L|320:128,2,135.000005149842
32,128,253115,1,0,0:0:0:0:
128,128,253246,1,0,0:0:0:0:
32,192,253507,1,0,0:0:0:0:
160,192,253637,1,0,0:0:0:0:
288,192,253768,1,0,0:0:0:0:
32,256,254028,1,0,0:0:0:0:
480,320,254289,1,0,0:0:0:0:
352,320,254420,1,0,0:0:0:0:
224,320,254550,1,0,0:0:0:0:
480,256,254681,1,0,0:0:0:0:
288,192,254811,5,0,0:0:0:0:
224,192,254876,1,0,0:0:0:0:
160,192,254942,1,0,0:0:0:0:
352,192,255072,1,0,0:0:0:0:
160,128,255202,1,0,0:0:0:0:
352,128,255333,2,0,L|448:128,1,67.5000025749208
96,64,255594,2,0,L|0:64,1,67.5000025749208
256,320,255855,6,0,L|149:220,1,135.000005149842
224,224,256181,1,0,0:0:0:0:
288,224,256246,1,0,0:0:0:0:
128,192,256376,1,0,0:0:0:0:
192,192,256442,1,0,0:0:0:0:
256,192,256507,1,0,0:0:0:0:
96,128,256637,1,0,0:0:0:0:
160,128,256702,1,0,0:0:0:0:
224,128,256768,1,0,0:0:0:0:
288,128,256833,1,0,0:0:0:0:
96,64,256898,5,0,0:0:0:0:
48,64,256963,1,0,0:0:0:0:
16,64,257028,1,0,0:0:0:0:
480,64,257289,1,0,0:0:0:0:
416,64,257355,1,0,0:0:0:0:
368,64,257420,2,0,L|434:189,1,135.000005149842
384,192,257746,1,0,0:0:0:0:
320,192,257811,1,0,0:0:0:0:
32,192,257942,6,0,L|192:192,3,135.000005149842
416,224,258985,2,0,L|341:364,1,135.000005149842
160,256,259376,1,0,0:0:0:0:
352,256,259507,5,0,0:0:0:0:
288,256,259572,1,0,0:0:0:0:
224,256,259637,1,0,0:0:0:0:
352,192,259768,1,0,0:0:0:0:
224,192,259898,1,0,0:0:0:0:
416,128,260028,2,0,L|266:70,1,135.000005149842
160,128,260420,1,0,0:0:0:0:
352,128,260550,1,0,0:0:0:0:
160,192,260681,1,0,0:0:0:0:
256,192,260811,6,0,L|416:192,2,135.000005149842
64,192,261463,1,0,0:0:0:0:
256,128,261594,2,0,L|416:128,1,135.000005149842
192,64,261985,1,0,0:0:0:0:
384,64,262115,6,0,L|224:64,2,135.000005149842
288,128,262768,1,0,0:0:0:0:
480,128,262898,1,0,0:0:0:0:
256,192,263028,1,0,0:0:0:0:
448,192,263159,5,0,0:0:0:0:
384,192,263224,1,0,0:0:0:0:
320,192,263289,1,0,0:0:0:0:
512,192,263420,1,0,0:0:0:0:
320,256,263550,2,0,L|160:256,1,135.000005149842
224,320,263942,1,0,0:0:0:0:
128,320,264072,1,0,0:0:0:0:
320,256,264202,6,0,L|416:256,2,67.5000025749208
128,256,264593,2,0,L|32:256,1,67.5000025749208
384,256,264854,2,0,L|480:256,1,67.5000025749208
256,192,265115,1,0,0:0:0:0:
448,192,265245,6,0,L|224:192,1,202.500007724762
448,192,265767,6,0,L|235:262,1,202.500007724762
64,256,266289,6,0,B|175:253|133:153|128:64|224:64|234:118|192:224|209:248|209:248|256:224|256:128,1,472.500018024445
448,256,267332,6,0,B|337:253|379:153|384:64|288:64|278:118|320:224|303:248|303:248|256:224|256:128,1,472.500018024445
320,192,268376,6,0,L|416:192,1,67.5000025749208
192,192,268637,1,0,0:0:0:0:
387,192,268767,1,0,0:0:0:0:
192,192,268898,1,0,0:0:0:0:
387,192,269028,2,0,L|227:192,1,135.000005149842
64,192,269419,6,0,L|288:192,1,202.500007724762
64,192,269941,6,0,L|276:264,1,202.500007724762
448,256,270463,6,0,B|337:253|379:153|384:64|288:64|278:118|320:224|303:248|303:248|256:224|256:128,1,472.500018024445
448,192,271506,6,0,L|224:192,1,202.500007724762
352,128,272028,2,0,L|128:128,1,202.500007724762
256,64,272550,6,0,L|32:64,1,202.500007724762
256,128,273072,2,0,L|96:128,1,135.000005149842
320,192,273463,1,0,0:0:0:0:
64,192,273593,6,0,L|288:192,1,202.500007724762
64,192,274115,6,0,L|277:262,1,202.500007724762
480,256,274637,6,0,B|369:253|411:153|416:64|320:64|310:118|352:224|335:248|335:248|288:224|288:128,1,472.500018024445
96,256,275680,6,0,B|207:253|165:153|160:64|256:64|266:118|224:224|241:248|241:248|288:224|288:128,1,472.500018024445
96,192,276724,6,0,L|256:192,1,135.000005149842
32,128,277115,1,0,0:0:0:0:
224,128,277246,1,0,0:0:0:0:
32,64,277376,2,0,L|128:64,2,67.5000025749208
256,192,277767,6,0,L|416:192,3,135.000005149842
192,192,278680,1,0,0:0:0:0:
384,128,278811,2,0,L|224:128,1,135.000005149842
32,128,279202,1,0,0:0:0:0:
96,192,279332,6,0,L|28:192,2,67.5000025749208
320,64,279854,6,0,L|160:64,1,135.000005149842
144,80,280180,1,0,0:0:0:0:
128,112,280245,1,0,0:0:0:0:
144,144,280311,1,0,0:0:0:0:
176,160,280376,5,0,0:0:0:0:
224,160,280441,1,0,0:0:0:0:
272,160,280506,1,0,0:0:0:0:
304,176,280572,1,0,0:0:0:0:
320,208,280637,5,0,0:0:0:0:
304,240,280702,1,0,0:0:0:0:
272,256,280767,1,0,0:0:0:0:
240,272,280832,1,0,0:0:0:0:
224,304,280898,5,0,0:0:0:0:
240,336,280963,1,0,0:0:0:0:
272,352,281028,1,0,0:0:0:0:
320,352,281093,1,0,0:0:0:0:
368,352,281158,5,0,0:0:0:0:
400,336,281224,1,0,0:0:0:0:
416,304,281289,1,0,0:0:0:0:
400,272,281354,1,0,0:0:0:0:
368,256,281419,1,0,0:0:0:0:
32,256,281941,6,0,B|160:256,1,99.0000030212403
323,256,282202,2,0,B|224:256,1,99.0000030212403
480,256,282463,6,0,B|352:256,1,99.0000030212403
192,256,282724,2,0,B|291:256,1,99.0000030212403
96,256,282985,5,0,0:0:0:0:
64,224,283050,1,0,0:0:0:0:
96,192,283115,1,0,0:0:0:0:
352,192,283245,1,0,0:0:0:0:
160,128,283376,5,0,0:0:0:0:
96,128,283441,1,0,0:0:0:0:
32,128,283506,1,0,0:0:0:0:
160,256,283636,1,0,0:0:0:0:
32,256,283767,5,0,0:0:0:0:
160,256,283898,1,0,0:0:0:0:
480,320,284028,2,0,L|352:320,1,99.0000030212403
128,320,284289,6,0,L|0:320,1,99.0000030212403
304,256,284550,2,0,L|176:256,1,99.0000030212403
480,320,284811,6,0,L|352:320,1,99.0000030212403
192,320,285072,1,0,0:0:0:0:
256,320,285137,1,0,0:0:0:0:
320,320,285202,1,0,0:0:0:0:
128,320,285332,5,0,0:0:0:0:
320,256,285463,1,0,0:0:0:0:
256,256,285528,1,0,0:0:0:0:
192,256,285593,1,0,0:0:0:0:
384,256,285723,1,0,0:0:0:0:
192,192,285855,5,0,0:0:0:0:
160,192,285920,1,0,0:0:0:0:
416,192,285985,1,0,0:0:0:0:
448,192,286050,1,0,0:0:0:0:
224,128,286115,6,0,L|96:128,1,99.0000030212403
480,128,286376,2,0,L|352:128,1,99.0000030212403
128,64,286637,5,0,0:0:0:0:
320,64,286767,1,0,0:0:0:0:
125,128,286898,2,0,L|0:128,1,99.0000030212403
448,128,287159,5,0,0:0:0:0:
480,160,287224,1,0,0:0:0:0:
448,192,287289,1,0,0:0:0:0:
256,192,287419,1,0,0:0:0:0:
32,256,287550,5,0,0:0:0:0:
96,256,287615,1,0,0:0:0:0:
160,256,287680,1,0,0:0:0:0:
384,352,287810,1,0,0:0:0:0:
192,352,287941,5,0,0:0:0:0:
384,288,288072,1,0,0:0:0:0:
192,288,288202,1,0,0:0:0:0:
144,256,288267,1,0,0:0:0:0:
192,224,288332,1,0,0:0:0:0:
480,224,288463,6,0,L|352:224,1,99.0000030212403
160,160,288724,1,0,0:0:0:0:
112,128,288789,1,0,0:0:0:0:
160,96,288854,1,0,0:0:0:0:
384,160,288985,5,0,0:0:0:0:
432,128,289050,1,0,0:0:0:0:
384,96,289115,1,0,0:0:0:0:
128,352,289245,5,0,0:0:0:0:
80,320,289311,1,0,0:0:0:0:
48,272,289376,1,0,0:0:0:0:
32,208,289441,1,0,0:0:0:0:
192,192,289507,5,0,0:0:0:0:
240,224,289572,1,0,0:0:0:0:
272,272,289638,1,0,0:0:0:0:
288,336,289703,1,0,0:0:0:0:
128,352,289767,5,0,0:0:0:0:
96,352,289832,1,0,0:0:0:0:
64,352,289897,1,0,0:0:0:0:
32,352,289963,1,0,0:0:0:0:
256,352,290028,5,0,0:0:0:0:
288,352,290093,1,0,0:0:0:0:
96,288,290159,1,0,0:0:0:0:
64,288,290224,1,0,0:0:0:0:
288,288,290289,6,0,L|416:288,2,99.0000030212403
480,224,290680,1,0,0:0:0:0:
256,224,290811,6,0,L|128:224,1,99.0000030212403
384,160,291072,1,0,0:0:0:0:
160,160,291202,1,0,0:0:0:0:
352,96,291332,5,0,0:0:0:0:
416,96,291398,1,0,0:0:0:0:
480,96,291463,1,0,0:0:0:0:
288,96,291593,1,0,0:0:0:0:
480,160,291724,5,0,0:0:0:0:
416,160,291790,1,0,0:0:0:0:
352,160,291855,1,0,0:0:0:0:
32,160,291985,1,0,0:0:0:0:
160,160,292115,5,0,0:0:0:0:
32,224,292245,1,0,0:0:0:0:
160,224,292376,2,0,L|288:224,1,99.0000030212403
480,288,292637,6,0,L|352:288,1,99.0000030212403
32,288,292898,1,0,0:0:0:0:
224,288,293028,1,0,0:0:0:0:
32,224,293159,6,0,L|160:224,1,99.0000030212403
384,224,293419,1,0,0:0:0:0:
416,192,293485,1,0,0:0:0:0:
384,160,293550,1,0,0:0:0:0:
192,256,293680,1,0,0:0:0:0:
384,288,293811,5,0,0:0:0:0:
416,320,293877,1,0,0:0:0:0:
384,352,293942,1,0,0:0:0:0:
160,288,294072,1,0,0:0:0:0:
64,192,294202,5,0,0:0:0:0:
32,160,294268,1,0,0:0:0:0:
160,192,294333,1,0,0:0:0:0:
192,160,294398,1,0,0:0:0:0:
64,128,294463,6,0,B|32:32,1,99.0000030212403
480,96,294724,2,0,L|352:96,1,99.0000030212403
192,96,294985,6,0,L|320:96,1,99.0000030212403
32,96,295245,2,0,L|160:96,1,99.0000030212403
416,320,295506,5,0,0:0:0:0:
352,320,295572,1,0,0:0:0:0:
288,320,295637,1,0,0:0:0:0:
480,256,295767,1,0,0:0:0:0:
288,256,295898,5,0,0:0:0:0:
224,256,295964,1,0,0:0:0:0:
160,256,296029,1,0,0:0:0:0:
288,192,296159,1,0,0:0:0:0:
160,192,296288,5,0,0:0:0:0:
288,128,296419,1,0,0:0:0:0:
160,128,296550,2,0,L|96:128,2,49.5000015106202
384,256,296811,5,0,0:0:0:0:
160,320,296941,1,0,0:0:0:0:
352,320,297072,2,0,L|416:320,1,49.5000015106202
256,320,297202,1,0,0:0:0:0:
192,320,297267,1,0,0:0:0:0:
128,320,297332,1,0,0:0:0:0:
320,256,297463,1,0,0:0:0:0:
32,256,297593,6,0,L|32:128,1,99.0000030212403
224,256,297854,2,0,L|224:160,1,90
480,256,298115,6,0,L|480:160,1,80.9999975280763
288,256,298376,2,0,L|288:160,1,72
32,192,298637,5,8,0:0:0:0:
80,176,298702,1,0,0:0:0:0:
96,128,298767,1,0,0:0:0:0:
80,80,298832,1,0,0:0:0:0:
32,64,298898,1,2,0:0:0:0:
160,128,299159,1,4,0:0:0:0:
480,192,299419,5,8,0:0:0:0:
432,176,299484,1,0,0:0:0:0:
416,128,299549,1,0,0:0:0:0:
432,80,299614,1,0,0:0:0:0:
480,64,299680,1,2,0:0:0:0:
352,128,299941,1,8,0:0:0:0:
32,256,300202,5,8,0:0:0:0:
96,256,300267,1,0,0:0:0:0:
160,256,300332,1,0,0:0:0:0:
224,256,300398,1,0,0:0:0:0:
288,256,300463,1,2,0:0:0:0:
480,256,300724,5,8,0:0:0:0:
416,256,300789,1,0,0:0:0:0:
352,256,300854,1,0,0:0:0:0:
288,256,300920,1,0,0:0:0:0:
224,256,300985,1,2,0:0:0:0:
32,256,301245,1,4,0:0:0:0:
256,256,301506,5,8,0:0:0:0:
208,256,301572,1,0,0:0:0:0:
192,224,301637,1,0,0:0:0:0:
208,192,301702,1,0,0:0:0:0:
256,192,301767,1,2,0:0:0:0:
480,192,302028,1,8,0:0:0:0:
256,256,302289,5,8,0:0:0:0:
304,256,302355,1,0,0:0:0:0:
320,224,302420,1,0,0:0:0:0:
304,192,302485,1,0,0:0:0:0:
256,192,302550,1,2,0:0:0:0:
32,128,302811,5,8,0:0:0:0:
32,64,302876,1,0,0:0:0:0:
96,64,302941,1,0,0:0:0:0:
96,128,303006,1,0,0:0:0:0:
96,192,303072,1,2,0:0:0:0:
480,192,303332,1,4,0:0:0:0:
32,256,303593,5,8,0:0:0:0:
32,320,303658,1,0,0:0:0:0:
96,320,303723,1,0,0:0:0:0:
96,256,303788,1,0,0:0:0:0:
96,192,303854,1,2,0:0:0:0:
480,192,304115,1,8,0:0:0:0:
32,192,304376,5,8,0:0:0:0:
64,160,304441,1,0,0:0:0:0:
80,128,304506,1,0,0:0:0:0:
64,96,304572,1,0,0:0:0:0:
32,64,304637,1,2,0:0:0:0:
480,192,304898,5,8,0:0:0:0:
448,160,304963,1,0,0:0:0:0:
432,128,305028,1,0,0:0:0:0:
448,96,305094,1,0,0:0:0:0:
480,64,305159,1,2,0:0:0:0:
32,256,305419,1,4,0:0:0:0:
480,256,305680,1,8,0:0:0:0:
256,192,305941,6,0,L|192:192,2,48,8|0|2,0:0|0:0|0:0,0:0:0:0:
416,192,306202,6,0,L|480:192,2,48,8|0|2,0:0|0:0|0:0,0:0:0:0:
224,320,306463,5,8,0:0:0:0:
176,304,306550,1,0,0:0:0:0:
144,256,306637,1,2,0:0:0:0:
352,320,306724,5,8,0:0:0:0:
400,304,306811,1,0,0:0:0:0:
432,256,306898,1,2,0:0:0:0:
192,192,306985,5,8,0:0:0:0:
160,160,307050,1,0,0:0:0:0:
320,192,307115,1,0,0:0:0:0:
352,160,307180,1,0,0:0:0:0:
384,128,307245,1,2,0:0:0:0:
32,192,307506,1,4,0:0:0:0:
416,192,307767,5,8,0:0:0:0:
448,192,307832,1,0,0:0:0:0:
480,192,307898,1,0,0:0:0:0:
352,192,307963,1,0,0:0:0:0:
352,224,308028,1,2,0:0:0:0:
480,256,308289,1,8,0:0:0:0:
128,256,308550,5,8,0:0:0:0:
160,256,308615,1,0,0:0:0:0:
192,256,308681,1,0,0:0:0:0:
64,256,308746,1,0,0:0:0:0:
64,224,308811,1,2,0:0:0:0:
400,320,309072,5,8,0:0:0:0:
448,304,309137,1,0,0:0:0:0:
464,256,309202,1,0,0:0:0:0:
448,208,309267,1,0,0:0:0:0:
400,192,309332,1,2,0:0:0:0:
32,192,309593,1,4,0:0:0:0:
416,320,309854,5,8,0:0:0:0:
368,304,309919,1,0,0:0:0:0:
352,256,309984,1,0,0:0:0:0:
368,208,310049,1,0,0:0:0:0:
416,192,310114,1,2,0:0:0:0:
32,192,310376,1,8,0:0:0:0:
352,160,310637,5,8,0:0:0:0:
384,128,310702,1,0,0:0:0:0:
416,96,310767,1,0,0:0:0:0:
448,64,310832,1,0,0:0:0:0:
480,32,310898,1,2,0:0:0:0:
80,288,311159,5,8,0:0:0:0:
32,288,311224,1,0,0:0:0:0:
160,288,311289,1,0,0:0:0:0:
208,288,311354,1,0,0:0:0:0:
256,288,311419,1,2,0:0:0:0:
400,288,311680,1,4,0:0:0:0:
32,224,311941,5,8,0:0:0:0:
80,224,312006,1,0,0:0:0:0:
288,224,312071,1,0,0:0:0:0:
320,224,312136,1,0,0:0:0:0:
352,224,312202,1,2,0:0:0:0:
32,288,312462,1,8,0:0:0:0:
480,224,312724,5,8,0:0:0:0:
432,224,312789,1,0,0:0:0:0:
256,224,312854,1,0,0:0:0:0:
224,224,312919,1,0,0:0:0:0:
192,224,312985,1,2,0:0:0:0:
32,192,313245,6,0,L|240:192,1,202.500007724762
32,128,313767,6,0,L|168:75,1,135.000005149842
352,128,314158,1,0,0:0:0:0:
160,128,314289,6,0,L|296:75,1,135.000005149842
320,96,314615,1,0,0:0:0:0:
336,128,314680,1,0,0:0:0:0:
320,160,314745,1,0,0:0:0:0:
288,176,314811,5,0,0:0:0:0:
256,192,314876,1,0,0:0:0:0:
240,224,314941,1,0,0:0:0:0:
256,256,315006,1,0,0:0:0:0:
384,288,315072,5,0,0:0:0:0:
416,288,315137,1,0,0:0:0:0:
224,320,315202,1,0,0:0:0:0:
192,320,315267,1,0,0:0:0:0:
352,320,315332,6,0,P|432:317|409:269,1,135.000005149842
416,256,315724,1,0,0:0:0:0:
144,304,315854,5,0,0:0:0:0:
112,272,315919,1,0,0:0:0:0:
112,240,315985,1,0,0:0:0:0:
176,240,316050,1,0,0:0:0:0:
368,304,316115,5,0,0:0:0:0:
400,272,316180,1,0,0:0:0:0:
400,240,316246,1,0,0:0:0:0:
336,240,316311,1,0,0:0:0:0:
144,304,316376,5,0,0:0:0:0:
112,272,316441,1,0,0:0:0:0:
112,240,316507,1,0,0:0:0:0:
176,240,316572,1,0,0:0:0:0:
368,304,316637,5,0,0:0:0:0:
400,272,316702,1,0,0:0:0:0:
400,240,316768,1,0,0:0:0:0:
336,240,316833,1,0,0:0:0:0:
144,304,316898,5,0,0:0:0:0:
112,272,316963,1,0,0:0:0:0:
112,240,317029,1,0,0:0:0:0:
176,240,317094,1,0,0:0:0:0:
368,304,317158,5,0,0:0:0:0:
400,272,317223,1,0,0:0:0:0:
400,240,317289,1,0,0:0:0:0:
336,240,317354,1,0,0:0:0:0:
192,32,317419,6,0,L|32:251,1,270.000010299683
224,256,318072,1,0,0:0:0:0:
32,192,318202,1,0,0:0:0:0:
224,192,318332,2,0,L|128:192,2,67.5000025749208
416,192,318724,6,0,L|256:192,1,135.000005149842
64,128,319115,2,0,L|288:128,1,202.500007724762
384,192,320028,5,0,0:0:0:0:
320,224,320093,1,0,0:0:0:0:
256,256,320159,1,0,0:0:0:0:
64,320,320289,1,0,0:0:0:0:
256,320,320419,2,0,L|160:320,1,67.5000025749208
384,256,320680,2,0,L|288:256,1,67.5000025749208
128,256,320941,6,0,L|224:256,1,67.5000025749208
384,192,321202,1,0,0:0:0:0:
160,192,321332,2,0,L|288:192,1,101.250003862381
480,128,321593,1,0,0:0:0:0:
256,192,321854,12,0,325637,0:0:0:0:
