osu file format v14

[General]
AudioFilename: audio.mp3
AudioLeadIn: 2000
PreviewTime: 66941
Countdown: 0
SampleSet: Soft
StackLeniency: 0.4
Mode: 0
LetterboxInBreaks: 0
WidescreenStoryboard: 1

[Editor]
Bookmarks: 93603,103603,193608,226108
DistanceSpacing: 0.7
BeatDivisor: 4
GridSize: 8
TimelineZoom: 1

[Metadata]
Title:Symphonic Love ~Allstar ver~
TitleUnicode:シンフォニック ラブ ~Allstar ver~
Artist:Ono Ryouko, Gotou Mai, Ichimura Oma, Rikimaru Noriko
ArtistUnicode:小野凉子, 後藤麻衣, 壹智村小真, 力丸乃りこ
Creator:Momochikun
Version:Miu
Source:ましろ色シンフォニー -Love is pure white-
Tags:osuplayer111 andrea supav Mashiro iro Symphony mashiroiro opening hashimoto miyuki visual novel palette airi sena amaha miu uryuu sakuno inui sana angelina nanatsu sewell pannya matsuda risa miru gogyou nazuna agumi oto japanese pop 瀬名愛理 瓜生桜乃 アンジェリーナ 菜夏 シーウェル 天羽みう
BeatmapID:4436247
BeatmapSetID:2112905

[Difficulty]
HPDrainRate:7
CircleSize:4
OverallDifficulty:7.5
ApproachRate:8.2
SliderMultiplier:1.55
SliderTickRate:1

[Events]
//Background and Video events
0,0,"BG.png",0,0
//Break Periods
2,94025,102888
2,193808,199441
//Storyboard Layer 0 (Background)
//Storyboard Layer 1 (Fail)
//Storyboard Layer 2 (Pass)
//Storyboard Layer 3 (Foreground)
//Storyboard Layer 4 (Overlay)
//Storyboard Sound Samples

[TimingPoints]
275,416.666666666667,4,2,1,60,1,0
275,-111.111111111111,4,2,1,60,0,0
6941,-100,4,2,1,60,0,0
11941,-111.111111111111,4,2,1,50,0,0
13608,-100,4,2,1,65,0,1
13712,-100,4,2,2,65,0,0
24441,-100,4,2,2,55,0,0
25275,-100,4,2,2,50,0,0
26525,-100,4,2,1,60,0,0
32983,-100,4,2,2,65,0,0
33400,-100,4,2,1,60,0,0
39858,-100,4,2,2,65,0,0
40275,-100,4,2,2,60,0,0
51108,-100,4,2,2,50,0,0
51941,-125,4,2,1,55,0,0
53608,-100,4,2,1,60,0,0
63712,-100,4,2,1,50,0,0
65275,-117.647058823529,4,2,3,60,0,0
66733,-117.647058823529,4,2,3,50,0,0
66941,-100,4,2,2,70,0,1
79441,-100,4,2,1,70,0,0
80066,-100,4,2,1,60,0,0
80275,-100,4,2,2,70,0,1
91108,-100,4,2,2,60,0,1
91941,-117.647058823529,4,2,1,70,0,1
93608,-100,4,2,2,60,0,0
104441,-100,4,2,2,55,0,0
105275,-100,4,2,1,50,0,0
106525,-100,4,2,1,60,0,0
112983,-100,4,2,2,65,0,0
113400,-100,4,2,1,60,0,0
119858,-100,4,2,2,60,0,0
120275,-100,4,2,2,60,0,0
129441,-105.263157894737,4,2,2,60,0,0
129650,-100,4,2,2,60,0,0
131212,-100,4,2,2,50,0,0
131941,-125,4,2,1,50,0,0
132983,-125,4,2,1,55,0,0
133608,-100,4,2,1,60,0,0
143608,-100,4,2,1,55,0,0
145275,-117.647058823529,4,2,1,60,0,0
145900,-117.647058823529,4,2,3,60,0,0
146733,-117.647058823529,4,2,3,55,0,0
146941,-100,4,2,2,70,0,1
159441,-100,4,2,1,60,0,0
160275,-100,4,2,2,70,0,1
171108,-100,4,2,2,60,0,1
171941,-117.647058823529,4,2,1,70,0,1
173608,-100,4,2,2,70,0,0
185275,-100,4,2,2,50,0,0
186108,-100,4,2,2,60,0,0
186941,-125,4,2,2,60,0,0
191941,-125,4,2,2,50,0,0
200275,-125,4,2,2,55,0,0
206941,-111.111111111111,4,2,2,60,0,0
211108,-111.111111111111,4,2,2,55,0,0
211941,-125,4,2,3,55,0,0
212775,-125,4,2,3,60,0,0
213400,-125,4,2,3,50,0,0
213608,-100,4,2,2,70,0,1
224441,-100,4,2,2,60,0,1
225275,-111.111111111111,4,2,1,60,0,0
225483,-111.111111111111,4,2,1,50,0,0
226108,-133.333333333333,4,2,1,50,0,0
226525,-133.333333333333,4,2,1,10,0,0

[Colours]
Combo1 : 129,191,228
Combo2 : 187,255,255
Combo3 : 119,210,255

[HitObjects]
110,88,275,6,0,P|74:108|56:142,1,69.749997871399,2|0,0:0|0:0,0:0:0:0:
109,189,691,2,0,P|107:230|132:270,1,69.749997871399,0|2,0:0|0:0,0:0:0:0:
195,236,1108,1,0,0:0:0:0:
195,236,1316,2,0,P|265:273|339:251,1,139.499995742798,2|0,0:0|0:0,0:0:0:0:
321,262,1941,5,2,0:0:0:0:
463,195,2150,1,0,0:0:0:0:
400,328,2358,1,0,0:0:0:0:
377,181,2566,1,2,0:0:0:0:
495,288,2775,2,0,L|485:361,1,69.749997871399,0|2,0:0|0:0,0:0:0:0:
358,248,3191,2,0,P|368:214|377:181,1,69.749997871399,0|0,0:0|0:0,0:0:0:0:
369,35,3608,5,2,0:0:0:0:
294,72,3816,2,0,P|249:82|210:94,1,69.749997871399,0|0,0:0|0:0,0:0:0:0:
144,192,4233,2,0,P|212:202|268:156,1,139.499995742798,2|2,0:0|0:0,0:0:0:0:
282,170,5275,5,2,0:0:0:0:
201,53,5483,2,0,P|195:107|203:137,1,69.749997871399,2|0,0:0|0:0,0:0:0:0:
136,242,5900,2,0,P|79:255|3:213,1,139.499995742798,2|2,0:0|0:0,0:0:0:0:
136,242,6941,6,0,P|142:288|146:330,1,77.5,4|0,0:0|0:0,0:0:0:0:
243,184,7358,2,0,P|237:138|233:96,1,77.5,8|0,0:0|1:0,0:0:0:0:
169,50,7775,1,0,0:0:0:0:
243,184,7983,1,0,1:0:0:0:
126,128,8191,1,8,0:0:0:0:
169,50,8400,1,0,0:0:0:0:
325,109,8608,6,0,P|361:119|401:114,1,77.5,0|0,1:0|1:0,0:0:0:0:
472,158,9025,2,0,P|495:124|496:85,2,77.5,8|0|0,0:0|1:0|0:0,0:0:0:0:
402,207,9650,1,0,1:0:0:0:
402,207,9858,2,0,P|399:248|421:288,1,77.5,8|0,0:0|0:0,0:0:0:0:
313,171,10275,6,0,P|265:220|272:312,1,155,0|8,1:0|0:0,0:0:0:0:
338,363,10900,1,0,1:0:0:0:
144,192,11316,1,0,1:0:0:0:
368,192,11525,1,8,0:0:0:0:
386,172,11941,6,0,L|372:101,1,69.749997871399,4|0,0:0|0:0,0:0:0:0:
318,22,12358,1,0,0:0:0:0:
259,110,12566,1,0,0:0:0:0:
386,172,12775,1,0,0:0:0:0:
243,261,12983,1,0,0:0:0:0:
280,123,13191,1,0,0:0:0:0:
410,187,13400,5,0,0:0:0:0:
410,187,13504,1,0,0:0:0:0:
410,187,13608,2,0,P|450:191|495:180,1,77.5,4|2,0:2|0:0,0:0:0:0:
433,307,14025,2,0,P|393:303|348:314,1,77.5,8|2,0:2|0:0,0:0:0:0:
271,333,14441,1,0,1:0:0:0:
121,262,14650,2,0,L|117:224,2,38.75,0|0|8,0:0|0:0|0:0,0:0:0:0:
131,344,15066,1,0,0:0:0:0:
196,162,15275,6,0,P|207:126|198:78,1,77.5,2|0,1:0|0:0,0:0:0:0:
179,66,15587,1,0,0:0:0:0:
179,66,15691,2,0,L|275:85,1,77.5,8|0,0:0|0:0,0:0:0:0:
314,231,16108,2,0,B|259:209|202:237|202:237|162:194,1,155,2|8,1:0|0:0,0:0:0:0:
256,55,16733,1,0,0:0:0:0:
362,126,16941,6,0,P|403:126|454:111,1,77.5,2|2,1:0|0:0,0:0:0:0:
502,193,17358,1,8,0:0:0:0:
459,33,17566,1,2,0:0:0:0:
375,14,17775,1,0,1:0:0:0:
375,14,17879,1,0,0:0:0:0:
375,14,17983,1,2,0:0:0:0:
202,60,18191,1,8,0:0:0:0:
282,89,18400,1,0,0:0:0:0:
188,177,18608,5,0,1:0:0:0:
188,177,18816,1,2,0:0:0:0:
149,76,19025,1,8,0:0:0:0:
289,198,19233,1,2,0:0:0:0:
194,253,19441,5,0,1:0:0:0:
278,75,19650,1,8,0:0:0:0:
384,139,19858,1,8,0:0:0:0:
330,315,20066,5,0,0:0:0:0:
330,315,20170,1,0,0:0:0:0:
330,315,20275,2,0,P|258:315|197:262,1,155,4|8,0:0|0:0,0:0:0:0:
152,174,20900,1,2,0:0:0:0:
250,96,21108,1,0,1:0:0:0:
263,76,21212,1,0,0:0:0:0:
277,57,21316,1,2,0:0:0:0:
387,176,21525,2,0,P|350:183|312:171,1,77.5,8|0,0:0|0:0,0:0:0:0:
302,154,21837,5,0,0:0:0:0:
302,154,21941,2,0,L|279:237,1,77.5,2|0,1:0|0:0,0:0:0:0:
410,97,22358,2,0,L|387:14,1,77.5,8|0,0:0|0:0,0:0:0:0:
254,63,22775,2,0,P|195:89|160:175,1,155,2|8,1:0|0:0,0:0:0:0:
244,281,23400,5,0,0:0:0:0:
257,299,23504,1,0,0:0:0:0:
270,317,23608,1,2,1:0:0:0:
363,295,23816,1,0,1:0:0:0:
232,260,24025,1,8,1:2:0:0:
396,282,24233,1,0,1:0:0:0:
220,238,24441,5,0,1:0:0:0:
202,218,24545,1,0,1:0:0:0:
191,196,24649,1,0,1:0:0:0:
184,171,24753,1,0,1:0:0:0:
181,147,24857,1,8,1:2:0:0:
187,116,24962,1,0,1:0:0:0:
193,85,25066,1,0,1:0:0:0:
199,54,25170,1,0,1:0:0:0:
205,23,25275,5,4,0:0:0:0:
388,120,25483,1,4,1:2:0:0:
337,39,25691,5,4,1:2:0:0:
201,242,25900,1,4,1:2:0:0:
181,147,26108,5,4,1:2:0:0:
387,297,26316,1,4,1:2:0:0:
114,213,26525,5,8,0:0:0:0:
317,128,26733,5,0,0:0:0:0:
317,128,26837,1,0,0:0:0:0:
317,128,26941,1,4,0:2:0:0:
404,169,27150,1,2,0:0:0:0:
404,169,27254,1,0,0:0:0:0:
404,169,27358,1,8,0:0:0:0:
436,247,27566,2,0,L|436:333,1,77.5,0|0,1:0|0:0,0:0:0:0:
436,324,27983,1,2,1:0:0:0:
317,205,28191,2,0,L|317:127,1,77.5,8|2,0:0|0:0,0:0:0:0:
271,71,28504,5,0,0:0:0:0:
271,71,28608,2,0,P|231:78|190:113,1,77.5,2|0,1:0|1:0,0:0:0:0:
158,181,29025,1,8,0:0:0:0:
74,73,29233,1,2,1:0:0:0:
52,80,29337,1,0,0:0:0:0:
30,88,29441,1,0,0:0:0:0:
52,189,29650,2,0,P|88:203|132:198,1,77.5,2|8,1:0|0:0,0:0:0:0:
256,160,30066,1,0,0:0:0:0:
226,318,30275,6,0,P|201:285|198:242,1,77.5,2|0,1:0|0:0,0:0:0:0:
196,250,30587,1,0,0:0:0:0:
196,250,30691,1,8,0:0:0:0:
320,96,30900,1,2,1:0:0:0:
320,224,31108,1,0,0:0:0:0:
256,160,31316,5,2,1:0:0:0:
417,250,31525,1,8,0:0:0:0:
349,315,31733,1,2,0:0:0:0:
400,128,31941,5,0,1:0:0:0:
411,107,32045,1,0,1:0:0:0:
422,86,32150,1,2,1:0:0:0:
330,46,32358,2,0,P|290:49|246:28,1,77.5,8|2,0:0|1:0,0:0:0:0:
164,105,32775,1,0,0:0:0:0:
336,256,32983,5,8,0:0:0:0:
241,19,33191,1,8,0:0:0:0:
164,105,33400,6,0,P|139:138|139:183,1,77.5,2|4,0:0|0:2,0:0:0:0:
256,144,33816,2,0,L|301:133,2,38.75,2|0|8,0:0|0:0|0:0,0:0:0:0:
150,71,34233,1,2,1:0:0:0:
127,65,34337,1,0,0:0:0:0:
104,59,34441,1,0,0:0:0:0:
35,118,34650,2,0,P|27:167|18:202,1,77.5,0|8,1:0|0:0,0:0:0:0:
145,267,35066,5,2,0:0:0:0:
145,267,35170,1,0,0:0:0:0:
145,267,35275,2,0,P|152:217|161:182,1,77.5,0|2,1:0|1:0,0:0:0:0:
256,112,35691,1,8,0:0:0:0:
339,149,35900,2,0,L|349:193,2,38.75,2|0|0,1:0|0:0|0:0,0:0:0:0:
358,23,36316,2,0,P|397:23|437:8,1,77.5,0|8,1:0|0:0,0:0:0:0:
270,74,36733,1,2,0:0:0:0:
335,220,36941,6,0,L|323:304,1,77.5,0|2,1:0|0:0,0:0:0:0:
176,175,37358,2,0,L|188:91,1,77.5,8|0,0:0|1:0,0:0:0:0:
335,220,37775,1,2,0:0:0:0:
176,175,37983,1,0,1:0:0:0:
283,32,38191,1,8,0:0:0:0:
335,220,38400,5,2,0:0:0:0:
335,220,38504,1,0,0:0:0:0:
335,220,38608,2,0,L|327:265,2,38.75,0|0|2,1:0|1:0|1:0,0:0:0:0:
192,71,39025,1,8,0:0:0:0:
341,133,39233,1,0,1:0:0:0:
204,246,39441,6,0,P|165:250|121:236,1,77.5,2|8,0:0|0:0,0:0:0:0:
307,21,39858,2,0,P|348:19|390:37,1,77.5,8|0,0:0|0:0,0:0:0:0:
481,210,40275,6,0,B|441:211|414:222|414:222|385:206|385:206|327:221,1,155,4|8,0:0|0:0,0:0:0:0:
244,204,40900,1,0,0:0:0:0:
314,322,41108,1,0,1:0:0:0:
314,322,41212,1,8,0:0:0:0:
314,322,41316,1,0,0:0:0:0:
187,335,41525,2,0,L|107:317,1,77.5,8|0,0:0|0:0,0:0:0:0:
45,168,41941,5,2,1:0:0:0:
28,257,42150,1,0,0:0:0:0:
114,226,42358,1,8,0:0:0:0:
23,148,42566,1,0,0:0:0:0:
23,148,42670,1,8,0:0:0:0:
23,148,42775,2,0,P|32:106|30:64,1,77.5,2|8,1:0|0:0,0:0:0:0:
180,124,43191,1,8,0:0:0:0:
120,23,43400,1,0,0:0:0:0:
227,48,43608,6,0,P|265:55|310:59,1,77.5,2|0,1:0|0:0,0:0:0:0:
100,119,44025,2,0,P|58:109|23:105,1,77.5,8|0,0:0|0:0,0:0:0:0:
206,186,44441,1,0,1:0:0:0:
228,191,44545,1,8,0:0:0:0:
250,197,44650,1,0,0:0:0:0:
100,119,44858,1,8,0:0:0:0:
227,48,45066,5,2,0:0:0:0:
249,53,45170,1,0,0:0:0:0:
271,59,45275,1,2,1:0:0:0:
325,272,45483,1,2,0:0:0:0:
343,127,45691,1,8,0:0:0:0:
178,218,45900,1,2,0:0:0:0:
368,112,46108,6,0,L|353:31,1,77.5,2|8,1:0|0:0,0:0:0:0:
156,236,46525,2,0,L|170:312,1,77.5,8|2,0:0|0:0,0:0:0:0:
341,366,46941,6,0,P|397:332|397:250,1,155,4|8,0:2|0:0,0:0:0:0:
344,134,47566,1,0,0:0:0:0:
293,215,47775,1,0,1:0:0:0:
293,215,47879,1,8,0:0:0:0:
293,215,47983,1,0,0:0:0:0:
390,273,48191,2,0,P|432:282|472:282,1,77.5,8|2,0:0|0:0,0:0:0:0:
256,320,48608,6,0,P|208:329|109:256,1,155,2|8,1:0|0:0,0:0:0:0:
162,202,49233,1,2,0:0:0:0:
22,262,49441,2,0,P|14:222|20:184,1,77.5,2|0,1:0|0:0,0:0:0:0:
75,143,49754,1,0,0:0:0:0:
75,143,49858,2,0,P|114:148|154:153,1,77.5,8|2,0:0|0:0,0:0:0:0:
256,32,50275,5,0,1:0:0:0:
311,109,50483,1,0,1:0:0:0:
197,215,50691,1,8,1:2:0:0:
365,297,50900,1,0,1:0:0:0:
219,366,51108,5,0,1:0:0:0:
180,360,51212,1,0,1:0:0:0:
146,340,51316,1,0,1:0:0:0:
124,308,51420,1,0,1:0:0:0:
119,269,51525,1,8,1:2:0:0:
135,234,51629,1,0,1:0:0:0:
150,198,51733,1,0,1:0:0:0:
144,159,51837,1,0,1:0:0:0:
125,125,51941,6,0,L|75:173,1,62,2|0,0:0|0:0,0:0:0:0:
171,56,52358,2,0,L|100:37,1,62,2|0,0:0|0:0,0:0:0:0:
259,68,52775,2,0,L|234:-8,1,62,2|8,0:0|0:0,0:0:0:0:
220,166,53191,1,8,0:0:0:0:
220,166,53295,1,8,0:0:0:0:
220,166,53400,1,0,1:0:0:0:
383,48,53608,6,0,B|426:34|426:34|461:43,1,77.5,4|2,0:0|0:0,0:0:0:0:
508,107,54025,1,8,0:0:0:0:
445,240,54233,1,2,1:0:0:0:
445,240,54650,1,0,0:0:0:0:
454,261,54754,1,0,1:0:0:0:
463,282,54858,1,8,0:0:0:0:
389,331,55066,1,2,0:0:0:0:
291,239,55275,6,0,P|250:247|201:260,1,77.5,0|0,1:0|1:0,0:0:0:0:
78,178,55691,2,0,P|119:170|166:158,1,77.5,8|0,0:0|1:0,0:0:0:0:
260,95,56108,1,2,0:0:0:0:
177,172,56316,1,0,1:0:0:0:
278,315,56525,2,0,P|285:272|291:229,1,77.5,8|0,0:0|0:0,0:0:0:0:
364,56,56941,5,4,0:0:0:0:
260,95,57150,1,2,0:0:0:0:
395,45,57358,1,8,0:0:0:0:
279,211,57566,1,0,1:0:0:0:
279,211,57983,1,0,0:0:0:0:
299,199,58087,1,0,1:0:0:0:
320,189,58191,1,8,0:0:0:0:
419,240,58400,1,2,0:0:0:0:
293,74,58608,6,0,L|256:64,2,38.75,0|0|0,1:0|1:0|1:0,0:0:0:0:
461,147,59025,2,0,P|462:104|447:73,1,77.5,8|0,0:0|1:0,0:0:0:0:
279,173,59441,1,2,0:0:0:0:
333,49,59650,1,8,0:0:0:0:
385,258,59858,2,0,P|376:297|376:334,1,77.5,8|2,0:0|0:0,0:0:0:0:
279,211,60275,5,4,0:0:0:0:
256,216,60379,1,0,0:0:0:0:
233,221,60483,1,2,0:0:0:0:
272,64,60691,1,8,0:0:0:0:
157,154,60900,2,0,B|120:169|120:169|64:135|-6:158,1,155,2|2,1:0|1:0,0:0:0:0:
0,132,61420,1,0,0:0:0:0:
0,132,61525,1,8,0:0:0:0:
183,171,61733,1,2,0:0:0:0:
94,250,61941,6,0,L|5:268,1,77.5,0|0,1:0|1:0,0:0:0:0:
240,105,62358,2,0,L|316:120,1,77.5,8|2,0:0|1:0,0:0:0:0:
135,286,62775,2,0,L|46:304,1,77.5,2|0,0:0|1:0,0:0:0:0:
119,144,63191,5,8,0:0:0:0:
265,361,63400,1,2,0:0:0:0:
241,244,63608,6,0,L|229:189,3,38.75,4|0|0|0,0:0|0:0|1:0|0:0,0:0:0:0:
256,175,64025,2,0,L|244:120,3,38.75,8|0|0|0,0:0|0:0|1:0|0:0,0:0:0:0:
238,99,64441,5,2,1:0:0:0:
238,99,64545,1,0,1:0:0:0:
238,99,64650,1,0,1:0:0:0:
238,99,64754,1,0,1:0:0:0:
273,83,64858,5,10,0:0:0:0:
308,67,64962,1,0,1:0:0:0:
343,52,65066,1,2,1:0:0:0:
378,37,65170,1,0,1:0:0:0:
414,22,65275,1,4,1:2:0:0:
472,122,65483,6,0,P|435:125|392:126,1,65.8750012564659,2|0,0:0|0:0,0:0:0:0:
295,206,65900,1,8,0:0:0:0:
295,206,66004,1,8,0:0:0:0:
295,206,66108,2,0,P|331:203|374:201,1,65.8750012564659,8|8,0:0|0:0,0:0:0:0:
228,371,66525,1,8,0:0:0:0:
205,347,66629,1,8,0:0:0:0:
191,317,66733,1,4,0:3:0:0:
189,284,66837,1,4,0:3:0:0:
198,253,66941,6,0,P|199:209|177:175,1,77.5,4|2,0:2|0:0,0:0:0:0:
90,65,67358,1,8,0:0:0:0:
34,132,67566,2,0,P|73:155|108:153,1,77.5,2|0,0:0|1:0,0:0:0:0:
256,96,67983,1,2,0:0:0:0:
256,96,68087,1,0,0:0:0:0:
256,96,68191,2,0,P|295:79|331:81,1,77.5,8|2,0:0|0:0,0:0:0:0:
468,202,68608,6,0,P|460:163|455:121,1,77.5,0|2,1:0|0:0,0:0:0:0:
338,231,69025,2,0,P|345:269|351:312,1,77.5,8|2,0:0|0:0,0:0:0:0:
350,307,69337,1,0,0:0:0:0:
350,307,69441,1,0,1:0:0:0:
468,202,69650,1,2,0:0:0:0:
338,231,69858,1,8,0:0:0:0:
256,128,70066,6,0,L|217:139,2,38.75,0|0|0,0:0|0:0|1:0,0:0:0:0:
396,177,70483,1,2,0:0:0:0:
330,45,70691,1,8,0:0:0:0:
256,224,70900,6,0,L|235:258,2,38.75,2|0|0,0:0|0:0|1:0,0:0:0:0:
425,289,71316,1,2,0:0:0:0:
327,150,71525,1,8,0:0:0:0:
450,52,71733,5,2,0:0:0:0:
450,52,71837,1,0,0:0:0:0:
450,52,71941,2,0,P|460:91|454:130,1,77.5,0|2,1:0|0:0,0:0:0:0:
425,289,72358,1,8,0:0:0:0:
425,289,72566,1,2,0:0:0:0:
327,150,72775,1,0,1:0:0:0:
504,267,72983,5,8,0:0:0:0:
351,366,73191,1,8,0:0:0:0:
410,201,73400,1,0,1:0:0:0:
256,256,73608,6,0,P|236:294|241:341,1,77.5,4|2,0:0|0:0,0:0:0:0:
355,280,74025,1,8,0:0:0:0:
303,158,74233,2,0,P|245:125|161:143,1,155,2|2,0:0|0:0,0:0:0:0:
383,184,74858,2,0,P|390:143|390:101,1,77.5,8|2,0:0|0:0,0:0:0:0:
379,79,75170,5,0,0:0:0:0:
379,79,75275,1,0,1:0:0:0:
282,228,75483,2,0,P|282:266|289:304,1,77.5,2|8,0:0|0:0,0:0:0:0:
180,333,75900,1,2,0:0:0:0:
208,161,76108,1,0,1:0:0:0:
145,218,76316,1,2,0:0:0:0:
171,85,76525,1,8,0:0:0:0:
311,27,76733,5,2,0:0:0:0:
311,27,76837,1,0,0:0:0:0:
311,27,76941,2,0,P|316:73|319:107,1,77.5,0|2,1:0|0:0,0:0:0:0:
361,220,77358,1,8,0:0:0:0:
176,337,77566,5,2,0:0:0:0:
176,337,77670,1,0,0:0:0:0:
176,337,77775,2,0,P|171:291|168:257,1,77.5,0|2,1:0|0:0,0:0:0:0:
126,144,78191,1,8,0:0:0:0:
340,211,78400,5,2,0:0:0:0:
361,220,78504,1,0,0:0:0:0:
382,229,78608,1,4,0:0:0:0:
256,48,78816,1,0,1:0:0:0:
199,275,79025,1,0,1:0:0:0:
382,104,79233,1,0,1:2:0:0:
173,81,79441,5,8,0:0:0:0:
135,83,79545,1,8,0:0:0:0:
98,96,79650,1,8,0:0:0:0:
64,115,79754,1,0,0:0:0:0:
37,143,79858,1,8,0:0:0:0:
23,179,79962,1,8,0:0:0:0:
16,217,80066,1,0,1:3:0:0:
24,254,80170,1,0,1:3:0:0:
39,290,80275,6,0,P|101:247|185:265,1,155,4|8,0:0|0:0,0:0:0:0:
285,299,80900,1,2,0:0:0:0:
285,299,81004,1,0,0:0:0:0:
285,299,81108,2,0,P|276:255|271:212,1,77.5,0|2,1:0|0:0,0:0:0:0:
174,360,81525,1,8,0:0:0:0:
355,242,81733,6,0,B|407:221|469:251|469:251|510:223,1,155,2|2,0:0|0:0,0:0:0:0:
368,149,82358,1,8,0:0:0:0:
439,349,82566,1,2,0:0:0:0:
256,272,82775,1,0,1:0:0:0:
355,242,82983,1,2,0:0:0:0:
322,81,83191,1,8,0:0:0:0:
197,136,83400,5,2,0:0:0:0:
197,136,83504,1,0,0:0:0:0:
197,136,83608,2,0,P|155:156|137:183,1,77.5,0|2,1:0|0:0,0:0:0:0:
108,260,84025,1,8,0:0:0:0:
307,316,84233,5,2,0:0:0:0:
307,316,84337,1,0,0:0:0:0:
307,316,84441,2,0,P|305:275|282:236,1,77.5,0|2,1:0|0:0,0:0:0:0:
197,136,84858,1,8,0:0:0:0:
108,260,85066,5,2,0:0:0:0:
108,260,85170,1,0,0:0:0:0:
108,260,85275,1,0,1:0:0:0:
162,357,85483,2,0,P|210:343|245:335,1,77.5,2|8,0:0|0:0,0:0:0:0:
374,196,85900,1,2,0:0:0:0:
293,228,86108,2,0,P|255:218|218:208,1,77.5,0|8,1:0|0:0,0:0:0:0:
108,260,86525,5,8,0:0:0:0:
374,196,86733,1,0,1:0:0:0:
343,97,86941,6,0,P|302:81|263:86,1,77.5,4|2,0:0|0:0,0:0:0:0:
198,132,87358,1,8,0:0:0:0:
374,196,87566,2,0,P|433:181|462:85,1,155,2|2,0:0|0:0,0:0:0:0:
429,21,88191,1,8,0:0:0:0:
343,97,88400,6,0,P|304:103|266:107,1,77.5,2|0,0:0|1:0,0:0:0:0:
199,254,88816,1,2,0:0:0:0:
199,254,88920,1,0,0:0:0:0:
199,254,89025,2,0,P|188:210|182:177,1,77.5,8|2,0:0|0:0,0:0:0:0:
326,63,89441,2,0,P|337:107|343:140,2,77.5,0|2|8,1:0|0:0|0:0,0:0:0:0:
226,113,90066,5,2,0:0:0:0:
226,113,90170,1,0,0:0:0:0:
226,113,90275,1,0,1:0:0:0:
351,173,90483,1,0,1:0:0:0:
454,79,90691,1,8,1:2:0:0:
480,216,90900,1,0,1:0:0:0:
371,329,91108,5,0,1:0:0:0:
334,317,91212,1,0,1:0:0:0:
297,305,91316,1,0,1:0:0:0:
260,293,91420,1,0,1:0:0:0:
222,281,91525,2,0,L|177:291,1,38.75,8|0,1:2|1:0,0:0:0:0:
124,235,91733,2,0,L|66:218,1,38.75,0|0,1:0|1:0,0:0:0:0:
17,198,91941,6,0,P|1:169|3:135,1,65.8750012564659,2|0,0:0|0:0,0:0:0:0:
76,107,92358,2,0,P|111:98|134:75,2,65.8750012564659,2|0|2,0:0|0:0|0:0,0:0:0:0:
66,26,92983,5,8,0:0:0:0:
229,65,93191,1,8,0:0:0:0:
251,61,93295,1,8,0:0:0:0:
273,57,93400,1,0,1:0:0:0:
192,306,93608,1,4,0:0:0:0:
64,306,103608,5,2,1:0:0:0:
151,275,103816,1,0,1:0:0:0:
81,177,104025,1,8,1:2:0:0:
227,127,104233,1,0,1:0:0:0:
376,256,104441,5,0,1:0:0:0:
404,230,104545,1,0,1:0:0:0:
420,194,104650,1,0,1:0:0:0:
425,155,104754,1,0,1:0:0:0:
409,119,104858,1,8,1:2:0:0:
385,88,104962,1,0,1:0:0:0:
347,77,105066,1,0,1:0:0:0:
311,61,105170,1,0,1:0:0:0:
287,29,105275,5,4,0:0:0:0:
96,187,105483,1,4,1:2:0:0:
147,106,105691,5,4,1:2:0:0:
311,311,105900,1,4,1:2:0:0:
331,216,106108,5,4,1:2:0:0:
97,364,106316,1,4,1:2:0:0:
398,282,106525,5,8,0:0:0:0:
228,148,106733,5,0,0:0:0:0:
228,148,106837,1,0,0:0:0:0:
228,148,106941,1,4,0:2:0:0:
139,178,107150,2,0,P|99:188|59:196,1,77.5,2|8,0:0|0:0,0:0:0:0:
131,292,107566,2,0,P|207:304|277:254,1,155,0|2,1:0|1:0,0:0:0:0:
228,148,108191,1,8,0:0:0:0:
355,190,108400,6,0,L|349:234,2,38.75,2|0|0,0:0|0:0|1:0,0:0:0:0:
290,68,108816,1,0,1:0:0:0:
267,61,108920,1,0,0:0:0:0:
244,54,109025,1,8,0:0:0:0:
407,102,109233,2,0,L|398:13,1,77.5,2|0,1:0|0:0,0:0:0:0:
399,24,109650,1,2,1:0:0:0:
505,166,109858,2,0,L|512:243,1,77.5,8|0,0:0|0:0,0:0:0:0:
501,269,110170,5,0,0:0:0:0:
501,269,110275,1,2,1:0:0:0:
337,194,110483,1,0,0:0:0:0:
407,102,110691,1,8,0:0:0:0:
407,284,110900,2,0,P|367:289|323:279,1,77.5,2|0,1:0|0:0,0:0:0:0:
185,218,111316,1,2,1:0:0:0:
224,351,111525,1,8,0:0:0:0:
305,274,111733,1,2,0:0:0:0:
185,218,111941,5,0,1:0:0:0:
185,218,112045,1,0,1:0:0:0:
185,218,112150,1,2,1:0:0:0:
330,270,112358,2,0,P|335:313|331:354,1,77.5,8|2,0:0|1:0,0:0:0:0:
209,299,112775,1,0,0:0:0:0:
390,116,112983,5,8,0:0:0:0:
351,367,113191,1,8,0:0:0:0:
226,311,113400,6,0,P|189:322|159:349,1,77.5,2|4,0:0|0:2,0:0:0:0:
82,279,113816,2,0,L|43:269,2,38.75,2|0|8,0:0|0:0|0:0,0:0:0:0:
157,239,114233,1,2,1:0:0:0:
146,154,114441,1,0,0:0:0:0:
273,309,114650,1,0,1:0:0:0:
302,229,114858,1,8,0:0:0:0:
180,327,115066,5,2,0:0:0:0:
180,327,115170,1,0,0:0:0:0:
180,327,115275,1,0,1:0:0:0:
284,156,115483,1,2,1:0:0:0:
376,254,115691,1,8,0:0:0:0:
248,326,115900,2,0,P|178:337|100:275,1,155,2|0,1:0|1:0,0:0:0:0:
209,200,116525,1,8,0:0:0:0:
342,341,116733,1,2,0:0:0:0:
317,146,116941,5,0,1:0:0:0:
221,242,117150,1,2,0:0:0:0:
330,308,117358,1,8,0:0:0:0:
317,146,117566,2,0,P|313:102|311:63,1,77.5,0|2,1:0|0:0,0:0:0:0:
467,27,117983,1,0,1:0:0:0:
478,190,118191,2,0,P|480:228|483:267,1,77.5,8|2,0:0|0:0,0:0:0:0:
381,360,118608,5,0,1:0:0:0:
358,354,118712,1,0,1:0:0:0:
335,348,118816,1,2,1:0:0:0:
241,160,119025,1,8,0:0:0:0:
337,224,119233,1,0,1:0:0:0:
190,331,119441,6,0,P|155:298|150:254,1,77.5,2|8,0:0|0:0,0:0:0:0:
322,53,119858,2,0,P|357:86|362:130,1,77.5,8|0,0:0|0:0,0:0:0:0:
279,339,120275,6,0,B|236:352|236:352|204:338|204:338|117:367,1,155,4|8,0:0|0:0,0:0:0:0:
23,284,120900,1,0,0:0:0:0:
23,284,121004,1,8,0:0:0:0:
23,284,121108,2,0,L|97:262,1,77.5,0|8,1:0|0:0,0:0:0:0:
171,244,121420,1,0,0:0:0:0:
171,244,121525,2,0,P|192:207|190:168,1,77.5,8|0,0:0|0:0,0:0:0:0:
129,15,121941,5,2,1:0:0:0:
106,96,122150,2,0,P|146:97|192:68,1,77.5,0|8,0:0|0:0,0:0:0:0:
309,115,122566,1,0,0:0:0:0:
157,197,122775,2,0,P|87:214|-1:247,1,155,2|8,1:0|0:0,0:0:0:0:
187,297,123400,5,0,0:0:0:0:
187,297,123504,1,0,0:0:0:0:
187,297,123608,2,0,P|235:309|265:311,1,77.5,2|0,1:0|0:0,0:0:0:0:
402,237,124025,1,8,0:0:0:0:
291,308,124233,1,0,0:0:0:0:
392,369,124441,1,0,1:0:0:0:
392,369,124545,1,8,0:0:0:0:
392,369,124650,1,0,0:0:0:0:
298,200,124858,2,0,L|262:129,1,77.5,8|2,0:0|0:0,0:0:0:0:
242,97,125170,5,0,0:0:0:0:
242,97,125275,2,0,P|200:112|167:129,1,77.5,2|2,1:0|0:0,0:0:0:0:
370,35,125691,2,0,P|409:45|457:66,1,77.5,8|2,0:0|0:0,0:0:0:0:
298,200,126108,5,2,1:0:0:0:
256,352,126316,1,8,0:0:0:0:
115,180,126525,2,0,B|83:129|114:81|114:81|81:59|78:28,1,155,8|4,0:0|0:2,0:0:0:0:
201,87,127150,5,0,0:0:0:0:
225,98,127254,1,0,0:0:0:0:
249,108,127358,2,0,P|283:111|327:87,1,77.5,8|0,0:0|0:0,0:0:0:0:
272,16,127775,1,0,1:0:0:0:
357,191,127983,1,0,0:0:0:0:
377,175,128087,1,0,0:0:0:0:
398,159,128191,2,0,P|417:131|418:80,1,77.5,8|2,0:0|0:0,0:0:0:0:
272,16,128608,5,2,1:0:0:0:
287,127,128816,2,0,L|273:219,1,77.5,0|8,0:0|0:0,0:0:0:0:
346,312,129233,1,2,0:0:0:0:
205,263,129441,2,0,B|164:218|100:237|100:237|124:258|132:288,1,147.249996068001,2|8,1:0|0:0,0:0:0:0:
256,352,130066,5,2,0:0:0:0:
278,347,130170,1,0,0:0:0:0:
300,342,130275,1,0,1:0:0:0:
369,189,130483,1,0,1:0:0:0:
281,237,130691,1,8,1:2:0:0:
432,373,130900,1,0,1:0:0:0:
470,250,131108,5,0,1:0:0:0:
480,212,131212,1,0,1:0:0:0:
477,173,131316,1,0,1:0:0:0:
453,142,131420,1,0,1:0:0:0:
415,130,131525,1,8,1:2:0:0:
376,135,131629,1,0,1:0:0:0:
338,124,131733,1,0,1:0:0:0:
313,94,131837,1,0,1:0:0:0:
303,57,131941,6,0,L|235:77,1,62,2|0,0:0|0:0,0:0:0:0:
186,134,132358,2,0,L|207:60,1,62,2|0,0:0|0:0,0:0:0:0:
286,171,132775,2,0,L|268:230,1,62,2|8,0:0|0:0,0:0:0:0:
150,304,133191,1,8,0:0:0:0:
154,330,133295,1,8,0:0:0:0:
159,356,133400,1,0,1:0:0:0:
376,302,133608,6,0,P|393:264|386:208,1,77.5,4|2,0:0|0:0,0:0:0:0:
286,171,134025,1,8,0:0:0:0:
484,34,134233,1,2,1:0:0:0:
484,34,134650,2,0,P|439:46|401:58,1,77.5,0|8,1:0|0:0,0:0:0:0:
317,182,135066,1,2,0:0:0:0:
245,70,135275,5,0,1:0:0:0:
365,40,135484,1,0,1:0:0:0:
395,160,135692,1,8,0:0:0:0:
274,190,135900,1,0,1:0:0:0:
365,40,136108,5,2,0:0:0:0:
496,133,136316,1,0,1:0:0:0:
367,254,136525,2,0,P|322:242|282:233,1,77.5,8|0,0:0|0:0,0:0:0:0:
144,96,136941,5,4,0:0:0:0:
144,256,137150,1,2,0:0:0:0:
52,200,137358,1,8,0:0:0:0:
263,157,137566,2,0,P|274:228|215:297,1,155,2|0,1:0|0:0,0:0:0:0:
205,303,138087,1,0,1:0:0:0:
205,303,138191,2,0,L|119:289,1,77.5,8|2,0:0|0:0,0:0:0:0:
305,224,138608,6,0,L|345:213,2,38.75,0|0|0,1:0|1:0|1:0,0:0:0:0:
176,176,139025,1,8,0:0:0:0:
286,95,139233,1,0,1:0:0:0:
226,257,139441,2,0,P|215:300|212:342,1,77.5,2|8,0:0|0:0,0:0:0:0:
212,332,139754,1,0,0:0:0:0:
212,332,139858,1,8,0:0:0:0:
144,164,140066,1,2,0:0:0:0:
327,270,140274,5,4,0:0:0:0:
310,87,140483,1,2,0:0:0:0:
454,230,140691,1,8,0:0:0:0:
236,162,140900,2,0,P|215:103|206:11,1,155,2|2,1:0|1:0,0:0:0:0:
235,7,141420,1,0,0:0:0:0:
235,7,141525,1,8,0:0:0:0:
253,190,141733,1,2,0:0:0:0:
127,117,141941,6,0,P|86:118|47:100,1,77.5,0|0,1:0|1:0,0:0:0:0:
287,183,142358,2,0,P|330:197|367:208,1,77.5,8|2,0:0|1:0,0:0:0:0:
125,256,142775,2,0,P|108:293|105:333,1,77.5,2|0,0:0|1:0,0:0:0:0:
235,92,143191,2,0,P|248:55|256:8,1,77.5,8|2,0:0|0:0,0:0:0:0:
380,217,143608,6,0,L|390:271,3,38.75,4|0|0|0,0:0|0:0|1:0|0:0,0:0:0:0:
456,305,144025,2,0,L|421:345,3,38.75,8|0|0|0,0:0|0:0|1:0|0:0,0:0:0:0:
355,371,144441,5,2,1:0:0:0:
355,371,144545,1,0,1:0:0:0:
355,371,144650,1,0,1:0:0:0:
355,371,144754,1,0,1:0:0:0:
320,343,144858,5,10,0:0:0:0:
280,325,144962,1,0,1:0:0:0:
238,316,145066,1,2,1:0:0:0:
195,316,145170,1,0,1:0:0:0:
156,331,145275,1,4,1:2:0:0:
36,303,145483,6,0,P|34:335|49:364,1,65.8750012564659,2|0,0:0|0:0,0:0:0:0:
89,227,145900,1,8,0:0:0:0:
89,227,146004,1,8,0:0:0:0:
89,227,146108,2,0,P|54:208|25:208,1,65.8750012564659,8|8,0:0|0:0,0:0:0:0:
195,316,146525,1,8,0:0:0:0:
227,308,146629,1,8,0:0:0:0:
259,300,146733,1,4,0:3:0:0:
291,292,146837,1,4,0:3:0:0:
324,285,146941,6,0,P|347:253|350:209,1,77.5,4|2,0:2|0:0,0:0:0:0:
309,141,147358,1,8,0:0:0:0:
449,235,147566,2,0,P|443:192|423:164,1,77.5,2|0,0:0|1:0,0:0:0:0:
342,53,147983,1,2,0:0:0:0:
319,56,148087,1,0,0:0:0:0:
296,60,148191,1,8,0:0:0:0:
187,212,148400,1,2,0:0:0:0:
175,116,148608,6,0,P|221:129|266:147,1,77.5,0|2,1:0|0:0,0:0:0:0:
368,268,149025,2,0,P|361:229|357:191,1,77.5,8|2,0:0|0:0,0:0:0:0:
256,352,149441,1,0,1:0:0:0:
353,291,149650,1,2,0:0:0:0:
271,126,149858,1,8,0:0:0:0:
413,188,150066,5,0,0:0:0:0:
432,201,150170,1,0,0:0:0:0:
448,217,150275,2,0,P|461:259|461:304,1,77.5,0|2,1:0|0:0,0:0:0:0:
301,324,150691,1,8,0:0:0:0:
347,83,150900,5,2,0:0:0:0:
359,102,151004,1,0,0:0:0:0:
367,123,151109,2,0,P|362:166|344:208,1,77.5,0|0,1:0|0:0,0:0:0:0:
225,341,151525,1,8,0:0:0:0:
110,253,151733,5,2,0:0:0:0:
110,253,151837,1,0,0:0:0:0:
110,253,151941,2,0,L|193:237,1,77.5,0|2,1:0|0:0,0:0:0:0:
380,346,152358,2,0,L|297:362,1,77.5,8|2,0:0|0:0,0:0:0:0:
185,219,152775,5,0,1:0:0:0:
330,279,152983,1,8,0:0:0:0:
215,367,153191,1,8,0:0:0:0:
308,135,153400,1,0,1:0:0:0:
256,288,153608,5,4,0:0:0:0:
200,100,153816,1,2,0:0:0:0:
376,192,154025,1,8,0:0:0:0:
205,222,154233,2,0,P|136:212|67:155,1,155,2|2,0:0|0:0,0:0:0:0:
95,67,154858,2,0,P|57:54|19:40,1,77.5,8|2,0:0|0:0,0:0:0:0:
21,41,155170,1,0,0:0:0:0:
21,41,155275,1,0,1:0:0:0:
70,160,155483,5,2,0:0:0:0:
200,108,155691,2,0,P|203:66|192:24,1,77.5,8|2,0:0|0:0,0:0:0:0:
312,146,156108,2,0,P|309:188|320:230,1,77.5,0|2,1:0|0:0,0:0:0:0:
408,179,156525,1,8,0:0:0:0:
340,307,156733,5,2,0:0:0:0:
340,307,156837,1,0,0:0:0:0:
340,307,156941,2,0,P|294:303|260:280,1,77.5,0|2,1:0|0:0,0:0:0:0:
419,207,157358,1,8,0:0:0:0:
292,110,157566,5,2,0:0:0:0:
292,110,157670,1,0,0:0:0:0:
292,110,157774,2,0,P|295:63|317:29,1,77.5,0|2,1:0|0:0,0:0:0:0:
393,187,158191,1,8,0:0:0:0:
248,253,158400,5,2,0:0:0:0:
225,258,158504,1,0,0:0:0:0:
202,263,158608,1,4,0:0:0:0:
0,177,158816,1,0,1:0:0:0:
150,99,159025,1,0,1:0:0:0:
61,343,159233,1,0,1:2:0:0:
263,237,159441,6,0,L|300:228,1,38.75,8|8,0:0|0:0,0:0:0:0:
317,144,159650,2,0,L|324:102,1,38.75,8|0,0:0|0:0,0:0:0:0:
399,167,159858,1,8,0:0:0:0:
404,195,159962,1,8,0:0:0:0:
410,223,160066,1,0,1:3:0:0:
416,252,160170,1,0,1:3:0:0:
422,280,160275,6,0,P|408:317|408:359,1,77.5,4|0,0:0|0:0,0:0:0:0:
289,180,160691,1,8,0:0:0:0:
216,244,160900,2,0,P|146:240|79:188,1,155,2|2,0:0|0:0,0:0:0:0:
172,51,161525,1,8,0:0:0:0:
256,112,161733,5,2,0:0:0:0:
256,112,161837,1,0,0:0:0:0:
256,112,161941,2,0,L|343:95,1,77.5,0|2,1:0|0:0,0:0:0:0:
172,51,162358,1,8,0:0:0:0:
237,199,162566,1,2,0:0:0:0:
395,159,162775,1,0,1:0:0:0:
219,220,162983,2,0,P|202:260|205:297,1,77.5,2|8,0:0|0:0,0:0:0:0:
368,268,163400,6,0,L|409:277,2,38.75,2|0|0,0:0|0:0|1:0,0:0:0:0:
296,327,163816,1,2,0:0:0:0:
323,167,164025,1,8,0:0:0:0:
448,113,164233,6,0,L|488:100,2,38.75,2|0|0,0:0|0:0|1:0,0:0:0:0:
415,200,164649,1,2,0:0:0:0:
358,48,164858,1,8,0:0:0:0:
478,20,165066,5,2,0:0:0:0:
478,20,165170,1,0,0:0:0:0:
478,20,165275,1,0,1:0:0:0:
339,54,165483,1,2,0:0:0:0:
254,167,165691,1,8,0:0:0:0:
405,207,165900,1,2,0:0:0:0:
319,61,166108,1,0,1:0:0:0:
313,253,166316,5,8,0:0:0:0:
420,117,166525,1,8,0:0:0:0:
237,35,166733,1,0,1:0:0:0:
377,80,166941,6,0,P|415:71|457:62,1,77.5,4|2,0:0|0:0,0:0:0:0:
425,172,167358,1,8,0:0:0:0:
301,221,167566,2,0,P|265:221|224:236,1,77.5,2|0,0:0|1:0,0:0:0:0:
134,120,167983,2,0,P|170:120|211:105,1,77.5,2|8,0:0|0:0,0:0:0:0:
316,28,168400,5,2,0:0:0:0:
316,28,168504,1,0,0:0:0:0:
316,28,168608,2,0,P|316:66|329:102,1,77.5,0|2,1:0|0:0,0:0:0:0:
249,266,169025,2,0,P|248:227|235:191,1,77.5,8|2,0:0|0:0,0:0:0:0:
256,352,169441,1,0,1:0:0:0:
343,229,169650,2,0,P|368:197|375:160,1,77.5,2|8,0:0|0:0,0:0:0:0:
413,26,170066,5,2,0:0:0:0:
390,30,170170,1,0,0:0:0:0:
366,34,170275,1,0,1:0:0:0:
282,49,170483,1,0,1:0:0:0:
168,71,170691,1,8,1:2:0:0:
31,101,170900,1,0,1:0:0:0:
73,252,171108,5,0,1:0:0:0:
107,265,171212,1,0,1:0:0:0:
146,265,171316,1,0,1:0:0:0:
182,249,171420,1,0,1:0:0:0:
218,236,171524,1,8,1:2:0:0:
256,233,171628,1,0,0:0:0:0:
295,242,171733,2,0,L|312:183,1,38.75,0|0,1:0|1:0,0:0:0:0:
379,238,171941,6,0,L|363:315,2,65.8750012564659,2|0|2,0:0|0:0|0:0,0:0:0:0:
444,113,172566,1,0,0:0:0:0:
358,127,172775,2,0,L|347:62,1,65.8750012564659,2|8,0:0|0:0,0:0:0:0:
232,33,173191,1,0,0:0:0:0:
214,60,173295,1,8,0:0:0:0:
206,92,173399,1,8,0:0:0:0:
209,125,173503,1,0,0:0:0:0:
223,155,173608,6,0,P|177:157|141:174,1,77.5,4|0,0:0|0:0,0:0:0:0:
97,237,174025,1,8,0:0:0:0:
256,280,174233,2,0,B|310:261|310:261|346:275|346:275|415:251,1,155,2|2,0:0|0:0,0:0:0:0:
471,164,174858,1,8,0:0:0:0:
464,311,175066,6,0,P|406:264|394:169,1,155,2|2,0:0|0:0,0:0:0:0:
389,188,175587,1,0,0:0:0:0:
389,188,175691,1,8,0:0:0:0:
420,21,175900,1,2,0:0:0:0:
486,68,176108,1,0,1:0:0:0:
410,103,176316,1,2,0:0:0:0:
420,21,176525,1,8,0:0:0:0:
387,229,176733,6,0,P|317:242|241:206,1,155,4|2,0:0|0:0,0:0:0:0:
285,133,177358,1,8,0:0:0:0:
182,266,177566,1,2,0:0:0:0:
182,266,177670,1,0,0:0:0:0:
182,266,177775,2,0,P|137:285|92:278,1,77.5,0|2,1:0|0:0,0:0:0:0:
30,250,178191,1,8,0:0:0:0:
175,356,178400,6,0,P|222:366|254:375,1,77.5,2|0,0:0|1:0,0:0:0:0:
353,249,178816,1,2,0:0:0:0:
338,226,178920,1,0,0:0:0:0:
330,199,179025,1,8,0:0:0:0:
334,172,179129,1,0,0:0:0:0:
342,146,179233,2,0,P|387:130|419:121,1,77.5,2|0,0:0|1:0,0:0:0:0:
306,48,179650,5,8,0:0:0:0:
424,282,179858,1,8,0:0:0:0:
291,199,180066,6,0,P|357:183|418:118,1,155,4|2,0:0|1:0,0:0:0:0:
306,48,180691,1,8,0:0:0:0:
210,122,180900,2,0,P|169:103|148:57,1,77.5,2|0,0:0|1:0,0:0:0:0:
54,123,181316,1,2,0:0:0:0:
54,123,181420,1,0,0:0:0:0:
54,123,181525,1,8,0:0:0:0:
144,192,181733,6,0,P|154:232|163:276,1,77.5,2|0,0:0|1:0,0:0:0:0:
313,218,182150,1,2,0:0:0:0:
244,146,182358,2,0,P|234:106|225:62,1,77.5,8|2,0:0|0:0,0:0:0:0:
335,186,182775,1,2,1:0:0:0:
240,46,182983,1,0,0:0:0:0:
381,88,183191,1,8,0:0:0:0:
254,19,183400,6,0,P|192:19|108:80,1,155,4|2,0:0|1:0,0:0:0:0:
95,177,184025,1,8,1:2:0:0:
172,128,184233,1,2,1:0:0:0:
109,315,184441,5,0,1:0:0:0:
249,259,184650,1,2,1:0:0:0:
27,238,184858,5,8,1:2:0:0:
206,357,185066,1,2,1:0:0:0:
315,301,185275,6,0,P|331:266|333:241,3,38.75,2|0|0|0,1:0|1:0|1:0|1:0,0:0:0:0:
408,223,185691,2,0,P|392:188|390:163,3,38.75,10|0|0|0,1:2|1:0|1:0|1:0,0:0:0:0:
429,117,186108,5,0,1:0:0:0:
458,127,186212,1,0,1:0:0:0:
483,144,186316,1,0,1:0:0:0:
501,168,186420,1,0,1:0:0:0:
510,197,186525,1,0,1:0:0:0:
510,227,186629,1,0,1:0:0:0:
500,256,186733,1,0,1:0:0:0:
477,277,186837,1,0,1:0:0:0:
444,297,186941,6,0,P|399:288|370:283,1,62,4|2,0:0|0:0,0:0:0:0:
321,233,187358,1,8,0:0:0:0:
257,327,187566,2,0,P|203:346|133:359,1,124,2|2,0:0|0:0,0:0:0:0:
137,358,188087,1,0,0:0:0:0:
137,358,188191,1,8,0:0:0:0:
37,345,188400,1,0,1:0:0:0:
126,187,188608,5,4,0:0:0:0:
57,145,188816,2,0,L|70:79,1,62,2|8,0:0|0:0,0:0:0:0:
160,25,189233,2,0,P|202:66|204:141,1,124,2|2,0:0|0:0,0:0:0:0:
208,128,189754,1,0,0:0:0:0:
208,128,189858,1,8,0:0:0:0:
136,196,190066,1,0,1:0:0:0:
311,328,190275,5,4,0:0:0:0:
221,373,190483,1,2,0:0:0:0:
221,373,190587,1,0,0:0:0:0:
221,373,190691,2,0,L|156:356,1,62,8|0,0:0|1:0,0:0:0:0:
256,144,191108,5,4,0:0:0:0:
346,189,191316,1,2,0:0:0:0:
346,189,191420,1,0,0:0:0:0:
346,189,191524,2,0,L|411:172,1,62,8|0,0:0|1:0,0:0:0:0:
256,56,191941,6,0,L|214:48,3,31,4|0|0|0,1:2|0:0|0:0|0:0,0:0:0:0:
153,84,192358,2,0,L|111:76,3,31,4|0|0|0,1:2|0:0|0:0|0:0,0:0:0:0:
67,127,192775,6,0,L|76:164,1,31,4|0,1:2|0:0,0:0:0:0:
162,186,192983,2,0,L|153:223,1,31,4|0,1:2|0:0,0:0:0:0:
53,257,193191,2,0,L|62:294,1,31,4|0,1:2|0:0,0:0:0:0:
177,312,193400,2,0,L|168:349,1,31,4|0,1:2|0:0,0:0:0:0:
77,371,193608,5,4,1:0:0:0:
375,277,200275,6,0,P|412:289|450:287,2,62,4|0|8,0:0|0:0|0:0,0:0:0:0:
327,211,200900,2,0,P|280:179|188:187,1,124,2|2,0:0|0:0,0:0:0:0:
145,218,201525,1,8,0:0:0:0:
87,124,201733,5,0,0:0:0:0:
87,124,201837,1,0,0:0:0:0:
87,124,201941,2,0,P|76:89|77:58,1,62,2|0,0:0|0:0,0:0:0:0:
146,23,202358,1,8,0:0:0:0:
253,94,202566,2,0,P|219:98|185:85,1,62,2|0,0:0|0:0,0:0:0:0:
256,184,202983,1,2,0:0:0:0:
326,227,203191,2,0,P|360:223|394:236,1,62,8|0,0:0|0:0,0:0:0:0:
411,250,203504,5,0,0:0:0:0:
411,250,203608,2,0,L|483:234,2,62,2|0|8,0:0|0:0|0:0,0:0:0:0:
295,324,204233,1,2,0:0:0:0:
295,324,204337,1,0,0:0:0:0:
295,324,204441,2,0,L|223:308,2,62,0|2|8,0:0|0:0|0:0,0:0:0:0:
408,341,205066,5,0,0:0:0:0:
408,341,205170,1,0,0:0:0:0:
408,341,205275,1,2,0:0:0:0:
425,249,205483,1,0,0:0:0:0:
495,310,205691,1,8,0:0:0:0:
391,171,205900,1,2,0:0:0:0:
449,98,206108,1,0,0:0:0:0:
481,185,206316,5,2,0:0:0:0:
273,252,206525,1,8,0:0:0:0:
334,341,206733,1,2,0:0:0:0:
303,155,206941,6,0,L|310:82,1,69.749997871399,4|0,0:0|0:0,0:0:0:0:
386,51,207358,1,8,0:0:0:0:
232,40,207566,2,0,P|194:34|155:18,1,69.749997871399,2|0,0:0|1:0,0:0:0:0:
303,155,207983,2,0,P|265:161|226:177,1,69.749997871399,2|8,0:0|0:0,0:0:0:0:
104,112,208400,5,2,0:0:0:0:
104,112,208504,1,0,0:0:0:0:
104,112,208608,2,0,L|176:112,1,69.749997871399,0|2,1:0|0:0,0:0:0:0:
246,249,209025,2,0,L|176:249,1,69.749997871399,8|2,0:0|0:0,0:0:0:0:
43,225,209441,1,0,1:0:0:0:
119,189,209650,1,2,0:0:0:0:
43,225,209858,2,0,P|23:265|24:305,1,69.749997871399,8|2,0:0|0:0,0:0:0:0:
32,315,210170,5,0,0:0:0:0:
32,315,210275,1,0,1:0:0:0:
114,330,210483,1,0,1:0:0:0:
215,264,210691,1,8,1:2:0:0:
312,382,210900,1,0,1:0:0:0:
411,203,211108,5,0,1:0:0:0:
439,183,211212,1,0,1:0:0:0:
457,153,211316,1,0,1:0:0:0:
462,119,211420,1,0,1:0:0:0:
453,85,211524,1,8,1:2:0:0:
432,58,211628,1,0,1:0:0:0:
402,42,211732,1,0,1:0:0:0:
367,38,211837,1,0,1:0:0:0:
334,49,211941,6,0,L|259:28,1,62,4|2,0:0|0:0,0:0:0:0:
379,166,212358,2,0,L|438:182,1,62,0|2,0:0|0:0,0:0:0:0:
199,245,212775,2,0,L|139:228,1,62,8|8,0:0|0:0,0:0:0:0:
327,354,213191,1,8,0:0:0:0:
354,339,213295,1,8,0:0:0:0:
384,331,213400,1,4,0:3:0:0:
414,330,213504,1,4,0:3:0:0:
449,344,213608,6,0,P|431:305|425:255,1,77.5,4|0,0:0|0:0,0:0:0:0:
479,189,214025,1,8,0:0:0:0:
352,63,214233,1,2,0:0:0:0:
352,63,214337,1,0,0:0:0:0:
352,63,214441,2,0,P|311:54|275:51,1,77.5,0|2,1:0|0:0,0:0:0:0:
185,7,214858,1,8,0:0:0:0:
158,203,215066,6,0,P|262:181|304:142,1,155,2|2,0:0|0:0,0:0:0:0:
455,158,215691,1,8,0:0:0:0:
329,248,215900,1,2,0:0:0:0:
315,266,216004,1,0,0:0:0:0:
302,285,216108,1,2,1:0:0:0:
468,316,216316,2,0,P|488:280|486:245,1,77.5,2|8,0:0|0:0,0:0:0:0:
316,149,216733,5,2,0:0:0:0:
316,149,216837,1,0,0:0:0:0:
316,149,216941,1,0,1:0:0:0:
354,299,217150,1,2,0:0:0:0:
378,93,217358,2,0,P|343:69|308:66,1,77.5,8|2,0:0|0:0,0:0:0:0:
241,41,217670,5,0,0:0:0:0:
241,41,217775,2,0,L|158:71,1,77.5,0|2,1:0|0:0,0:0:0:0:
123,187,218191,1,8,0:0:0:0:
334,262,218400,5,2,0:0:0:0:
334,262,218504,1,0,0:0:0:0:
334,262,218608,2,0,P|337:217|310:175,1,77.5,0|2,1:0|0:0,0:0:0:0:
186,315,219025,1,8,0:0:0:0:
314,158,219233,1,2,0:0:0:0:
168,211,219441,1,0,1:0:0:0:
381,341,219650,5,8,0:0:0:0:
240,97,219858,1,8,0:0:0:0:
278,283,220066,1,0,1:0:0:0:
387,136,220275,6,0,P|349:142|314:158,1,77.5,4|2,0:0|0:0,0:0:0:0:
180,42,220691,1,8,0:0:0:0:
130,228,220900,2,0,P|182:206|222:106,1,155,2|2,0:0|0:0,0:0:0:0:
291,28,221525,1,8,0:0:0:0:
328,192,221733,5,2,0:0:0:0:
328,192,221837,1,0,0:0:0:0:
328,192,221941,1,0,1:0:0:0:
196,321,222150,2,0,L|118:303,1,77.5,2|8,0:0|0:0,0:0:0:0:
349,224,222566,2,0,L|424:241,1,77.5,2|0,0:0|1:0,0:0:0:0:
313,343,222983,1,2,0:0:0:0:
225,196,223191,2,0,P|209:159|211:117,1,77.5,8|0,0:0|0:0,0:0:0:0:
217,97,223504,5,0,0:0:0:0:
217,97,223608,1,0,1:0:0:0:
307,76,223816,1,0,1:0:0:0:
469,186,224025,1,8,1:2:0:0:
378,164,224233,1,0,1:0:0:0:
256,280,224441,6,0,L|195:298,1,38.75,0|0,1:0|1:0,0:0:0:0:
139,312,224650,2,0,L|101:301,1,38.75,0|0,1:0|1:0,0:0:0:0:
29,267,224858,1,8,1:2:0:0:
44,231,224962,1,0,1:0:0:0:
42,192,225066,1,0,1:0:0:0:
24,157,225170,1,0,1:0:0:0:
8,134,225275,6,0,P|8:100|25:68,1,69.749997871399,2|0,0:0|0:0,0:0:0:0:
92,31,225691,2,0,P|126:26|170:17,1,69.749997871399,2|0,0:0|0:0,0:0:0:0:
209,79,226108,2,0,P|264:69|326:60,1,116.250004434586,2|0,0:0|0:0,0:0:0:0:
