osu file format v14

[General]
AudioFilename: audio.mp3
AudioLeadIn: 0
PreviewTime: 50493
Countdown: 0
SampleSet: Soft
StackLeniency: 0.4
Mode: 2
LetterboxInBreaks: 0
WidescreenStoryboard: 1

[Editor]
Bookmarks: 5493,15618,15993,16743,24243,33993,59493,73368
DistanceSpacing: 1.3
BeatDivisor: 4
GridSize: 4
TimelineZoom: 1

[Metadata]
Title:departure! (TV Size)
TitleUnicode:departure! (TV Size)
Artist:Ono Masatoshi
ArtistUnicode:小野正利
Creator:Secre
Version:Jajanken
Source:HUNTER×HUNTER
Tags:chickenbible Gon Freecss ゴン=フリークス Killua Zoldyck キルア=ゾルディック Kurapika クラピカ Leorio Paladiknight レオリオ=パラディナイト hxh ハンター×ハンター opening anime japanese rock jrock j-rock hunterxhunter hunter
BeatmapID:3025882
BeatmapSetID:1474379

[Difficulty]
HPDrainRate:6
CircleSize:4
OverallDifficulty:9.1
ApproachRate:9.1
SliderMultiplier:2
SliderTickRate:2

[Events]
//Background and Video events
0,0,"pekora is an A+ class threat to the world.jpg",0,0
//Break Periods
//Storyboard Layer 0 (Background)
//Storyboard Layer 1 (Fail)
//Storyboard Layer 2 (Pass)
//Storyboard Layer 3 (Foreground)
//Storyboard Layer 4 (Overlay)
//Storyboard Sound Samples

[TimingPoints]
243,375,4,2,1,100,1,0
3243,-100,4,2,1,30,0,0
5493,-100,4,2,1,70,0,0
15243,-100,4,2,1,50,0,0
15805,-100,4,2,1,70,0,0
16368,-100,4,2,1,90,0,0
16461,-100,4,2,1,70,0,0
16743,-100,4,2,1,40,0,0
17118,-100,4,2,1,50,0,0
17493,-100,4,2,1,60,0,0
17868,-100,4,2,1,70,0,0
18243,-100,4,2,1,80,0,0
45243,-100,4,2,1,78,0,0
46368,-100,4,2,1,80,0,0
47118,-100,4,2,1,83,0,0
47868,-100,4,2,1,85,0,0
48243,-100,4,2,1,98,0,0
48618,-100,4,2,1,90,0,0
50118,-100,4,2,1,90,0,0
50305,-100,4,2,2,50,0,0
50680,-100,4,2,2,60,0,0
51243,-100,4,2,1,90,0,1
61743,-100,4,2,1,85,0,1
62868,-100,4,2,1,65,0,1
63055,-100,4,2,1,60,0,1
63149,-100,4,2,1,70,0,1
63243,-100,4,2,1,100,0,1
67555,-71.4285714285714,4,2,1,100,0,1
68118,-100,4,2,1,100,0,1
75055,-100,4,2,1,85,0,1
76555,-100,4,2,1,65,0,0

[Colours]
Combo1 : 234,0,0
Combo2 : 57,146,253
Combo3 : 26,179,75
Combo4 : 236,236,0

[HitObjects]
256,192,3243,12,0,5118,0:0:0:0:
378,195,5493,6,0,L|388:52,1,100,2|0,3:0|0:0,0:0:0:0:
222,73,5868,1,2,3:0:0:0:
384,95,6055,1,0,0:0:0:0:
89,215,6243,6,0,P|27:177|113:112,1,200,4|2,0:0|3:0,0:0:0:0:
261,122,6805,2,0,L|276:-11,1,100,2|0,3:0|0:0,0:0:0:0:
102,48,7180,2,0,L|89:-67,1,100,2|0,3:0|0:0,0:0:0:0:
378,58,7555,6,0,L|143:54,1,200,2|0,3:0|0:0,0:0:0:0:
277,103,8118,2,0,L|279:227,1,100
111,220,8493,2,0,L|101:93,1,100,2|0,3:0|0:0,0:0:0:0:
262,103,8868,2,0,L|150:101,1,100,2|0,3:0|0:0,0:0:0:0:
411,82,9243,6,0,P|476:122|412:195,1,200,2|2,3:0|3:0,0:0:0:0:
246,168,9805,2,0,L|139:169,1,100,2|0,3:0|0:0,0:0:0:0:
313,90,10180,2,0,L|424:90,1,100,2|0,3:0|0:0,0:0:0:0:
160,237,10555,6,0,P|99:191|183:124,1,200,2|0,3:0|0:0,0:0:0:0:
269,121,11118,2,0,L|387:120,1,100
209,189,11493,2,0,L|200:79,1,100,2|0,3:0|0:0,0:0:0:0:
358,62,11868,2,0,L|479:61,1,100,2|0,3:0|0:0,0:0:0:0:
172,177,12243,6,0,L|170:57,1,100,4|0,0:0|0:0,0:0:0:0:
324,57,12618,1,2,3:0:0:0:
170,57,12805,2,0,L|34:55,1,100,2|0,3:0|0:0,0:0:0:0:
231,139,13180,2,0,L|361:137,1,100,2|0,3:0|0:0,0:0:0:0:
73,283,13555,6,0,L|317:283,1,200,2|0,3:0|0:0,0:0:0:0:
168,219,14118,2,0,L|160:113,1,100
322,102,14493,2,0,L|446:101,1,100,2|0,3:0|0:0,0:0:0:0:
256,185,14868,2,0,L|140:190,1,100,2|0,3:0|0:0,0:0:0:0:
425,280,15243,6,0,P|486:259|421:183,1,200,2|0,3:0|0:0,0:0:0:0:
171,166,15805,2,0,L|389:163,1,200,2|0,3:0|0:0,0:0:0:0:
121,280,16368,6,0,P|63:250|127:152,1,200,2|0,3:0|0:0,0:0:0:0:
165,142,16836,1,0,0:0:0:0:
357,212,16930,1,0,0:0:0:0:
401,196,17023,1,0,0:0:0:0:
402,149,17117,1,0,0:0:0:0:
358,132,17211,1,0,0:0:0:0:
169,66,17305,2,0,L|102:66,1,50
286,117,17493,5,0,3:0:0:0:
291,51,17586,1,0,3:0:0:0:
226,24,17680,1,0,0:0:0:0:
160,16,17774,1,0,0:0:0:0:
363,113,17868,2,0,L|435:109,1,50,8|0,0:0|0:0,0:0:0:0:
200,185,18055,2,0,L|107:184,1,50
378,172,18243,6,0,L|383:292,1,100,4|0,0:0|0:0,0:0:0:0:
220,272,18618,1,8,0:0:0:0:
475,236,18805,2,0,L|261:233,1,200
439,169,19368,2,0,L|446:29,1,100,8|0,0:0|0:0,0:0:0:0:
75,151,19743,6,0,L|211:150,2,100,0|0|8,3:0|0:0|0:0,0:0:0:0:
334,244,20305,2,0,L|102:245,1,200
298,175,20868,2,0,L|407:171,1,100,8|0,0:0|0:0,0:0:0:0:
346,114,21149,1,0,0:0:0:0:
134,172,21243,6,0,L|129:292,1,100,0|0,3:0|0:0,0:0:0:0:
292,272,21618,1,8,0:0:0:0:
37,236,21805,2,0,L|251:233,1,200
73,169,22368,2,0,L|66:29,1,100,8|0,0:0|0:0,0:0:0:0:
437,151,22743,5,0,3:0:0:0:
259,119,22930,1,0,0:0:0:0:
89,118,23118,1,0,3:0:0:0:
390,116,23305,2,0,P|454:150|366:221,1,200,8|0,0:0|0:0,0:0:0:0:
162,223,24243,6,0,L|384:213,1,200,0|8,3:0|0:0,0:0:0:0:
196,153,24805,2,0,L|190:48,1,100,0|0,0:0|3:0,0:0:0:0:
353,42,25180,2,0,L|469:46,1,100,0|8,0:0|0:0,0:0:0:0:
165,258,25555,6,0,L|56:259,2,100,0|0|0,0:0|3:0|0:0,0:0:0:0:
328,185,26118,2,0,L|334:72,1,100,8|0,0:0|0:0,0:0:0:0:
174,61,26493,2,0,L|69:65,1,100,0|0,3:0|0:0,0:0:0:0:
239,154,26868,2,0,L|364:150,1,100,8|0,0:0|0:0,0:0:0:0:
75,267,27243,6,0,P|18:241|88:158,1,200,0|8,3:0|0:0,0:0:0:0:
244,175,27805,2,0,L|354:172,1,100,0|0,0:0|3:0,0:0:0:0:
184,114,28180,2,0,L|183:2,1,100,0|8,0:0|0:0,0:0:0:0:
346,17,28555,1,0,0:0:0:0:
43,177,28743,6,0,L|175:174,2,100,0|0|8,3:0|0:0|0:0,0:0:0:0:
301,294,29305,2,0,P|354:260|284:164,1,200
129,117,29868,2,0,L|27:119,1,100,8|0,0:0|0:0,0:0:0:0:
300,215,30243,6,0,L|188:212,2,100,0|0|8,3:0|0:0|0:0,0:0:0:0:
132,170,30805,2,0,L|129:41,1,100,0|0,0:0|3:0,0:0:0:0:
289,64,31180,1,0,0:0:0:0:
129,70,31368,1,8,0:0:0:0:
386,167,31555,6,0,L|391:42,1,100,0|0,0:0|3:0,0:0:0:0:
227,70,31930,1,0,0:0:0:0:
389,67,32118,2,0,L|488:66,1,100,8|0,0:0|0:0,0:0:0:0:
335,163,32493,2,0,L|227:167,1,100,0|0,3:0|0:0,0:0:0:0:
394,120,32868,2,0,L|401:6,1,100,8|0,0:0|0:0,0:0:0:0:
122,152,33243,5,0,3:0:0:0:
277,159,33430,1,0,0:0:0:0:
122,152,33618,1,8,0:0:0:0:
395,128,33805,2,0,L|404:14,1,100,0|0,0:0|3:0,0:0:0:0:
236,19,34180,1,0,0:0:0:0:
400,14,34368,1,8,0:0:0:0:
114,212,34555,6,0,L|107:78,1,100,0|0,0:0|3:0,0:0:0:0:
373,96,34930,1,0,0:0:0:0:
114,86,35118,2,0,L|14:88,1,100,8|4,0:0|0:0,0:0:0:0:
64,148,35399,1,0,0:0:0:0:
283,204,35493,5,0,0:0:0:0:
328,190,35586,1,0,0:0:0:0:
333,143,35680,1,0,0:0:0:0:
292,120,35774,1,0,0:0:0:0:
111,57,35868,1,8,0:0:0:0:
49,58,35961,1,0,0:0:0:0:
297,34,36055,1,8,0:0:0:0:
358,32,36149,1,0,0:0:0:0:
101,172,36243,6,0,L|80:42,1,100,4|0,0:0|0:0,0:0:0:0:
258,61,36618,2,0,L|386:62,1,100,0|0,3:0|0:0,0:0:0:0:
190,157,36993,2,0,L|67:158,1,100,0|0,3:0|0:0,0:0:0:0:
376,75,37368,1,0,3:0:0:0:
122,69,37555,1,0,0:0:0:0:
269,122,37743,6,0,L|278:-10,1,100,0|0,3:0|0:0,0:0:0:0:
122,69,38118,1,0,3:0:0:0:
270,122,38305,1,0,0:0:0:0:
18,164,38493,2,0,L|10:37,1,100,0|0,3:0|0:0,0:0:0:0:
177,54,38868,2,0,L|49:55,1,100,8|0,0:0|0:0,0:0:0:0:
356,226,39243,6,0,P|425:186|344:131,1,200,0|0,3:0|3:0,0:0:0:0:
78,177,39805,2,0,L|66:74,1,100,0|0,0:0|3:0,0:0:0:0:
331,76,40180,1,0,0:0:0:0:
181,76,40368,1,0,3:0:0:0:
431,233,40555,6,0,P|500:202|411:144,1,200
272,118,41118,2,0,L|138:116,1,100,0|0,3:0|0:0,0:0:0:0:
427,89,41493,6,0,L|344:88,1,50,8|0,0:0|0:0,0:0:0:0:
174,54,41680,6,0,L|101:57,1,50,8|0,0:0|0:0,0:0:0:0:
296,173,41868,2,0,L|359:170,1,50,8|0,0:0|0:0,0:0:0:0:
157,112,42055,2,0,L|79:110,1,50
394,195,42243,6,0,L|415:65,1,100,4|0,0:0|0:0,0:0:0:0:
236,62,42618,2,0,L|108:63,1,100,0|0,3:0|0:0,0:0:0:0:
322,157,42993,2,0,L|445:158,1,100,0|0,3:0|0:0,0:0:0:0:
127,74,43368,1,0,3:0:0:0:
390,69,43555,1,0,0:0:0:0:
243,122,43743,6,0,L|234:-10,1,100,0|0,3:0|0:0,0:0:0:0:
390,69,44118,1,0,3:0:0:0:
242,122,44305,1,0,0:0:0:0:
494,164,44493,2,0,L|502:37,1,100,8|8,0:0|0:0,0:0:0:0:
154,98,44868,1,8,0:0:0:0:
215,99,44961,1,0,0:0:0:0:
402,80,45055,1,0,0:0:0:0:
463,79,45149,1,0,0:0:0:0:
201,195,45243,6,0,L|337:194,1,100,4|0,0:0|0:0,0:0:0:0:
44,113,45618,1,8,0:0:0:0:
331,149,45805,2,0,L|338:8,1,100,4|0,0:0|0:0,0:0:0:0:
175,40,46180,1,0,3:0:0:0:
337,32,46368,1,8,0:0:0:0:
69,192,46555,6,0,L|54:79,1,100,4|0,0:0|0:0,0:0:0:0:
330,73,46930,1,0,3:0:0:0:
170,76,47118,1,8,0:0:0:0:
441,192,47305,2,0,L|450:62,1,100,4|0,0:0|0:0,0:0:0:0:
170,76,47680,1,0,3:0:0:0:
429,77,47868,1,8,0:0:0:0:
153,62,48055,6,0,L|144:192,1,100,4|0,0:0|0:0,0:0:0:0:
407,166,48430,1,0,3:0:0:0:
141,166,48618,2,0,L|11:169,1,100,8|0,0:0|3:0,0:0:0:0:
358,88,48993,1,0,3:0:0:0:
188,67,49180,1,0,3:0:0:0:
19,61,49368,1,8,0:0:0:0:
405,57,49555,6,0,P|468:91|391:171,1,200,4|4,0:0|0:0,0:0:0:0:
122,109,50118,2,0,L|2:113,1,100,4|0,0:0|3:0,0:0:0:0:
74,168,50399,1,0,3:0:0:0:
318,108,50493,6,0,L|406:103,1,50,0|0,3:0|0:0,0:0:0:0:
189,31,50680,2,0,L|111:37,1,50,0|0,3:0|0:0,0:0:0:0:
299,42,50868,2,0,L|360:42,1,50,8|0,0:0|0:0,0:0:0:0:
196,118,51055,2,0,L|105:117,1,50,0|0,3:0|0:0,0:0:0:0:
374,205,51243,6,0,P|425:180|343:107,1,200,4|8,0:0|0:0,0:0:0:0:
98,171,51805,2,0,L|81:52,1,100,0|0,0:0|3:0,0:0:0:0:
350,63,52180,2,0,L|465:63,1,100,0|8,0:0|0:0,0:0:0:0:
159,148,52555,1,0,0:0:0:0:
311,122,52743,6,0,L|321:10,1,100,0|0,3:0|0:0,0:0:0:0:
169,22,53118,2,0,L|33:26,1,100,8|0,0:0|0:0,0:0:0:0:
322,201,53493,1,0,3:0:0:0:
174,197,53680,1,0,0:0:0:0:
456,87,53868,2,0,L|465:202,1,100,8|0,0:0|0:0,0:0:0:0:
186,253,54243,6,0,L|421:249,1,200,0|8,3:0|0:0,0:0:0:0:
93,295,54805,2,0,L|82:174,1,100,0|0,0:0|3:0,0:0:0:0:
376,133,55180,2,0,L|479:130,1,100,0|8,0:0|0:0,0:0:0:0:
169,135,55555,1,0,0:0:0:0:
427,138,55743,6,0,L|440:24,1,100,0|0,3:0|0:0,0:0:0:0:
184,42,56118,2,0,L|65:41,1,100,8|0,0:0|0:0,0:0:0:0:
332,119,56493,1,8,0:0:0:0:
271,118,56586,1,8,0:0:0:0:
80,122,56680,1,8,0:0:0:0:
331,195,56868,2,0,L|466:192,1,100,8|0,0:0|0:0,0:0:0:0:
142,201,57243,6,0,L|131:74,1,100,0|0,3:0|0:0,0:0:0:0:
415,69,57618,1,8,0:0:0:0:
154,76,57805,2,0,L|49:73,1,100,0|0,0:0|3:0,0:0:0:0:
347,152,58180,2,0,L|465:150,1,100,0|8,0:0|0:0,0:0:0:0:
147,119,58555,1,0,0:0:0:0:
299,77,58743,6,0,L|311:205,1,100,0|0,3:0|0:0,0:0:0:0:
154,220,59118,2,0,L|10:217,1,100,8|0,0:0|0:0,0:0:0:0:
404,193,59493,2,0,L|418:64,1,100,0|0,3:0|0:0,0:0:0:0:
70,101,59868,2,0,L|51:-25,1,100,8|0,0:0|0:0,0:0:0:0:
433,98,60243,5,4,0:0:0:0:
277,92,60430,1,0,0:0:0:0:
433,98,60618,1,8,0:0:0:0:
114,171,60805,1,0,0:0:0:0:
285,137,60993,1,0,3:0:0:0:
456,122,61180,1,0,0:0:0:0:
114,171,61368,2,0,L|10:167,1,100,4|0,0:0|0:0,0:0:0:0:
264,90,61743,5,0,3:0:0:0:
326,88,61836,1,0,0:0:0:0:
264,90,61930,1,0,0:0:0:0:
202,93,62024,1,0,0:0:0:0:
401,183,62118,1,0,3:0:0:0:
461,182,62211,1,0,0:0:0:0:
214,206,62305,1,0,0:0:0:0:
153,205,62399,1,0,0:0:0:0:
399,102,62493,5,0,3:0:0:0:
443,89,62586,1,0,0:0:0:0:
443,42,62680,1,0,0:0:0:0:
398,29,62774,1,0,0:0:0:0:
175,52,62868,1,8,0:0:0:0:
111,51,62961,1,0,0:0:0:0:
343,202,63055,1,8,0:0:0:0:
407,201,63148,1,0,0:0:0:0:
153,279,63243,6,0,P|91:245|170:163,1,200,4|8,0:0|0:0,0:0:0:0:
407,201,63805,2,0,L|431:64,1,100,0|0,0:0|3:0,0:0:0:0:
151,62,64180,2,0,L|37:65,1,100,0|8,0:0|0:0,0:0:0:0:
424,119,64555,1,0,0:0:0:0:
146,108,64743,6,0,L|22:109,1,100,0|0,3:0|0:0,0:0:0:0:
343,183,65118,2,0,L|453:178,1,100,8|0,0:0|0:0,0:0:0:0:
146,108,65493,2,0,L|39:107,1,100,0|0,3:0|0:0,0:0:0:0:
364,117,65868,2,0,L|381:14,1,100,8|0,0:0|0:0,0:0:0:0:
75,185,66243,6,0,L|196:184,1,100,0|0,3:0|0:0,0:0:0:0:
436,116,66618,1,8,0:0:0:0:
162,92,66805,2,0,L|42:90,1,100,0|0,0:0|3:0,0:0:0:0:
375,87,67180,2,0,L|391:-28,1,100,0|8,0:0|0:0,0:0:0:0:
107,202,67555,6,0,L|391:188,1,279.999991455078,4|0,0:0|3:0,0:0:0:0:
121,97,68118,2,0,L|20:98,1,100,8|0,0:0|0:0,0:0:0:0:
281,130,68493,5,8,0:0:0:0:
345,131,68586,1,0,0:0:0:0:
281,130,68680,1,8,0:0:0:0:
218,130,68774,1,0,0:0:0:0:
424,240,68868,1,8,0:0:0:0:
468,226,68961,1,0,0:0:0:0:
469,179,69055,1,0,3:0:0:0:
425,163,69149,1,0,0:0:0:0:
185,219,69243,6,0,L|396:212,1,200,0|8,3:0|0:0,0:0:0:0:
119,101,69805,2,0,L|2:103,1,100,0|0,0:0|3:0,0:0:0:0:
348,92,70180,2,0,L|450:88,1,100,0|8,0:0|0:0,0:0:0:0:
98,246,70555,6,0,P|39:213|129:133,1,200,4|0,0:0|0:0,0:0:0:0:
351,121,71118,1,8,0:0:0:0:
189,123,71305,1,0,0:0:0:0:
448,190,71493,5,0,3:0:0:0:
492,205,71586,1,0,0:0:0:0:
497,252,71680,1,0,0:0:0:0:
457,276,71774,1,0,0:0:0:0:
233,116,71868,1,8,0:0:0:0:
172,118,71961,1,0,0:0:0:0:
375,52,72055,1,0,0:0:0:0:
436,54,72148,1,0,0:0:0:0:
187,210,72243,6,0,L|176:70,1,100,4|0,0:0|0:0,0:0:0:0:
446,99,72618,1,8,0:0:0:0:
175,80,72805,2,0,L|57:82,1,100,0|8,0:0|0:0,0:0:0:0:
368,181,73180,1,0,0:0:0:0:
202,102,73368,1,8,0:0:0:0:
37,86,73555,1,0,0:0:0:0:
399,109,73743,5,4,0:0:0:0:
239,108,73930,1,0,0:0:0:0:
399,109,74118,1,8,0:0:0:0:
107,122,74305,2,0,L|91:10,1,100,0|8,0:0|0:0,0:0:0:0:
453,73,74680,2,0,L|464:-38,1,100,0|8,0:0|0:0,0:0:0:0:
205,158,75055,5,4,0:0:0:0:
273,152,75148,1,0,0:0:0:0:
342,146,75242,1,0,0:0:0:0:
95,117,75430,2,0,L|92:58,1,50,0|8,0:0|0:0,0:0:0:0:
338,196,75618,1,8,0:0:0:0:
88,232,75805,2,0,P|41:189|102:142,1,150,8|8,0:0|0:0,0:0:0:0:
273,152,76180,2,0,L|279:83,1,50,8|0,0:0|0:0,0:0:0:0:
68,96,76368,1,8,0:0:0:0:
131,94,76461,1,0,0:0:0:0:
357,190,76555,5,4,0:0:0:0:
256,192,76743,12,0,78243,0:0:0:0:
