osu file format v14

[General]
AudioFilename: audio.mp3
AudioLeadIn: 0
PreviewTime: 50493
Countdown: 0
SampleSet: Soft
StackLeniency: 0.4
Mode: 2
LetterboxInBreaks: 0
WidescreenStoryboard: 1

[Editor]
Bookmarks: 5493,15618,15993,16743,24243,33993,59493,73368
DistanceSpacing: 1.3
BeatDivisor: 4
GridSize: 4
TimelineZoom: 1

[Metadata]
Title:departure! (TV Size)
TitleUnicode:departure! (TV Size)
Artist:Ono Masatoshi
ArtistUnicode:小野正利
Creator:Secre
Version:Cup
Source:HUNTER×HUNTER
Tags:chickenbible Gon Freecss ゴン=フリークス Killua Zoldyck キルア=ゾルディック Kurapika クラピカ Leorio Paladiknight レオリオ=パラディナイト hxh ハンター×ハンター opening anime japanese rock jrock j-rock hunterxhunter hunter
BeatmapID:3025881
BeatmapSetID:1474379

[Difficulty]
HPDrainRate:2
CircleSize:2.5
OverallDifficulty:6
ApproachRate:6
SliderMultiplier:1.5
SliderTickRate:0.5

[Events]
//Background and Video events
0,0,"pekora is an A+ class threat to the world.jpg",0,0
//Break Periods
//Storyboard Layer 0 (Background)
//Storyboard Layer 1 (Fail)
//Storyboard Layer 2 (Pass)
//Storyboard Layer 3 (Foreground)
//Storyboard Layer 4 (Overlay)
//Storyboard Sound Samples

[TimingPoints]
243,375,4,2,1,100,1,0
3243,-100,4,2,1,30,0,0
5493,-100,4,2,1,70,0,0
15243,-100,4,2,1,50,0,0
15805,-100,4,2,1,70,0,0
16368,-100,4,2,1,90,0,0
16461,-100,4,2,1,70,0,0
16743,-100,4,2,1,40,0,0
17118,-100,4,2,1,50,0,0
17493,-100,4,2,1,60,0,0
17868,-100,4,2,1,70,0,0
18243,-100,4,2,1,80,0,0
45243,-100,4,2,1,78,0,0
46368,-100,4,2,1,80,0,0
47118,-100,4,2,1,83,0,0
47868,-100,4,2,1,85,0,0
48243,-100,4,2,1,98,0,0
48618,-100,4,2,1,90,0,0
50118,-100,4,2,1,90,0,0
50305,-100,4,2,2,50,0,0
50680,-100,4,2,2,60,0,0
51243,-100,4,2,1,90,0,1
61743,-100,4,2,1,85,0,1
62868,-100,4,2,1,65,0,1
63055,-100,4,2,1,60,0,1
63149,-100,4,2,1,70,0,1
63243,-100,4,2,1,100,0,1
67555,-100,4,2,1,100,0,1
68118,-100,4,2,1,100,0,1
75055,-100,4,2,1,85,0,1
76555,-100,4,2,1,65,0,0

[Colours]
Combo1 : 234,0,0
Combo2 : 57,146,253
Combo3 : 26,179,75
Combo4 : 236,236,0

[HitObjects]
256,192,3243,12,0,5118,0:0:0:0:
247,186,5493,5,2,3:0:0:0:
250,191,5680,1,0,0:0:0:0:
325,192,5868,1,2,3:0:0:0:
325,192,6055,1,0,0:0:0:0:
238,187,6243,6,0,L|66:187,1,150,4|2,0:0|3:0,0:0:0:0:
163,263,6805,1,2,3:0:0:0:
317,253,7180,1,2,3:0:0:0:
170,255,7555,6,0,P|98:202|196:120,1,225,2|0,3:0|0:0,0:0:0:0:
316,132,8493,1,2,3:0:0:0:
316,132,8680,1,0,0:0:0:0:
243,134,8868,1,2,3:0:0:0:
243,134,9055,1,0,0:0:0:0:
324,139,9243,6,0,L|497:134,1,150,2|2,3:0|3:0,0:0:0:0:
393,200,9805,1,2,3:0:0:0:
247,209,10180,1,2,3:0:0:0:
103,236,10555,6,0,L|102:-17,1,225,2|0,3:0|0:0,0:0:0:0:
250,72,11493,1,2,3:0:0:0:
250,72,11680,1,0,0:0:0:0:
178,73,11868,1,2,3:0:0:0:
178,73,12055,1,0,0:0:0:0:
257,78,12243,6,0,L|440:77,1,150,4|2,0:0|3:0,0:0:0:0:
327,138,12805,1,2,3:0:0:0:
181,138,13180,1,2,3:0:0:0:
327,138,13555,6,0,P|398:99|304:18,1,225,2|0,3:0|0:0,0:0:0:0:
183,163,14493,2,0,L|377:160,1,150,2|2,3:0|3:0,0:0:0:0:
186,163,15243,6,0,L|174:-11,1,150,2|0,3:0|0:0,0:0:0:0:
252,17,15805,2,0,L|424:17,1,150,2|0,3:0|0:0,0:0:0:0:
318,87,16368,5,2,3:0:0:0:
256,192,16743,12,8,17868,0:0:0:0:
211,127,18243,5,4,0:0:0:0:
141,125,18430,1,0,0:0:0:0:
211,127,18618,1,8,0:0:0:0:
284,125,18805,2,0,L|508:122,1,225,0|8,0:0|0:0,0:0:0:0:
363,193,19743,5,0,3:0:0:0:
292,197,19930,1,0,0:0:0:0:
219,201,20118,1,8,0:0:0:0:
292,197,20305,2,0,P|371:140|271:104,1,225,0|8,0:0|0:0,0:0:0:0:
141,82,21243,5,0,3:0:0:0:
215,83,21430,1,0,0:0:0:0:
289,80,21618,1,8,0:0:0:0:
215,83,21805,2,0,P|137:119|229:188,1,225,0|8,0:0|0:0,0:0:0:0:
354,190,22743,5,0,3:0:0:0:
354,190,22930,1,0,0:0:0:0:
354,190,23118,1,0,3:0:0:0:
279,193,23305,2,0,L|109:194,1,150,8|0,0:0|0:0,0:0:0:0:
325,214,24243,6,0,L|337:25,1,150,0|8,3:0|0:0,0:0:0:0:
260,47,24805,1,0,0:0:0:0:
113,131,25180,1,0,0:0:0:0:
113,131,25368,1,8,0:0:0:0:
256,144,25743,6,0,L|429:142,1,150,0|8,3:0|0:0,0:0:0:0:
256,144,26493,2,0,L|83:142,1,150,0|8,3:0|0:0,0:0:0:0:
273,132,27243,6,0,P|310:201|253:257,1,150,0|8,3:0|0:0,0:0:0:0:
198,250,27805,1,0,0:0:0:0:
63,172,28180,1,0,0:0:0:0:
63,172,28368,1,8,0:0:0:0:
204,117,28743,5,0,3:0:0:0:
276,114,28930,1,0,0:0:0:0:
204,117,29118,1,8,0:0:0:0:
132,169,29305,2,0,P|94:72|152:42,1,150
186,41,29868,1,8,0:0:0:0:
333,57,30243,5,0,3:0:0:0:
407,53,30430,1,0,0:0:0:0:
333,57,30618,1,8,0:0:0:0:
261,60,30805,1,0,0:0:0:0:
117,132,31180,1,0,0:0:0:0:
117,132,31368,1,8,0:0:0:0:
190,126,31555,1,0,0:0:0:0:
261,134,31743,6,0,L|417:130,1,150,0|8,3:0|0:0,0:0:0:0:
261,137,32493,2,0,L|255:-24,1,150,0|8,3:0|0:0,0:0:0:0:
396,62,33243,5,0,3:0:0:0:
321,61,33430,1,0,0:0:0:0:
246,61,33618,1,8,0:0:0:0:
321,61,33805,1,0,0:0:0:0:
463,113,34180,1,0,0:0:0:0:
463,113,34368,1,8,0:0:0:0:
378,116,34555,6,0,L|217:116,1,150
311,183,35118,1,8,0:0:0:0:
382,186,35305,2,0,P|450:142|353:45,1,225,4|8,0:0|0:0,0:0:0:0:
218,85,36243,6,0,L|38:85,1,150,4|0,0:0|3:0,0:0:0:0:
218,87,36993,2,0,L|218:260,1,150,0|0,3:0|3:0,0:0:0:0:
372,223,37743,6,0,L|375:32,1,150,0|0,3:0|3:0,0:0:0:0:
231,67,38493,2,0,L|54:69,1,150,0|8,3:0|0:0,0:0:0:0:
255,157,39243,6,0,L|442:161,1,150,0|0,3:0|3:0,0:0:0:0:
329,93,39805,1,0,0:0:0:0:
180,95,40180,1,0,0:0:0:0:
180,95,40368,1,0,3:0:0:0:
252,93,40555,6,0,L|442:92,1,150
335,156,41118,1,0,3:0:0:0:
182,183,41493,2,0,L|176:32,1,150,8|8,0:0|0:0,0:0:0:0:
342,43,42243,6,0,L|164:44,1,150,4|0,0:0|3:0,0:0:0:0:
341,45,42993,2,0,L|343:236,1,150,0|0,3:0|3:0,0:0:0:0:
187,244,43743,6,0,L|182:71,1,150,0|0,3:0|3:0,0:0:0:0:
322,57,44493,1,8,0:0:0:0:
247,58,44680,1,8,0:0:0:0:
172,60,44868,1,8,0:0:0:0:
322,57,45243,5,4,0:0:0:0:
322,57,45430,1,0,0:0:0:0:
322,57,45618,1,8,0:0:0:0:
247,54,45805,1,4,0:0:0:0:
103,147,46180,1,0,3:0:0:0:
103,147,46368,1,8,0:0:0:0:
176,145,46555,1,4,0:0:0:0:
316,142,46930,5,0,3:0:0:0:
316,142,47118,1,8,0:0:0:0:
246,141,47305,1,4,0:0:0:0:
113,192,47680,1,0,3:0:0:0:
184,187,47868,1,8,0:0:0:0:
258,186,48055,1,4,0:0:0:0:
118,136,48430,5,0,3:0:0:0:
46,138,48618,1,8,0:0:0:0:
118,136,48805,1,0,3:0:0:0:
192,135,48993,1,0,3:0:0:0:
192,135,49180,1,0,3:0:0:0:
192,135,49368,1,8,0:0:0:0:
118,136,49555,1,4,0:0:0:0:
261,196,49930,5,4,0:0:0:0:
334,194,50118,1,4,0:0:0:0:
180,111,50493,2,0,L|-1:110,1,150,0|8,3:0|0:0,0:0:0:0:
205,218,51243,6,0,L|381:215,1,150,4|8,0:0|0:0,0:0:0:0:
283,151,51805,2,0,L|104:147,1,150
206,78,52368,1,8,0:0:0:0:
351,217,52743,6,0,L|353:17,1,150,0|8,3:0|0:0,0:0:0:0:
213,93,53493,2,0,L|212:-2,1,75,0|0,3:0|0:0,0:0:0:0:
287,16,53868,1,8,0:0:0:0:
136,172,54243,6,0,L|122:21,1,150,0|8,3:0|0:0,0:0:0:0:
200,18,54805,2,0,L|363:20,1,150
273,85,55368,1,8,0:0:0:0:
120,216,55743,6,0,L|113:15,1,150,0|8,3:0|0:0,0:0:0:0:
262,64,56493,1,8,0:0:0:0:
190,64,56680,1,8,0:0:0:0:
190,64,56868,1,8,0:0:0:0:
345,198,57243,6,0,L|502:157,1,150,0|8,3:0|0:0,0:0:0:0:
409,123,57805,2,0,L|227:121,1,150
333,64,58368,1,8,0:0:0:0:
477,99,58743,6,0,L|483:308,1,150,0|8,3:0|0:0,0:0:0:0:
338,236,59493,2,0,L|501:234,1,150,0|8,3:0|0:0,0:0:0:0:
320,167,60243,6,0,L|146:168,1,150,4|8,0:0|0:0,0:0:0:0:
250,92,60805,2,0,L|406:91,1,150
318,147,61368,1,4,0:0:0:0:
164,197,61743,6,0,L|355:196,2,150,0|0|0,3:0|3:0|3:0,0:0:0:0:
27,121,62868,1,8,0:0:0:0:
27,121,63055,1,8,0:0:0:0:
108,120,63243,6,0,L|273:116,1,150,4|8,0:0|0:0,0:0:0:0:
338,117,63805,1,0,0:0:0:0:
257,116,63993,2,0,L|261:285,1,150,0|8,3:0|0:0,0:0:0:0:
410,253,64743,6,0,L|215:269,2,150,0|8|0,3:0|0:0|3:0,0:0:0:0:
410,253,65868,1,8,0:0:0:0:
249,146,66243,6,0,L|64:145,1,150,0|8,3:0|0:0,0:0:0:0:
174,220,66805,1,0,0:0:0:0:
329,156,67180,1,0,0:0:0:0:
151,199,67555,6,0,L|146:17,1,150,4|0,0:0|3:0,0:0:0:0:
222,33,68118,1,8,0:0:0:0:
380,83,68493,1,8,0:0:0:0:
380,83,68680,1,8,0:0:0:0:
307,86,68868,1,8,0:0:0:0:
155,177,69243,6,0,L|338:172,1,150,0|8,3:0|0:0,0:0:0:0:
230,110,69805,1,0,0:0:0:0:
84,109,70180,1,0,0:0:0:0:
236,106,70555,1,4,0:0:0:0:
236,106,71118,5,8,0:0:0:0:
161,105,71305,1,0,0:0:0:0:
161,105,71493,1,0,3:0:0:0:
308,117,71868,1,8,0:0:0:0:
161,105,72243,5,4,0:0:0:0:
97,136,72430,1,0,0:0:0:0:
95,208,72618,1,8,0:0:0:0:
158,242,72805,1,0,0:0:0:0:
318,165,73180,1,0,0:0:0:0:
391,163,73368,1,8,0:0:0:0:
318,165,73555,1,0,0:0:0:0:
245,203,73743,5,4,0:0:0:0:
182,169,73930,1,0,0:0:0:0:
184,98,74118,1,8,0:0:0:0:
248,67,74305,1,0,0:0:0:0:
399,64,74680,1,0,0:0:0:0:
228,135,75055,6,0,L|4:153,1,225,4|8,0:0|0:0,0:0:0:0:
79,215,75805,1,8,0:0:0:0:
230,156,76180,1,8,0:0:0:0:
230,156,76368,1,8,0:0:0:0:
151,157,76555,5,4,0:0:0:0:
256,192,76930,12,0,78243,0:0:0:0:
