osu file format v14

[General]
AudioFilename: [Official_Video]_Ono_Kensho_-_FANTASTIC_TUNE_-_----.mp3
AudioLeadIn: 0
PreviewTime: 74793
Countdown: 0
SampleSet: Soft
StackLeniency: 0.7
Mode: 0
LetterboxInBreaks: 0
WidescreenStoryboard: 0

[Editor]
DistanceSpacing: 1.4
BeatDivisor: 4
GridSize: 4
TimelineZoom: 1.9

[Metadata]
Title:FANTASTIC TUNE
TitleUnicode:FANTASTIC TUNE
Artist:Ono Kensho
ArtistUnicode:Ono Kensho
Creator:SutiBu
Version:Collab
Source:Kuroko no Basket
Tags:xDarxen
BeatmapID:860152
BeatmapSetID:395219

[Difficulty]
HPDrainRate:6
CircleSize:4
OverallDifficulty:8.5
ApproachRate:9.6
SliderMultiplier:1.40000000596046
SliderTickRate:1

[Events]
//Background and Video events
0,0,"BG.jpg",0,0
//Break Periods
2,174215,183839
2,192377,193407
//Storyboard Layer 0 (Background)
//Storyboard Layer 1 (Fail)
//Storyboard Layer 2 (Pass)
//Storyboard Layer 3 (Foreground)
//Storyboard Sound Samples

[TimingPoints]
1475,324.324324324324,4,1,0,100,1,0
26119,-125,4,2,0,100,0,0
33741,-450,4,2,0,100,0,0
34552,-100,4,2,0,100,0,0
49470,-125,4,2,0,100,0,0
75254,-100,4,2,0,100,0,1
98606,-200,4,2,0,100,0,1
99903,-100,4,2,0,100,0,1
101366,-125,4,2,0,60,0,0
122119,-100,4,2,0,100,0,0
132498,-200,4,2,0,100,0,0
145474,-66.6666666666667,4,2,0,100,0,0
145876,-66.6666666666667,4,2,0,5,0,0
145957,-66.6666666666667,4,2,0,100,0,0
146362,-66.6666666666667,4,2,0,5,0,0
146443,-66.6666666666667,4,2,0,100,0,0
146849,-66.6666666666667,4,2,0,5,0,0
146930,-66.6666666666667,4,2,0,100,0,0
147907,-100,4,2,0,100,0,1
171258,-200,4,2,0,100,0,1
172065,-100,4,2,0,100,0,1
174015,-100,4,2,0,100,0,0
184393,-125,4,2,0,100,0,0
193961,-100,4,2,0,100,0,0
216745,-200,4,2,0,100,0,0
219339,-100,4,2,0,100,0,0
222096,-100,4,2,0,100,0,0
227123,-200,4,2,0,100,0,0
229637,-100,4,2,0,100,0,1
256069,-125,4,2,0,100,0,0

[Colours]
Combo1 : 251,0,0
Combo2 : 255,106,34
Combo3 : 0,221,0
Combo4 : 0,221,221

[HitObjects]
64,40,26123,6,0,P|56:104|72:160,1,112.000000476837
101,244,26610,1,0,0:0:0:0:
199,221,26772,2,0,P|252:204|319:216,1,112.000000476837
407,223,27258,1,0,0:0:0:0:
450,131,27420,6,0,P|407:85|354:71,1,112.000000476837
262,51,27907,1,0,0:0:0:0:
173,99,28069,2,0,B|142:133|142:133|175:168|175:195,1,112.000000476837
226,275,28556,1,0,0:0:0:0:
324,253,28718,6,0,B|370:235|370:235|372:202|399:162,1,112.000000476837
369,77,29204,1,0,0:0:0:0:
275,40,29366,2,0,P|243:52|199:58,1,56.0000002384184
122,76,29691,1,0,0:0:0:0:
122,76,29853,6,0,P|116:143|85:187,1,112.000000476837
142,316,30339,1,0,0:0:0:0:
150,316,30502,1,0,0:0:0:0:
36,107,30664,1,0,0:0:0:0:
44,107,30826,1,0,0:0:0:0:
223,174,30988,1,0,0:0:0:0:
215,174,31150,1,0,0:0:0:0:
150,316,31312,6,0,B|206:321|206:321|230:308|269:306,1,112.000000476837
358,285,31799,1,0,0:0:0:0:
391,190,31961,2,0,P|384:153|404:75,1,112.000000476837
324,14,32447,2,0,B|275:23|275:23|265:60,1,84.0000003576276
252,104,32772,2,0,B|230:144|230:144|183:132|153:154,1,112.000000476837
112,309,33420,5,0,0:0:0:0:
191,48,33583,1,0,0:0:0:0:
103,335,33745,2,0,L|184:317,1,77.7777781089144
304,298,34718,1,0,0:0:0:0:
304,298,34799,1,0,0:0:0:0:
304,298,34880,5,0,0:0:0:0:
382,199,35042,2,0,P|370:125|366:119,1,70.000000298023
294,175,35366,2,0,P|281:106|286:94,1,70.000000298023
310,7,35691,1,0,0:0:0:0:
183,17,35853,2,0,P|141:59|135:93,1,70.000000298023
106,189,36177,1,0,0:0:0:0:
70,309,36339,6,0,L|42:338,2,35.0000001490115
165,288,36664,2,0,P|218:279|265:285,1,70.000000298023
331,287,36988,1,0,0:0:0:0:
194,192,37150,1,0,0:0:0:0:
340,312,37312,1,0,0:0:0:0:
213,365,37474,1,0,0:0:0:0:
307,161,37637,1,0,0:0:0:0:
162,269,37799,6,0,P|128:243|110:200,1,70.000000298023
109,121,38123,1,0,0:0:0:0:
47,292,38285,1,0,0:0:0:0:
194,192,38447,2,0,P|231:169|266:157,1,70.000000298023
348,128,38772,1,0,0:0:0:0:
399,317,38934,1,0,0:0:0:0:
403,337,39258,5,0,0:0:0:0:
275,233,39420,1,0,0:0:0:0:
453,196,39583,1,0,0:0:0:0:
301,324,39745,2,0,P|261:329|216:311,1,70.000000298023
146,275,40069,1,0,0:0:0:0:
275,233,40231,1,0,0:0:0:0:
118,286,40393,6,0,P|115:244|100:210,1,70.000000298023
66,127,40718,1,0,0:0:0:0:
30,270,40880,1,0,0:0:0:0:
88,46,41042,2,0,P|122:64|148:112,1,70.000000298023
140,88,41285,1,0,0:0:0:0:
140,88,41366,1,0,0:0:0:0:
30,270,41529,1,0,0:0:0:0:
16,289,41853,5,0,0:0:0:0:
66,128,42015,1,0,0:0:0:0:
153,310,42177,1,0,0:0:0:0:
56,107,42339,1,0,0:0:0:0:
247,194,42502,1,0,0:0:0:0:
10,208,42664,1,0,0:0:0:0:
292,125,42826,6,0,P|318:144|327:191,1,70.000000298023
336,276,43150,1,0,0:0:0:0:
411,113,43311,1,0,0:0:0:0:
411,113,43392,1,0,0:0:0:0:
411,113,43474,1,0,0:0:0:0:
247,194,43637,1,0,0:0:0:0:
447,214,43799,1,0,0:0:0:0:
289,105,43961,1,0,0:0:0:0:
336,276,44123,1,0,0:0:0:0:
343,299,44447,5,0,0:0:0:0:
176,216,44610,1,0,0:0:0:0:
298,110,44772,1,0,0:0:0:0:
248,323,44934,1,0,0:0:0:0:
120,129,45096,1,0,0:0:0:0:
336,203,45258,1,0,0:0:0:0:
38,128,45420,6,0,P|45:169|92:202,1,70.000000298023
141,248,45745,1,0,0:0:0:0:
45,318,45907,1,0,0:0:0:0:
68,44,46069,1,0,0:0:0:0:
185,171,46231,5,0,0:0:0:0:
209,191,46312,1,0,0:0:0:0:
223,218,46393,1,0,0:0:0:0:
232,247,46474,1,0,0:0:0:0:
226,278,46555,1,0,0:0:0:0:
292,148,46718,1,0,0:0:0:0:
182,358,46880,5,0,0:0:0:0:
93,179,47042,1,0,0:0:0:0:
98,130,47204,1,0,0:0:0:0:
135,98,47366,1,0,0:0:0:0:
183,88,47529,1,0,0:0:0:0:
273,77,47691,1,0,0:0:0:0:
313,104,47853,5,0,0:0:0:0:
361,112,48015,1,0,0:0:0:0:
409,109,48177,1,0,0:0:0:0:
462,182,48339,1,0,0:0:0:0:
452,230,48502,1,0,0:0:0:0:
427,272,48664,1,0,0:0:0:0:
383,295,48826,5,0,0:0:0:0:
256,288,48988,2,0,L|288:312,1,35.0000001490115
256,344,49150,2,0,P|152:328|112:296,1,140.000000596046
48,232,49637,1,0,0:0:0:0:
48,232,49718,1,0,0:0:0:0:
48,232,49799,1,0,0:0:0:0:
172,126,50123,5,0,0:0:0:0:
297,53,50447,1,0,0:0:0:0:
153,139,50772,1,0,0:0:0:0:
321,43,51096,2,0,P|311:102|327:165,1,112.000000476837
363,280,51745,1,0,0:0:0:0:
230,297,52069,6,0,B|190:310|172:330|172:330|164:268,1,112.000000476837
152,151,52718,1,0,0:0:0:0:
65,47,53042,2,0,B|22:52|22:52|42:96|49:141,1,112.000000476837
73,248,53691,1,0,0:0:0:0:
190,312,54015,2,0,P|248:331|304:314,1,112.000000476837
73,248,54664,5,0,0:0:0:0:
105,117,54988,2,0,P|132:79|196:47,1,112.000000476837
73,248,55637,1,0,0:0:0:0:
206,252,55961,2,0,P|267:257|331:249,1,112.000000476837
451,224,56610,1,0,0:0:0:0:
456,89,56934,6,0,P|397:85|333:117,1,112.000000476837
254,200,57583,1,0,0:0:0:0:
154,290,57907,2,0,B|120:295|120:295|117:247|84:208,1,112.000000476837
26,49,58556,5,0,0:0:0:0:
176,174,58718,1,0,0:0:0:0:
286,21,58880,1,0,0:0:0:0:
45,153,59042,1,0,0:0:0:0:
154,290,59204,5,0,0:0:0:0:
195,288,59285,1,0,0:0:0:0:
234,275,59366,1,0,0:0:0:0:
266,246,59447,1,0,0:0:0:0:
290,212,59529,1,0,0:0:0:0:
325,190,59610,1,0,0:0:0:0:
365,181,59691,1,0,0:0:0:0:
406,188,59772,1,0,0:0:0:0:
437,215,59853,1,0,0:0:0:0:
208,135,60015,5,0,0:0:0:0:
365,261,60177,1,0,0:0:0:0:
192,119,60339,1,0,0:0:0:0:
417,108,60502,1,0,0:0:0:0:
365,261,60664,1,0,0:0:0:0:
309,72,60826,1,0,0:0:0:0:
96,168,60988,1,0,0:0:0:0:
337,63,61150,1,0,0:0:0:0:
178,277,61312,1,0,0:0:0:0:
178,277,61474,1,0,0:0:0:0:
446,238,61637,6,0,P|436:305|390:335,1,112.000000476837
256,280,62123,1,0,0:0:0:0:
192,104,62285,1,0,0:0:0:0:
319,167,62447,1,0,0:0:0:0:
96,240,62610,1,0,0:0:0:0:
48,120,62772,2,0,P|64:48|109:26,1,112.000000476837
184,176,63258,5,0,0:0:0:0:
400,48,63420,1,0,0:0:0:0:
224,64,63583,1,0,0:0:0:0:
392,200,63745,5,0,0:0:0:0:
248,304,63907,1,0,0:0:0:0:
312,96,64069,1,0,0:0:0:0:
65,261,64231,1,0,0:0:0:0:
274,213,64393,1,0,0:0:0:0:
80,120,64556,1,0,0:0:0:0:
190,306,64718,1,0,0:0:0:0:
256,48,64880,5,0,0:0:0:0:
296,64,64961,1,0,0:0:0:0:
312,96,65042,1,0,0:0:0:0:
448,208,65204,1,0,0:0:0:0:
272,296,65366,1,0,0:0:0:0:
440,104,65529,5,0,0:0:0:0:
392,312,65691,1,0,0:0:0:0:
208,184,65853,1,0,0:0:0:0:
320,64,66015,1,0,0:0:0:0:
80,64,66177,1,0,0:0:0:0:
208,184,66339,5,0,0:0:0:0:
48,216,66502,1,0,0:0:0:0:
240,48,66664,1,0,0:0:0:0:
145,270,66826,1,0,0:0:0:0:
55,45,66988,1,0,0:0:0:0:
296,168,67150,1,0,0:0:0:0:
48,216,67312,1,0,0:0:0:0:
176,120,67474,5,0,0:0:0:0:
261,321,67637,1,0,0:0:0:0:
23,201,67799,1,0,0:0:0:0:
160,32,67961,1,0,0:0:0:0:
199,35,68042,1,0,0:0:0:0:
235,49,68123,1,0,0:0:0:0:
262,77,68204,1,0,0:0:0:0:
265,115,68285,1,0,0:0:0:0:
255,153,68366,1,0,0:0:0:0:
259,191,68447,1,0,0:0:0:0:
274,227,68529,5,0,0:0:0:0:
309,244,68610,1,0,0:0:0:0:
347,247,68691,1,0,0:0:0:0:
386,246,68772,1,0,0:0:0:0:
423,255,68853,1,0,0:0:0:0:
449,283,68934,5,0,0:0:0:0:
344,161,69096,1,0,0:0:0:0:
191,325,69258,1,0,0:0:0:0:
376,338,69420,1,0,0:0:0:0:
185,219,69583,1,0,0:0:0:0:
18,300,69745,1,0,0:0:0:0:
17,186,69907,2,0,B|20:140|7:106|7:106|60:116,1,112.000000476837
156,126,70393,5,0,0:0:0:0:
260,103,70556,2,0,B|307:99|339:84|381:109,1,112.000000476837
333,193,71042,1,0,0:0:0:0:
407,268,71204,2,0,B|396:334|405:354|405:354|367:325,1,112.000000476837
246,236,71691,1,0,0:0:0:0:
112,325,71853,2,0,B|74:316|48:325|48:325|62:270,1,112.000000476837
122,51,72339,1,0,0:0:0:0:
246,236,72502,1,0,0:0:0:0:
352,32,72826,5,0,0:0:0:0:
80,184,72988,1,0,0:0:0:0:
432,96,73312,5,0,0:0:0:0:
128,264,73474,1,0,0:0:0:0:
504,152,73799,5,0,0:0:0:0:
200,328,73961,1,0,0:0:0:0:
414,290,74285,5,0,0:0:0:0:
108,248,74448,1,0,0:0:0:0:
472,157,74610,1,0,0:0:0:0:
47,340,75258,6,0,P|87:294|96:213,1,140.000000596046
93,116,75745,1,0,0:0:0:0:
0,246,75907,1,0,0:0:0:0:
174,300,76069,1,0,0:0:0:0:
80,95,76231,1,0,0:0:0:0:
69,330,76393,1,0,0:0:0:0:
67,70,76556,2,0,P|120:90|205:73,1,140.000000596046
305,36,77042,5,0,0:0:0:0:
332,68,77123,1,0,0:0:0:0:
345,107,77204,2,0,L|321:162,1,35.0000001490115
293,229,77366,1,0,0:0:0:0:
437,80,77529,1,0,0:0:0:0:
233,105,77691,1,0,0:0:0:0:
470,77,77853,6,0,B|460:137|460:137|477:178|466:226,1,140.000000596046
457,312,78339,1,0,0:0:0:0:
373,183,78502,1,0,0:0:0:0:
476,338,78664,1,0,0:0:0:0:
280,281,78826,1,0,0:0:0:0:
468,214,78988,1,0,0:0:0:0:
326,355,79150,2,0,P|259:366|205:326,1,140.000000596046
154,240,79637,5,0,0:0:0:0:
280,281,79799,1,0,0:0:0:0:
29,178,79961,1,0,0:0:0:0:
248,160,80123,1,0,0:0:0:0:
175,318,80285,1,0,0:0:0:0:
175,318,80366,1,0,0:0:0:0:
175,318,80447,6,0,P|115:314|74:246,1,140.000000596046
74,152,80934,1,0,0:0:0:0:
32,336,81096,1,0,0:0:0:0:
154,240,81258,2,0,P|203:235|242:254,1,70.000000298023
309,287,81583,1,0,0:0:0:0:
69,253,81745,6,0,P|88:184|171:160,1,140.000000596046
243,152,82231,1,0,0:0:0:0:
22,109,82393,1,0,0:0:0:0:
154,240,82556,1,0,0:0:0:0:
182,46,82718,1,0,0:0:0:0:
28,220,82880,1,0,0:0:0:0:
261,227,83042,6,0,P|307:195|304:110,1,140.000000596046
267,27,83529,1,0,0:0:0:0:
412,187,83691,1,0,0:0:0:0:
248,9,83853,1,0,0:0:0:0:
455,73,84015,1,0,0:0:0:0:
243,152,84177,1,0,0:0:0:0:
484,62,84339,6,0,P|477:128|497:205,1,140.000000596046
510,296,84826,5,0,0:0:0:0:
471,311,84907,1,0,0:0:0:0:
430,311,84988,2,0,L|383:273,1,35.0000001490115
326,226,85150,1,0,0:0:0:0:
306,188,85231,1,0,0:0:0:0:
306,146,85312,1,0,0:0:0:0:
331,112,85393,1,0,0:0:0:0:
369,95,85474,1,0,0:0:0:0:
410,103,85556,1,0,0:0:0:0:
433,137,85637,6,0,B|399:178|399:178|417:216|403:265,1,140.000000596046
360,350,86123,1,0,0:0:0:0:
496,201,86285,1,0,0:0:0:0:
302,244,86447,1,0,0:0:0:0:
506,314,86610,1,0,0:0:0:0:
380,138,86772,1,0,0:0:0:0:
334,321,86934,6,0,P|267:320|221:257,1,140.000000596046
222,169,87420,1,0,0:0:0:0:
173,353,87583,1,0,0:0:0:0:
345,207,87745,1,0,0:0:0:0:
126,238,87907,1,0,0:0:0:0:
334,321,88069,1,0,0:0:0:0:
45,257,88231,6,0,P|58:189|121:157,1,140.000000596046
214,155,88718,1,0,0:0:0:0:
42,78,88880,1,0,0:0:0:0:
126,238,89042,1,0,0:0:0:0:
25,50,89204,1,0,0:0:0:0:
240,168,89366,1,0,0:0:0:0:
8,25,89529,6,0,B|-1:81|-1:81|23:121|15:174,1,140.000000596046
25,258,90015,1,0,0:0:0:0:
100,74,90177,1,0,0:0:0:0:
100,74,90258,1,0,0:0:0:0:
100,74,90339,2,0,L|149:56,1,35.0000001490115
148,154,90502,2,0,L|195:161,1,35.0000001490115
278,165,90664,1,0,0:0:0:0:
61,147,90826,6,0,P|77:208|144:240,1,140.000000596046
239,246,91312,1,0,0:0:0:0:
37,306,91474,1,0,0:0:0:0:
148,154,91636,2,0,P|136:106|106:75,1,70.000000298023
53,22,91961,1,0,0:0:0:0:
228,133,92123,6,0,P|219:201|163:238,1,140.000000596046
70,271,92610,1,0,0:0:0:0:
248,323,92772,1,0,0:0:0:0:
148,154,92934,1,0,0:0:0:0:
147,363,93096,1,0,0:0:0:0:
255,186,93258,1,0,0:0:0:0:
1,323,93420,6,0,P|-7:251|38:194,1,140.000000596046
120,158,93907,1,0,0:0:0:0:
248,323,94069,1,0,0:0:0:0:
70,271,94231,1,0,0:0:0:0:
259,190,94393,5,0,0:0:0:0:
40,286,94556,1,0,0:0:0:0:
291,176,94718,2,0,B|285:136|249:115|249:115|301:64,1,140.000000596046
372,12,95204,5,0,0:0:0:0:
373,175,95366,2,0,P|348:235|259:259,1,140.000000596046
345,348,95853,5,0,0:0:0:0:
291,176,96015,2,0,P|328:110|399:102,1,140.000000596046
456,112,96502,5,0,0:0:0:0:
234,48,96664,1,0,0:0:0:0:
392,192,96826,5,0,0:0:0:0:
136,80,96988,1,0,0:0:0:0:
304,264,97150,5,0,0:0:0:0:
48,120,97312,1,0,0:0:0:0:
208,312,97474,5,0,0:0:0:0:
136,80,97636,1,0,0:0:0:0:
112,312,97799,5,0,0:0:0:0:
224,56,97961,1,0,0:0:0:0:
32,288,98123,5,0,0:0:0:0:
343,80,98285,1,0,0:0:0:0:
310,287,98448,1,0,0:0:0:0:
310,287,98529,1,0,0:0:0:0:
310,287,98610,6,0,B|253:276|202:304|202:304|230:238|204:180|130:175,1,280.000001192092
49,147,100069,1,0,0:0:0:0:
33,110,100150,1,0,0:0:0:0:
44,73,100231,1,0,0:0:0:0:
74,49,100312,1,0,0:0:0:0:
112,44,100393,6,0,L|146:77,1,35.0000001490115
260,80,100556,2,0,L|294:43,1,35.0000001490115
217,190,100718,2,0,L|232:242,1,35.0000001490115
329,290,100880,2,0,L|353:246,1,35.0000001490115
445,187,101042,2,0,L|454:247,1,35.0000001490115
462,319,101204,1,0,0:0:0:0:
288,176,101366,5,0,0:0:0:0:
383,349,101529,1,0,0:0:0:0:
280,312,101691,1,0,0:0:0:0:
428,163,101853,1,0,0:0:0:0:
240,34,102015,1,0,0:0:0:0:
306,210,102177,1,0,0:0:0:0:
380,32,102339,1,0,0:0:0:0:
206,173,102502,5,0,0:0:0:0:
61,56,102664,1,0,0:0:0:0:
60,223,102826,1,0,0:0:0:0:
208,55,102988,1,0,0:0:0:0:
1,158,103150,1,0,0:0:0:0:
218,167,103312,1,0,0:0:0:0:
111,358,103474,1,0,0:0:0:0:
12,186,103637,1,0,0:0:0:0:
237,296,103799,6,0,P|301:304|357:272,1,112.000000476837
445,188,104285,1,0,0:0:0:0:
264,40,104447,1,0,0:0:0:0:
353,240,104610,1,0,0:0:0:0:
406,46,104772,1,0,0:0:0:0:
234,163,104934,1,0,0:0:0:0:
265,329,105096,1,0,0:0:0:0:
124,150,105258,5,0,0:0:0:0:
70,329,105420,1,0,0:0:0:0:
233,253,105583,1,0,0:0:0:0:
0,256,105745,1,0,0:0:0:0:
234,147,105907,1,0,0:0:0:0:
10,148,106069,1,0,0:0:0:0:
146,304,106231,1,0,0:0:0:0:
96,116,106393,6,0,P|122:82|196:76,1,112.000000476837
353,143,106880,1,0,0:0:0:0:
232,0,107042,1,0,0:0:0:0:
376,172,107204,1,0,0:0:0:0:
168,136,107366,1,0,0:0:0:0:
337,26,107529,1,0,0:0:0:0:
138,154,107691,1,0,0:0:0:0:
368,96,107853,5,0,0:0:0:0:
376,360,108015,1,0,0:0:0:0:
224,180,108177,1,0,0:0:0:0:
460,248,108339,1,0,0:0:0:0:
260,344,108502,1,0,0:0:0:0:
284,84,108664,1,0,0:0:0:0:
368,280,108826,1,0,0:0:0:0:
124,272,108988,6,0,P|91:238|92:170,1,112.000000476837
200,40,109474,1,0,0:0:0:0:
192,254,109637,1,0,0:0:0:0:
210,7,109799,1,0,0:0:0:0:
88,176,109961,1,0,0:0:0:0:
232,272,110123,5,0,0:0:0:0:
280,104,110285,1,0,0:0:0:0:
114,191,110447,1,0,0:0:0:0:
248,316,110610,1,0,0:0:0:0:
388,140,110772,1,0,0:0:0:0:
212,112,110934,1,0,0:0:0:0:
356,292,111096,1,0,0:0:0:0:
216,40,111258,5,0,0:0:0:0:
185,44,111339,1,0,0:0:0:0:
159,60,111420,1,0,0:0:0:0:
136,80,111501,1,0,0:0:0:0:
125,110,111582,1,0,0:0:0:0:
112,200,111745,5,0,0:0:0:0:
222,290,111907,1,0,0:0:0:0:
264,152,112069,1,0,0:0:0:0:
119,77,112394,1,0,0:0:0:0:
329,91,112718,2,0,P|351:153|335:213,1,112.000000476837
299,300,113367,1,0,0:0:0:0:
197,347,113691,2,0,B|155:342|130:353|130:353|148:293,1,112.000000476837
179,204,114340,5,0,0:0:0:0:
148,96,114664,2,0,B|188:84|226:102|226:102|269:91,1,112.000000476837
361,54,115313,1,0,0:0:0:0:
425,135,115637,2,0,P|424:191|452:246,1,112.000000476837
512,330,116123,1,0,0:0:0:0:
349,215,116285,1,0,0:0:0:0:
313,354,116447,1,0,0:0:0:0:
189,254,116610,2,0,B|149:243|149:243|100:272|70:258,1,112.000000476837
107,277,117259,5,0,0:0:0:0:
81,167,117583,2,0,B|124:158|157:176|157:176|203:154,1,112.000000476837
290,116,118232,1,0,0:0:0:0:
204,44,118556,2,0,P|152:69|91:63,1,112.000000476837
38,160,119205,1,0,0:0:0:0:
88,259,119529,6,0,B|100:291|100:291|143:270|193:280,1,112.000000476837
287,287,120177,1,0,0:0:0:0:
393,250,120502,2,0,B|435:234|435:234|422:193|430:156,1,112.000000476837
437,56,121150,1,0,0:0:0:0:
399,341,121474,5,0,0:0:0:0:
358,330,121555,1,0,0:0:0:0:
323,309,121636,1,0,0:0:0:0:
297,274,121717,1,0,0:0:0:0:
282,236,121799,1,0,0:0:0:0:
251,208,121880,1,0,0:0:0:0:
214,190,121961,1,0,0:0:0:0:
173,188,122042,1,0,0:0:0:0:
134,205,122123,6,0,P|113:240|70:264,1,70.000000298023
0,307,122447,1,0,0:0:0:0:
196,282,122610,1,0,0:0:0:0:
29,161,122772,1,0,0:0:0:0:
117,348,122934,1,0,0:0:0:0:
15,133,123096,1,0,0:0:0:0:
218,303,123258,6,0,P|259:309|300:298,1,70.000000298023
387,270,123583,1,0,0:0:0:0:
251,172,123745,1,0,0:0:0:0:
419,293,123907,1,0,0:0:0:0:
445,315,124231,5,0,0:0:0:0:
475,167,124393,1,0,0:0:0:0:
437,346,124556,2,0,B|388:357|388:357|348:332|292:329,1,140.000000596046
212,277,125042,1,0,0:0:0:0:
394,260,125204,1,0,0:0:0:0:
182,282,125366,1,0,0:0:0:0:
352,156,125529,1,0,0:0:0:0:
153,290,125691,1,0,0:0:0:0:
266,93,125853,6,0,P|229:100|173:90,1,70.000000298023
93,80,126177,1,0,0:0:0:0:
221,187,126339,1,0,0:0:0:0:
229,13,126502,1,0,0:0:0:0:
106,188,126664,5,0,0:0:0:0:
106,188,126745,1,0,0:0:0:0:
106,188,126826,1,0,0:0:0:0:
291,80,126988,1,0,0:0:0:0:
58,77,127150,1,0,0:0:0:0:
374,56,127312,6,0,P|373:109|355:144,1,70.000000298023
331,223,127637,1,0,0:0:0:0:
467,103,127799,1,0,0:0:0:0:
291,80,127961,1,0,0:0:0:0:
341,257,128123,1,0,0:0:0:0:
478,73,128285,1,0,0:0:0:0:
257,83,128447,1,0,0:0:0:0:
466,208,128610,5,0,0:0:0:0:
466,208,128691,1,0,0:0:0:0:
466,208,128772,1,0,0:0:0:0:
480,38,128934,1,0,0:0:0:0:
498,286,129096,2,0,P|458:292|415:277,1,70.000000298023
327,259,129420,2,0,L|291:284,1,35.0000001490115
252,279,129583,6,0,B|204:320|204:320|198:247|122:196,1,210.000000894069
49,130,130231,1,0,0:0:0:0:
97,300,130393,1,0,0:0:0:0:
242,192,130556,1,0,0:0:0:0:
271,175,130880,5,0,0:0:0:0:
70,320,131042,6,0,B|77:382|77:382|131:333|221:347,1,210.000000894069
319,353,131691,1,0,0:0:0:0:
319,353,131772,1,0,0:0:0:0:
319,353,131853,1,0,0:0:0:0:
141,259,132015,1,0,0:0:0:0:
376,252,132177,1,0,0:0:0:0:
112,260,132340,1,0,0:0:0:0:
460,278,132502,6,0,P|450:206|394:169,1,140.000000596046
247,137,133474,1,0,0:0:0:0:
218,144,134123,1,0,0:0:0:0:
190,151,134772,1,0,0:0:0:0:
93,207,135096,6,0,B|134:221|155:250|155:250|186:239|223:246,1,140.000000596046
329,242,136069,2,0,B|356:192|356:192|312:180|284:148,1,140.000000596046
97,28,137366,2,0,L|81:62,1,35.0000001490115
103,111,137691,6,0,B|149:99|149:99|198:190,1,140.000000596046
244,279,138664,1,0,0:0:0:0:
351,248,138988,2,0,B|382:198|382:198|373:161|378:110,1,140.000000596046
316,23,139961,1,0,0:0:0:0:
247,115,140285,6,0,P|308:138|381:113,1,140.000000596046
474,172,141258,1,0,0:0:0:0:
424,272,141583,2,0,B|374:244|374:244|339:266|292:277,1,140.000000596046
187,294,142556,2,0,L|155:259,1,35.0000001490115
102,191,142880,5,0,0:0:0:0:
88,172,143366,5,0,0:0:0:0:
202,48,143853,2,0,B|257:44|257:44|306:73,1,105.000000447034
401,167,144502,1,0,0:0:0:0:
294,258,144664,1,0,0:0:0:0:
239,129,144826,1,0,0:0:0:0:
307,283,144988,1,0,0:0:0:0:
167,288,145150,5,0,0:0:0:0:
59,200,145312,1,0,0:0:0:0:
56,72,145474,2,0,P|192:32|296:88,1,262.500011131167
352,64,145961,2,0,P|251:140|267:268,1,262.500011131167
216,312,146447,2,0,P|363:294|440:376,1,262.500011131167
368,384,146934,2,0,B|473:276|481:204|481:204|353:228,1,315.0000133574
51,138,147907,6,0,P|92:82|176:56,1,140.000000596046
328,32,148393,1,0,0:0:0:0:
288,208,148556,1,0,0:0:0:0:
424,104,148718,1,0,0:0:0:0:
216,104,148880,1,0,0:0:0:0:
440,232,149042,5,0,0:0:0:0:
288,304,149204,2,0,P|228:312|192:304,1,70.000000298023
68,256,149529,2,0,L|80:172,1,70.000000298023
168,120,149853,2,0,L|208:192,1,70.000000298023
280,316,150177,1,0,0:0:0:0:
72,184,150339,1,0,0:0:0:0:
85,146,150420,1,0,0:0:0:0:
123,131,150502,1,0,0:0:0:0:
272,204,150664,5,0,0:0:0:0:
384,0,150826,1,0,0:0:0:0:
456,208,150988,1,0,0:0:0:0:
264,56,151150,2,0,L|216:-4,1,70.000000298023
372,204,151474,1,0,0:0:0:0:
388,236,151556,5,0,0:0:0:0:
380,268,151637,1,0,0:0:0:0:
244,336,151799,1,0,0:0:0:0:
352,120,151961,1,0,0:0:0:0:
432,320,152123,1,0,0:0:0:0:
216,152,152285,1,0,0:0:0:0:
352,224,152447,5,0,0:0:0:0:
136,320,152610,1,0,0:0:0:0:
104,296,152691,1,0,0:0:0:0:
104,256,152772,1,0,0:0:0:0:
32,48,152934,1,0,0:0:0:0:
216,152,153096,1,0,0:0:0:0:
32,176,153258,5,0,0:0:0:0:
211,17,153420,1,0,0:0:0:0:
376,143,153583,1,0,0:0:0:0:
184,152,153745,1,0,0:0:0:0:
383,59,153907,1,0,0:0:0:0:
423,67,153988,1,0,0:0:0:0:
447,99,154069,1,0,0:0:0:0:
396,296,154231,5,0,0:0:0:0:
256,80,154394,1,0,0:0:0:0:
164,284,154556,1,0,0:0:0:0:
376,143,154718,1,0,0:0:0:0:
256,304,154880,1,0,0:0:0:0:
192,80,155042,1,0,0:0:0:0:
320,280,155204,1,0,0:0:0:0:
128,120,155367,1,0,0:0:0:0:
360,32,155529,5,0,0:0:0:0:
395,37,155610,1,0,0:0:0:0:
435,57,155691,1,0,0:0:0:0:
453,85,155772,1,0,0:0:0:0:
460,124,155853,1,0,0:0:0:0:
456,160,155934,1,0,0:0:0:0:
432,184,156015,1,0,0:0:0:0:
396,200,156096,1,0,0:0:0:0:
360,192,156178,1,0,0:0:0:0:
328,172,156259,1,0,0:0:0:0:
300,152,156340,1,0,0:0:0:0:
264,144,156421,1,0,0:0:0:0:
232,152,156502,1,0,0:0:0:0:
199,173,156583,1,0,0:0:0:0:
166,193,156664,1,0,0:0:0:0:
130,207,156746,5,0,0:0:0:0:
90,199,156827,1,0,0:0:0:0:
55,181,156908,1,0,0:0:0:0:
34,148,156989,1,0,0:0:0:0:
30,109,157070,1,0,0:0:0:0:
42,72,157151,1,0,0:0:0:0:
88,336,157312,2,0,L|140:260,1,70.000000298023
228,120,157637,1,0,0:0:0:0:
324,344,157799,1,0,0:0:0:0:
444,188,157961,2,0,L|400:112,1,70.000000298023
328,16,158285,1,0,0:0:0:0:
328,16,158366,1,0,0:0:0:0:
328,16,158447,5,0,0:0:0:0:
468,240,158610,1,0,0:0:0:0:
240,188,158772,1,0,0:0:0:0:
432,40,158934,1,0,0:0:0:0:
372,288,159096,1,0,0:0:0:0:
228,48,159258,1,0,0:0:0:0:
408,136,159420,1,0,0:0:0:0:
236,304,159583,1,0,0:0:0:0:
236,304,159664,1,0,0:0:0:0:
236,304,159745,5,0,0:0:0:0:
92,92,159907,1,0,0:0:0:0:
44,276,160069,1,0,0:0:0:0:
232,132,160231,1,0,0:0:0:0:
100,344,160393,1,0,0:0:0:0:
336,196,160556,1,0,0:0:0:0:
72,196,160718,1,0,0:0:0:0:
376,268,160880,5,0,0:0:0:0:
180,76,161042,1,0,0:0:0:0:
176,304,161204,1,0,0:0:0:0:
420,136,161366,2,0,P|388:96|352:88,1,70.000000298023
216,100,161691,1,0,0:0:0:0:
368,240,161853,1,0,0:0:0:0:
260,28,162015,1,0,0:0:0:0:
296,288,162177,5,0,0:0:0:0:
336,0,162339,1,0,0:0:0:0:
444,200,162502,1,0,0:0:0:0:
240,152,162664,2,0,P|208:112|172:104,1,70.000000298023
0,64,162988,5,0,0:0:0:0:
64,228,163150,1,0,0:0:0:0:
188,32,163312,1,0,0:0:0:0:
232,272,163474,1,0,0:0:0:0:
254,290,163556,1,0,0:0:0:0:
285,301,163637,1,0,0:0:0:0:
317,305,163718,1,0,0:0:0:0:
349,300,163799,1,0,0:0:0:0:
383,287,163880,1,0,0:0:0:0:
409,266,163961,1,0,0:0:0:0:
192,312,164123,5,0,0:0:0:0:
392,200,164285,1,0,0:0:0:0:
208,192,164447,1,0,0:0:0:0:
432,336,164610,1,0,0:0:0:0:
320,72,164772,1,0,0:0:0:0:
288,288,164934,5,0,0:0:0:0:
444,136,165096,1,0,0:0:0:0:
200,168,165258,1,0,0:0:0:0:
104,332,165420,1,0,0:0:0:0:
0,128,165583,1,0,0:0:0:0:
200,272,165745,1,0,0:0:0:0:
188,16,165907,5,0,0:0:0:0:
148,156,166069,2,0,L|112:244,1,70.000000298023
72,352,166393,1,0,0:0:0:0:
344,176,166556,1,0,0:0:0:0:
252,360,166718,1,0,0:0:0:0:
132,112,166880,1,0,0:0:0:0:
420,296,167042,1,0,0:0:0:0:
88,248,167204,1,0,0:0:0:0:
392,148,167366,5,0,0:0:0:0:
84,84,167529,1,0,0:0:0:0:
200,312,167691,1,0,0:0:0:0:
256,40,167853,1,0,0:0:0:0:
96,268,168015,5,0,0:0:0:0:
364,224,168177,1,0,0:0:0:0:
148,96,168339,1,0,0:0:0:0:
276,336,168502,1,0,0:0:0:0:
412,126,168664,2,0,P|387:102|356:88,1,70.000000298023
160,56,168988,5,0,0:0:0:0:
288,288,169150,1,0,0:0:0:0:
80,96,169312,5,0,0:0:0:0:
376,248,169474,1,0,0:0:0:0:
24,160,169637,5,0,0:0:0:0:
432,184,169799,1,0,0:0:0:0:
0,240,169961,5,0,0:0:0:0:
392,112,170123,1,0,0:0:0:0:
56,296,170285,5,0,0:0:0:0:
320,80,170447,1,0,0:0:0:0:
136,328,170610,5,0,0:0:0:0:
240,64,170772,1,0,0:0:0:0:
224,336,170934,5,0,0:0:0:0:
160,56,171096,1,0,0:0:0:0:
304,328,171258,2,0,B|330:294|395:326|395:326|384:256|392:240,1,175.000000745057
384,80,172393,2,0,L|367:51,1,35.0000001490115
384,176,172556,2,0,L|367:205,1,35.0000001490115
272,72,172718,2,0,L|254:41,1,35.0000001490115
264,184,172880,2,0,L|247:213,1,35.0000001490115
152,144,173042,2,0,L|135:113,1,35.0000001490115
224,336,173204,2,0,B|287:333|287:333|334:292|334:292|373:329|373:329|411:333,1,210.000000894069
253,278,174015,5,0,0:0:0:0:
49,316,184393,6,0,B|109:314|109:314|117:287|160:270,1,112.000000476837
162,194,184880,2,0,P|201:211|228:274,1,112.000000476837
229,366,185366,1,0,0:0:0:0:
82,191,185529,2,0,P|102:137|157:117,1,112.000000476837
244,119,186015,1,0,0:0:0:0:
44,68,186177,1,0,0:0:0:0:
23,58,186502,1,0,0:0:0:0:
2,47,186826,5,0,0:0:0:0:
82,191,186988,2,0,B|129:186|160:210|160:210|198:172,1,112.000000476837
244,119,187474,1,0,0:0:0:0:
264,99,187799,1,0,0:0:0:0:
105,274,187961,1,0,0:0:0:0:
227,24,188123,6,0,P|284:18|342:82,1,140.000000596046
332,108,188610,2,0,P|330:150|347:202,1,84.0000003576276
327,223,188934,2,0,P|299:257|228:267,1,112.000000476837
92,238,189583,5,0,0:0:0:0:
70,229,190232,5,0,0:0:0:0:
44,216,190718,6,0,B|51:182|42:136|42:136|86:152,1,112.000000476837
156,175,191204,1,0,0:0:0:0:
40,300,191366,1,0,0:0:0:0:
176,156,191529,2,0,B|208:176|251:152|251:152|251:197,1,112.000000476837
249,363,192177,5,0,0:0:0:0:
57,50,193961,5,0,0:0:0:0:
57,50,194042,1,0,0:0:0:0:
57,50,194123,1,0,0:0:0:0:
180,167,194285,1,0,0:0:0:0:
23,220,194447,1,0,0:0:0:0:
187,42,194610,1,0,0:0:0:0:
0,244,194772,6,0,B|35:256|57:275|57:275|118:227,1,140.000000596046
180,167,195258,2,0,B|220:194|224:239|224:239|283:248,1,140.000000596046
380,263,195745,1,0,0:0:0:0:
99,159,195907,2,0,P|115:119|207:94,1,140.000000596046
305,104,196393,1,0,0:0:0:0:
380,263,196556,1,0,0:0:0:0:
391,291,196880,5,0,0:0:0:0:
317,133,197042,1,0,0:0:0:0:
486,112,197204,1,0,0:0:0:0:
421,367,197366,6,0,P|348:358|308:302,1,140.000000596046
303,202,197853,2,0,B|292:153|317:111|317:111|269:103,1,140.000000596046
169,83,198339,1,0,0:0:0:0:
388,172,198502,1,0,0:0:0:0:
419,185,198826,1,0,0:0:0:0:
443,37,198988,1,0,0:0:0:0:
415,215,199150,2,0,B|383:245|383:245|337:225|279:234,1,140.000000596046
183,239,199637,5,0,0:0:0:0:
355,152,199799,1,0,0:0:0:0:
150,254,199961,6,0,P|145:186|95:130,1,140.000000596046
12,74,200447,1,0,0:0:0:0:
110,113,200610,6,0,B|159:89|159:89|199:119|256:98,1,140.000000596046
344,92,201096,1,0,0:0:0:0:
245,127,201258,6,0,B|276:164|276:164|251:233|254:273,1,140.000000596046
233,356,201745,1,0,0:0:0:0:
223,251,201907,6,0,B|183:209|125:220|125:220|128:168,1,140.000000596046
127,82,202393,1,0,0:0:0:0:
168,317,202556,5,0,0:0:0:0:
168,317,202637,1,0,0:0:0:0:
168,317,202718,1,0,0:0:0:0:
168,317,202799,1,0,0:0:0:0:
168,317,202880,1,0,0:0:0:0:
168,317,202961,1,0,0:0:0:0:
194,325,203042,1,0,0:0:0:0:
221,328,203123,1,0,0:0:0:0:
248,325,203204,1,0,0:0:0:0:
282,317,203285,5,0,0:0:0:0:
309,295,203366,1,0,0:0:0:0:
326,264,203447,1,0,0:0:0:0:
331,229,203528,1,0,0:0:0:0:
325,194,203609,1,0,0:0:0:0:
299,170,203690,1,0,0:0:0:0:
264,161,203772,5,0,0:0:0:0:
240,161,203853,1,0,0:0:0:0:
216,161,203934,1,0,0:0:0:0:
192,160,204015,1,0,0:0:0:0:
168,160,204096,1,0,0:0:0:0:
144,160,204177,1,0,0:0:0:0:
120,160,204258,1,0,0:0:0:0:
96,160,204339,6,0,B|56:184|56:184|123:225|155:255,1,140.000000596046
240,326,204826,1,0,0:0:0:0:
372,300,204988,2,0,P|416:256|419:229,1,70.000000298023,0|0,2:0|2:0,2:0:0:0:
416,216,205231,1,0,0:0:0:0:
393,184,205312,1,0,0:0:0:0:
362,160,205393,1,0,0:0:0:0:
323,154,205474,1,0,0:0:0:0:
287,168,205555,1,0,0:0:0:0:
258,193,205636,1,0,0:0:0:0:
225,213,205717,1,0,0:0:0:0:
189,227,205799,5,0,0:0:0:0:
149,219,205880,1,0,0:0:0:0:
114,201,205961,1,0,0:0:0:0:
93,168,206042,1,0,0:0:0:0:
89,129,206123,1,0,0:0:0:0:
101,92,206204,1,0,0:0:0:0:
127,64,206285,6,0,B|179:37|179:37|269:53,1,140.000000596046
358,71,206772,1,0,0:0:0:0:
432,128,206934,1,0,0:0:0:0:
442,165,207015,1,0,0:0:0:0:
441,203,207096,1,0,0:0:0:0:
422,236,207177,1,0,0:0:0:0:
384,245,207259,1,0,0:0:0:0:
346,236,207340,1,0,0:0:0:0:
309,222,207421,1,0,0:0:0:0:
270,223,207502,1,0,0:0:0:0:
235,240,207583,1,0,0:0:0:0:
213,271,207664,5,0,0:0:0:0:
197,306,207745,1,0,0:0:0:0:
169,333,207826,1,0,0:0:0:0:
130,335,207907,1,0,0:0:0:0:
94,319,207988,1,0,0:0:0:0:
65,292,208069,1,0,0:0:0:0:
51,255,208150,1,0,0:0:0:0:
64,219,208231,6,0,B|98:184|98:184|103:93,1,140.000000596046
177,25,208718,1,0,0:0:0:0:
283,50,208880,1,0,0:0:0:0:
320,56,208961,1,0,0:0:0:0:
354,72,209042,1,0,0:0:0:0:
383,96,209123,1,0,0:0:0:0:
403,128,209204,1,0,0:0:0:0:
409,165,209285,1,0,0:0:0:0:
408,203,209366,1,0,0:0:0:0:
392,238,209447,1,0,0:0:0:0:
368,268,209528,1,0,0:0:0:0:
329,281,209610,1,0,0:0:0:0:
290,282,209691,6,0,B|243:285|243:285|214:303|214:303|133:279,1,140.000000596046
57,258,210177,1,0,0:0:0:0:
37,163,210339,1,0,0:0:0:0:
39,124,210420,1,0,0:0:0:0:
58,91,210501,1,0,0:0:0:0:
94,77,210582,1,0,0:0:0:0:
131,82,210663,1,0,0:0:0:0:
168,92,210744,1,0,0:0:0:0:
206,96,210825,1,0,0:0:0:0:
244,96,210906,1,0,0:0:0:0:
282,93,210987,1,0,0:0:0:0:
319,84,211068,1,0,0:0:0:0:
350,61,211149,1,0,0:0:0:0:
386,46,211231,5,0,2:0:0:0:
424,50,211312,1,0,2:0:0:0:
457,68,211393,1,0,2:0:0:0:
471,103,211474,1,0,2:0:0:0:
467,141,211555,1,0,2:0:0:0:
452,176,211637,2,0,P|408:208|368:208,1,70.000000298023
360,212,211961,2,0,P|309:194|284:164,1,70.000000298023
136,48,212285,5,0,0:0:0:0:
32,192,212447,1,0,0:0:0:0:
200,168,212610,1,0,0:0:0:0:
40,72,212772,1,0,0:0:0:0:
136,264,212934,1,0,0:0:0:0:
148,290,213258,1,0,0:0:0:0:
344,280,213420,5,0,0:0:0:0:
280,152,213583,1,0,0:0:0:0:
240,336,213745,1,0,0:0:0:0:
176,128,213907,1,0,0:0:0:0:
112,312,214069,1,0,0:0:0:0:
304,104,214231,5,0,0:0:0:0:
327,73,214312,1,0,0:0:0:0:
364,64,214393,1,0,0:0:0:0:
400,76,214474,1,0,0:0:0:0:
424,105,214555,1,0,0:0:0:0:
427,143,214636,1,0,0:0:0:0:
417,180,214717,1,0,0:0:0:0:
389,207,214798,1,0,0:0:0:0:
351,218,214880,5,0,0:0:0:0:
313,215,214960,1,0,0:0:0:0:
277,199,215041,1,0,0:0:0:0:
253,168,215122,1,0,0:0:0:0:
228,138,215203,1,0,0:0:0:0:
193,119,215285,1,0,0:0:0:0:
154,115,215366,1,0,0:0:0:0:
56,184,215529,5,0,0:0:0:0:
144,16,215691,1,0,0:0:0:0:
186,212,215853,1,0,0:0:0:0:
32,80,216015,1,0,0:0:0:0:
240,64,216177,1,0,0:0:0:0:
172,246,216339,1,0,0:0:0:0:
256,32,216502,5,0,0:0:0:0:
104,40,216664,1,0,0:0:0:0:
287,166,216826,2,0,B|336:144|336:144|408:144|408:144|464:176|464:176|472:273|472:273|429:309|429:309|378:320|378:320|324:318|324:318|284:299|284:299,1,490.000002086161
375,228,219420,5,0,0:0:0:0:
375,59,219583,1,0,0:0:0:0:
50,226,220718,5,0,0:0:0:0:
54,57,220881,1,0,0:0:0:0:
400,256,222015,5,0,0:0:0:0:
447,95,222177,1,0,0:0:0:0:
162,327,223312,5,0,0:0:0:0:
67,186,223475,1,0,0:0:0:0:
430,38,224285,5,0,0:0:0:0:
438,220,224610,1,0,0:0:0:0:
393,230,224691,1,0,0:0:0:0:
348,220,224772,1,0,0:0:0:0:
316,187,224853,1,0,0:0:0:0:
318,141,224934,1,0,0:0:0:0:
432,320,225096,5,0,0:0:0:0:
222,174,225258,1,0,0:0:0:0:
403,152,225420,1,0,0:0:0:0:
233,321,225583,1,0,0:0:0:0:
72,176,225745,1,0,0:0:0:0:
257,175,225907,5,0,0:0:0:0:
77,322,226069,1,0,0:0:0:0:
149,95,226231,1,0,0:0:0:0:
234,288,226393,1,0,0:0:0:0:
44,179,226556,1,0,0:0:0:0:
290,174,226718,1,0,0:0:0:0:
128,256,226880,1,0,0:0:0:0:
272,32,227042,1,0,0:0:0:0:
417,152,227204,6,0,B|457:234|457:234|395:245|334:269,1,210.000000894069
211,316,228339,1,0,0:0:0:0:
211,316,228420,1,0,0:0:0:0:
211,316,228502,1,0,0:0:0:0:
56,233,228664,1,0,0:0:0:0:
112,67,228826,1,0,0:0:0:0:
112,67,229637,6,0,L|261:96,1,140.000000596046
344,106,230123,1,0,0:0:0:0:
251,236,230285,1,0,0:0:0:0:
425,290,230447,1,0,0:0:0:0:
331,85,230609,1,0,0:0:0:0:
207,336,230771,1,0,0:0:0:0:
319,61,230934,2,0,P|266:81|181:64,1,140.000000596046
101,35,231420,5,0,0:0:0:0:
74,67,231501,1,0,0:0:0:0:
61,106,231582,2,0,L|85:161,1,35.0000001490115
114,229,231744,1,0,0:0:0:0:
185,66,231907,1,0,0:0:0:0:
2,211,232069,1,0,0:0:0:0:
210,46,232231,6,0,B|222:87|201:123|201:123|211:183,1,140.000000596046
227,280,232717,1,0,0:0:0:0:
299,137,232880,1,0,0:0:0:0:
212,311,233042,1,0,0:0:0:0:
402,257,233204,1,0,0:0:0:0:
211,182,233366,1,0,0:0:0:0:
431,270,233528,2,0,P|407:220|415:132,1,140.000000596046
444,55,234015,5,0,0:0:0:0:
211,182,234177,1,0,0:0:0:0:
495,192,234339,1,0,0:0:0:0:
323,25,234501,1,0,0:0:0:0:
231,261,234663,1,0,0:0:0:0:
231,261,234744,1,0,0:0:0:0:
231,261,234825,6,0,P|171:257|130:189,1,140.000000596046
129,101,235312,1,0,0:0:0:0:
67,317,235474,1,0,0:0:0:0:
211,182,235636,2,0,P|260:177|299:196,1,70.000000298023
366,218,235961,1,0,0:0:0:0:
130,194,236123,6,0,P|149:125|232:101,1,140.000000596046
304,100,236609,1,0,0:0:0:0:
74,63,236771,1,0,0:0:0:0:
211,182,236934,1,0,0:0:0:0:
49,43,237096,1,0,0:0:0:0:
211,182,237258,2,0,P|96:216|35:147,1,210.000000894069
152,44,237907,1,0,0:0:0:0:
280,188,238069,1,0,0:0:0:0:
61,175,238231,1,0,0:0:0:0:
232,312,238393,1,0,0:0:0:0:
16,280,238556,1,0,0:0:0:0:
200,144,238718,1,0,0:0:0:0:
132,356,238880,1,0,0:0:0:0:
43,144,239042,6,0,P|116:127|165:78,1,140.000000596046
207,10,239528,1,0,0:0:0:0:
249,3,239609,1,0,0:0:0:0:
289,17,239690,1,0,0:0:0:0:
313,51,239771,1,0,0:0:0:0:
316,93,239852,1,0,0:0:0:0:
295,129,239934,1,0,0:0:0:0:
254,141,240015,6,0,B|205:162|205:162|173:134|122:134,1,140.000000596046
26,132,240502,1,0,0:0:0:0:
134,233,240664,1,0,0:0:0:0:
214,60,240826,1,0,0:0:0:0:
120,261,240988,1,0,0:0:0:0:
96,31,241150,1,0,0:0:0:0:
245,207,241312,6,0,L|392:198,1,140.000000596046
483,197,241799,1,0,0:0:0:0:
302,105,241962,1,0,0:0:0:0:
465,52,242124,1,0,0:0:0:0:
362,291,242286,1,0,0:0:0:0:
293,75,242448,1,0,0:0:0:0:
398,362,242610,6,0,P|328:364|283:310,1,140.000000596046
268,218,243096,1,0,0:0:0:0:
182,334,243258,1,0,0:0:0:0:
402,278,243420,1,0,0:0:0:0:
151,129,243583,1,0,0:0:0:0:
284,315,243745,1,0,0:0:0:0:
49,365,243907,6,0,B|105:366|105:366|141:336|193:332,1,140.000000596046
284,315,244393,1,0,0:0:0:0:
82,277,244555,1,0,0:0:0:0:
82,277,244636,1,0,0:0:0:0:
82,277,244717,2,0,L|64:227,1,35.0000001490115
162,230,244880,2,0,L|169:183,1,35.0000001490115
175,101,245042,1,0,0:0:0:0:
154,317,245204,6,0,P|215:302|248:235,1,140.000000596046
250,138,245691,1,0,0:0:0:0:
313,348,245853,1,0,0:0:0:0:
162,230,246015,2,0,P|118:235|81:265,1,70.000000298023
19,309,246340,1,0,0:0:0:0:
157,146,246502,6,0,P|216:160|246:228,1,140.000000596046
243,325,246988,1,0,0:0:0:0:
261,75,247150,1,0,0:0:0:0:
33,107,247312,1,0,0:0:0:0:
162,230,247474,1,0,0:0:0:0:
282,50,247637,1,0,0:0:0:0:
153,309,247799,6,0,P|107:290|86:208,1,140.000000596046
107,113,248285,1,0,0:0:0:0:
0,298,248447,1,0,0:0:0:0:
191,214,248610,1,0,0:0:0:0:
17,119,248772,1,0,0:0:0:0:
153,309,248934,1,0,0:0:0:0:
206,130,249096,6,0,P|254:158|275:236,1,140.000000596046
265,333,249583,1,0,0:0:0:0:
92,136,249745,6,0,P|120:77|208:84,1,140.000000596046
308,104,250231,1,0,0:0:0:0:
276,324,250393,6,0,P|201:348|140:303,1,140.000000596046
64,236,250880,1,0,0:0:0:0:
232,72,251042,1,0,0:0:0:0:
264,312,251204,1,0,0:0:0:0:
80,64,251366,1,0,0:0:0:0:
360,168,251529,1,0,0:0:0:0:
64,304,251691,1,0,0:0:0:0:
248,44,251853,1,0,0:0:0:0:
288,348,252015,1,0,0:0:0:0:
52,136,252177,1,0,0:0:0:0:
380,196,252339,1,0,0:0:0:0:
120,348,252502,1,0,0:0:0:0:
240,112,252664,1,0,0:0:0:0:
260,92,252745,1,0,0:0:0:0:
292,80,252826,1,0,0:0:0:0:
320,77,252907,1,0,0:0:0:0:
350,81,252988,5,0,0:0:0:0:
436,200,253474,5,0,0:0:0:0:
409,220,253799,5,0,0:0:0:0:
384,241,254123,5,0,0:0:0:0:
44,144,254447,5,0,0:0:0:0:
260,268,254610,1,0,0:0:0:0:
260,268,254691,1,0,0:0:0:0:
260,268,254772,1,0,0:0:0:0:
44,332,254934,1,0,0:0:0:0:
215,227,255096,5,0,0:0:0:0:
244,217,255177,1,0,0:0:0:0:
275,215,255258,1,0,0:0:0:0:
305,222,255339,1,0,0:0:0:0:
330,239,255420,1,0,0:0:0:0:
347,265,255502,1,0,0:0:0:0:
358,294,255583,6,0,B|411:325|411:325|445:292|491:270,1,140.000000596046
485,179,256069,1,0,0:0:0:0:
271,302,256231,1,0,0:0:0:0:
474,278,256393,1,0,0:0:0:0:
283,130,256556,1,0,0:0:0:0:
461,53,256718,1,0,0:0:0:0:
379,347,256880,1,0,0:0:0:0:
266,51,257042,6,0,P|219:81|205:153,1,112.000000476837
144,24,257529,1,0,0:0:0:0:
283,130,257691,1,0,0:0:0:0:
90,181,257853,1,0,0:0:0:0:
292,26,258015,1,0,0:0:0:0:
227,199,258177,6,0,P|290:216|345:192,1,112.000000476837
267,300,258664,1,0,0:0:0:0:
413,150,258826,1,0,0:0:0:0:
196,205,258988,1,0,0:0:0:0:
415,305,259150,1,0,0:0:0:0:
283,130,259312,1,0,0:0:0:0:
189,329,259474,1,0,0:0:0:0:
237,62,259637,6,0,P|291:49|349:79,1,112.000000476837
406,143,260123,1,0,0:0:0:0:
160,17,260285,1,0,0:0:0:0:
144,62,260366,1,0,0:0:0:0:
156,107,260447,1,0,0:0:0:0:
191,139,260529,1,0,0:0:0:0:
225,171,260610,1,0,0:0:0:0:
247,212,260691,1,0,0:0:0:0:
221,294,260772,6,0,B|278:308|278:308|321:279|346:274,1,112.000000476837
414,250,261258,1,0,0:0:0:0:
238,384,261420,1,0,0:0:0:0:
225,171,261583,1,0,0:0:0:0:
356,364,261745,1,0,0:0:0:0:
452,170,261907,1,0,0:0:0:0:
181,301,262069,1,0,0:0:0:0:
414,250,262231,6,0,P|368:205|364:154,1,112.000000476837
365,120,262637,1,0,0:0:0:0:
387,88,262718,1,0,0:0:0:0:
422,71,262799,1,0,0:0:0:0:
461,70,262880,1,0,0:0:0:0:
301,44,263042,1,0,0:0:0:0:
452,170,263204,1,0,0:0:0:0:
264,195,263366,6,0,L|147:208,1,112.000000476837
210,106,263853,1,0,0:0:0:0:
123,312,264015,1,0,0:0:0:0:
303,192,264177,1,0,0:0:0:0:
85,129,264339,1,0,0:0:0:0:
284,314,264502,1,0,0:0:0:0:
287,73,264664,6,0,P|251:35|171:31,1,112.000000476837
102,35,265150,1,0,0:0:0:0:
388,87,265312,1,0,0:0:0:0:
145,148,265474,1,0,0:0:0:0:
145,148,265556,1,0,0:0:0:0:
145,148,265637,1,0,0:0:0:0:
481,134,265799,2,0,B|517:120|517:120|488:100,1,56.0000002384184
256,192,266123,12,0,268718,0:0:0:0:
