osu file format v14

[General]
AudioFilename: audio.mp3
AudioLeadIn: 0
PreviewTime: 112
Countdown: 1
SampleSet: None
StackLeniency: 0.7
Mode: 1
LetterboxInBreaks: 0
WidescreenStoryboard: 0

[Editor]
DistanceSpacing: 0.8
BeatDivisor: 4
GridSize: 32
TimelineZoom: 1.4

[Metadata]
Title:Matataki
TitleUnicode:瞬
Artist:Ono Hideyuki
ArtistUnicode:小野秀幸
Creator:-[ ix Ishida xi ]-
Version:-[ ix Oni xi ]-
Source:
Tags:
BeatmapID:1870584
BeatmapSetID:895215

[Difficulty]
HPDrainRate:5
CircleSize:5
OverallDifficulty:5
ApproachRate:5
SliderMultiplier:1.4
SliderTickRate:1

[Events]
//Background and Video events
0,0,"Konachan.com - 263814 clouds mirror mocha_(cotton) original reflection scenic signed sky sunset.jpg",0,0
//Break Periods
//Storyboard Layer 0 (Background)
//Storyboard Layer 1 (Fail)
//Storyboard Layer 2 (Pass)
//Storyboard Layer 3 (Foreground)
//Storyboard Sound Samples

[TimingPoints]
-225,337.078651685393,4,1,0,70,1,0
1123,-100,4,1,0,70,0,1
22696,-100,4,1,0,70,0,0
44437,-133.333333333333,4,3,0,5,0,0
66010,-100,4,1,0,70,0,0
87415,-100,4,1,0,70,0,1
107471,-100,4,1,0,70,0,0

[HitObjects]
233,177,1123,5,4,0:0:0:0:
272,72,1460,1,8,0:0:0:0:
272,72,1628,1,0,0:0:0:0:
352,64,1712,1,0,0:0:0:0:
272,72,1797,1,0,0:0:0:0:
272,72,1965,1,8,0:0:0:0:
272,72,2134,1,8,0:0:0:0:
272,72,2302,1,0,0:0:0:0:
272,72,2471,1,0,0:0:0:0:
383,83,2808,1,8,0:0:0:0:
327,76,2976,1,0,0:0:0:0:
278,105,3314,1,0,0:0:0:0:
278,105,3482,1,8,0:0:0:0:
278,105,3651,1,0,0:0:0:0:
278,105,3819,1,0,0:0:0:0:
246,212,4156,1,8,0:0:0:0:
262,158,4493,1,0,0:0:0:0:
256,64,4662,1,0,0:0:0:0:
291,109,4830,1,8,0:0:0:0:
254,151,4999,1,0,0:0:0:0:
288,96,5336,1,8,0:0:0:0:
288,96,5505,1,0,0:0:0:0:
288,96,5673,1,8,0:0:0:0:
288,96,5842,1,0,0:0:0:0:
320,96,6010,1,8,0:0:0:0:
320,96,6179,1,12,0:0:0:0:
320,96,6347,1,0,0:0:0:0:
320,96,6516,1,4,0:0:0:0:
256,192,6853,1,8,0:0:0:0:
192,96,7021,1,0,0:0:0:0:
384,96,7106,1,0,0:0:0:0:
256,96,7190,1,0,0:0:0:0:
256,96,7358,1,8,0:0:0:0:
256,96,7527,1,8,0:0:0:0:
288,64,7696,1,0,0:0:0:0:
320,128,7864,1,0,0:0:0:0:
320,128,8201,1,8,0:0:0:0:
352,128,8370,1,0,0:0:0:0:
352,96,8707,1,0,0:0:0:0:
352,96,8875,1,8,0:0:0:0:
352,128,9044,1,0,0:0:0:0:
384,128,9212,1,0,0:0:0:0:
320,96,9549,1,8,0:0:0:0:
320,96,9887,1,0,0:0:0:0:
320,96,10055,1,0,0:0:0:0:
320,96,10224,1,8,0:0:0:0:
320,96,10392,1,0,0:0:0:0:
320,32,10729,1,8,0:0:0:0:
320,64,10898,1,0,0:0:0:0:
320,64,11066,1,8,0:0:0:0:
256,128,11235,1,0,0:0:0:0:
256,128,11403,1,8,0:0:0:0:
288,128,11572,1,12,0:0:0:0:
288,128,11740,1,0,0:0:0:0:
288,128,11909,1,4,0:0:0:0:
320,96,12246,1,8,0:0:0:0:
320,96,12415,1,0,0:0:0:0:
192,64,12499,1,0,0:0:0:0:
320,96,12583,1,0,0:0:0:0:
320,96,12752,1,8,0:0:0:0:
320,96,12920,1,8,0:0:0:0:
320,32,13089,1,0,0:0:0:0:
320,96,13257,1,0,0:0:0:0:
352,96,13594,1,8,0:0:0:0:
352,96,13763,1,0,0:0:0:0:
320,64,14100,1,0,0:0:0:0:
352,128,14269,1,8,0:0:0:0:
352,128,14437,1,0,0:0:0:0:
352,128,14606,1,0,0:0:0:0:
352,160,14943,1,8,0:0:0:0:
320,160,15280,1,0,0:0:0:0:
352,128,15448,1,0,0:0:0:0:
352,128,15617,1,8,0:0:0:0:
352,128,15785,1,0,0:0:0:0:
352,128,16123,1,0,0:0:0:0:
256,96,16291,1,8,0:0:0:0:
320,64,16628,1,0,0:0:0:0:
320,64,16797,1,0,0:0:0:0:
224,64,16881,1,0,0:0:0:0:
320,64,16965,1,8,0:0:0:0:
320,64,17049,1,8,0:0:0:0:
320,96,17134,1,0,0:0:0:0:
320,96,17218,1,0,0:0:0:0:
320,96,17302,1,4,0:0:0:0:
192,96,17639,1,8,0:0:0:0:
256,64,17808,1,0,0:0:0:0:
256,64,17892,1,0,0:0:0:0:
256,96,17976,1,0,0:0:0:0:
256,96,18145,1,8,0:0:0:0:
256,96,18314,1,8,0:0:0:0:
256,96,18482,1,0,0:0:0:0:
256,96,18651,1,0,0:0:0:0:
352,96,18988,1,8,0:0:0:0:
352,96,19156,1,0,0:0:0:0:
256,128,19493,1,0,0:0:0:0:
256,128,19662,1,8,0:0:0:0:
224,160,19830,1,8,0:0:0:0:
224,96,19915,1,0,0:0:0:0:
288,128,19999,1,0,0:0:0:0:
256,64,20336,1,8,0:0:0:0:
192,64,20505,1,0,0:0:0:0:
192,64,20589,1,8,0:0:0:0:
320,96,20673,1,0,0:0:0:0:
288,96,20842,1,0,0:0:0:0:
256,64,21010,1,8,0:0:0:0:
288,64,21179,1,0,0:0:0:0:
320,128,21516,1,0,0:0:0:0:
320,96,21684,1,8,0:0:0:0:
352,64,22021,1,8,0:0:0:0:
352,64,22190,1,0,0:0:0:0:
352,96,22358,1,8,0:0:0:0:
352,96,22527,1,0,0:0:0:0:
352,96,22696,1,4,0:0:0:0:
352,96,23033,1,8,0:0:0:0:
320,96,23201,1,0,0:0:0:0:
320,96,23285,1,0,0:0:0:0:
320,96,23370,1,0,0:0:0:0:
320,96,23538,1,0,0:0:0:0:
256,64,23707,1,8,0:0:0:0:
224,64,23875,1,0,0:0:0:0:
288,128,24212,1,0,0:0:0:0:
288,128,24381,1,8,0:0:0:0:
320,96,24718,1,0,0:0:0:0:
320,96,24887,1,0,0:0:0:0:
320,128,25055,1,8,0:0:0:0:
320,128,25224,1,0,0:0:0:0:
320,128,25308,1,0,0:0:0:0:
320,128,25392,1,0,0:0:0:0:
320,128,25729,1,8,0:0:0:0:
352,128,26066,1,0,0:0:0:0:
352,128,26235,1,0,0:0:0:0:
352,128,26403,1,8,0:0:0:0:
352,128,26572,1,0,0:0:0:0:
320,96,26909,1,0,0:0:0:0:
320,96,27078,1,8,0:0:0:0:
320,96,27246,1,0,0:0:0:0:
320,64,27583,1,0,0:0:0:0:
320,64,27752,1,8,0:0:0:0:
320,64,27920,1,0,0:0:0:0:
320,64,28089,1,0,0:0:0:0:
320,64,28426,1,8,0:0:0:0:
320,96,28763,1,0,0:0:0:0:
320,96,28931,1,0,0:0:0:0:
320,96,29100,1,8,0:0:0:0:
320,96,29269,1,0,0:0:0:0:
320,64,29606,1,0,0:0:0:0:
320,64,29774,1,8,0:0:0:0:
320,64,29943,1,0,0:0:0:0:
320,64,30280,1,0,0:0:0:0:
320,64,30448,1,8,0:0:0:0:
320,64,30785,1,0,0:0:0:0:
320,64,31123,1,8,0:0:0:0:
320,64,31291,1,0,0:0:0:0:
320,64,31375,1,0,0:0:0:0:
320,64,31460,1,0,0:0:0:0:
320,64,31628,1,0,0:0:0:0:
320,64,31797,1,8,0:0:0:0:
320,64,31965,1,0,0:0:0:0:
320,32,32302,1,0,0:0:0:0:
288,96,32471,1,8,0:0:0:0:
352,64,32639,1,0,0:0:0:0:
352,64,32724,1,0,0:0:0:0:
352,64,32808,1,0,0:0:0:0:
192,96,32976,1,0,0:0:0:0:
192,96,33061,1,0,0:0:0:0:
352,64,33145,1,8,0:0:0:0:
352,64,33229,1,0,0:0:0:0:
352,64,33314,1,8,0:0:0:0:
352,64,33398,1,0,0:0:0:0:
352,64,33482,1,4,0:0:0:0:
288,96,33819,1,8,0:0:0:0:
288,96,33988,1,0,0:0:0:0:
288,96,34072,1,0,0:0:0:0:
288,96,34156,1,0,0:0:0:0:
288,96,34325,1,8,0:0:0:0:
288,96,34493,1,8,0:0:0:0:
288,96,34662,1,0,0:0:0:0:
256,96,34999,1,0,0:0:0:0:
256,96,35167,1,8,0:0:0:0:
256,96,35505,1,0,0:0:0:0:
256,64,35673,1,0,0:0:0:0:
256,64,35842,1,8,0:0:0:0:
192,96,36010,1,0,0:0:0:0:
192,96,36094,1,0,0:0:0:0:
192,96,36179,1,0,0:0:0:0:
192,64,36516,1,8,0:0:0:0:
192,96,36684,1,0,0:0:0:0:
192,64,36769,1,0,0:0:0:0:
192,64,36853,1,0,0:0:0:0:
288,96,37021,1,0,0:0:0:0:
288,96,37190,1,8,0:0:0:0:
288,96,37358,1,0,0:0:0:0:
288,64,37696,1,0,0:0:0:0:
288,64,37864,1,8,0:0:0:0:
288,32,38033,1,0,0:0:0:0:
288,32,38117,1,0,0:0:0:0:
288,32,38201,1,0,0:0:0:0:
352,64,38370,1,8,0:0:0:0:
96,128,38538,1,0,0:0:0:0:
256,96,38623,1,0,0:0:0:0:
352,64,38707,1,8,0:0:0:0:
352,64,38875,1,0,0:0:0:0:
384,96,39212,1,8,0:0:0:0:
384,96,39381,1,0,0:0:0:0:
384,128,39465,1,0,0:0:0:0:
384,96,39549,1,0,0:0:0:0:
384,96,39718,1,0,0:0:0:0:
384,96,39887,1,8,0:0:0:0:
224,32,40055,1,0,0:0:0:0:
352,64,40392,1,0,0:0:0:0:
352,64,40561,1,8,0:0:0:0:
320,96,40729,1,0,0:0:0:0:
320,64,41066,1,0,0:0:0:0:
320,64,41235,1,8,0:0:0:0:
320,96,41403,1,0,0:0:0:0:
320,96,41488,1,0,0:0:0:0:
320,96,41572,1,0,0:0:0:0:
320,64,41909,1,8,0:0:0:0:
320,64,42078,1,0,0:0:0:0:
320,64,42415,1,0,0:0:0:0:
320,64,42583,1,8,0:0:0:0:
320,64,42752,1,0,0:0:0:0:
384,64,43089,1,0,0:0:0:0:
256,32,43257,1,8,0:0:0:0:
192,32,43426,1,0,0:0:0:0:
224,64,43510,1,0,0:0:0:0:
384,64,43594,1,8,0:0:0:0:
384,64,43707,1,8,0:0:0:0:
384,64,43819,1,0,0:0:0:0:
416,64,43931,1,8,0:0:0:0:
416,64,44044,1,8,0:0:0:0:
416,64,44156,1,0,0:0:0:0:
416,64,44269,1,0,0:0:0:0:
352,96,44943,1,8,0:0:0:0:
352,96,45617,1,0,0:0:0:0:
352,96,45785,1,0,0:0:0:0:
352,64,46123,1,0,0:0:0:0:
352,64,46291,1,8,0:0:0:0:
384,32,46628,1,0,0:0:0:0:
384,64,46965,1,0,0:0:0:0:
320,64,47471,1,0,0:0:0:0:
320,64,47639,1,8,0:0:0:0:
288,64,48145,1,0,0:0:0:0:
288,64,48482,1,8,0:0:0:0:
288,64,48651,1,0,0:0:0:0:
288,64,48819,1,0,0:0:0:0:
288,64,48988,1,8,0:0:0:0:
288,64,49156,1,0,0:0:0:0:
256,64,49493,1,8,0:0:0:0:
256,64,49662,1,0,0:0:0:0:
256,64,50167,1,0,0:0:0:0:
256,64,50336,1,8,0:0:0:0:
288,96,50842,1,8,0:0:0:0:
352,64,51179,1,0,0:0:0:0:
352,64,51347,1,0,0:0:0:0:
352,64,51684,1,8,0:0:0:0:
352,64,51853,1,0,0:0:0:0:
352,64,52190,1,0,0:0:0:0:
384,64,52358,1,0,0:0:0:0:
352,64,52864,1,0,0:0:0:0:
352,64,53033,1,8,0:0:0:0:
352,64,53538,1,0,0:0:0:0:
352,64,53707,1,0,0:0:0:0:
416,160,53875,1,8,0:0:0:0:
352,96,54212,1,0,0:0:0:0:
352,96,54381,1,8,0:0:0:0:
352,96,54549,1,8,0:0:0:0:
352,96,54887,1,8,0:0:0:0:
256,64,55055,1,0,0:0:0:0:
288,64,55729,1,8,0:0:0:0:
288,96,56403,1,0,0:0:0:0:
288,96,56572,1,0,0:0:0:0:
288,96,56909,1,0,0:0:0:0:
288,96,57078,1,8,0:0:0:0:
320,64,57415,1,0,0:0:0:0:
320,64,57752,1,0,0:0:0:0:
320,32,58257,1,0,0:0:0:0:
288,96,58426,1,8,0:0:0:0:
288,160,58931,1,0,0:0:0:0:
320,96,59437,1,0,0:0:0:0:
352,64,59606,1,0,0:0:0:0:
352,64,59774,1,8,0:0:0:0:
352,64,59943,1,8,0:0:0:0:
288,128,60280,1,0,0:0:0:0:
288,128,60448,1,0,0:0:0:0:
320,128,60954,1,0,0:0:0:0:
320,128,61123,1,8,0:0:0:0:
320,128,61628,1,8,0:0:0:0:
320,160,61965,1,0,0:0:0:0:
320,160,62134,1,0,0:0:0:0:
288,160,62471,1,8,0:0:0:0:
256,160,62639,1,0,0:0:0:0:
256,128,62808,1,0,0:0:0:0:
256,128,62976,1,8,0:0:0:0:
256,128,63145,1,0,0:0:0:0:
352,96,64493,1,0,0:0:0:0:
352,96,64662,1,8,0:0:0:0:
320,96,64999,1,0,0:0:0:0:
320,96,65167,1,8,0:0:0:0:
320,96,65252,1,0,0:0:0:0:
320,96,65336,1,8,0:0:0:0:
320,96,65420,1,8,0:0:0:0:
320,96,65505,1,0,0:0:0:0:
320,96,65589,1,0,0:0:0:0:
320,96,65673,1,0,0:0:0:0:
320,96,65757,1,0,0:0:0:0:
320,96,65842,1,0,0:0:0:0:
224,96,66179,1,8,0:0:0:0:
224,96,66347,1,0,0:0:0:0:
256,64,66431,1,0,0:0:0:0:
256,64,66516,1,0,0:0:0:0:
256,64,66684,1,8,0:0:0:0:
256,64,66853,1,8,0:0:0:0:
256,96,67021,1,0,0:0:0:0:
224,64,67358,1,0,0:0:0:0:
224,96,67443,1,0,0:0:0:0:
224,64,67527,1,8,0:0:0:0:
224,96,67696,1,0,0:0:0:0:
224,64,67864,1,0,0:0:0:0:
288,64,68033,1,8,0:0:0:0:
256,32,68117,1,0,0:0:0:0:
288,96,68201,1,0,0:0:0:0:
288,96,68370,1,8,0:0:0:0:
288,96,68454,1,8,0:0:0:0:
288,96,68538,1,0,0:0:0:0:
384,64,68875,1,8,0:0:0:0:
384,64,69044,1,0,0:0:0:0:
384,64,69128,1,0,0:0:0:0:
384,64,69212,1,0,0:0:0:0:
384,64,69381,1,8,0:0:0:0:
352,64,69549,1,8,0:0:0:0:
352,64,69718,1,0,0:0:0:0:
224,64,70055,1,0,0:0:0:0:
224,96,70224,1,8,0:0:0:0:
288,64,70392,1,0,0:0:0:0:
288,96,70476,1,0,0:0:0:0:
288,96,70561,1,8,0:0:0:0:
288,64,70729,1,0,0:0:0:0:
288,96,70814,1,0,0:0:0:0:
288,96,70898,1,8,0:0:0:0:
288,96,70982,1,0,0:0:0:0:
288,96,71066,1,8,0:0:0:0:
288,96,71151,1,0,0:0:0:0:
288,96,71235,1,0,0:0:0:0:
320,64,71572,1,8,0:0:0:0:
320,96,71740,1,0,0:0:0:0:
320,96,71825,1,0,0:0:0:0:
288,96,71909,1,0,0:0:0:0:
288,96,72078,1,8,0:0:0:0:
288,96,72246,1,8,0:0:0:0:
288,96,72415,1,0,0:0:0:0:
320,96,72499,1,0,0:0:0:0:
288,96,72583,1,0,0:0:0:0:
320,96,72752,1,8,0:0:0:0:
320,96,72920,1,8,0:0:0:0:
320,96,73005,1,8,0:0:0:0:
320,96,73089,1,0,0:0:0:0:
320,96,73257,1,8,0:0:0:0:
320,96,73426,1,0,0:0:0:0:
320,96,73510,1,0,0:0:0:0:
320,96,73594,1,8,0:0:0:0:
320,96,73679,1,8,0:0:0:0:
320,96,73763,1,0,0:0:0:0:
320,96,73847,1,0,0:0:0:0:
320,96,73931,1,0,0:0:0:0:
352,64,74100,1,8,0:0:0:0:
352,64,74184,1,0,0:0:0:0:
352,64,74269,1,0,0:0:0:0:
288,64,74437,1,8,0:0:0:0:
288,64,74521,1,0,0:0:0:0:
288,64,74606,1,0,0:0:0:0:
256,64,74774,1,8,0:0:0:0:
256,64,74858,1,0,0:0:0:0:
288,64,74943,1,0,0:0:0:0:
288,64,75111,1,8,0:0:0:0:
288,64,75196,1,0,0:0:0:0:
288,64,75280,1,8,0:0:0:0:
352,64,75448,1,0,0:0:0:0:
352,64,75617,1,0,0:0:0:0:
352,96,75785,1,8,0:0:0:0:
320,64,75954,1,8,0:0:0:0:
320,64,76038,1,8,0:0:0:0:
320,64,76122,1,0,0:0:0:0:
320,64,76207,1,8,0:0:0:0:
320,96,76291,1,8,0:0:0:0:
320,96,76375,1,8,0:0:0:0:
320,96,76460,1,0,0:0:0:0:
384,64,76628,1,4,0:0:0:0:
256,64,76797,1,0,0:0:0:0:
288,64,76881,1,0,0:0:0:0:
288,64,76965,1,8,0:0:0:0:
288,64,77134,1,0,0:0:0:0:
352,96,77302,1,0,0:0:0:0:
288,128,77471,1,0,0:0:0:0:
288,128,77639,1,8,0:0:0:0:
256,128,77808,1,0,0:0:0:0:
320,96,78145,1,0,0:0:0:0:
320,96,78314,1,8,0:0:0:0:
352,96,78482,1,0,0:0:0:0:
352,96,78566,1,0,0:0:0:0:
352,96,78651,1,0,0:0:0:0:
352,96,78819,1,0,0:0:0:0:
352,96,78903,1,0,0:0:0:0:
352,96,78988,1,8,0:0:0:0:
352,96,79072,1,8,0:0:0:0:
320,128,79156,1,0,0:0:0:0:
320,128,79240,1,0,0:0:0:0:
320,128,79325,1,0,0:0:0:0:
352,96,79493,1,0,0:0:0:0:
352,96,79578,1,0,0:0:0:0:
352,96,79662,1,0,0:0:0:0:
352,128,79746,1,8,0:0:0:0:
352,128,79830,1,0,0:0:0:0:
352,128,79999,1,0,0:0:0:0:
352,128,80083,1,0,0:0:0:0:
256,96,80167,1,8,0:0:0:0:
256,96,80252,1,0,0:0:0:0:
256,128,80336,1,0,0:0:0:0:
256,96,80505,1,8,0:0:0:0:
256,64,80842,1,0,0:0:0:0:
288,64,81010,1,8,0:0:0:0:
288,64,81179,1,0,0:0:0:0:
320,64,81263,1,0,0:0:0:0:
320,64,81347,1,0,0:0:0:0:
320,64,81516,1,0,0:0:0:0:
320,64,81684,1,8,0:0:0:0:
288,64,81853,1,0,0:0:0:0:
352,64,82021,1,4,0:0:0:0:
288,96,82190,1,8,0:0:0:0:
288,96,82358,1,8,0:0:0:0:
224,32,82527,1,0,0:0:0:0:
288,64,82864,1,0,0:0:0:0:
288,64,82948,1,8,0:0:0:0:
288,64,83033,1,8,0:0:0:0:
288,64,83201,1,8,0:0:0:0:
288,64,83370,1,0,0:0:0:0:
224,128,83707,1,0,0:0:0:0:
256,128,83875,1,8,0:0:0:0:
256,128,84044,1,8,0:0:0:0:
224,96,84212,1,0,0:0:0:0:
224,96,84549,1,0,0:0:0:0:
224,96,84718,1,8,0:0:0:0:
224,96,84887,1,8,0:0:0:0:
224,96,85055,1,0,0:0:0:0:
256,96,85224,1,8,0:0:0:0:
256,96,85308,1,8,0:0:0:0:
256,96,85392,1,0,0:0:0:0:
256,96,85476,1,0,0:0:0:0:
256,96,85561,1,0,0:0:0:0:
256,96,85645,1,0,0:0:0:0:
256,96,85729,1,8,0:0:0:0:
288,96,85814,1,8,0:0:0:0:
256,96,85982,1,8,0:0:0:0:
256,96,86066,1,0,0:0:0:0:
128,128,86235,1,0,0:0:0:0:
256,96,86403,1,8,0:0:0:0:
288,64,86572,1,0,0:0:0:0:
288,96,86740,1,0,0:0:0:0:
288,128,86909,1,8,0:0:0:0:
288,128,86993,1,8,0:0:0:0:
288,128,87078,1,0,0:0:0:0:
288,128,87162,1,0,0:0:0:0:
288,96,87246,1,0,0:0:0:0:
288,96,87330,1,0,0:0:0:0:
288,96,87415,1,0,0:0:0:0:
256,96,87752,1,8,0:0:0:0:
256,96,87920,1,0,0:0:0:0:
352,128,88005,1,0,0:0:0:0:
256,96,88089,1,0,0:0:0:0:
256,96,88257,1,8,0:0:0:0:
256,96,88426,1,8,0:0:0:0:
192,96,88594,1,0,0:0:0:0:
320,96,88679,1,0,0:0:0:0:
192,96,88763,1,0,0:0:0:0:
224,96,89100,1,8,0:0:0:0:
288,128,89269,1,0,0:0:0:0:
128,160,89606,1,0,0:0:0:0:
288,128,89774,1,8,0:0:0:0:
288,128,89943,1,0,0:0:0:0:
288,128,90111,1,0,0:0:0:0:
352,64,90448,1,8,0:0:0:0:
352,64,90785,1,0,0:0:0:0:
352,64,90954,1,0,0:0:0:0:
352,96,91122,1,8,0:0:0:0:
352,96,91291,1,0,0:0:0:0:
288,64,91628,1,8,0:0:0:0:
288,64,91797,1,0,0:0:0:0:
288,64,91965,1,12,0:0:0:0:
288,96,92134,1,0,0:0:0:0:
288,96,92302,1,8,0:0:0:0:
288,96,92471,1,12,0:0:0:0:
256,128,92639,1,0,0:0:0:0:
256,96,92808,1,4,0:0:0:0:
256,192,93145,1,8,0:0:0:0:
192,96,93313,1,0,0:0:0:0:
384,96,93398,1,0,0:0:0:0:
256,96,93482,1,0,0:0:0:0:
256,96,93650,1,8,0:0:0:0:
256,96,93819,1,8,0:0:0:0:
288,64,93988,1,0,0:0:0:0:
256,128,94072,1,0,0:0:0:0:
320,128,94156,1,0,0:0:0:0:
320,128,94493,1,8,0:0:0:0:
352,128,94662,1,0,0:0:0:0:
352,96,94999,1,0,0:0:0:0:
352,96,95167,1,8,0:0:0:0:
352,128,95336,1,0,0:0:0:0:
384,128,95504,1,0,0:0:0:0:
384,160,95673,1,8,0:0:0:0:
384,160,95715,1,0,0:0:0:0:
224,32,95842,1,0,0:0:0:0:
224,32,96010,1,8,0:0:0:0:
256,96,96179,1,8,0:0:0:0:
256,96,96221,1,0,0:0:0:0:
320,96,96347,1,0,0:0:0:0:
320,96,96516,1,8,0:0:0:0:
352,128,96684,1,0,0:0:0:0:
288,96,96853,1,8,0:0:0:0:
320,32,97021,1,8,0:0:0:0:
288,96,97064,1,0,0:0:0:0:
320,64,97190,1,0,0:0:0:0:
320,64,97358,1,8,0:0:0:0:
256,96,97443,1,0,0:0:0:0:
256,128,97527,1,0,0:0:0:0:
256,96,97611,1,0,0:0:0:0:
224,64,97696,1,0,0:0:0:0:
224,64,97780,1,8,0:0:0:0:
288,128,97864,1,12,0:0:0:0:
288,128,98032,1,0,0:0:0:0:
288,128,98201,1,4,0:0:0:0:
320,96,98538,1,8,0:0:0:0:
320,96,98707,1,0,0:0:0:0:
192,64,98791,1,0,0:0:0:0:
320,96,98875,1,0,0:0:0:0:
320,96,99044,1,8,0:0:0:0:
320,96,99212,1,8,0:0:0:0:
320,32,99381,1,0,0:0:0:0:
320,160,99465,1,0,0:0:0:0:
320,96,99549,1,0,0:0:0:0:
352,96,99886,1,8,0:0:0:0:
352,96,100055,1,0,0:0:0:0:
320,64,100392,1,0,0:0:0:0:
352,128,100561,1,8,0:0:0:0:
352,128,100729,1,0,0:0:0:0:
352,128,100898,1,0,0:0:0:0:
352,160,101235,1,8,0:0:0:0:
320,160,101572,1,0,0:0:0:0:
352,128,101740,1,0,0:0:0:0:
352,128,101909,1,8,0:0:0:0:
352,128,102077,1,0,0:0:0:0:
352,128,102415,1,0,0:0:0:0:
256,96,102583,1,8,0:0:0:0:
384,96,102752,1,8,0:0:0:0:
384,96,102836,1,8,0:0:0:0:
320,64,102920,1,0,0:0:0:0:
320,64,103089,1,0,0:0:0:0:
224,64,103173,1,0,0:0:0:0:
320,64,103257,1,8,0:0:0:0:
320,64,103341,1,8,0:0:0:0:
320,96,103426,1,0,0:0:0:0:
320,96,103510,1,0,0:0:0:0:
320,96,103594,1,4,0:0:0:0:
192,96,103931,1,8,0:0:0:0:
256,64,104100,1,0,0:0:0:0:
256,64,104184,1,0,0:0:0:0:
256,96,104268,1,0,0:0:0:0:
256,96,104437,1,8,0:0:0:0:
256,96,104606,1,8,0:0:0:0:
256,96,104774,1,0,0:0:0:0:
416,128,104858,1,0,0:0:0:0:
256,96,104943,1,0,0:0:0:0:
416,128,105196,1,0,0:0:0:0:
352,96,105280,1,8,0:0:0:0:
352,96,105448,1,0,0:0:0:0:
256,128,105785,1,0,0:0:0:0:
256,128,105954,1,8,0:0:0:0:
224,160,106122,1,8,0:0:0:0:
224,96,106207,1,0,0:0:0:0:
288,128,106291,1,0,0:0:0:0:
448,96,106628,1,8,0:0:0:0:
448,96,106797,1,0,0:0:0:0:
448,96,106881,1,0,0:0:0:0:
448,96,106965,1,0,0:0:0:0:
320,96,107134,1,0,0:0:0:0:
320,96,107302,1,8,0:0:0:0:
320,96,107471,1,0,0:0:0:0:
