osu file format v14

[General]
AudioFilename: Gugure! Kokkuri-san OP.mp3
AudioLeadIn: 0
PreviewTime: 56695
Countdown: 0
SampleSet: Normal
StackLeniency: 0.7
Mode: 0
LetterboxInBreaks: 0
WidescreenStoryboard: 0

[Editor]
DistanceSpacing: 1.5
BeatDivisor: 4
GridSize: 4
TimelineZoom: 1

[Metadata]
Title:Welcome!!DISCO Kemokemoke
TitleUnicode:Welcome!!DISCOけもけもけ
Artist:Ono Daisuke / Sakurai Takahiro & Nakata Jouji
ArtistUnicode:小野大輔/櫻井孝宏&中田譲治
Creator:Kei
Version:Insane
Source:繰繰れ!コックリさん
Tags:gugure kokkuri-san opening tv size ichimatsu kohina shigaraki inugami Rilene
BeatmapID:877459
BeatmapSetID:403517

[Difficulty]
HPDrainRate:6.5
CircleSize:4
OverallDifficulty:7.5
ApproachRate:8.5
SliderMultiplier:1.9
SliderTickRate:1

[Events]
//Background and Video events
0,0,"bg3.jpg",0,0
Video,635,"video.flv"
//Break Periods
//Storyboard Layer 0 (Background)
//Storyboard Layer 1 (Fail)
//Storyboard Layer 2 (Pass)
//Storyboard Layer 3 (Foreground)
//Storyboard Sound Samples

[TimingPoints]
2400,437.956204379562,4,1,1,75,1,0
5903,-100,4,1,1,75,0,0
16414,-100,4,1,1,65,0,0
17071,-100,4,1,1,75,0,0
17728,-100,4,1,1,95,0,0
18166,-100,4,1,1,75,0,0
30429,-100,4,1,1,65,0,0
31086,-100,4,1,1,75,0,0
31743,-100,4,1,1,95,0,0
32181,-100,4,1,1,75,0,0
54954,-100,4,1,1,65,0,0
55611,-100,4,1,1,75,0,0
56268,-100,4,1,1,95,0,0
56706,-100,4,1,1,75,0,1
63713,-100,4,1,1,75,0,0
70721,-100,4,1,1,75,0,1
77728,-100,4,1,1,75,0,0

[Colours]
Combo1 : 255,128,0
Combo2 : 179,0,0
Combo3 : 238,211,23
Combo4 : 12,112,233

[HitObjects]
128,152,2400,5,0,1:0:0:0:
216,304,2728,1,0,1:0:0:0:
304,72,3056,1,0,1:0:0:0:
312,80,3494,5,8,0:0:0:0:
128,256,3713,1,8,0:0:0:0:
192,40,4151,5,0,1:0:0:0:
328,224,4480,1,0,1:0:0:0:
64,96,4808,1,0,1:0:0:0:
72,104,5246,5,8,0:0:0:0:
20,336,5465,1,8,0:0:0:0:
268,316,5903,6,0,P|324:312|356:288,1,95
368,148,6341,2,0,P|332:108|292:92,1,95,8|0,0:0|0:0,0:0:0:0:
152,92,6779,1,0,0:0:0:0:
256,244,6998,1,0,0:0:0:0:
336,32,7217,1,8,0:0:0:0:
384,260,7436,1,0,0:0:0:0:
384,260,7655,1,0,0:0:0:0:
228,56,7874,6,0,P|198:24|140:8,1,95,0|8,0:0|0:0,0:0:0:0:
368,148,8312,2,0,P|412:124|432:80,1,95,0|8,0:0|0:0,0:0:0:0:
208,224,8750,2,0,P|192:268|196:316,1,95,0|8,0:0|0:0,0:0:0:0:
410,324,9188,6,0,P|426:256|422:220,1,95,8|2,0:0|2:0,0:0:0:0:
80,80,9845,1,0,0:0:0:0:
432,80,10283,1,0,0:0:0:0:
256,168,10721,1,2,2:0:0:0:
256,168,11159,6,0,L|356:204,1,95,4|0,0:2|0:0,0:0:0:0:
484,240,11597,1,8,0:0:0:0:
396,352,11816,1,0,0:0:0:0:
252,344,12035,2,0,P|200:324|168:272,1,95
140,156,12472,1,8,0:0:0:0:
276,200,12691,1,0,0:0:0:0:
56,260,12910,5,0,0:0:0:0:
40,120,13129,1,0,0:0:0:0:
168,56,13348,2,0,P|208:68|240:120,1,95,8|0,0:0|0:0,0:0:0:0:
244,252,13786,1,0,0:0:0:0:
116,188,14005,5,8,0:0:0:0:
296,56,14224,1,8,0:0:0:0:
296,56,14662,6,0,P|332:112|388:132,1,95,4|0,0:0|0:3,0:3:0:0:
488,184,15100,1,8,0:0:0:0:
432,316,15319,2,0,P|356:364|312:352,1,95
224,304,15757,1,0,0:0:0:0:
244,164,15976,1,8,0:0:0:0:
348,260,16195,1,0,0:0:0:0:
168,360,16414,5,2,1:0:0:0:
152,128,16633,1,2,0:0:0:0:
300,312,16852,1,2,0:0:0:0:
76,236,17071,1,2,0:0:0:0:
76,236,17181,1,2,0:0:0:0:
76,236,17290,1,2,0:0:0:0:
280,200,17509,1,2,0:0:0:0:
132,48,17728,1,2,0:0:0:0:
176,248,17947,1,2,0:0:0:0:
340,120,18166,6,0,P|368:80|376:32,1,95,4|0,0:0|0:0,0:0:0:0:
232,48,18604,2,0,P|188:120|196:160,1,95,8|0,0:0|0:0,0:0:0:0:
232,264,19042,1,0,0:0:0:0:
124,356,19261,1,0,0:0:0:0:
40,240,19480,2,0,P|24:188|32:136,1,95,8|0,0:0|0:0,0:0:0:0:
92,20,19918,5,0,0:0:0:0:
198,116,20137,2,0,P|287:163|383:167,1,190
508,116,20794,2,0,L|484:24,1,95,0|8,0:0|0:0,0:0:0:0:
353,261,21232,2,0,L|375:168,1,95,8|0,0:0|0:0,0:0:0:0:
188,32,21670,6,0,P|234:36|270:66,1,95,4|0,0:0|0:0,0:0:0:0:
276,208,22108,1,8,0:0:0:0:
200,328,22327,1,0,0:0:0:0:
96,232,22545,2,0,P|76:192|84:84,1,142.5
100,64,22983,2,0,P|160:108|220:116,1,95,8|0,0:0|0:0,0:0:0:0:
336,112,23421,5,0,0:0:0:0:
412,232,23640,1,0,0:0:0:0:
292,308,23859,1,8,0:0:0:0:
336,112,24078,1,0,0:0:0:0:
384,344,24297,1,0,0:0:0:0:
244,176,24516,1,0,0:0:0:0:
212,340,24735,1,8,0:0:0:0:
212,340,24845,1,0,2:0:0:0:
212,340,24954,1,0,0:0:0:0:
128,120,25173,6,0,P|88:96|40:92,1,95
48,236,25611,1,8,0:0:0:0:
184,284,25830,1,0,0:0:0:0:
272,172,26049,2,0,P|320:120|360:96,1,95
364,108,26378,2,0,P|420:192|476:212,1,142.5
484,44,26925,5,0,0:0:0:0:
232,144,27144,1,8,0:0:0:0:
344,12,27363,1,8,0:0:0:0:
344,244,27582,1,0,0:0:0:0:
212,304,27801,2,0,P|120:300|84:276,1,95
92,284,28129,1,0,0:0:0:0:
68,256,28239,1,8,0:0:0:0:
16,68,28458,1,0,0:0:0:0:
212,100,28677,5,4,0:0:0:0:
340,256,28896,1,0,0:0:0:0:
276,28,29115,1,8,0:0:0:0:
232,308,29334,1,0,0:0:0:0:
308,136,29553,1,0,0:0:0:0:
144,244,29772,1,0,0:0:0:0:
104,56,29991,1,8,0:0:0:0:
104,56,30210,1,0,0:0:0:0:
228,184,30429,5,2,0:0:0:0:
336,308,30648,1,2,0:0:0:0:
300,128,30867,1,2,0:0:0:0:
260,344,31086,1,2,0:0:0:0:
260,344,31195,1,2,0:0:0:0:
260,344,31305,1,2,0:0:0:0:
428,268,31524,1,2,0:0:0:0:
224,100,31743,1,2,0:0:0:0:
316,260,31962,1,2,0:0:0:0:
400,132,32181,5,4,0:0:0:0:
328,12,32399,1,0,0:0:0:0:
200,76,32618,2,0,P|152:96|96:108,1,95,8|0,0:0|0:0,0:0:0:0:
12,212,33056,2,0,L|52:304,1,95
64,328,33385,2,0,P|136:324|208:264,1,142.5
268,164,33932,5,0,0:0:0:0:
156,32,34151,1,0,0:0:0:0:
168,212,34370,1,8,0:0:0:0:
260,48,34589,1,0,0:0:0:0:
260,48,34699,1,0,0:0:0:0:
260,48,34808,1,0,0:0:0:0:
288,268,35027,1,8,0:0:0:0:
112,128,35246,1,8,0:0:0:0:
252,152,35465,1,0,0:0:0:0:
164,240,35684,6,0,P|92:280|44:280,1,95,4|0,0:0|0:0,0:0:0:0:
180,72,36122,1,8,0:0:0:0:
272,180,36341,1,0,0:0:0:0:
404,256,36560,2,0,P|480:268|528:248,1,95,4|0,0:0|0:0,0:0:0:0:
396,100,36998,1,8,0:0:0:0:
272,180,37217,1,0,0:0:0:0:
144,232,37436,6,0,P|72:240|32:216,1,95,4|0,0:0|0:0,0:0:0:0:
272,180,37874,2,0,P|280:236|264:276,1,95,8|0,0:0|0:0,0:0:0:0:
168,80,38312,2,0,P|208:48|252:44,1,95,0|2,0:0|0:0,0:0:0:0:
384,84,38750,1,8,0:0:0:0:
328,276,38969,1,2,0:0:0:0:
168,204,39188,5,4,0:0:0:0:
284,120,39407,1,0,0:0:0:0:
416,172,39626,2,0,L|520:200,1,95,8|0,0:0|0:0,0:0:0:0:
332,240,40064,2,0,L|180:192,1,142.5
168,204,40502,2,0,P|116:244|52:244,1,95,8|0,0:0|0:0,0:0:0:0:
76,104,40940,5,0,0:0:0:0:
208,52,41159,1,0,0:0:0:0:
276,176,41378,2,0,P|331:209|371:213,1,95,8|0,0:0|0:0,0:0:0:0:
208,52,41816,2,0,P|140:124|140:140,1,95,0|8,0:0|0:0,0:0:0:0:
128,256,42254,1,8,0:0:0:0:
244,340,42472,1,0,0:0:0:0:
344,240,42691,6,0,P|380:208|444:184,2,95,4|0|8,0:0|0:0|0:0,0:0:0:0:
244,340,43348,1,0,0:0:0:0:
256,200,43567,1,0,0:0:0:0:
168,88,43786,1,0,0:0:0:0:
40,148,44005,2,0,L|8:248,1,95,8|0,0:0|0:0,0:0:0:0:
112,340,44443,6,0,L|168:252,1,95
180,232,44772,1,0,0:0:0:0:
200,204,44881,2,0,P|256:180|296:180,1,95,8|0,0:0|0:0,0:0:0:0:
428,216,45319,1,8,0:0:0:0:
428,216,45429,1,0,0:0:0:0:
428,216,45538,1,0,0:0:0:0:
320,308,45757,1,8,0:0:0:0:
412,88,45976,1,0,0:0:0:0:
424,352,46195,5,0,0:0:0:0:
32,256,46633,1,8,0:0:0:0:
212,36,47071,2,0,P|296:96|348:108,1,142.5
368,112,47509,1,8,0:0:0:0:
244,360,47947,5,0,0:0:0:0:
148,92,48385,1,8,0:0:0:0:
436,180,48823,2,0,P|408:260|348:292,1,142.5
332,296,49261,1,8,0:0:0:0:
92,144,49699,5,0,0:0:0:0:
344,12,50137,1,8,0:0:0:0:
248,280,50575,1,0,0:0:0:0:
12,117,51013,2,0,P|41:80|80:52,1,95,8|0,0:0|0:0,0:0:0:0:
240,152,51451,5,0,0:0:0:0:
468,48,51889,1,8,0:0:0:0:
448,332,52327,1,0,0:0:0:0:
260,36,52764,1,8,0:0:0:0:
96,312,53202,5,0,0:0:0:0:
68,28,53531,1,0,0:0:0:0:
232,228,53859,1,0,0:0:0:0:
232,228,54078,5,0,0:0:0:0:
0,192,54407,1,0,0:0:0:0:
244,84,54735,1,0,0:0:0:0:
428,224,54954,5,2,0:0:0:0:
304,24,55173,1,2,0:0:0:0:
364,288,55392,1,2,0:0:0:0:
380,52,55611,1,2,0:0:0:0:
380,52,55721,1,2,0:0:0:0:
380,52,55830,1,2,0:0:0:0:
288,268,56049,1,2,0:0:0:0:
248,68,56268,1,2,0:0:0:0:
428,224,56487,1,2,0:0:0:0:
160,212,56706,5,4,0:0:0:0:
20,244,56925,1,0,0:0:0:0:
72,112,57144,2,0,P|120:80|180:80,1,95,8|0,0:0|0:0,0:0:0:0:
160,212,57582,2,0,L|108:360,2,142.5
228,88,58458,1,0,0:0:0:0:
372,80,58677,1,0,0:0:0:0:
396,216,58896,2,0,P|456:260|500:272,1,95,8|0,0:0|0:0,0:0:0:0:
484,124,59334,1,0,0:0:0:0:
256,48,59553,5,8,0:0:0:0:
284,256,59772,1,12,0:0:0:0:
284,256,60210,6,0,P|196:224|172:196,1,95
96,124,60648,1,8,0:0:0:0:
196,24,60867,1,0,0:0:0:0:
320,92,61086,2,0,P|408:124|468:112,2,142.5
196,24,61962,1,4,0:0:0:0:
188,168,62181,1,0,0:0:0:0:
104,284,62399,2,0,P|56:288|0:248,1,95,8|0,0:0|0:0,0:0:0:0:
188,168,62837,5,12,0:0:0:0:
432,328,63275,1,8,0:0:0:0:
408,56,63713,5,4,0:0:0:0:
288,260,64042,1,0,0:0:0:0:
260,40,64370,1,0,0:0:0:0:
260,40,64808,5,8,0:0:0:0:
384,216,65027,1,8,0:0:0:0:
32,336,65465,5,4,0:0:0:0:
100,80,65794,1,0,0:0:0:0:
224,312,66122,1,0,0:0:0:0:
224,312,66560,5,8,0:0:0:0:
36,164,66779,1,8,0:0:0:0:
300,56,67217,6,0,P|344:36|404:40,1,95
376,180,67655,1,8,0:0:0:0:
228,264,67874,1,0,0:0:0:0:
228,264,67983,1,0,0:0:0:0:
228,264,68093,1,0,0:0:0:0:
224,120,68312,1,0,0:0:0:0:
312,208,68531,2,0,P|328:256|320:300,1,95,8|0,0:0|0:0,0:0:0:0:
304,328,68859,1,0,0:0:0:0:
276,348,68969,1,0,0:0:0:0:
80,216,69188,5,4,2:0:0:0:
256,60,69407,1,0,0:0:0:0:
256,60,69516,1,0,0:0:0:0:
464,216,69845,1,4,0:2:0:0:
356,308,70064,1,0,0:0:0:0:
236,232,70283,2,0,P|224:184|256:136,1,95,8|0,0:0|0:0,0:0:0:0:
356,308,70721,6,0,P|312:356|280:364,1,95,4|0,0:0|0:0,0:0:0:0:
144,352,71159,1,8,0:0:0:0:
96,216,71378,1,0,0:0:0:0:
216,140,71597,2,0,P|252:208|240:244,2,95,0|0|8,0:0|0:0|0:0,0:0:0:0:
220,332,72254,6,0,P|304:316|356:228,1,190
332,92,72910,1,8,0:0:0:0:
192,112,73129,1,0,0:0:0:0:
276,224,73348,1,0,0:0:0:0:
248,16,73567,5,8,0:0:0:0:
184,244,73786,1,8,0:0:0:0:
184,244,74224,6,0,P|96:220|76:192,1,95,4|0,0:0|0:0,0:0:0:0:
84,76,74662,1,8,0:0:0:0:
220,24,74881,1,0,0:0:0:0:
272,156,75100,2,0,P|340:216|408:232,1,142.5
420,232,75538,2,0,P|440:176|436:120,1,95,8|0,0:0|0:0,0:0:0:0:
324,20,75976,5,4,0:0:0:0:
244,300,76305,1,0,0:0:0:0:
88,36,76633,1,0,0:0:0:0:
48,272,76852,5,0,0:0:0:0:
184,112,77071,1,8,0:0:0:0:
4,148,77290,1,8,0:0:0:0:
164,312,77509,1,0,0:0:0:0:
164,312,77728,5,0,0:0:0:0:
276,44,78056,1,0,0:0:0:0:
396,320,78385,1,0,0:0:0:0:
396,320,78823,5,8,0:0:0:0:
192,144,79042,1,8,0:0:0:0:
36,328,79480,5,8,0:0:0:0:
108,52,79808,1,0,0:0:0:0:
248,288,80137,1,0,0:0:0:0:
248,288,80575,5,8,0:0:0:0:
16,180,80794,1,8,0:0:0:0:
320,176,81232,6,0,P|376:168|420:128,1,95,4|0,0:0|0:0,0:0:0:0:
320,32,81670,1,8,0:0:0:0:
196,104,81889,1,0,0:0:0:0:
156,240,82108,2,0,L|76:324,1,95
308,212,82545,2,0,L|380:132,1,95,8|0,0:0|0:0,0:0:0:0:
460,28,82983,5,0,0:0:0:0:
384,304,83202,1,4,0:0:0:0:
212,96,83421,1,8,0:0:0:0:
468,216,83640,1,0,0:0:0:0:
256,268,83859,1,8,0:0:0:0:
304,24,84078,1,0,0:0:0:0:
384,304,84297,1,8,0:0:0:0:
384,304,84735,6,0,P|236:321|226:312,1,142.5,4|0,0:0|0:0,0:0:0:0:
226,320,85173,2,0,P|209:268|212:213,1,95,8|0,0:0|0:0,0:0:0:0:
278,103,85611,1,0,0:0:0:0:
278,103,85721,1,0,0:0:0:0:
408,168,85940,1,0,0:0:0:0:
439,200,86049,1,8,0:0:0:0:
456,244,86159,1,0,0:0:0:0:
456,292,86268,1,0,0:0:0:0:
304,360,86487,5,4,0:3:0:0:
304,360,86597,1,4,0:3:0:0:
304,360,86706,1,4,0:3:0:0:
184,168,86925,5,4,0:0:0:0:
