osu file format v14

[General]
AudioFilename: Gugure! Kokkuri-san OP.mp3
AudioLeadIn: 0
PreviewTime: 56695
Countdown: 0
SampleSet: Normal
StackLeniency: 0.7
Mode: 0
LetterboxInBreaks: 0
WidescreenStoryboard: 0

[Editor]
DistanceSpacing: 1.2
BeatDivisor: 4
GridSize: 4
TimelineZoom: 1

[Metadata]
Title:Welcome!!DISCO Kemokemoke
TitleUnicode:Welcome!!DISCOけもけもけ
Artist:Ono Daisuke / Sakurai Takahiro & Nakata Jouji
ArtistUnicode:小野大輔/櫻井孝宏&中田譲治
Creator:Kei
Version:Hard
Source:繰繰れ!コックリさん
Tags:gugure kokkuri-san opening tv size ichimatsu kohina shigaraki inugami Rilene
BeatmapID:877740
BeatmapSetID:403517

[Difficulty]
HPDrainRate:5.5
CircleSize:4
OverallDifficulty:6
ApproachRate:7
SliderMultiplier:1.7
SliderTickRate:1

[Events]
//Background and Video events
0,0,"bg3.jpg",0,0
Video,635,"video.flv"
//Break Periods
//Storyboard Layer 0 (Background)
//Storyboard Layer 1 (Fail)
//Storyboard Layer 2 (Pass)
//Storyboard Layer 3 (Foreground)
//Storyboard Sound Samples

[TimingPoints]
2400,437.956204379562,4,1,1,75,1,0
5903,-100,4,1,1,75,0,0
16414,-100,4,1,1,65,0,0
17071,-100,4,1,1,75,0,0
17728,-100,4,1,1,95,0,0
18166,-100,4,1,1,75,0,0
30429,-100,4,1,1,65,0,0
31086,-100,4,1,1,75,0,0
31743,-100,4,1,1,95,0,0
32181,-100,4,1,1,75,0,0
54954,-100,4,1,1,65,0,0
55611,-100,4,1,1,75,0,0
56268,-100,4,1,1,95,0,0
56706,-100,4,1,1,75,0,1
63713,-100,4,1,1,75,0,0
70721,-100,4,1,1,75,0,1
77728,-100,4,1,1,75,0,0

[Colours]
Combo1 : 255,128,0
Combo2 : 179,0,0
Combo3 : 238,211,23
Combo4 : 12,112,233

[HitObjects]
56,48,2400,5,4,0:0:0:0:
128,184,2728,1,0,0:0:0:0:
220,64,3056,1,0,0:0:0:0:
224,68,3494,6,0,L|300:128,1,85,8|8,0:0|0:0,0:0:0:0:
164,280,4151,5,4,0:0:0:0:
180,128,4480,1,0,0:0:0:0:
288,236,4808,1,0,0:0:0:0:
288,236,5246,6,0,L|388:256,1,85,8|8,0:0|0:0,0:0:0:0:
336,48,5903,6,0,L|248:32,1,85,4|0,0:0|0:0,0:0:0:0:
152,40,6341,1,8,0:0:0:0:
84,116,6560,1,0,0:0:0:0:
128,208,6779,2,0,P|172:224|212:216,1,85
260,128,7217,2,0,P|220:112|176:120,2,85,8|0|0,0:0|0:0|0:0,0:0:0:0:
360,232,7874,5,0,0:0:0:0:
456,204,8093,1,8,0:0:0:0:
384,132,8312,1,0,0:0:0:0:
360,232,8531,2,0,P|328:264|288:292,1,85,8|0,0:0|0:0,0:0:0:0:
192,296,8969,6,0,P|108:236|96:176,1,170,8|2,0:0|2:0,0:0:0:0:
256,8,9845,1,0,0:0:0:0:
420,184,10283,1,0,0:0:0:0:
256,360,10721,1,2,2:0:0:0:
256,360,11159,6,0,L|184:304,1,85
108,244,11597,1,8,0:0:0:0:
120,144,11816,1,0,0:0:0:0:
220,124,12035,2,0,P|300:108|328:84,1,85
392,64,12472,1,8,0:0:0:0:
468,132,12691,1,0,0:0:0:0:
424,224,12910,6,0,P|380:264|352:280,1,85
264,312,13348,1,8,0:0:0:0:
256,212,13567,1,0,0:0:0:0:
216,120,13786,2,0,P|184:104|128:92,1,85,0|8,0:0|0:0,0:0:0:0:
52,152,14224,2,0,P|44:204|60:256,1,85,8|0,0:0|2:0,0:0:0:0:
96,328,14662,6,0,P|132:348|180:360,1,85,4|0,0:0|0:0,0:0:0:0:
263,310,15100,2,0,L|279:223,1,85,8|0,0:0|0:0,0:0:0:0:
292,124,15538,1,0,0:0:0:0:
192,100,15757,1,0,0:0:0:0:
176,200,15976,1,8,0:0:0:0:
278,226,16195,1,0,0:0:0:0:
368,116,16414,5,2,0:0:0:0:
472,188,16633,1,2,0:0:0:0:
348,192,16852,1,2,0:0:0:0:
448,112,17071,2,0,L|464:68,2,42.5,2|2|2,0:0|0:0|0:0,0:0:0:0:
412,236,17509,1,2,0:0:0:0:
380,340,17728,1,2,0:0:0:0:
272,356,17947,1,2,0:0:0:0:
144,288,18166,6,0,L|76:220,1,85,4|0,0:0|0:0,0:0:0:0:
24,144,18604,1,8,0:0:0:0:
76,56,18823,1,0,0:0:0:0:
172,92,19042,2,0,P|236:104|280:96,1,85
356,88,19480,2,0,P|384:136|384:192,1,85,8|0,0:0|0:0,0:0:0:0:
384,268,19918,5,0,0:0:0:0:
284,280,20137,2,0,B|200:264|200:264|132:212,1,170
72,132,20794,2,0,P|32:192|32:208,1,85,0|8,0:0|0:0,0:0:0:0:
132,212,21232,2,0,P|160:176|168:136,1,85,8|0,0:0|0:0,0:0:0:0:
160,36,21670,5,4,0:0:0:0:
264,36,21889,1,0,0:0:0:0:
344,100,22108,2,0,P|388:120|448:116,1,85,8|0,0:0|0:0,0:0:0:0:
436,224,22545,2,0,P|344:220|276:172,1,170,0|8,0:0|0:0,0:0:0:0:
204,112,23202,2,0,P|112:180|108:244,1,170
144,324,23859,1,8,0:0:0:0:
244,348,24078,1,0,0:0:0:0:
312,272,24297,2,0,P|372:212|396:208,2,85,0|0|8,0:0|0:0|0:0,0:0:0:0:
408,308,24954,1,0,0:0:0:0:
444,212,25173,6,0,P|428:168|384:140,1,85,4|0,0:0|0:0,0:0:0:0:
316,88,25611,1,8,0:0:0:0:
244,160,25830,1,0,0:0:0:0:
148,124,26049,2,0,L|60:72,1,85
28,64,26378,2,0,P|4:124|16:220,1,127.5
52,276,26925,5,0,0:0:0:0:
152,256,27144,1,0,0:0:0:0:
252,264,27363,2,0,P|284:300|320:312,1,85,8|0,0:0|0:0,0:0:0:0:
376,228,27801,2,0,P|344:192|280:172,1,85
272,168,28129,2,0,L|192:68,1,127.5
100,20,28677,5,4,0:0:0:0:
76,120,28896,1,0,0:0:0:0:
120,212,29115,2,0,P|184:248|208:256,1,85,8|0,0:0|0:0,0:0:0:0:
244,164,29553,2,0,P|180:128|156:120,2,85,0|0|8,0:0|0:0|0:0,0:0:0:0:
292,256,30210,1,0,0:0:0:0:
412,176,30429,5,2,0:0:0:0:
344,76,30648,1,2,0:0:0:0:
460,120,30867,1,2,0:0:0:0:
344,152,31086,2,0,L|290:166,2,42.5,2|2|2,0:0|0:0|0:0,0:0:0:0:
416,60,31524,1,2,0:0:0:0:
412,176,31743,1,2,0:0:0:0:
384,292,31962,1,2,0:0:0:0:
216,288,32181,6,0,P|168:268|124:208,1,127.5,4|0,0:0|0:0,0:0:0:0:
116,172,32618,2,0,L|140:84,1,85,8|0,0:0|0:0,0:0:0:0:
240,96,33056,2,0,P|276:120|336:124,1,85
356,132,33385,2,0,P|392:188|404:248,1,127.5
380,348,33932,1,0,0:0:0:0:
276,348,34151,1,0,0:0:0:0:
188,296,34370,2,0,P|100:312|84:328,1,85,8|0,0:0|0:0,0:0:0:0:
68,320,34699,2,8,L|36:184,1,127.5,0|8,0:0|0:0,0:0:0:0:
4,100,35246,6,0,P|44:92|88:108,1,85,8|0,0:0|0:0,0:0:0:0:
180,144,35684,2,0,P|252:168|348:116,1,170,4|8,0:0|0:0,0:0:0:0:
412,64,36341,1,0,0:0:0:0:
472,148,36560,2,0,P|440:244|368:296,1,170,0|8,0:0|0:0,0:0:0:0:
292,312,37217,1,0,0:0:0:0:
240,224,37436,2,0,P|248:176|280:140,1,85,4|0,0:0|0:0,0:0:0:0:
372,140,37874,2,0,P|364:188|332:224,2,85,8|0|0,0:0|0:0|0:0,0:0:0:0:
312,56,38531,5,2,0:0:0:0:
196,224,38969,1,2,0:0:0:0:
256,304,39188,5,4,0:0:0:0:
356,292,39407,1,0,0:0:0:0:
384,196,39626,2,0,L|400:100,1,85,8|0,0:0|0:0,0:0:0:0:
316,52,40064,2,0,P|276:68|252:100,1,85
192,184,40502,1,8,0:0:0:0:
192,184,40721,2,0,P|260:208|288:296,1,170
216,368,41378,2,0,P|144:356|100:272,1,170,8|0,0:0|0:0,0:0:0:0:
92,172,42035,1,8,0:0:0:0:
120,72,42254,2,0,P|164:56|216:56,1,85,8|0,0:0|2:0,0:0:0:0:
304,36,42691,6,0,L|356:104,1,85,4|0,0:0|0:0,0:0:0:0:
420,184,43129,1,8,0:0:0:0:
368,272,43348,1,0,0:0:0:0:
268,284,43567,2,0,P|220:276|188:256,1,85
116,188,44005,2,0,P|88:236|88:268,1,85,8|0,0:0|0:0,0:0:0:0:
189,257,44443,6,0,P|217:205|217:177,1,85
160,96,44881,1,8,0:0:0:0:
244,36,45100,1,0,0:0:0:0:
296,124,45319,2,0,P|356:160|396:168,2,85,0|0|8,0:0|0:0|0:0,0:0:0:0:
244,36,45976,1,0,0:0:0:0:
217,180,46195,5,0,0:0:0:0:
352,332,46633,1,8,0:0:0:0:
472,168,47071,1,0,0:0:0:0:
328,24,47509,1,8,0:0:0:0:
200,184,47947,5,0,0:0:0:0:
68,28,48385,1,8,0:0:0:0:
256,104,48823,2,0,P|324:124|388:160,1,127.5
396,164,49261,1,8,0:0:0:0:
288,336,49699,5,0,0:0:0:0:
180,164,50137,1,8,0:0:0:0:
124,360,50575,1,0,0:0:0:0:
272,220,51013,2,0,L|344:144,1,85,8|0,0:0|0:0,0:0:0:0:
400,80,51451,5,0,0:0:0:0:
196,64,51889,1,8,0:0:0:0:
200,268,52327,1,0,0:0:0:0:
404,292,52764,1,8,0:0:0:0:
200,268,53202,6,0,P|160:292|72:304,2,127.5
296,236,54078,2,0,P|356:212|424:220,2,127.5
216,172,54954,5,2,0:0:0:0:
228,52,55173,1,2,0:0:0:0:
292,156,55392,1,2,0:0:0:0:
176,108,55611,2,0,L|112:80,2,42.5,2|2|2,0:0|0:0|0:0,0:0:0:0:
296,80,56049,1,2,0:0:0:0:
392,140,56268,1,2,0:0:0:0:
412,256,56487,1,2,0:0:0:0:
280,332,56706,6,0,P|240:320|192:284,1,85,4|0,0:0|0:0,0:0:0:0:
120,240,57144,1,8,0:0:0:0:
112,140,57363,1,0,0:0:0:0:
204,184,57582,2,0,P|296:224|352:216,2,127.5
192,84,58458,6,0,P|164:52|120:40,1,85
112,140,58896,1,8,0:0:0:0:
160,232,59115,1,0,0:0:0:0:
252,188,59334,1,0,0:0:0:0:
280,284,59553,1,8,0:0:0:0:
192,336,59772,1,8,0:0:0:0:
176,336,60210,6,0,P|128:332|84:304,1,85
36,232,60648,1,8,0:0:0:0:
88,144,60867,1,0,0:0:0:0:
188,168,61086,2,0,P|288:156|328:116,2,127.5
196,272,61962,2,0,P|284:268|356:228,1,170,0|8,0:0|0:0,0:0:0:0:
424,156,62618,1,0,0:0:0:0:
360,76,62837,5,12,0:0:0:0:
428,268,63275,1,8,0:0:0:0:
256,160,63713,5,4,0:0:0:0:
160,280,64042,1,0,0:0:0:0:
48,176,64370,1,0,0:0:0:0:
48,176,64808,6,0,L|108:104,1,85,8|8,0:0|0:0,0:0:0:0:
256,248,65465,5,4,0:0:0:0:
296,100,65794,1,0,0:0:0:0:
404,208,66122,1,0,0:0:0:0:
404,208,66560,6,0,L|364:300,1,85,8|8,0:0|0:0,0:0:0:0:
136,276,67217,6,0,P|88:252|56:208,1,85
28,136,67655,1,0,0:0:0:0:
96,60,67874,2,0,L|132:24,2,42.5
140,152,68312,1,0,0:0:0:0:
240,176,68531,2,0,P|308:164|352:140,1,85
412,108,68969,1,0,0:0:0:0:
348,28,69188,5,4,0:0:0:0:
196,28,69516,1,0,0:0:0:0:
240,176,69845,1,4,0:0:0:0:
240,176,70283,1,8,0:0:0:0:
376,60,70721,6,0,P|344:32|304:24,1,85,4|0,0:0|0:0,0:0:0:0:
300,128,71159,2,0,P|332:156|372:164,1,85,8|0,0:0|0:0,0:0:0:0:
444,236,71597,2,0,P|452:320|424:360,2,127.5
356,284,72472,6,0,P|288:320|208:280,1,170,0|8,0:0|0:0,0:0:0:0:
196,180,73129,1,0,0:0:0:0:
284,232,73348,1,0,0:0:0:0:
280,120,73567,1,8,0:0:0:0:
368,172,73786,1,8,0:0:0:0:
368,172,74224,6,0,P|384:132|380:92,1,85,4|0,0:0|0:0,0:0:0:0:
304,24,74662,1,8,0:0:0:0:
216,72,74881,1,0,0:0:0:0:
228,172,75100,2,0,L|288:284,2,127.5
216,72,75976,6,0,P|160:96|128:152,2,127.5,4|0|0,0:0|0:0|0:0,0:0:0:0:
228,172,76852,1,0,0:0:0:0:
168,256,77071,1,8,0:0:0:0:
68,248,77290,1,8,0:0:0:0:
28,156,77509,1,8,0:0:0:0:
128,152,77728,5,4,0:0:0:0:
244,252,78056,1,0,0:0:0:0:
288,104,78385,1,0,0:0:0:0:
288,104,78823,6,0,L|340:188,1,85,8|8,0:0|0:0,0:0:0:0:
160,324,79480,5,12,0:0:0:0:
140,172,79808,1,0,0:0:0:0:
32,280,80137,1,0,0:0:0:0:
32,280,80575,6,0,L|48:184,1,85,8|8,0:0|0:0,0:0:0:0:
248,84,81232,6,0,L|344:56,1,85,4|0,0:0|0:0,0:0:0:0:
308,160,81670,2,0,L|216:184,1,85,8|0,0:0|0:0,0:0:0:0:
128,212,82108,1,0,0:0:0:0:
128,312,82327,1,0,0:0:0:0:
224,340,82545,2,0,P|284:332|324:300,1,85,8|0,0:0|0:0,0:0:0:0:
376,248,82983,5,0,0:0:0:0:
336,152,83202,1,4,0:0:0:0:
240,188,83421,2,0,P|212:208|148:228,1,85,8|0,0:0|0:0,0:0:0:0:
248,96,83859,2,0,P|204:72|180:40,1,85
340,56,84297,2,0,P|380:32|428:24,1,85,8|0,0:0|0:0,0:0:0:0:
464,116,84735,6,0,P|432:148|396:164,1,85,4|0,0:0|0:0,0:0:0:0:
296,188,85173,2,0,P|244:228|228:292,1,127.5,8|0,0:0|2:0,0:0:0:0:
204,312,85611,2,0,L|56:296,2,127.5
304,328,86487,2,0,L|296:372,2,42.5,4|4|4,3:0|3:0|3:0,0:0:0:0:
364,244,86925,5,4,0:0:0:0:
