osu file format v14

[General]
AudioFilename: audio.mp3
AudioLeadIn: 0
PreviewTime: 56246
Countdown: 0
SampleSet: Soft
StackLeniency: 0.7
Mode: 0
LetterboxInBreaks: 0
WidescreenStoryboard: 0

[Editor]
Bookmarks: 11246,22033,32819,43606,48662,54392
DistanceSpacing: 1.8
BeatDivisor: 4
GridSize: 4
TimelineZoom: 1

[Metadata]
Title:Kouga Ninpou Chou (TV Size)
TitleUnicode:甲賀忍法帖 (TV Size)
Artist:Onmyouza
ArtistUnicode:陰陽座
Creator:realrubbishteen
Version:Insane
Source:バジリスク~甲賀忍法帖~
Tags:Basilisk Anime Matatabi
BeatmapID:2006957
BeatmapSetID:958555

[Difficulty]
HPDrainRate:5.5
CircleSize:4
OverallDifficulty:8
ApproachRate:9
SliderMultiplier:1.8
SliderTickRate:1

[Events]
//Background and Video events
Video,1264,"MV.avi"
0,0,"bg.jpg",0,0
//Break Periods
//Storyboard Layer 0 (Background)
//Storyboard Layer 1 (Fail)
//Storyboard Layer 2 (Pass)
//Storyboard Layer 3 (Foreground)
//Storyboard Sound Samples

[TimingPoints]
460,337.078651685393,4,2,0,60,1,0
57089,-90.9090909090909,4,2,0,70,0,1
65179,-83.3333333333333,4,2,0,70,0,1
67875,-90.9090909090909,4,2,0,70,0,1
78662,-100,4,2,0,60,0,0

[Colours]
Combo1 : 255,128,64
Combo2 : 128,255,0
Combo3 : 128,255,255
Combo4 : 255,128,128

[HitObjects]
68,68,460,6,0,P|152:48|242:95,1,180,4|0,0:0|0:0,0:0:0:0:
300,192,965,1,0,0:0:0:0:
300,192,1049,1,0,0:0:0:0:
300,192,1134,2,0,L|313:91,2,90,2|0|0,0:0|0:0|0:0,0:0:0:0:
172,148,1639,6,0,P|96:156|52:248,1,180,4|0,0:0|0:0,0:0:0:0:
160,248,2145,2,0,P|256:240|332:276,1,180,2|0,0:0|0:0,0:0:0:0:
416,344,2651,1,2,0:0:0:0:
416,344,2819,2,0,L|424:240,1,90,2|0,0:0|0:0,0:0:0:0:
328,96,3156,6,0,P|312:176|204:196,1,180,4|0,0:0|0:0,0:0:0:0:
244,120,3662,1,0,0:0:0:0:
428,172,3830,1,2,0:0:0:0:
424,216,3999,1,2,0:0:0:0:
420,260,4167,1,2,0:0:0:0:
253,345,4336,6,4,P|252:256|176:204,1,180,4|0,0:0|0:0,0:0:0:0:
72,112,4842,2,0,L|88:212,1,90
40,268,5094,1,0,0:0:0:0:
40,268,5179,1,2,0:0:0:0:
188,204,5347,1,2,0:0:0:0:
128,308,5516,1,0,0:0:0:0:
280,248,5684,1,0,0:0:0:0:
312,68,5853,6,0,P|312:148|384:212,1,180,4|0,0:0|0:0,0:0:0:0:
480,168,6358,1,0,0:0:0:0:
480,168,6443,1,0,0:0:0:0:
480,168,6527,2,0,L|464:284,2,90,2|0|0,0:0|0:0|0:0,0:0:0:0:
392,76,7033,2,0,P|300:76|260:164,1,180,4|0,0:0|0:0,0:0:0:0:
352,232,7538,2,0,P|308:296|212:284,1,180,2|0,0:0|0:0,0:0:0:0:
100,160,8044,1,0,0:0:0:0:
100,160,8212,2,0,L|164:232,1,90
316,212,8549,6,0,P|228:228|188:320,1,180,4|0,0:0|0:0,0:0:0:0:
284,307,9055,1,0,0:0:0:0:
288,312,9224,2,0,L|392:324,2,90,2|0|0,0:0|0:0|0:0,0:0:0:0:
118,350,9729,1,4,0:0:0:0:
64,72,10066,5,12,0:0:0:0:
184,152,10235,2,0,L|324:120,1,135,12|0,0:0|0:0,0:0:0:0:
376,68,10572,1,8,0:0:0:0:
340,292,10740,1,8,0:0:0:0:
244,180,10909,1,8,0:0:0:0:
456,232,11077,1,8,0:0:0:0:
220,168,11246,6,0,P|156:156|76:240,1,180,4|0,0:0|0:0,0:0:0:0:
176,256,11752,1,0,0:0:0:0:
328,152,11920,2,0,L|440:132,1,90,2|0,0:0|0:0,0:0:0:0:
256,60,12257,1,8,0:0:0:0:
280,248,12426,1,0,0:0:0:0:
248,164,12594,6,0,P|328:172|360:284,1,180,2|0,0:0|0:0,0:0:0:0:
280,248,13100,1,0,0:0:0:0:
160,152,13268,1,2,0:0:0:0:
128,148,13353,1,0,0:0:0:0:
96,144,13437,1,0,0:0:0:0:
168,264,13606,1,8,0:0:0:0:
252,80,13774,1,0,0:0:0:0:
352,212,13943,6,0,P|368:284|268:344,1,180,2|0,0:0|0:0,0:0:0:0:
280,256,14448,1,0,0:0:0:0:
284,144,14617,2,0,L|288:36,1,90,2|0,0:0|0:0,0:0:0:0:
196,244,14954,2,0,L|192:352,1,90,8|0,0:0|0:0,0:0:0:0:
176,136,15291,6,0,P|140:68|44:92,1,180
116,220,15797,1,0,0:0:0:0:
264,172,15965,1,2,0:0:0:0:
292,164,16049,1,0,0:0:0:0:
320,156,16134,1,0,0:0:0:0:
416,56,16303,2,0,L|329:81,1,90,12|0,0:0|0:0,0:0:0:0:
256,292,16639,6,0,P|324:236|400:304,1,180,4|0,0:0|0:0,0:0:0:0:
328,328,17145,1,0,0:0:0:0:
176,212,17313,2,0,L|55:191,1,90,2|0,0:0|0:0,0:0:0:0:
156,296,17651,1,8,0:0:0:0:
296,68,17819,1,0,0:0:0:0:
264,176,17988,6,0,P|328:228|396:168,1,180,2|0,2:0|2:0,2:0:0:0:
332,132,18493,1,0,0:0:0:0:
202,253,18662,1,0,0:0:0:0:
210,285,18746,1,0,0:0:0:0:
218,317,18830,1,0,0:0:0:0:
60,159,18999,2,0,L|40:63,1,90,8|0,0:0|0:0,0:0:0:0:
184,148,19336,6,0,P|252:216|320:180,1,180,2|0,0:0|0:0,0:0:0:0:
264,124,19842,1,0,0:0:0:0:
172,268,20010,2,0,L|48:288,1,90,2|0,0:0|0:0,0:0:0:0:
268,320,20347,2,0,L|388:296,1,90,8|0,0:0|0:0,0:0:0:0:
256,112,20684,5,0,0:0:0:0:
252,144,20768,1,0,0:0:0:0:
248,180,20853,1,0,0:0:0:0:
244,208,20937,1,0,0:0:0:0:
240,244,21021,2,0,L|224:352,1,90,8|0,0:0|0:0,0:0:0:0:
352,252,21358,5,8,0:0:0:0:
148,160,21527,1,8,0:0:0:0:
396,216,21695,1,8,0:0:0:0:
152,116,21864,1,8,0:0:0:0:
224,336,22033,1,4,0:0:0:0:
224,336,22370,6,0,P|284:268|244:192,1,180,8|2,0:0|0:0,0:0:0:0:
200,260,22875,1,0,0:0:0:0:
200,260,23044,1,8,0:0:0:0:
176,68,23212,2,0,L|192:264,1,180,2|0,0:0|0:0,0:0:0:0:
296,352,23718,2,0,P|308:300|340:252,1,90,8|0,0:0|0:0,0:0:0:0:
452,160,24055,2,0,L|352:168,1,90,2|0,0:0|0:0,0:0:0:0:
112,128,24392,2,0,P|200:156|214:258,1,180,8|2,0:0|0:0,0:0:0:0:
216,256,25066,6,0,L|395:236,1,180,8|2,0:0|0:0,0:0:0:0:
458,150,25571,1,0,0:0:0:0:
458,150,25740,1,8,0:0:0:0:
392,64,25909,2,0,P|346:133|380:220,1,180,2|0,0:0|0:0,0:0:0:0:
475,335,26414,2,0,P|433:315|391:314,1,90,8|0,0:0|0:0,0:0:0:0:
217,259,26752,2,0,P|257:279|301:278,1,90,2|0,2:0|2:0,2:0:0:0:
341,79,27089,2,0,L|328:181,1,90,8|0,0:0|0:0,0:0:0:0:
204,312,27426,6,0,L|228:112,1,180,2|0,0:0|0:0,0:0:0:0:
120,24,27931,1,0,0:0:0:0:
116,56,28016,1,0,0:0:0:0:
112,88,28100,1,2,0:0:0:0:
100,220,28268,1,2,0:0:0:0:
100,220,28437,2,0,P|150:206|205:219,1,90,8|0,0:0|0:0,0:0:0:0:
319,251,28774,1,2,0:0:0:0:
238,298,28943,1,2,0:0:0:0:
372,343,29111,6,0,P|451:333|471:237,1,180,8|2,0:0|0:0,0:0:0:0:
408,92,29617,1,2,0:0:0:0:
408,92,29785,2,0,L|381:197,1,90,8|0,0:0|0:0,0:0:0:0:
264,344,30122,6,0,L|248:160,1,180,2|8,0:0|0:0,0:0:0:0:
344,73,30628,1,0,0:0:0:0:
344,73,30797,2,0,P|352:125|344:181,1,90,2|0,0:0|0:0,0:0:0:0:
80,200,31134,2,0,P|132:172|188:172,1,90,8|0,0:0|0:0,0:0:0:0:
376,292,31471,6,0,L|184:264,1,180,2|0,0:0|0:0,0:0:0:0:
76,300,31976,1,0,0:0:0:0:
76,300,32061,1,0,0:0:0:0:
76,300,32145,1,2,0:0:0:0:
43,73,32313,1,2,0:0:0:0:
120,131,32482,6,0,L|311:114,1,180,8|2,0:0|0:0,0:0:0:0:
272,36,33156,6,0,P|212:104|252:179,1,180,8|0,0:0|0:0,0:0:0:0:
300,116,33661,1,2,0:0:0:0:
300,116,33830,1,8,0:0:0:0:
316,304,33998,2,0,L|300:100,1,180
432,56,34504,2,0,L|416:156,1,90,8|0,0:0|0:0,0:0:0:0:
268,192,34842,2,0,P|232:184|180:180,1,90,2|0,0:0|0:0,0:0:0:0:
392,264,35179,2,0,L|500:256,1,90,8|0,0:0|0:0,0:0:0:0:
300,112,35515,1,2,0:0:0:0:
300,112,35852,6,0,L|104:132,1,180,8|2,0:0|0:0,0:0:0:0:
36,244,36357,1,2,0:0:0:0:
36,244,36526,1,8,0:0:0:0:
68,324,36695,2,0,P|128:252|92:172,1,180
232,241,37201,2,0,P|284:257|340:249,1,90,8|0,0:0|0:0,0:0:0:0:
232,48,37538,2,0,P|216:100|224:156,1,90,2|0,0:0|0:0,0:0:0:0:
280,336,37875,2,0,P|296:284|288:228,1,90,8|0,0:0|0:0,0:0:0:0:
32,232,38212,6,0,L|212:216,1,180,2|0,0:0|0:0,0:0:0:0:
328,284,38718,1,0,0:0:0:0:
328,284,38802,1,0,0:0:0:0:
328,284,38886,1,2,0:0:0:0:
373,142,39054,1,2,0:0:0:0:
373,142,39223,2,0,P|329:150|287:139,1,90,8|0,0:0|0:0,0:0:0:0:
332,68,39560,1,2,0:0:0:0:
372,248,39729,1,0,0:0:0:0:
196,188,39898,6,0,P|116:200|100:308,1,180,8|2,0:0|0:0,0:0:0:0:
176,280,40403,1,2,0:0:0:0:
176,280,40572,2,0,L|160:172,1,90,8|0,0:0|0:0,0:0:0:0:
244,40,40909,6,0,L|272:225,1,180,2|0,0:0|0:0,0:0:0:0:
368,340,41415,1,0,0:0:0:0:
372,308,41498,1,0,0:0:0:0:
376,280,41583,1,2,0:0:0:0:
472,160,41752,1,2,0:0:0:0:
284,184,41920,2,0,L|168:200,1,90,8|0,0:0|0:0,0:0:0:0:
336,64,42257,5,8,0:0:0:0:
420,316,42482,1,4,0:0:0:0:
172,264,42707,1,4,0:0:0:0:
444,164,42931,5,8,0:0:0:0:
196,112,43156,1,0,0:0:0:0:
276,352,43381,1,0,0:0:0:0:
336,60,43606,6,0,P|344:160|272:228,1,180,4|0,0:0|0:0,0:0:0:0:
139,261,44111,6,0,P|221:204|316:232,1,180,2|0,0:0|0:0,0:0:0:0:
411,330,44617,6,0,P|320:286|297:190,1,180,8|0,0:0|0:0,0:0:0:0:
295,215,45291,5,8,0:0:0:0:
292,224,45628,5,2,0:0:0:0:
284,232,45965,5,8,0:0:0:0:
280,240,46302,6,0,L|372:220,1,90,2|0,0:0|0:0,0:0:0:0:
464,120,46639,1,8,0:0:0:0:
420,48,46808,2,0,P|372:120|444:204,1,180,2|0,0:0|0:0,0:0:0:0:
340,256,47313,1,8,0:0:0:0:
340,256,47651,6,0,L|232:236,1,90,2|0,0:0|0:0,0:0:0:0:
68,272,47988,1,8,0:0:0:0:
111,344,48157,2,0,P|158:273|117:198,1,180,2|0,0:0|0:0,0:0:0:0:
68,272,48662,1,8,0:0:0:0:
68,272,48830,1,0,0:0:0:0:
248,208,48999,6,0,P|340:208|404:268,2,180,6|8|0,0:0|0:0|0:0,0:0:0:0:
304,296,49842,1,0,0:0:0:0:
304,296,50010,2,0,L|308:200,1,90,8|0,0:0|0:0,0:0:0:0:
404,64,50347,2,0,P|324:128|240:92,1,180,2|0,0:0|0:0,0:0:0:0:
320,36,50853,1,0,0:0:0:0:
404,304,51021,5,2,0:0:0:0:
84,152,51274,1,8,0:0:0:0:
424,192,51527,1,0,0:0:0:0:
316,256,51695,6,0,L|328:144,1,90,0|0,0:0|0:0,0:0:0:0:
432,64,52033,1,8,0:0:0:0:
325,166,52201,2,0,P|240:100|157:150,1,180,0|0,0:0|0:0,0:0:0:0:
204,328,52707,1,8,0:0:0:0:
208,296,52791,1,0,0:0:0:0:
212,264,52875,1,0,0:0:0:0:
242,179,53044,5,2,0:0:0:0:
216,337,53212,1,2,0:0:0:0:
82,236,53381,1,8,0:0:0:0:
60,240,53718,5,2,0:0:0:0:
232,348,53886,1,2,0:0:0:0:
248,164,54055,1,8,0:0:0:0:
252,144,54392,5,6,0:0:0:0:
244,364,54561,1,2,0:0:0:0:
44,244,54729,1,8,0:0:0:0:
268,256,54898,1,2,0:0:0:0:
208,40,55066,1,2,0:0:0:0:
144,256,55235,1,2,0:0:0:0:
360,312,55403,1,10,0:0:0:0:
424,96,55572,1,2,0:0:0:0:
208,40,55740,5,8,0:0:0:0:
208,68,55993,5,8,0:0:0:0:
208,96,56246,5,8,2:0:0:0:
208,100,56415,2,0,L|212:212,1,90,2|0,2:0|2:0,2:0:0:0:
216,328,56752,2,0,L|116:332,1,90,2|0,2:0|2:0,2:0:0:0:
322,121,57089,6,0,P|418:161|480:88,1,198.000006042481,6|0,2:0|2:0,2:0:0:0:
396,42,57594,1,2,2:0:0:0:
286,192,57763,1,0,0:0:0:0:
128,100,57931,1,2,0:0:0:0:
128,100,58016,1,0,0:0:0:0:
128,100,58100,1,8,0:0:0:0:
185,337,58268,1,0,0:0:0:0:
260,271,58437,2,0,P|181:222|96:280,1,198.000006042481,2|8,0:0|0:0,0:0:0:0:
185,337,58943,5,2,2:0:0:0:
464,304,59111,2,2,L|333:318,1,99.0000030212403,0|0,2:0|2:0,2:0:0:0:
344,55,59448,2,0,L|352:160,1,99.0000030212403,8|0,2:0|2:0,2:0:0:0:
320,274,59785,6,0,P|403:233|472:304,1,198.000006042481,2|0,2:0|2:0,2:0:0:0:
388,337,60291,1,2,2:0:0:0:
234,187,60459,2,0,L|248:344,2,148.50000453186,0|0|0,2:0|2:0|2:0,2:0:0:0:
141,15,61134,2,0,P|121:75|80:132,1,99.0000030212403,2|0,0:0|0:0,0:0:0:0:
84,368,61471,2,0,P|104:308|140:264,1,99.0000030212403,8|0,0:0|0:0,0:0:0:0:
251,293,61808,1,2,0:0:0:0:
80,86,61976,1,2,0:0:0:0:
150,161,62145,6,0,P|247:178|304:92,1,198.000006042481,8|2,0:0|0:0,0:0:0:0:
198,68,62651,1,2,0:0:0:0:
106,269,62819,2,0,L|120:376,1,99.0000030212403,8|0,0:0|0:0,0:0:0:0:
238,275,63156,1,0,0:0:0:0:
150,156,63325,1,0,0:0:0:0:
351,42,63493,6,0,P|323:132|383:205,1,198.000006042481,8|2,0:0|0:0,0:0:0:0:
423,121,63999,1,0,0:0:0:0:
216,73,64167,1,8,0:0:0:0:
220,165,64336,1,2,0:0:0:0:
35,126,64504,1,0,0:0:0:0:
102,47,64673,6,0,P|131:139|79:219,1,198.000006042481
35,125,65179,6,0,L|163:135,1,107.999996704102,4|0,0:0|0:0,0:0:0:0:
252,80,65516,1,8,0:0:0:0:
403,252,65684,2,0,L|278:242,1,107.999996704102,4|0,0:0|0:0,0:0:0:0:
212,172,66021,1,0,0:0:0:0:
72,320,66190,2,0,L|200:330,1,107.999996704102,8|0,0:0|0:0,0:0:0:0:
246,40,66527,6,0,L|235:167,1,107.999996704102,4|0,0:0|0:0,0:0:0:0:
208,192,66780,1,0,0:0:0:0:
208,192,66864,1,8,0:0:0:0:
293,354,67033,2,0,L|303:234,1,107.999996704102,4|0,0:0|0:0,0:0:0:0:
189,34,67370,1,2,0:0:0:0:
179,141,67538,1,2,0:0:0:0:
171,250,67707,1,2,0:0:0:0:
163,350,67875,6,0,P|218:273|309:294,1,198.000006042481,6|0,0:0|0:0,0:0:0:0:
245,346,68381,1,0,0:0:0:0:
375,139,68549,1,0,0:0:0:0:
176,196,68718,1,0,0:0:0:0:
176,196,68802,1,0,0:0:0:0:
176,196,68886,1,8,0:0:0:0:
380,296,69055,1,0,0:0:0:0:
440,108,69224,2,0,P|358:69|309:146,1,198.000006042481,2|0,0:0|0:0,0:0:0:0:
380,296,69729,5,2,0:0:0:0:
232,204,69898,2,0,P|292:192|356:208,1,99.0000030212403,2|0,0:0|0:0,0:0:0:0:
128,300,70235,2,0,P|184:312|244:292,1,99.0000030212403,8|0,0:0|0:0,0:0:0:0:
32,196,70572,6,0,P|140:188|148:288,1,198.000006042481,2|0,0:0|0:0,0:0:0:0:
80,260,71077,1,0,0:0:0:0:
244,184,71246,2,0,L|232:28,2,148.50000453186,2|0|0,0:0|0:0|0:0,0:0:0:0:
320,344,71920,2,0,P|336:292|376:244,1,99.0000030212403,2|0,0:0|0:0,0:0:0:0:
408,72,72257,2,0,P|371:114|312:147,1,99.0000030212403,8|0,0:0|0:0,0:0:0:0:
156,84,72594,1,2,0:0:0:0:
252,264,72763,1,2,0:0:0:0:
252,264,72847,1,0,0:0:0:0:
252,264,72931,1,12,0:0:0:0:
252,264,73268,6,0,L|264:63,1,198.000006042481,6|8,0:0|0:0,0:0:0:0:
104,172,73774,1,0,0:0:0:0:
104,172,73943,2,0,L|-20:160,2,99.0000030212403,2|0|0,0:0|0:0|0:0,0:0:0:0:
320,188,74448,1,2,0:0:0:0:
256,40,74617,6,0,L|243:264,1,198.000006042481,2|0,0:0|0:0,0:0:0:0:
152,272,75122,2,0,L|40:260,2,99.0000030212403,2|0|0,0:0|0:0|0:0,0:0:0:0:
340,360,75628,2,8,L|352:236,1,99.0000030212403,8|0,0:0|0:0,0:0:0:0:
276,104,75965,6,0,P|320:196|424:180,1,198.000006042481,2|0,0:0|0:0,0:0:0:0:
376,104,76471,1,0,0:0:0:0:
192,148,76639,2,0,L|88:152,1,99.0000030212403,2|0,0:0|0:0,0:0:0:0:
272,44,76976,1,8,0:0:0:0:
292,264,77145,2,2,L|407:258,1,99.0000030212403,0|2,0:0|0:0,0:0:0:0:
240,148,77482,5,8,0:0:0:0:
240,344,77651,1,2,0:0:0:0:
80,252,77819,1,0,0:0:0:0:
240,148,77988,5,8,0:0:0:0:
244,188,78072,1,0,0:0:0:0:
248,228,78156,1,2,0:0:0:0:
408,104,78325,1,2,0:0:0:0:
216,48,78493,1,2,0:0:0:0:
248,228,78662,2,0,P|184:196|72:232,1,180,6|0,0:0|0:0,0:0:0:0:
24,344,79167,1,2,0:0:0:0:
256,192,79336,12,0,82370,0:0:0:0:
288,136,82707,6,0,L|377:125,2,90,2|0|8,0:0|0:0|0:0,0:0:0:0:
156,64,83212,1,0,0:0:0:0:
160,108,83297,1,0,0:0:0:0:
164,148,83381,2,0,L|172:252,1,90,2|0,0:0|0:0,0:0:0:0:
248,352,83718,1,8,0:0:0:0:
248,352,84055,5,2,0:0:0:0:
120,268,84224,1,0,0:0:0:0:
308,240,84392,1,8,0:0:0:0:
104,156,84561,1,0,0:0:0:0:
288,136,84729,6,0,L|436:120,2,135,2|0|0,0:0|0:0|0:0,0:0:0:0:
256,144,85319,1,0,0:0:0:0:
248,144,85403,5,2,0:0:0:0:
456,212,85656,1,2,0:0:0:0:
400,32,85909,1,2,0:0:0:0:
276,192,86077,6,0,L|288:344,2,135,2|0|0,0:0|0:0|0:0,0:0:0:0:
168,88,86752,6,0,L|112:92,2,45,2|0|0,0:0|0:0|0:0,0:0:0:0:
404,140,87089,1,8,0:0:0:0:
216,260,87257,1,0,0:0:0:0:
320,48,87426,2,6,L|304:148,1,90,4|2,2:0|2:0,2:0:0:0:
216,256,87763,1,12,2:0:0:0:
216,256,88100,5,8,2:0:0:0:
320,48,88268,1,8,2:0:0:0:
364,344,88437,1,8,2:0:0:0:
