osu file format v14

[General]
AudioFilename: audio.mp3
AudioLeadIn: 0
PreviewTime: 46166
Countdown: 0
SampleSet: Soft
StackLeniency: 0.5
Mode: 0
LetterboxInBreaks: 0
WidescreenStoryboard: 1

[Editor]
Bookmarks: 8066,9266
DistanceSpacing: 1
BeatDivisor: 3
GridSize: 32
TimelineZoom: 1.500001

[Metadata]
Title:Akumade Koiwazurai (TV Size)
TitleUnicode:あくまで恋煩い (TV Size)
Artist:Onishi Saori, Kuno Misaki, Kakuma Ai
ArtistUnicode:大西沙織,久野美咲,加隈亜衣
Creator:Fushimi Rio
Version:papapa's Insane
Source:ベルゼブブ嬢のお気に召すまま。
Tags:ベルゼブブ ベルフェゴール サルガタナス Oonishi Saori Beelzebub Belphegor Sargatanas Curisu papapa213 PinkHeart Fia anime opening Japanese pop jpop
BeatmapID:1839457
BeatmapSetID:864207

[Difficulty]
HPDrainRate:6
CircleSize:4
OverallDifficulty:8
ApproachRate:9
SliderMultiplier:1.6
SliderTickRate:1

[Events]
//Background and Video events
0,0,"wp03_1920_1200.jpg",0,0
//Break Periods
//Storyboard Layer 0 (Background)
//Storyboard Layer 1 (Fail)
//Storyboard Layer 2 (Pass)
//Storyboard Layer 3 (Foreground)
//Storyboard Layer 4 (Overlay)
//Storyboard Sound Samples

[TimingPoints]
566,300,4,2,1,30,1,0
566,-100,4,2,1,30,0,0
1066,-125,4,2,1,30,0,0
1466,-100,4,2,1,30,0,0
2266,-125,4,2,1,30,0,0
2666,-100,4,2,1,30,0,0
3466,-125,4,2,1,30,0,0
3866,-100,4,2,1,30,0,0
4166,-83.3333333333333,4,2,1,30,0,0
4266,-83.3333333333333,4,2,1,5,0,0
4366,-83.3333333333333,4,2,1,30,0,0
4566,-83.3333333333333,4,2,1,5,0,0
4666,-83.3333333333333,4,2,1,30,0,0
4866,-83.3333333333333,4,2,1,5,0,0
4966,-83.3333333333333,4,2,1,30,0,0
5066,-76.9230769230769,4,2,1,50,0,0
5266,-80,4,2,1,5,0,0
5366,-76.9230769230769,4,2,1,50,0,0
5866,-100,4,2,1,50,0,0
6266,-76.9230769230769,4,2,1,50,0,0
7066,-100,4,2,1,50,0,0
7466,-66.6666666666667,4,2,1,50,0,0
7666,-83.3333333333333,4,2,1,50,0,0
8066,-66.6666666666667,4,2,1,55,0,0
8366,-52.9100529100529,4,2,1,60,0,0
8666,-47.6190476190476,4,2,1,65,0,0
8966,-37.037037037037,4,2,1,70,0,0
9266,-41.6666666666667,4,2,1,70,0,0
9566,-50,4,2,1,70,0,0
9866,-56.8181818181818,4,2,1,70,0,0
10166,-50,4,2,1,50,0,0
10466,-100,4,2,1,50,0,0
11366,-76.9230769230769,4,2,1,50,0,0
11666,-66.6666666666667,4,2,1,50,0,0
11866,-76.9230769230769,4,2,1,50,0,0
12566,-55.5555555555556,4,2,1,50,0,0
12866,-83.3333333333333,4,2,1,50,0,0
13766,-62.5,4,2,1,50,0,0
14066,-83.3333333333333,4,2,1,50,0,0
14966,-125.125125125125,4,2,1,50,0,0
15466,-83.3333333333333,4,2,1,5,0,0
15566,-83.3333333333333,4,2,1,50,0,0
16866,-83.3333333333333,4,2,1,5,0,0
16966,-83.3333333333333,4,2,1,50,0,0
17366,-62.5,4,2,1,50,0,0
17666,-100,4,2,1,50,0,0
18566,-66.6666666666667,4,2,1,50,0,0
18766,-76.9230769230769,4,2,1,50,0,0
19066,-100,4,2,1,50,0,0
19466,-76.9230769230769,4,2,1,50,0,0
19766,-62.5,4,2,1,50,0,0
20066,-83.3333333333333,4,2,1,50,0,0
20966,-76.9230769230769,4,2,1,50,0,0
21266,-66.6666666666667,4,2,1,50,0,0
21466,-76.9230769230769,4,2,1,50,0,0
22166,-62.5,4,2,1,50,0,0
22466,-83.3333333333333,4,2,1,50,0,0
23366,-76.9230769230769,4,2,1,50,0,0
23566,-76.9230769230769,4,2,1,5,0,0
23666,-76.9230769230769,4,2,1,50,0,0
24566,-66.6666666666667,4,2,1,50,0,0
24766,-66.6666666666667,4,2,1,5,0,0
24866,-66.6666666666667,4,2,1,50,0,0
25066,-66.6666666666667,4,2,1,5,0,0
25166,-66.6666666666667,4,2,1,50,0,0
25366,-66.6666666666667,4,2,1,5,0,0
25466,-66.6666666666667,4,2,1,50,0,0
25566,-66.6666666666667,4,2,1,5,0,0
25666,-66.6666666666667,4,2,1,50,0,0
26066,-55.5555555555556,4,2,1,50,0,0
26166,-66.6666666666667,4,2,1,5,0,0
26266,-66.6666666666667,4,2,1,50,0,0
26966,-62.5,4,2,1,50,0,0
27166,-66.6666666666667,4,2,1,5,0,0
27266,-62.5,4,2,1,50,0,0
27766,-66.6666666666667,4,2,1,5,0,0
27866,-66.6666666666667,4,2,1,50,0,0
28266,-66.6666666666667,4,2,1,5,0,0
28366,-66.6666666666667,4,2,1,50,0,0
28466,-71.4285714285714,4,2,1,55,0,0
28566,-71.4285714285714,4,2,1,5,0,0
28666,-71.4285714285714,4,2,1,55,0,0
28766,-71.4285714285714,4,2,1,60,0,0
29066,-47.6190476190476,4,2,1,65,0,0
29366,-66.6666666666667,4,2,1,70,0,0
30266,-66.6666666666667,4,2,1,70,0,0
30566,-71.4285714285714,4,2,1,70,0,0
30766,-66.6666666666667,4,2,1,70,0,0
31066,-83.3333333333333,4,2,1,60,0,0
31766,-100,4,2,1,50,0,0
32066,-66.6666666666667,4,2,1,50,0,0
32366,-83.3333333333333,4,2,1,50,0,0
32666,-66.6666666666667,4,2,1,50,0,0
33466,-83.3333333333333,4,2,1,50,0,0
34166,-100,4,2,1,50,0,0
36566,-66.6666666666667,4,2,1,50,0,0
36866,-55.5555555555556,4,2,1,50,0,0
37166,-71.4285714285714,4,2,1,50,0,0
37466,-80,4,2,1,50,0,0
37766,-71.4285714285714,4,2,1,50,0,0
38066,-62.5,4,2,1,50,0,0
38366,-66.6666666666667,4,2,1,50,0,0
38666,-76.9230769230769,4,2,1,50,0,0
38966,-58.8235294117647,4,2,1,50,0,0
39266,-66.6666666666667,4,2,1,50,0,0
39566,-66.6666666666667,4,2,1,50,0,0
39666,-66.6666666666667,4,2,1,5,0,0
39766,-66.6666666666667,4,2,1,50,0,0
39866,-83.3333333333333,4,2,1,50,0,0
40266,-83.3333333333333,4,2,1,5,0,0
40366,-83.3333333333333,4,2,1,50,0,0
40566,-83.3333333333333,4,2,1,5,0,0
40666,-83.3333333333333,4,2,1,50,0,0
41366,-58.8235294117647,4,2,1,60,0,0
41666,-76.9230769230769,4,2,1,50,0,0
43466,-66.6666666666667,4,2,1,50,0,0
43766,-50,4,2,1,65,0,0
44066,-43.4782608695652,4,2,1,70,0,0
44366,-34.4827586206897,4,2,1,75,0,0
44666,-45.4545454545455,4,2,1,80,0,0
45066,-50,4,2,1,50,0,0
45116,-50,4,2,1,70,0,0
46166,-55.5555555555556,4,2,1,80,0,1
46466,-66.6666666666667,4,2,1,80,0,1
46766,-55.5555555555556,4,2,1,80,0,1
47066,-66.6666666666667,4,2,1,80,0,1
47866,-66.6666666666667,4,2,1,80,0,1
48266,-66.6666666666667,4,2,1,80,0,1
55766,-71.4285714285714,4,2,1,80,0,1
56366,-66.6666666666667,4,2,1,80,0,1
60866,-50,4,2,1,80,0,1
61766,-66.6666666666667,4,2,1,80,0,1
62066,-50,4,2,1,80,0,1
62366,-66.6666666666667,4,2,1,80,0,1
62966,-55.5555555555556,4,2,1,80,0,1
64166,-66.6666666666667,4,2,1,80,0,1
64766,-66.6666666666667,4,2,1,80,0,0
65366,-55.5555555555556,4,2,1,80,0,1
65666,-66.6666666666667,4,2,1,80,0,1
65966,-55.5555555555556,4,2,1,80,0,1
66266,-66.6666666666667,4,2,1,80,0,1
74966,-71.4285714285714,4,2,1,80,0,1
75866,-66.6666666666667,4,2,1,80,0,1
76066,-71.4285714285714,4,2,1,80,0,1
77366,-66.6666666666667,4,2,1,80,0,1
79616,-66.6666666666667,4,2,1,80,0,0
79766,-66.6666666666667,4,2,1,60,0,1
80066,-66.6666666666667,4,2,1,60,0,0
81266,-58.8235294117647,4,2,1,40,0,1
81566,-58.8235294117647,4,2,1,60,0,0
82166,-66.6666666666667,4,2,1,60,0,1
82466,-66.6666666666667,4,2,1,60,0,0
83366,-66.6666666666667,4,2,1,60,0,1
84566,-100,4,2,1,40,0,0

[Colours]
Combo1 : 191,128,255
Combo2 : 255,128,128
Combo3 : 255,255,128
Combo4 : 255,128,255
SliderBorder : 225,225,225
SliderTrackOverride : 25,25,25

[HitObjects]
339,118,566,6,0,L|319:284,1,160,0|8,3:0|0:0,0:0:0:0:
428,168,1066,6,0,P|487:151|539:165,1,85.3333333333333
483,262,1366,1,2,0:0:0:0:
466,246,1466,6,0,P|401:211|356:213,1,106.666666666667,8|0,0:0|0:0,0:0:0:0:
99,197,1766,6,0,L|213:185,1,106.666666666667,0|2,3:0|0:0,0:0:0:0:
231,182,2066,1,8,0:0:0:0:
168,82,2266,6,0,P|116:62|63:76,1,85.3333333333333
99,197,2566,1,2,0:0:0:0:
106,172,2666,6,0,P|144:123|196:108,1,106.666666666667,8|0,0:0|3:0,0:0:0:0:
400,223,2966,6,0,L|394:383,1,160,2|8,3:2|0:0,0:0:0:0:
308,266,3466,6,0,P|265:268|226:285,1,85.3333333333333
277,369,3766,1,2,0:0:0:0:
299,349,3866,6,0,P|351:355|395:384,1,106.666666666667,8|0,0:0|0:0,0:0:0:0:
401,224,4166,6,0,P|351:187|288:179,1,127.99999609375,0|0,3:0|0:0,0:0:0:0:
150,246,4466,2,0,P|177:214|257:201,1,63.9999980468751,8|0,0:0|0:0,0:0:0:0:
284,94,4666,1,0,0:0:0:0:
284,94,4766,2,0,P|233:108|210:166,1,63.9999980468751,2|0,0:0|0:0,0:0:0:0:
164,119,5066,6,0,P|216:113|284:208,1,138.666660319011,8|0,0:0|0:0,0:0:0:0:
210,330,5366,6,0,B|184:304|184:304|196:190,1,138.666660319011,4|2,0:1|0:0,0:0:0:0:
195,202,5666,1,8,0:0:0:0:
309,334,5866,6,0,P|382:327|423:275,1,106.666666666667
334,229,6166,1,2,0:0:0:0:
310,248,6266,6,0,P|243:248|194:201,1,138.666660319011,8|2,0:0|0:0,0:0:0:0:
36,103,6566,6,0,B|62:129|62:129|176:117,1,138.666660319011,0|2,3:2|0:0,0:0:0:0:
163,118,6866,1,8,0:0:0:0:
336,0,7066,1,0,0:0:0:0:
331,94,7166,6,0,B|294:89|294:89|271:70|271:70|231:66,1,106.666666666667,0|2,0:0|0:0,0:0:0:0:
336,0,7466,6,0,B|357:34|357:34|351:76,1,80.0000030517579,8|0,0:0|0:0,0:0:0:0:
286,189,7666,2,0,L|424:174,1,127.99999609375,0|0,1:0|0:0,0:0:0:0:
413,175,7966,1,0,0:0:0:0:
344,254,8066,6,0,P|258:213|170:241,1,160.000006103516,4|0,0:1|0:0,0:0:0:0:
120,333,8366,6,0,P|272:236|332:265,1,201.599998692627,0|0,1:0|0:0,0:0:0:0:
357,335,8666,6,0,P|279:259|172:281,1,223.999993164063,8|0,0:0|0:0,0:0:0:0:
151,366,8966,6,0,B|164:273|266:262|297:296|297:296|293:338|245:369,1,288.000001098633,4|0,0:0|0:0,0:0:0:0:
77,299,9266,6,0,P|168:209|293:197,1,255.9999921875,0|0,3:0|0:0,0:0:0:0:
422,353,9566,6,4,P|412:300|384:256,2,106.666666666667,4|2|2,1:0|0:0|0:0,3:3:0:0:
297,292,9866,6,4,P|272:348|209:378,2,93.8666695312501,0|0|0,0:0|0:0|0:0,3:3:0:0:
291,197,10166,6,0,P|201:117|82:129,1,213.333333333333,4|0,0:0|0:0,0:0:0:0:
184,301,10466,6,0,P|168:200|110:218,1,160,8|0,0:0|0:0,0:0:0:0:
77,373,11066,1,8,0:0:0:0:
299,270,11366,2,0,P|407:294|453:361,1,138.666660319011,2|0,0:0|0:0,0:0:0:0:
309,346,11666,6,0,P|295:284|311:247,1,80.0000030517579,8|0,0:0|0:0,0:0:0:0:
349,191,11866,6,0,P|242:199|305:125,1,207.999990478516
338,100,12266,1,8,0:0:0:0:
0,138,12566,6,0,P|86:159|184:104,1,191.999994140625,2|0,0:0|0:0,0:0:0:0:
33,10,12866,6,0,P|84:73|98:-10,1,191.999994140625,8|0,0:0|0:0,0:0:0:0:
104,195,13466,1,8,0:0:0:0:
175,365,13666,5,0,0:0:0:0:
175,365,13766,2,0,P|234:309|330:354,1,170.666666666667,2|0,0:0|0:0,0:0:0:0:
303,356,14066,6,0,P|256:299|309:207,1,191.999994140625,8|2,0:0|0:0,0:0:0:0:
404,182,14566,1,0,0:0:0:0:
404,182,14666,1,8,0:0:0:0:
303,356,14966,6,0,P|371:358|413:303,1,127.872003121875,2|8,0:0|0:0,0:0:0:0:
58,309,15566,6,0,P|102:266|165:271,1,127.99999609375
185,310,15866,1,8,0:0:0:0:
295,99,16166,6,0,P|372:138|431:130,1,127.99999609375,2|0,0:0|0:0,0:0:0:0:
409,277,16466,2,0,P|358:205|356:185,1,63.9999980468751,8|0,0:0|0:0,0:0:0:0:
222,204,16666,1,0,0:0:0:0:
222,204,16766,2,0,P|307:189|323:176,1,63.9999980468751
409,277,16966,1,0,0:0:0:0:
321,312,17066,2,0,P|278:301|244:267,1,63.9999980468751,8|0,0:0|0:0,0:0:0:0:
277,25,17366,6,0,P|348:65|352:147,1,170.666666666667,2|0,0:0|0:0,0:0:0:0:
279,109,17666,6,0,P|336:62|426:110,1,160,8|0,0:0|0:0,0:0:0:0:
272,248,18266,1,8,0:0:0:0:
176,103,18566,6,0,P|118:146|130:246,1,160.000006103516,2|0,0:0|0:0,0:0:0:0:
196,186,18866,1,8,0:0:0:0:
169,69,19066,6,0,B|78:48|105:113|12:91,1,160,2|0,0:0|0:0,0:0:0:0:
42,6,19466,6,0,P|104:84|84:150,1,138.666660319011,8|0,0:0|0:0,0:0:0:0:
50,269,19766,6,0,P|122:275|100:206,1,170.666666666667,4|0,0:0|0:0,0:0:0:0:
22,353,20066,6,0,P|153:353|203:294,1,191.999994140625,8|0,0:0|0:0,0:0:0:0:
13,193,20666,1,8,0:0:0:0:
237,162,20966,6,0,P|309:171|361:217,1,138.666660319011,2|0,0:0|0:0,0:0:0:0:
245,238,21266,2,0,P|233:178|252:135,1,80.0000030517579,8|0,0:0|0:0,0:0:0:0:
306,82,21466,2,0,P|236:137|234:43,1,207.999990478516
284,0,21866,1,8,0:0:0:0:
358,213,22066,5,0,0:0:0:0:
358,213,22166,2,0,P|416:209|374:130,1,170.666666666667,2|0,0:0|0:0,0:0:0:0:
358,301,22466,6,0,P|399:304|510:193,1,191.999994140625,8|0,0:0|0:0,0:0:0:0:
503,384,23066,1,8,0:0:0:0:
301,67,23366,6,0,P|230:85|204:179,1,138.666660319011,2|0,0:0|0:0,0:0:0:0:
199,138,23666,1,8,0:0:0:0:
278,246,23866,1,0,0:0:0:0:
278,246,23966,2,0,P|221:210|204:145,1,138.666660319011,2|0,0:0|0:0,0:0:0:0:
297,161,24266,1,8,0:0:0:0:
143,149,24566,6,0,B|211:124|249:209|317:145,1,160.000006103516,4|0,0:0|0:0,0:0:0:0:
296,160,24866,2,0,B|265:266|172:293,1,160.000006103516,8|0,0:0|0:0,0:0:0:0:
296,160,25167,2,0,B|365:218|399:143|470:185,1,160.000006103516,2|0,0:0|0:0,0:0:0:0:
434,306,25466,2,0,P|365:278|342:238,1,80.0000030517579,8|0,0:2|0:0,0:0:0:0:
245,83,25666,1,0,0:0:0:0:
245,83,25766,6,0,B|285:67|299:21|299:21|348:72|330:132,1,160.000006103516
208,166,26066,6,0,B|173:168|173:168|146:146|146:146|100:144,1,95.9999970703126,8|0,0:0|0:0,0:0:0:0:
127,233,26266,6,0,B|183:231|208:166|208:166|224:229|205:290,1,160.000006103516,2|0,0:0|0:0,0:0:0:0:
199,306,26566,1,2,0:0:0:0:
199,306,26666,2,0,P|111:296|137:379,1,160.000006103516,10|0,0:2|0:0,0:0:0:0:
352,335,26966,6,0,B|385:210|385:210|408:277,1,170.666666666667,4|0,0:1|0:0,0:0:0:0:
405,268,27266,1,8,0:0:0:0:
451,170,27566,2,0,B|422:301|422:301|402:260,1,170.666666666667,2|0,0:0|0:0,0:0:0:0:
398,249,27866,1,8,0:0:0:0:
451,170,28166,6,0,P|406:152|359:156,1,80.0000030517579,2|0,0:0|0:0,0:0:0:0:
278,194,28366,1,0,0:0:0:0:
326,264,28466,2,0,P|375:260|420:229,1,74.6666643880209,8|0,0:0|0:0,0:0:0:0:
119,250,28666,1,0,0:0:0:0:
119,250,28766,2,0,L|129:334,1,74.6666643880209,4|0,0:1|0:0,0:0:0:0:
232,288,28966,5,0,0:0:0:0:
232,288,29066,2,0,B|223:365|223:365|177:280,1,111.999996582031,8|0,0:0|0:0,0:0:0:0:
174,140,29366,6,0,P|261:186|346:165,1,160.000006103516,0|0,1:0|0:0,0:0:0:0:
385,94,29666,2,0,P|296:160|225:146,1,160.000006103516,0|0,1:0|0:0,0:0:0:0:
102,51,29966,1,0,0:0:0:0:
98,65,30066,1,0,0:0:0:0:
94,83,30166,1,0,0:0:0:0:
90,97,30266,2,0,P|82:163|99:219,1,80.0000030517579
156,285,30466,1,0,0:0:0:0:
156,285,30566,6,0,P|234:291|300:252,1,149.333328776042,4|0,1:0|0:0,0:0:0:0:
354,193,30866,1,8,0:0:0:0:
473,343,31066,6,0,P|395:349|335:312,1,127.99999609375,4|0,0:0|0:0,0:0:0:0:
269,174,31366,1,0,0:0:0:0:
354,193,31466,2,0,P|380:232|369:288,1,63.9999980468751,8|0,0:0|0:0,0:0:0:0:
209,235,31766,5,4,1:0:0:0:
33,245,31966,1,0,0:0:0:0:
74,323,32066,2,0,P|150:363|267:332,1,160.000006103516,8|0,0:0|0:0,0:0:0:0:
295,216,32366,1,4,0:0:0:0:
482,174,32566,1,0,0:0:0:0:
455,256,32666,2,0,P|386:294|307:291,1,160.000006103516,8|0,0:0|0:0,0:0:0:0:
243,76,32966,6,0,P|325:66|379:101,1,80.0000030517579,4|0,1:0|0:0,0:0:0:0:
390,121,33166,1,0,1:0:0:0:
406,207,33266,2,0,P|389:250|333:278,1,80.0000030517579,8|0,0:0|0:0,0:0:0:0:
202,198,33466,2,0,P|259:171|319:188,1,127.99999609375,0|0,1:0|0:0,0:0:0:0:
305,323,33766,1,0,0:0:0:0:
305,323,33866,2,0,B|273:348|273:348|261:221,1,127.99999609375,8|0,0:0|0:0,0:0:0:0:
390,121,34166,6,0,L|465:108,2,53.3333333333333,4|0|0,0:0|0:0|0:0,0:0:0:0:
329,54,34466,2,0,L|223:37,1,106.666666666667
130,60,34766,2,0,L|76:65,2,53.3333333333333,0|0|0,1:0|0:0|0:0,0:0:0:0:
194,124,35066,2,0,L|306:138,1,106.666666666667
113,271,35366,5,2,3:2:0:0:
113,271,35566,1,0,0:0:0:0:
113,271,35666,2,0,L|134:118,1,106.666666666667,2|0,0:0|0:0,0:0:0:0:
171,352,35966,1,0,1:0:0:0:
64,363,36166,1,0,0:0:0:0:
64,363,36266,2,0,L|171:352,1,106.666666666667,0|0,1:0|0:0,0:0:0:0:
282,384,36566,6,0,P|212:337|209:266,1,160.000006103516,4|0,1:0|0:0,0:0:0:0:
182,231,36866,6,0,P|291:230|336:120,1,191.999994140625,0|0,1:0|0:0,0:0:0:0:
302,150,37166,6,0,L|339:337,1,149.333328776042,4|0,0:3|0:0,0:0:0:0:
357,260,37466,6,0,P|285:256|293:300,1,133.333333333333,0|0,1:0|0:0,0:0:0:0:
429,208,37766,6,0,P|375:157|299:151,1,149.333328776042,8|0,3:0|3:0,0:0:0:0:
151,203,38066,2,0,P|189:186|231:191,1,85.3333333333333,0|0,1:0|0:0,0:0:0:0:
206,272,38266,1,0,3:0:0:0:
206,272,38366,6,0,L|187:107,1,160.000006103516,4|0,3:0|0:0,0:0:0:0:
188,76,38666,6,0,P|108:153|73:149,1,138.666660319011,0|0,1:0|0:0,0:0:0:0:
100,52,38966,6,0,B|195:27|160:141|343:53,1,181.333336791992,4|0,0:0|0:0,0:0:0:0:
296,119,39266,6,0,P|349:42|407:98,1,160.000006103516,0|0,1:0|0:0,0:0:0:0:
384,156,39566,2,0,L|379:300,1,80.0000030517579,4|0,0:3|0:0,0:0:0:0:
231,179,39766,1,0,0:0:0:0:
231,179,39866,6,0,P|156:169|100:203,1,127.99999609375,0|0,1:0|0:0,0:0:0:0:
64,359,40166,2,0,L|154:345,1,63.9999980468751,8|0,3:0|0:0,0:0:0:0:
243,272,40366,1,0,3:0:0:0:
243,272,40466,2,0,L|142:260,1,63.9999980468751,0|0,1:0|0:0,0:0:0:0:
68,363,40666,1,0,3:0:0:0:
68,363,40766,2,0,P|143:373|195:330,1,127.99999609375,4|0,3:0|3:0,0:0:0:0:
179,264,41066,2,0,P|201:336|274:365,1,127.99999609375,4|0,1:0|0:0,0:0:0:0:
298,197,41366,6,0,P|395:245|367:308,1,181.333336791992,4|0,0:0|0:0,0:0:0:0:
353,303,41666,6,0,L|365:124,1,138.666660319011,0|0,1:0|0:0,0:0:0:0:
346,95,41966,2,0,B|374:138|374:138|477:151,1,138.666660319011,4|0,0:3|0:0,0:0:0:0:
458,41,42266,2,0,P|436:27|441:63,1,69.3333301595054,0|0,1:0|0:0,0:0:0:0:
509,181,42466,5,0,3:0:0:0:
509,181,42566,2,0,L|386:194,1,69.3333301595054,4|0,3:0|0:0,0:0:0:0:
272,216,42766,1,0,3:0:0:0:
272,216,42866,2,0,L|265:130,1,69.3333301595054,0|0,1:0|0:0,0:0:0:0:
350,28,43066,1,0,3:0:0:0:
350,28,43166,2,0,L|344:111,1,69.3333301595054,4|0,3:0|0:0,0:0:0:0:
182,198,43366,1,0,3:0:0:0:
182,198,43466,6,0,P|115:238|20:226,1,160.000006103516,0|0,1:0|3:0,0:0:0:0:
154,96,43766,6,0,B|148:157|181:197|181:197|143:246|162:331,1,213.333333333333,4|0,1:0|0:0,0:0:0:0:
130,313,44066,6,0,B|141:250|102:192|102:192|137:140|133:72,1,245.333338012695,0|0,1:0|0:0,0:0:0:0:
134,51,44366,6,0,B|180:135|185:198|185:198|178:264|121:372,1,309.333342773438,0|0,3:0|0:0,0:0:0:0:
110,364,44666,6,0,B|12:333|16:237|16:237|-1:183|-1:183|56:169|56:169|136:111|222:188,1,469.33334765625,4|0,0:2|0:0,0:0:0:0:
371,251,45266,6,0,P|258:287|134:266,1,213.333333333333,4|0,0:1|0:0,0:0:0:0:
333,165,45566,2,0,P|389:156|437:184,2,106.666666666667,2|2|2,3:2|3:2|3:2,0:0:0:0:
223,77,45866,2,4,P|167:68|119:96,2,106.666666666667,0|0|0,3:0|3:0|3:0,3:3:0:0:
183,229,46166,6,0,B|161:197|184:154|184:154|259:144|271:239,1,191.999994140625,4|0,0:2|0:0,0:0:0:0:
168,353,46466,2,0,P|328:323|351:347,1,160.000006103516,10|0,0:0|0:0,0:0:0:0:
487,308,46766,6,0,B|509:340|486:383|486:383|411:393|399:298,1,191.999994140625
486,193,47066,2,0,P|326:223|303:199,1,160.000006103516,10|0,0:0|0:0,0:0:0:0:
262,192,47366,6,0,P|202:179|213:288,1,160.000006103516,0|0,1:0|0:0,0:0:0:0:
283,354,47666,2,0,P|280:305|259:277,1,80.0000030517579,8|0,0:0|0:0,0:0:0:0:
51,352,47866,2,0,P|218:326|238:287,1,160.000006103516,2|0,0:0|0:0,0:0:0:0:
262,281,48166,1,2,0:0:0:0:
171,258,48266,2,0,P|195:342|271:374,1,160.000006103516,8|0,0:0|0:0,0:0:0:0:
293,190,48566,6,0,P|216:197|170:259,1,160.000006103516,0|0,3:0|0:0,0:0:0:0:
337,262,48866,2,0,L|323:86,1,160.000006103516,8|0,0:0|0:0,0:0:0:0:
417,120,49166,2,0,P|370:183|293:190,1,160.000006103516,2|0,0:0|0:0,0:0:0:0:
305,16,49466,2,0,P|345:15|399:96,2,80.0000030517579,12|0|0,0:0|0:0|0:0,0:0:0:0:
155,72,49766,6,0,P|190:91|230:88,1,80.0000030517579,0|0,3:0|0:0,0:0:0:0:
73,31,49966,1,0,0:0:0:0:
73,31,50066,2,0,P|19:38|-10:63,1,80.0000030517579,8|0,0:0|0:0,0:0:0:0:
174,153,50266,1,0,0:0:0:0:
174,153,50366,2,0,L|154:318,1,160.000006103516,2|2,0:0|0:0,0:0:0:0:
64,266,50666,2,0,P|111:222|241:256,1,160.000006103516,8|0,0:0|0:0,0:0:0:0:
501,354,50966,5,4,0:1:0:0:
512,323,51066,1,0,0:0:0:0:
511,291,51166,1,0,0:0:0:0:
502,260,51266,2,0,P|448:195|347:189,1,160.000006103516,8|0,0:0|0:0,0:0:0:0:
479,120,51566,1,2,0:0:0:0:
490,151,51666,1,0,0:0:0:0:
489,183,51766,1,0,0:0:0:0:
480,214,51866,2,0,P|426:279|325:285,1,160.000006103516,8|0,0:0|0:0,0:0:0:0:
184,167,52166,6,0,P|245:112|306:192,1,160.000006103516,0|0,1:0|0:0,0:0:0:0:
226,240,52466,2,0,P|182:256|121:235,1,80.0000030517579,8|0,0:0|0:0,0:0:0:0:
13,168,52666,1,0,0:0:0:0:
13,168,52766,2,0,L|137:186,1,80.0000030517579,2|0,0:0|0:0,0:0:0:0:
129,280,52966,1,2,0:0:0:0:
129,280,53066,2,0,L|51:298,1,80.0000030517579,8|0,0:0|0:0,0:0:0:0:
48,84,53366,6,0,P|131:80|195:197,1,160.000006103516,4|0,0:0|0:0,0:0:0:0:
339,137,53666,2,0,P|216:137|160:215,1,160.000006103516,8|0,0:0|0:0,0:0:0:0:
38,49,53966,2,0,P|148:54|186:123,1,160.000006103516,0|0,3:0|0:0,0:0:0:0:
356,111,54266,2,0,P|233:111|177:189,1,160.000006103516,8|0,0:0|0:0,0:0:0:0:
233,297,54566,6,0,P|186:234|191:155,1,160.000006103516,4|2,0:1|0:0,0:0:0:0:
445,128,54866,2,0,P|443:173|404:229,1,80.0000030517579,8|0,0:0|0:0,0:0:0:0:
352,243,55066,1,2,0:0:0:0:
352,243,55166,2,0,B|337:237|311:252|311:252|286:219|247:235,1,80.0000030517579,2|2,0:0|0:0,0:0:0:0:
52,194,55466,2,0,B|89:172|128:197|128:197|146:153|200:155,1,160.000006103516,10|2,0:0|0:0,0:0:0:0:
274,363,55766,6,0,P|183:378|122:325,1,149.333328776042,4|0,0:0|0:0,0:0:0:0:
0,359,56066,2,0,P|90:374|159:326,1,149.333328776042,8|0,0:0|0:0,0:0:0:0:
282,257,56366,6,0,P|197:194|139:199,1,160.000006103516
13,257,56666,2,0,P|98:194|156:199,1,160.000006103516,8|0,0:0|0:0,0:0:0:0:
138,357,56966,2,0,L|149:184,1,160.000006103516,2|0,0:0|0:0,0:0:0:0:
148,104,57266,2,0,L|232:89,1,80.0000030517579,8|0,0:0|0:0,0:0:0:0:
226,183,57466,1,0,0:0:0:0:
226,184,57566,2,0,L|147:198,1,80.0000030517579,2|0,0:0|0:0,0:0:0:0:
88,261,57766,1,0,0:0:0:0:
137,325,57866,2,0,L|327:350,1,160.000006103516,8|0,0:0|0:0,0:0:0:0:
493,45,58166,6,0,P|429:127|473:240,1,160.000006103516,0|0,1:1|0:0,0:0:0:0:
395,269,58466,2,0,P|343:176|348:106,1,160.000006103516,2|0,3:2|0:0,0:0:0:0:
503,19,58766,2,0,P|428:93|422:186,1,160.000006103516,0|0,1:0|0:0,0:0:0:0:
395,269,59066,2,0,P|343:176|442:224,1,240.000009155274,4|0,0:2|0:0,0:0:0:0:
431,178,59666,6,0,P|379:208|296:200,1,80.0000030517579,8|0,0:0|0:0,0:0:0:0:
292,153,59866,1,0,0:0:0:0:
230,216,59966,2,0,P|191:205|159:182,2,80.0000030517579,2|0|2,0:0|0:0|0:0,0:0:0:0:
320,54,60266,2,0,P|299:126|224:131,1,160.000006103516,8|0,0:0|0:0,0:0:0:0:
6,287,60566,6,0,B|96:243|76:345|205:273,1,160.000006103516,4|0,0:1|0:0,0:0:0:0:
209,367,60866,6,0,P|81:327|77:267,1,213.333333333333,8|0,0:0|0:0,0:0:0:0:
202,216,61166,1,2,0:2:0:0:
233,244,61266,1,0,0:0:0:0:
247,283,61366,1,0,0:0:0:0:
241,327,61466,2,0,P|369:287|373:227,1,213.333333333333,8|0,0:0|0:0,0:0:0:0:
441,242,61766,6,0,B|351:198|371:300|242:228,1,160.000006103516,4|0,0:0|0:0,0:0:0:0:
462,337,62066,2,0,L|479:189,1,106.666666666667,8|0,0:0|0:0,0:0:0:0:
427,10,62366,2,0,P|452:75|412:137,1,80.0000030517579,2|0,0:0|0:0,0:0:0:0:
340,163,62566,1,0,0:0:0:0:
340,163,62666,2,0,P|362:106|460:87,1,160.000006103516,8|0,0:0|0:0,0:0:0:0:
423,166,62966,6,0,L|147:149,1,191.999994140625,4|0,1:0|0:0,0:0:0:0:
315,0,63266,2,0,P|349:98|272:220,1,191.999994140625,8|0,0:0|0:0,0:0:0:0:
0,218,63566,2,0,L|276:235,1,191.999994140625
108,384,63866,2,0,P|74:286|151:164,1,191.999994140625,12|0,0:0|0:0,0:0:0:0:
420,127,64166,6,0,P|327:163|287:144,1,80.0000030517579,2|0,0:0|0:0,0:0:0:0:
294,270,64366,1,0,3:2:0:0:
294,270,64466,2,0,P|331:286|371:285,1,80.0000030517579,4|0,0:1|0:0,0:0:0:0:
184,301,64666,1,0,0:0:0:0:
184,301,64766,2,0,P|200:337|231:363,2,80.0000030517579,2|2|2,3:2|3:2|3:2,0:0:0:0:
189,213,65066,2,0,L|171:449,1,160.000006103516,0|0,3:0|3:0,0:0:0:0:
111,169,65366,6,0,B|154:113|212:130|212:130|236:190|180:207,1,191.999994140625,4|0,0:0|0:0,0:0:0:0:
182,48,65666,2,0,B|274:15|261:119|381:65,1,160.000006103516,10|0,0:0|0:0,0:0:0:0:
289,247,65966,6,0,B|332:302|390:285|390:285|414:225|358:208,1,191.999994140625
359,375,66266,2,0,B|451:408|438:304|558:358,1,160.000006103516,10|0,0:0|0:0,0:0:0:0:
378,217,66566,6,0,P|290:223|242:111,1,160.000006103516,0|0,1:0|0:0,0:0:0:0:
442,148,66866,2,0,P|464:181|464:250,1,80.0000030517579,8|0,0:0|0:0,0:0:0:0:
359,375,67066,2,0,L|380:197,1,160.000006103516,2|0,0:0|0:0,0:0:0:0:
442,148,67366,1,2,0:0:0:0:
468,243,67466,2,0,P|417:301|302:258,1,160.000006103516,8|0,0:0|0:0,0:0:0:0:
366,126,67766,6,0,P|440:147|470:219,1,160.000006103516,0|0,3:0|0:0,0:0:0:0:
314,272,68066,2,0,P|295:196|342:135,1,160.000006103516,8|0,0:0|0:0,0:0:0:0:
420,66,68366,2,0,P|297:45|242:108,1,160.000006103516,2|2,0:0|0:0,0:0:0:0:
146,135,68666,2,0,P|211:138|281:94,2,80.0000030517579,12|0|0,0:0|0:0|0:0,0:0:0:0:
47,45,68966,6,0,P|86:38|125:44,1,80.0000030517579,2|2,0:0|0:0,0:0:0:0:
186,224,69166,1,2,0:0:0:0:
186,224,69266,2,0,L|199:314,1,80.0000030517579,8|2,0:0|0:0,0:0:0:0:
324,171,69466,1,2,0:0:0:0:
324,171,69566,2,0,L|300:334,1,160.000006103516,0|0,3:0|0:0,0:0:0:0:
392,346,69866,2,0,P|374:270|305:236,1,160.000006103516,8|0,0:0|0:0,0:0:0:0:
45,120,70166,5,4,0:1:0:0:
57,149,70266,1,0,0:0:0:0:
80,172,70366,1,0,0:0:0:0:
109,185,70466,2,0,P|204:173|280:87,1,160.000006103516,8|0,0:0|0:0,0:0:0:0:
461,120,70766,1,2,0:0:0:0:
449,149,70866,1,0,0:0:0:0:
426,172,70966,1,0,0:0:0:0:
397,185,71066,2,0,P|302:173|226:87,1,160.000006103516,8|0,0:0|0:0,0:0:0:0:
292,0,71366,6,0,P|378:75|317:128,1,160.000006103516,0|0,1:0|0:0,0:0:0:0:
226,208,71666,2,0,P|231:168|252:134,1,80.0000030517579,8|0,0:0|0:0,0:0:0:0:
313,260,71866,1,0,0:0:0:0:
313,260,71966,2,0,L|327:397,1,80.0000030517579,2|0,0:0|0:0,0:0:0:0:
185,319,72166,1,2,0:0:0:0:
185,319,72266,2,0,P|257:294|320:338,1,160.000006103516,8|0,0:0|0:0,0:0:0:0:
445,246,72566,6,0,P|368:257|307:208,1,160.000006103516,4|0,0:0|0:0,0:0:0:0:
127,183,72866,2,0,P|203:198|274:163,1,160.000006103516,8|0,0:0|0:0,0:0:0:0:
442,205,73166,2,0,P|364:210|304:160,1,160.000006103516,0|0,3:0|0:0,0:0:0:0:
123,139,73466,2,0,P|199:154|270:119,1,160.000006103516,8|0,0:0|0:0,0:0:0:0:
493,70,73766,2,0,P|494:148|441:204,1,160.000006103516,4|2,0:1|0:0,0:0:0:0:
410,15,74066,2,0,P|449:21|481:46,1,80.0000030517579,8|0,0:0|0:0,0:0:0:0:
350,125,74366,2,0,L|259:119,1,80.0000030517579,2|2,0:0|0:0,0:0:0:0:
210,225,74566,1,2,0:0:0:0:
210,225,74666,2,0,P|252:222|315:173,2,80.0000030517579,2|2|2,0:0|0:0|0:0,0:0:0:0:
321,290,74966,6,0,P|446:314|514:276,1,149.333328776042,4|0,0:0|0:0,0:0:0:0:
443,213,75266,2,0,P|406:220|368:207,2,74.6666643880209,8|0|0,0:0|0:0|0:0,0:0:0:0:
454,103,75566,2,0,P|435:173|371:208,1,149.333328776042,2|0,0:0|0:0,0:0:0:0:
205,126,75866,2,0,L|385:119,1,160.000006103516,8|0,0:0|0:0,0:0:0:0:
191,211,76166,2,0,P|127:167|126:90,1,149.333328776042,2|0,0:0|0:0,0:0:0:0:
278,209,76466,2,0,P|261:261|225:289,1,74.6666643880209,8|0,0:0|0:0,0:0:0:0:
127,85,76666,2,0,P|193:37|289:109,1,149.333328776042,2|0,0:0|0:0,0:0:0:0:
192,212,76966,1,2,0:0:0:0:
191,211,77066,6,0,L|36:197,1,149.333328776042,8|0,0:0|0:0,0:0:0:0:
92,308,77366,6,0,L|264:271,1,160.000006103516,0|0,1:0|0:0,0:0:0:0:
421,352,77666,2,0,L|203:268,1,160.000006103516,8|0,0:2|0:0,0:0:0:0:
115,328,77966,2,0,L|287:291,1,160.000006103516,0|0,1:0|0:0,0:0:0:0:
437,379,78266,2,0,P|381:280|461:303,1,240.000009155274,4|2,0:1|0:0,0:0:0:0:
441,281,78866,6,0,L|325:309,1,80.0000030517579,8|0,0:0|0:0,0:0:0:0:
277,275,79066,1,0,0:0:0:0:
338,197,79166,2,0,L|445:211,2,80.0000030517579,2|0|0,0:0|0:0|0:0,0:0:0:0:
198,144,79466,2,0,L|372:114,1,160.000006103516,8|0,0:0|0:0,0:0:0:0:
363,299,79766,6,0,P|245:308|263:223,1,240.000009155274,0|0,1:0|0:0,0:0:0:0:
84,106,80366,2,0,P|202:115|184:30,1,240.000009155274,0|4,0:0|1:0,0:0:0:0:
432,168,80966,2,0,L|214:175,1,160.000006103516
128,211,81266,6,0,P|280:221|303:319,1,272.000005187988,4|0,1:0|0:0,0:0:0:0:
90,326,81766,2,0,P|155:174|256:179,1,272.000005187988,0|0,0:0|0:1,0:0:0:0:
203,286,82166,2,0,L|169:55,1,160.000006103516,0|0,1:0|0:0,0:0:0:0:
164,27,82466,5,0,0:0:0:0:
4,246,82766,2,0,P|114:211|202:285,1,240.000009155274,0|0,0:0|1:0,0:0:0:0:
384,316,83266,1,0,0:0:0:0:
364,235,83366,2,0,P|251:190|119:236,1,240.000009155274,4|4,0:0|1:0,0:0:0:0:
339,374,83866,5,0,0:0:0:0:
339,374,83966,1,2,1:2:0:0:
339,374,84066,1,2,0:0:0:0:
339,374,84166,1,2,0:0:0:0:
339,374,84266,2,0,P|389:374|435:359,1,80.0000030517579,2|2,0:0|0:0,0:0:0:0:
283,109,84466,1,2,0:0:0:0:
283,109,84566,6,0,L|243:317,1,160,4|8,0:0|0:0,0:0:0:0:
406,152,85166,1,0,0:0:0:0:
406,152,85466,1,8,0:0:0:0:
406,152,85766,6,0,L|318:162,1,53.3333333333333
291,184,85966,2,0,P|371:199|429:220,1,106.666666666667,8|0,0:0|0:0,0:0:0:0:
359,350,86266,1,8,0:0:0:0:
307,333,86366,1,4,0:2:0:0:
300,301,86466,1,0,1:0:0:0:
293,269,86566,1,0,3:0:0:0:
287,237,86666,2,0,L|293:155,1,53.3333333333333,0|0,3:0|3:0,0:0:0:0:
256,192,86966,12,0,88016,0:0:0:0:
