osu file format v14

[General]
AudioFilename: audio.mp3
AudioLeadIn: 0
PreviewTime: 46166
Countdown: 0
SampleSet: Soft
StackLeniency: 0.3
Mode: 0
LetterboxInBreaks: 0
WidescreenStoryboard: 1

[Editor]
Bookmarks: 8066,9266
DistanceSpacing: 1
BeatDivisor: 2
GridSize: 32
TimelineZoom: 0.9000008

[Metadata]
Title:Akumade Koiwazurai (TV Size)
TitleUnicode:あくまで恋煩い (TV Size)
Artist:Onishi Saori, Kuno Misaki, Kakuma Ai
ArtistUnicode:大西沙織,久野美咲,加隈亜衣
Creator:Fushimi Rio
Version:Normal
Source:ベルゼブブ嬢のお気に召すまま。
Tags:ベルゼブブ ベルフェゴール サルガタナス Oonishi Saori Beelzebub Belphegor Sargatanas Curisu papapa213 PinkHeart Fia anime opening Japanese pop jpop
BeatmapID:2622167
BeatmapSetID:864207

[Difficulty]
HPDrainRate:4
CircleSize:3
OverallDifficulty:4
ApproachRate:5
SliderMultiplier:1.00000000596046
SliderTickRate:1

[Events]
//Background and Video events
0,0,"wp03_1920_1200.jpg",0,0
//Break Periods
//Storyboard Layer 0 (Background)
//Storyboard Layer 1 (Fail)
//Storyboard Layer 2 (Pass)
//Storyboard Layer 3 (Foreground)
//Storyboard Layer 4 (Overlay)
//Storyboard Sound Samples

[TimingPoints]
566,300,4,2,1,30,1,0
566,-100,4,2,1,30,0,0
5366,-100,4,2,1,40,0,0
7666,-100,4,2,1,50,0,0
8066,-100,4,2,1,55,0,0
8366,-100,4,2,1,60,0,0
8666,-100,4,2,1,65,0,0
8966,-100,4,2,1,70,0,0
10166,-100,4,2,1,50,0,0
28466,-100,4,2,1,55,0,0
28766,-100,4,2,1,60,0,0
29066,-100,4,2,1,65,0,0
29366,-100,4,2,1,70,0,0
31066,-100,4,2,1,60,0,0
31766,-100,4,2,1,50,0,0
41366,-100,4,2,1,60,0,0
43766,-100,4,2,1,65,0,0
44066,-100,4,2,1,70,0,0
44366,-100,4,2,1,75,0,0
44666,-100,4,2,1,80,0,0
46166,-100,4,2,1,80,0,1
79766,-100,4,2,1,60,0,1
80066,-100,4,2,1,40,0,0
81266,-100,4,2,1,50,0,1
81566,-100,4,2,1,60,0,0
82166,-100,4,2,1,60,0,1
82466,-100,4,2,1,40,0,0
83366,-100,4,2,1,50,0,1
84566,-100,4,2,1,40,0,0

[Colours]
Combo1 : 191,128,255
Combo2 : 255,128,128
Combo3 : 255,128,192
Combo4 : 255,128,255
SliderBorder : 225,225,225
SliderTrackOverride : 25,25,25

[HitObjects]
382,252,566,6,0,P|449:224|476:156,2,150.000000894069,0|0|8,3:0|0:0|0:0,0:0:0:0:
292,207,1766,2,0,P|224:235|197:303,2,150.000000894069,0|0|8,3:0|0:0|0:0,0:0:0:0:
296,307,2966,2,0,B|326:352|326:352|452:352,2,150.000000894069,2|0|8,3:2|0:0|0:0,0:0:0:0:
382,252,4166,5,2,3:2:0:0:
451,179,4466,1,8,0:0:0:0:
375,113,4766,1,2,0:0:0:0:
444,40,5066,1,8,0:0:0:0:
346,20,5366,6,0,B|250:20|250:20|220:65,2,150.000000894069,4|0|8,0:1|0:0|0:0,0:0:0:0:
386,110,6566,2,0,B|416:155|416:155|507:155,1,100.000000596046,0|8,3:2|0:0,0:0:0:0:
512,241,7166,2,0,B|482:286|482:286|391:286,1,100.000000596046,0|8,0:0|0:0,0:0:0:0:
381,325,7666,6,0,P|350:284|269:296,1,133.333334128061,0|4,1:0|0:1,0:0:0:0:
207,364,8366,1,0,1:0:0:0:
107,364,8666,1,8,0:0:0:0:
35,294,8966,2,0,B|0:255|0:255|-3:199|37:157|89:155,1,200.000001192092,4|4,0:0|1:0,0:0:0:0:
256,261,10166,5,4,0:0:0:0:
329,330,10466,2,0,P|381:359|429:364,2,100.000000596046,8|0|8,0:0|0:0|0:2,0:0:0:0:
356,232,11366,2,0,P|293:161|201:174,2,150.000000894069,2|0|8,0:0|0:0|0:0,0:0:0:0:
450,197,12566,2,0,B|492:180|492:180|502:127,1,100.000000596046,2|8,0:0|0:0,0:0:0:0:
456,37,13166,2,0,B|414:54|414:54|404:107,1,100.000000596046,0|8,0:0|0:0,0:0:0:0:
307,79,13766,2,0,P|231:59|139:127,1,200.000001192092,2|2,0:0|0:0,0:0:0:0:
108,222,14666,1,8,0:0:0:0:
135,318,14966,6,0,P|206:254|193:162,2,150.000000894069,2|0|8,0:0|0:0|0:0,0:0:0:0:
37,341,16166,2,0,B|-3:305|-3:305|2:260,1,100.000000596046,2|8,0:0|0:0,0:0:0:0:
58,177,16766,2,0,B|64:132|64:132|23:96,1,100.000000596046,0|8,0:0|0:2,0:0:0:0:
85,17,17366,1,2,0:0:0:0:
161,80,17666,2,0,P|216:100|340:25,1,200.000001192092,8|8,0:0|0:0,0:0:0:0:
432,51,18566,2,0,P|481:71|512:118,1,100.000000596046,2|8,0:0|0:0,0:0:0:0:
450,189,19166,2,0,P|401:169|370:122,1,100.000000596046,0|8,0:0|1:2,0:0:0:0:
317,215,19766,5,4,0:0:0:0:
244,284,20066,2,0,P|192:313|144:318,2,100.000000596046,8|0|0,0:0|0:0|1:0,0:0:0:0:
217,186,20966,2,0,P|280:115|372:128,2,150.000000894069,2|0|8,0:0|0:0|0:0,0:0:0:0:
117,176,22166,2,0,B|107:123|107:123|65:106,1,100.000000596046,2|8,0:0|0:0,0:0:0:0:
21,196,22766,2,0,B|31:249|31:249|73:266,1,100.000000596046,0|8,0:0|0:0,0:0:0:0:
170,293,23366,2,0,P|245:272|291:167,1,200.000001192092,2|2,0:0|0:0,0:0:0:0:
271,70,24266,1,8,1:2:0:0:
200,1,24566,6,0,P|170:91|227:165,2,150.000000894069,4|0|8,0:0|0:0|0:2,0:0:0:0:
294,34,25766,2,0,B|339:39|339:39|375:-1,1,100.000000596046,0|8,0:0|0:0,0:0:0:0:
462,48,26366,1,0,0:0:0:0:
500,140,26666,1,10,0:2:0:0:
488,239,26966,2,0,P|468:288|421:319,1,100.000000596046,4|8,0:1|0:0,0:0:0:0:
350,257,27566,2,0,P|370:208|417:177,1,100.000000596046,2|8,0:0|1:2,0:0:0:0:
338,105,28166,2,0,P|285:97|235:123,1,100.000000596046,2|8,0:0|0:0,0:0:0:0:
204,208,28766,2,0,P|158:226|109:218,1,100.000000596046,4|8,0:1|0:2,0:0:0:0:
40,146,29366,5,0,1:0:0:0:
40,46,29666,1,0,1:0:0:0:
40,345,30566,2,0,B|70:300|70:300|161:300,1,100.000000596046,4|8,1:0|0:0,0:0:0:0:
171,261,31066,2,0,P|202:302|283:290,1,133.333334128061,4|8,0:0|0:0,0:0:0:0:
361,239,31766,5,4,1:0:0:0:
411,326,32066,1,8,0:0:0:0:
497,276,32366,1,4,0:0:0:0:
447,189,32666,1,8,0:0:0:0:
512,113,32966,2,0,B|482:68|482:68|391:68,1,100.000000596046,4|8,1:0|0:0,0:0:0:0:
381,29,33466,2,0,P|350:70|269:58,1,133.333334128061,0|8,1:0|0:0,0:0:0:0:
179,97,34166,6,0,P|77:91|52:-13,2,200.000001192092,4|0|2,0:0|1:0|3:2,0:0:0:0:
274,63,35666,1,2,0:0:0:0:
372,79,35966,1,0,1:0:0:0:
446,145,36266,1,0,1:0:0:0:
467,242,36566,6,0,L|404:326,1,100.000000596046,4|0,1:0|1:0,0:0:0:0:
335,251,37166,2,0,L|275:330,1,100.000000596046,4|0,0:3|1:0,0:0:0:0:
184,374,37766,2,0,L|100:311,1,100.000000596046,8|0,3:0|1:0,0:0:0:0:
175,242,38366,2,0,L|95:182,1,100.000000596046,4|0,3:0|1:0,0:0:0:0:
89,81,38966,5,4,0:0:0:0:
156,6,39266,1,0,1:0:0:0:
231,73,39566,1,4,0:3:0:0:
298,0,39866,1,0,1:0:0:0:
388,41,40166,2,0,P|420:82|423:139,1,100.000000596046,8|0,3:0|1:0,0:0:0:0:
365,207,40766,2,0,P|333:168|327:119,1,100.000000596046,4|4,3:0|1:0,0:0:0:0:
241,171,41366,5,4,0:0:0:0:
141,171,41666,2,0,L|39:171,2,100.000000596046,0|4|0,1:0|0:3|1:0,0:0:0:0:
191,257,42566,1,4,3:0:0:0:
291,257,42866,2,0,L|393:257,2,100.000000596046,0|4|0,1:0|3:0|1:0,0:0:0:0:
241,344,43766,5,4,1:0:0:0:
141,344,44066,1,0,1:0:0:0:
41,345,44366,1,0,3:0:0:0:
0,253,44666,2,0,P|14:160|106:140,1,200.000001192092,4|4,0:2|0:1,0:0:0:0:
154,228,45566,2,0,P|193:191|204:126,1,100.000000596046,2|0,3:2|3:0,0:0:0:0:
254,60,46166,6,0,P|290:26|338:16,1,100.000000596046,4|10,0:2|0:0,0:0:0:0:
385,104,46766,2,0,P|434:106|475:133,1,100.000000596046,0|10,0:0|0:0,0:0:0:0:
404,204,47366,1,0,1:0:0:0:
376,300,47666,2,0,P|386:348|419:384,2,100.000000596046,8|0|8,0:0|0:0|0:0,0:0:0:0:
308,225,48566,6,0,P|266:198|217:195,1,100.000000596046,0|8,3:0|0:0,0:0:0:0:
151,271,49166,1,2,0:0:0:0:
59,229,49466,2,0,P|25:191|15:143,1,100.000000596046,12|0,0:0|3:0,0:0:0:0:
46,49,50066,1,8,0:0:0:0:
135,3,50366,1,2,0:0:0:0:
233,21,50666,1,8,0:0:0:0:
282,107,50966,6,0,P|292:155|277:202,1,100.000000596046,4|8,0:1|0:0,0:0:0:0:
178,197,51566,2,0,P|151:239|107:262,1,100.000000596046,2|8,0:0|0:0,0:0:0:0:
14,229,52166,2,0,P|35:332|156:351,1,200.000001192092,0|2,1:0|0:0,0:0:0:0:
208,324,53066,1,8,0:0:0:0:
302,356,53366,6,0,P|362:281|457:292,1,200.000001192092,4|0,0:0|3:0,0:0:0:0:
506,204,54266,1,8,0:0:0:0:
512,103,54566,2,0,P|488:41|455:16,1,100.000000596046,4|8,0:1|0:0,0:0:0:0:
375,70,55166,2,0,P|398:131|431:156,1,100.000000596046,2|10,0:0|0:0,0:0:0:0:
369,235,55766,5,4,0:0:0:0:
269,235,56066,2,0,L|124:234,2,100.000000596046,8|0|8,0:0|0:0|0:0,0:0:0:0:
319,148,56966,2,0,P|345:98|346:50,1,100.000000596046,2|8,0:0|0:0,0:0:0:0:
251,25,57566,2,0,P|224:74|223:122,1,100.000000596046,2|8,0:0|0:0,0:0:0:0:
151,187,58166,5,0,1:1:0:0:
55,213,58466,1,2,3:2:0:0:
29,116,58766,1,0,1:0:0:0:
125,90,59066,1,4,0:2:0:0:
199,275,59666,2,0,P|194:340|173:374,2,100.000000596046,8|2|8,0:0|0:0|0:0,0:0:0:0:
277,212,60566,6,0,P|327:216|371:193,1,100.000000596046,4|8,0:1|0:0,0:0:0:0:
454,245,61166,2,0,P|490:212|504:164,1,100.000000596046,2|8,0:2|0:0,0:0:0:0:
460,74,61766,2,0,P|410:70|366:93,1,100.000000596046,4|8,0:0|0:0,0:0:0:0:
283,41,62366,2,0,P|246:73|232:121,1,100.000000596046,2|8,0:0|0:0,0:0:0:0:
250,219,62966,1,4,1:0:0:0:
196,303,63266,1,8,0:0:0:0:
98,325,63566,1,0,0:0:0:0:
28,252,63866,6,0,B|-12:214|-12:214|31:144|112:169,1,200.000001192092,4|4,0:0|0:1,0:0:0:0:
200,217,64766,1,2,3:2:0:0:
280,157,65066,1,0,3:0:0:0:
258,60,65366,6,0,P|222:26|174:16,1,100.000000596046,4|10,0:0|0:0,0:0:0:0:
127,104,65966,2,0,P|78:106|37:133,1,100.000000596046,0|10,0:0|0:0,0:0:0:0:
108,204,66566,1,0,1:0:0:0:
136,300,66866,2,0,P|126:348|93:384,2,100.000000596046,8|0|8,0:0|0:0|0:0,0:0:0:0:
229,260,67766,6,0,P|271:287|320:290,1,100.000000596046,0|8,3:0|0:0,0:0:0:0:
418,268,68366,1,2,0:0:0:0:
418,168,68666,2,0,P|462:146|512:149,1,100.000000596046,12|2,0:0|0:0,0:0:0:0:
491,51,69266,1,8,0:0:0:0:
402,5,69566,1,0,3:0:0:0:
304,23,69866,1,8,0:0:0:0:
251,103,70166,6,0,P|241:151|256:198,1,100.000000596046,4|8,0:1|0:0,0:0:0:0:
328,267,70766,2,0,P|343:314|333:362,1,100.000000596046,2|8,0:0|0:0,0:0:0:0:
235,384,71366,2,0,P|175:309|80:319,1,200.000001192092,0|2,1:0|0:0,0:0:0:0:
40,228,72266,1,8,0:0:0:0:
40,127,72566,6,0,P|99:51|195:61,1,200.000001192092,4|0,0:0|3:0,0:0:0:0:
291,87,73466,2,0,P|353:63|378:30,2,100.000000596046,8|4|8,0:0|0:1|0:0,0:0:0:0:
222,160,74366,2,0,P|211:224|227:262,1,100.000000596046,2|10,0:0|0:0,0:0:0:0:
312,300,74966,5,4,0:0:0:0:
412,300,75266,2,0,L|557:301,2,100.000000596046,8|2|8,0:0|0:0|0:0,0:0:0:0:
363,212,76166,2,0,P|313:186|265:185,1,100.000000596046,2|8,0:0|0:0,0:0:0:0:
198,254,76766,2,0,P|148:250|105:225,1,100.000000596046,0|8,0:0|0:0,0:0:0:0:
58,136,77366,5,0,1:0:0:0:
79,38,77666,1,8,0:2:0:0:
168,0,77966,1,0,1:0:0:0:
266,10,78266,1,4,0:1:0:0:
321,202,78866,1,8,0:0:0:0:
347,298,79166,2,0,P|391:319|441:319,1,100.000000596046,2|8,0:0|0:0,0:0:0:0:
509,245,79766,5,0,1:0:0:0:
9,245,81266,2,0,B|39:290|39:290|130:290,1,100.000000596046,4|0,1:0|0:0,0:0:0:0:
140,329,81766,2,0,P|171:288|252:300,1,133.333334128061,0|0,1:0|1:0,0:0:0:0:
509,66,83366,6,0,P|502:119|473:159,1,100.000000596046,4|4,0:0|1:0,0:0:0:0:
382,122,83966,2,0,P|388:69|417:28,1,100.000000596046,2|2,1:2|0:0,0:0:0:0:
318,0,84566,5,4,0:0:0:0:
283,93,84866,2,0,P|240:125|192:134,2,100.000000596046,8|0|8,0:0|0:0|0:0,0:0:0:0:
201,33,85766,2,0,P|115:76|102:173,1,200.000001192092,4|0,0:0|1:2,0:0:0:0:
143,260,86666,1,0,3:2:0:0:
243,260,86966,1,4,3:1:0:0:
256,192,87066,12,0,88016,0:0:0:0:
