osu file format v14

[General]
AudioFilename: audio.mp3
AudioLeadIn: 0
PreviewTime: 46166
Countdown: 0
SampleSet: Soft
StackLeniency: 0.7
Mode: 0
LetterboxInBreaks: 0
WidescreenStoryboard: 1

[Editor]
Bookmarks: 8066,9266
DistanceSpacing: 0.8
BeatDivisor: 3
GridSize: 32
TimelineZoom: 1.500001

[Metadata]
Title:Akumade Koiwazurai (TV Size)
TitleUnicode:あくまで恋煩い (TV Size)
Artist:Onishi Saori, Kuno Misaki, Kakuma Ai
ArtistUnicode:大西沙織,久野美咲,加隈亜衣
Creator:Fushimi Rio
Version:Hard
Source:ベルゼブブ嬢のお気に召すまま。
Tags:ベルゼブブ ベルフェゴール サルガタナス Oonishi Saori Beelzebub Belphegor Sargatanas Curisu papapa213 PinkHeart Fia anime opening Japanese pop jpop
BeatmapID:2153551
BeatmapSetID:864207

[Difficulty]
HPDrainRate:5
CircleSize:3.6
OverallDifficulty:6
ApproachRate:7.8
SliderMultiplier:1.20000000596046
SliderTickRate:1

[Events]
//Background and Video events
0,0,"wp03_1920_1200.jpg",0,0
//Break Periods
//Storyboard Layer 0 (Background)
//Storyboard Layer 1 (Fail)
//Storyboard Layer 2 (Pass)
//Storyboard Layer 3 (Foreground)
//Storyboard Layer 4 (Overlay)
//Storyboard Sound Samples

[TimingPoints]
566,300,4,2,1,30,1,0
5366,-100,4,2,1,40,0,0
7666,-100,4,2,1,50,0,0
8066,-100,4,2,1,55,0,0
8366,-100,4,2,1,60,0,0
8666,-100,4,2,1,65,0,0
8966,-100,4,2,1,70,0,0
10166,-100,4,2,1,50,0,0
28466,-100,4,2,1,55,0,0
28766,-100,4,2,1,60,0,0
29066,-100,4,2,1,65,0,0
29366,-100,4,2,1,70,0,0
31066,-100,4,2,1,60,0,0
31766,-100,4,2,1,50,0,0
41366,-100,4,2,1,60,0,0
43766,-100,4,2,1,65,0,0
44066,-100,4,2,1,70,0,0
44366,-100,4,2,1,75,0,0
44666,-100,4,2,1,80,0,0
46166,-100,4,2,1,80,0,1
79766,-100,4,2,1,60,0,1
80066,-100,4,2,1,40,0,0
81266,-100,4,2,1,50,0,1
81566,-100,4,2,1,60,0,0
82166,-100,4,2,1,60,0,1
82466,-100,4,2,1,40,0,0
83366,-100,4,2,1,50,0,1
84566,-100,4,2,1,40,0,0
86966,-180,4,2,1,40,0,0

[Colours]
Combo1 : 191,128,255
Combo2 : 255,128,128
Combo3 : 255,128,192
Combo4 : 255,128,255
SliderBorder : 225,225,225
SliderTrackOverride : 25,25,25

[HitObjects]
49,254,566,6,0,P|76:314|111:337,1,80.000000397364,0|2,3:0|0:0,0:0:0:0:
110,334,866,2,0,L|221:330,1,80.000000397364,8|0,0:0|0:0,0:0:0:0:
323,190,1366,1,2,0:0:0:0:
323,190,1466,1,8,0:0:0:0:
420,197,1766,6,0,P|393:257|358:280,1,80.000000397364,0|2,3:0|0:0,0:0:0:0:
359,277,2066,2,0,L|248:273,1,80.000000397364,8|0,0:0|0:0,0:0:0:0:
146,133,2566,1,2,0:0:0:0:
146,133,2666,1,8,0:0:0:0:
237,190,2966,6,0,P|264:130|299:107,1,80.000000397364,2|2,3:2|0:0,0:0:0:0:
298,110,3266,2,0,L|409:114,1,80.000000397364,8|0,0:0|0:0,0:0:0:0:
354,297,3766,1,2,0:0:0:0:
354,297,3866,1,8,0:0:0:0:
467,218,4166,5,0,3:0:0:0:
450,333,4466,1,8,0:0:0:0:
335,317,4766,1,2,0:0:0:0:
350,201,5066,1,8,0:0:0:0:
250,122,5366,6,0,L|170:124,1,80.000000397364,4|2,0:1|0:0,0:0:0:0:
145,113,5666,2,0,P|119:82|108:44,1,80.000000397364,8|0,0:0|0:0,0:0:0:0:
65,227,6166,1,2,0:0:0:0:
65,227,6266,1,8,0:0:0:0:
174,279,6566,6,0,L|254:281,1,80.000000397364,0|2,3:2|0:0,0:0:0:0:
279,270,6866,2,0,P|305:239|316:201,1,80.000000397364,8|0,0:0|0:0,0:0:0:0:
359,384,7366,1,2,0:0:0:0:
359,384,7466,1,8,0:0:0:0:
437,325,7666,6,0,B|447:264|447:264|501:243,1,120.000000596046,0|0,1:0|0:0,0:0:0:0:
501,243,8066,1,4,0:1:0:0:
440,140,8366,1,0,1:0:0:0:
332,87,8666,1,8,0:0:0:0:
211,86,8966,6,0,P|158:63|141:8,1,120.000000596046,4|0,0:0|0:0,0:0:0:0:
80,176,9566,2,0,L|34:186,3,40.000000198682,4|2|2|0,1:0|0:0|0:0|0:0,0:0:0:0:
219,295,10166,6,0,B|193:273|193:273|94:259,2,120.000000596046,4|8|0,0:0|0:0|0:0,0:0:0:0:
319,384,11066,1,8,0:0:0:0:
350,268,11366,2,0,P|383:218|426:203,1,80.000000397364,2|0,0:0|0:0,0:0:0:0:
399,209,11666,1,8,0:0:0:0:
483,259,11866,2,0,B|496:221|496:221|468:89,1,160.000000794728,0|8,0:0|0:2,0:0:0:0:
349,104,12466,1,0,0:0:0:0:
349,104,12566,6,0,L|339:62,2,40.000000198682,2|0|0,0:0|0:0|0:0,0:0:0:0:
329,124,12866,2,0,P|299:139|252:140,1,80.000000397364,8|0,0:0|0:0,0:0:0:0:
229,126,13166,2,0,P|189:125|124:170,1,120.000000596046,0|8,0:0|0:0,0:0:0:0:
185,306,13766,2,0,P|224:306|290:262,2,120.000000596046,2|8|2,0:0|0:0|0:0,0:0:0:0:
96,304,14566,1,0,0:0:0:0:
96,304,14666,1,8,0:2:0:0:
68,171,14966,6,0,B|93:149|93:149|193:135,2,120.000000596046,2|8|0,0:0|0:0|0:0,0:0:0:0:
146,60,15866,1,8,0:0:0:0:
235,197,16166,2,0,P|258:160|257:113,1,80.000000397364,2|0,0:0|0:0,0:0:0:0:
263,96,16466,2,0,P|284:60|359:35,1,120.000000596046,8|0,0:0|0:0,0:0:0:0:
350,124,16966,1,0,0:0:0:0:
350,124,17066,1,8,0:0:0:0:
444,213,17366,6,0,B|418:234|418:234|319:249,2,120.000000596046,2|8|0,0:0|0:0|0:0,0:0:0:0:
366,324,18266,1,8,0:0:0:0:
264,202,18566,1,2,0:0:0:0:
203,264,18766,1,0,0:0:0:0:
203,264,18866,2,0,P|137:248|112:253,1,80.000000397364,8|2,0:0|0:0,0:0:0:0:
101,261,19166,2,0,P|38:243|21:190,1,120.000000596046,0|8,0:0|0:0,0:0:0:0:
111,88,19766,6,0,B|85:66|85:66|-14:52,2,120.000000596046,4|8|0,0:0|0:0|0:0,0:0:0:0:
196,0,20666,1,8,0:0:0:0:
256,147,20966,2,0,P|223:97|180:82,1,80.000000397364,2|0,0:0|0:0,0:0:0:0:
207,88,21266,1,8,0:0:0:0:
291,36,21466,2,0,B|329:23|329:23|422:44,1,120.000000596046
433,49,21866,1,8,0:2:0:0:
339,118,22066,5,0,0:0:0:0:
354,141,22166,2,0,P|383:156|431:157,1,80.000000397364,2|0,0:0|0:0,0:0:0:0:
428,185,22466,2,0,P|425:218|369:295,1,120.000000596046,8|0,0:0|0:0,0:0:0:0:
240,219,23066,2,0,P|239:179|270:122,1,80.000000397364,8|0,0:0|0:0,0:0:0:0:
273,116,23366,2,0,P|227:78|168:73,2,120.000000596046,2|8|2,0:0|0:0|0:0,0:0:0:0:
328,198,24166,1,0,0:0:0:0:
328,198,24266,1,8,0:0:0:0:
375,43,24566,6,0,L|511:32,1,120.000000596046,4|8,0:0|0:0,0:0:0:0:
449,195,25166,2,0,L|329:204,1,120.000000596046,2|8,0:0|0:2,0:0:0:0:
110,166,25766,2,0,P|147:143|194:144,1,80.000000397364
211,138,26066,2,0,P|247:117|272:42,1,120.000000596046,8|0,0:0|0:0,0:0:0:0:
359,120,26566,1,2,0:0:0:0:
359,120,26666,1,10,0:2:0:0:
289,230,26966,6,0,L|153:219,1,120.000000596046,4|8,0:1|0:0,0:0:0:0:
103,375,27566,2,0,L|222:384,1,120.000000596046,2|8,0:0|0:0,0:0:0:0:
59,283,28166,1,2,0:0:0:0:
113,211,28366,1,0,0:0:0:0:
113,211,28466,2,0,P|47:195|22:200,1,80.000000397364,8|0,0:0|0:0,0:0:0:0:
49,171,28766,2,0,P|29:105|13:86,1,80.000000397364,4|0,0:1|0:0,0:0:0:0:
50,91,29066,2,0,P|96:41|105:17,1,80.000000397364,8|0,0:0|0:0,0:0:0:0:
118,52,29366,5,0,1:0:0:0:
118,276,29666,1,0,1:0:0:0:
296,183,30566,6,0,P|331:173|393:175,1,80.000000397364,4|0,1:0|0:0,0:0:0:0:
401,180,30866,1,8,0:0:0:0:
412,89,31066,2,0,P|377:51|319:70,1,120.000000596046,4|0,0:0|0:0,0:0:0:0:
318,70,31466,1,8,0:0:0:0:
201,39,31766,5,4,1:0:0:0:
167,166,32066,1,8,0:0:0:0:
40,132,32366,1,4,0:0:0:0:
74,5,32666,1,8,0:0:0:0:
155,140,32966,1,4,1:0:0:0:
98,246,33166,1,0,1:0:0:0:
98,246,33266,1,8,0:0:0:0:
185,265,33466,2,0,P|164:307|96:334,1,120.000000596046,0|0,1:0|0:0,0:0:0:0:
71,330,33866,1,8,0:0:0:0:
223,376,34166,6,0,P|274:380|346:369,1,120.000000596046,4|0,0:0|0:0,0:0:0:0:
400,205,34766,2,0,P|349:201|277:212,1,120.000000596046,0|0,1:0|0:0,0:0:0:0:
204,162,35266,1,0,0:0:0:0:
204,162,35366,1,2,3:2:0:0:
157,46,35666,1,2,0:0:0:0:
273,0,35966,1,0,1:0:0:0:
319,115,36266,1,0,1:0:0:0:
199,180,36566,5,4,1:0:0:0:
258,30,36866,1,0,1:0:0:0:
409,90,37166,1,4,0:3:0:0:
348,241,37466,1,0,1:0:0:0:
230,166,37766,5,8,3:0:0:0:
271,61,38066,1,0,1:0:0:0:
377,103,38266,1,0,3:0:0:0:
377,103,38366,1,4,3:0:0:0:
334,209,38666,1,0,1:0:0:0:
376,311,38966,5,4,0:0:0:0:
258,287,39266,1,0,1:0:0:0:
155,224,39566,1,4,0:3:0:0:
37,200,39866,1,0,1:0:0:0:
115,119,40166,5,8,3:0:0:0:
209,99,40366,1,0,3:0:0:0:
209,99,40466,2,0,B|245:117|245:117|313:105,1,80.000000397364,0|0,1:0|3:0,0:0:0:0:
308,106,40766,1,4,3:0:0:0:
403,87,41066,1,4,1:0:0:0:
401,206,41366,6,0,B|427:228|427:228|526:242,2,120.000000596046,4|0|4,0:0|1:0|0:3,0:0:0:0:
308,106,42266,1,0,1:0:0:0:
258,185,42466,1,0,0:0:0:0:
258,185,42566,6,0,P|202:154|181:152,1,80.000000397364,4|0,3:0|3:0,0:0:0:0:
159,156,42866,2,0,P|104:188|91:206,1,80.000000397364,0|0,1:0|3:0,0:0:0:0:
84,227,43166,2,0,P|85:290|93:310,1,80.000000397364,4|0,3:0|3:0,0:0:0:0:
107,327,43466,2,0,P|163:358|184:360,1,80.000000397364,0|0,1:0|3:0,0:0:0:0:
205,358,43766,5,4,1:0:0:0:
346,384,44066,1,0,1:0:0:0:
372,243,44366,1,0,3:0:0:0:
231,217,44666,6,0,P|221:154|336:102,1,200.00000099341,4|0,0:2|0:0,0:0:0:0:
350,112,45266,1,4,0:1:0:0:
464,19,45566,2,0,L|455:57,5,40.000000198682,2|2|2|0|0|0,3:2|3:2|3:2|3:0|3:0|3:0,0:0:0:0:
442,87,46166,6,0,P|391:112|343:107,1,80.000000397364,4|0,0:2|0:0,0:0:0:0:
337,106,46466,2,0,P|297:111|263:131,1,80.000000397364,10|0,0:0|0:0,0:0:0:0:
239,153,46766,2,0,L|211:27,1,120.000000596046,0|10,0:0|0:0,0:0:0:0:
99,271,47366,2,0,L|81:183,1,80.000000397364,0|0,1:0|0:0,0:0:0:0:
77,161,47666,1,8,0:0:0:0:
167,207,47866,2,0,P|209:236|282:233,1,120.000000596046,2|2,0:0|0:0,0:0:0:0:
305,223,48266,1,8,0:0:0:0:
451,105,48566,6,0,P|491:148|491:216,1,120.000000596046,0|8,3:0|0:0,0:0:0:0:
349,135,49166,2,0,P|348:81|382:22,1,120.000000596046,2|12,0:0|0:0,0:0:0:0:
270,195,49766,1,0,3:0:0:0:
170,172,49966,1,0,0:0:0:0:
138,164,50066,2,0,L|56:146,1,80.000000397364,8|0,0:0|0:0,0:0:0:0:
51,115,50366,2,0,P|76:52|137:46,1,120.000000596046,2|8,0:0|0:0,0:0:0:0:
305,39,50966,6,0,P|251:84|188:99,1,120.000000596046,4|8,0:1|0:0,0:0:0:0:
252,194,51466,1,0,0:0:0:0:
252,194,51566,2,0,P|285:173|325:168,1,80.000000397364,2|0,0:0|0:0,0:0:0:0:
356,176,51866,2,0,P|390:194|414:226,1,80.000000397364,8|0,0:0|0:0,0:0:0:0:
427,256,52166,2,0,B|458:245|458:245|482:157,2,120.000000596046,0|8|2,1:0|0:0|0:0,0:0:0:0:
412,343,52966,1,2,0:0:0:0:
412,343,53066,1,8,0:0:0:0:
341,239,53366,6,0,P|301:283|283:340,1,120.000000596046,4|8,0:0|0:0,0:0:0:0:
189,135,53966,2,0,P|208:169|218:208,1,80.000000397364,0|0,3:0|0:0,0:0:0:0:
219,240,54266,1,8,0:0:0:0:
133,287,54466,1,0,0:0:0:0:
133,287,54566,6,0,P|94:277|62:254,1,80.000000397364,4|2,0:1|0:0,0:0:0:0:
45,232,54866,2,0,P|34:193|38:153,1,80.000000397364,8|2,0:0|0:0,0:0:0:0:
49,127,55167,2,0,P|76:98|113:82,1,80.000000397364,2|2,0:0|0:0,0:0:0:0:
142,79,55466,2,0,P|180:88|212:111,1,80.000000397364,10|2,0:0|0:0,0:0:0:0:
244,106,55766,6,0,L|336:89,1,80.000000397364,4|0,0:0|0:0,0:0:0:0:
322,91,56066,1,8,0:0:0:0:
412,64,56266,1,0,0:0:0:0:
418,95,56366,2,0,P|408:133|385:165,1,80.000000397364
354,184,56666,2,0,P|363:222|386:254,1,80.000000397364,8|0,0:0|0:0,0:0:0:0:
414,278,56966,2,0,L|291:264,2,120.000000596046,2|8|2,0:0|0:0|0:0,0:0:0:0:
365,366,57766,1,0,0:0:0:0:
365,366,57866,1,8,0:0:0:0:
215,305,58166,5,0,1:1:0:0:
53,350,58466,1,2,3:2:0:0:
8,188,58766,1,0,1:0:0:0:
170,143,59066,1,4,0:2:0:0:
256,39,59366,5,0,0:0:0:0:
350,108,59566,1,0,0:0:0:0:
350,108,59666,2,0,L|372:32,1,80.000000397364,8|0,0:0|0:0,0:0:0:0:
402,10,59966,2,0,P|438:7|488:79,1,120.000000596046,2|8,0:0|0:0,0:0:0:0:
445,222,60566,6,0,L|323:186,1,120.000000596046,4|8,0:1|0:0,0:0:0:0:
169,243,61166,2,0,L|47:207,1,120.000000596046,2|8,0:2|0:0,0:0:0:0:
193,331,61766,2,0,P|242:299|260:243,1,120.000000596046,4|8,0:0|0:0,0:0:0:0:
282,68,62366,2,0,P|258:99|250:138,1,80.000000397364,2|0,0:0|0:0,0:0:0:0:
250,138,62666,1,8,0:0:0:0:
368,63,62966,5,4,1:0:0:0:
231,0,63266,1,8,0:0:0:0:
168,137,63566,1,0,0:0:0:0:
305,200,63866,1,12,0:0:0:0:
428,139,64166,6,0,P|430:188|418:218,1,80.000000397364,2|0,0:0|3:2,0:0:0:0:
445,231,64466,2,0,P|422:274|396:294,1,80.000000397364,4|0,0:1|0:0,0:0:0:0:
367,299,64766,2,0,L|301:292,5,40.000000198682,2|2|2|0|0|0,3:2|3:2|3:2|3:0|3:0|3:0,0:0:0:0:
292,304,65366,6,0,P|244:272|225:228,1,80.000000397364,4|0,0:0|0:0,0:0:0:0:
223,223,65666,2,0,P|198:190|164:171,1,80.000000397364,10|0,0:0|0:0,0:0:0:0:
138,152,65966,2,0,L|264:124,1,120.000000596046,0|10,0:0|0:0,0:0:0:0:
166,22,66566,2,0,L|254:4,1,80.000000397364,0|0,1:0|0:0,0:0:0:0:
276,0,66866,1,8,0:0:0:0:
337,87,67066,2,0,P|379:116|452:113,1,120.000000596046,2|2,0:0|0:0,0:0:0:0:
475,103,67466,1,8,0:0:0:0:
356,276,67766,6,0,P|316:233|316:165,1,120.000000596046,0|8,3:0|0:0,0:0:0:0:
200,61,68366,2,0,P|201:115|167:174,1,120.000000596046,2|12,0:0|0:0,0:0:0:0:
70,289,68966,1,2,0:0:0:0:
170,266,69166,1,2,0:0:0:0:
202,258,69266,2,0,L|284:240,1,80.000000397364,8|2,0:0|0:0,0:0:0:0:
311,234,69566,2,0,P|336:297|397:303,1,120.000000596046,0|8,3:0|0:0,0:0:0:0:
499,214,70166,6,0,P|445:169|382:154,1,120.000000596046,4|8,0:1|0:0,0:0:0:0:
341,68,70666,1,0,0:0:0:0:
341,68,70766,2,0,P|308:89|268:94,1,80.000000397364,2|0,0:0|0:0,0:0:0:0:
237,86,71066,2,0,P|203:68|179:36,1,80.000000397364,8|0,0:0|0:0,0:0:0:0:
173,3,71366,2,0,B|162:34|162:34|74:58,2,120.000000596046,0|8|2,1:0|0:0|0:0,0:0:0:0:
146,132,72166,1,2,0:0:0:0:
146,132,72266,1,8,0:0:0:0:
18,213,72566,6,0,P|62:253|119:271,1,120.000000596046,4|8,0:0|0:0,0:0:0:0:
240,161,73166,2,0,P|274:142|313:132,1,80.000000397364,0|0,3:0|0:0,0:0:0:0:
345,131,73466,1,8,0:0:0:0:
349,236,73666,1,0,0:0:0:0:
349,236,73766,6,0,P|388:226|420:203,1,80.000000397364,4|2,0:1|0:0,0:0:0:0:
437,181,74066,2,0,P|448:142|444:102,1,80.000000397364,8|2,0:0|0:0,0:0:0:0:
433,76,74367,2,0,P|406:47|369:31,1,80.000000397364,2|2,0:0|0:0,0:0:0:0:
340,28,74666,2,0,P|302:37|270:60,1,80.000000397364,10|2,0:0|0:0,0:0:0:0:
253,88,74966,6,0,L|161:71,1,80.000000397364,4|0,0:0|0:0,0:0:0:0:
175,73,75266,1,8,0:0:0:0:
85,46,75466,1,0,0:0:0:0:
79,77,75566,2,0,P|89:115|112:147,1,80.000000397364,2|0,0:0|0:0,0:0:0:0:
143,166,75866,1,8,0:0:0:0:
94,310,76166,2,0,P|66:250|7:218,2,120.000000596046,2|8|0,0:0|0:0|0:0,0:0:0:0:
183,276,76966,1,2,0:0:0:0:
183,276,77066,1,8,0:0:0:0:
237,153,77366,6,0,L|394:135,1,120.000000596046,0|8,1:0|0:2,0:0:0:0:
387,329,77966,1,0,1:0:0:0:
256,291,78266,1,4,0:1:0:0:
125,253,78566,5,2,0:0:0:0:
152,165,78766,1,0,0:0:0:0:
152,165,78866,2,0,L|130:89,1,80.000000397364,8|0,0:0|0:0,0:0:0:0:
100,67,79166,2,0,P|64:64|14:136,1,120.000000596046,2|8,0:0|0:0,0:0:0:0:
167,4,79766,5,0,1:0:0:0:
347,372,81266,6,0,P|372:324|366:256,1,120.000000596046,4|0,1:0|0:0,0:0:0:0:
301,158,81766,1,0,0:0:0:0:
319,183,81866,2,0,L|444:171,1,120.000000596046,0|0,1:0|1:0,0:0:0:0:
136,306,83366,6,0,P|86:296|61:279,1,80.000000397364,4|0,0:0|0:0,0:0:0:0:
76,256,83666,2,0,P|47:213|42:183,1,80.000000397364,4|0,1:0|0:0,0:0:0:0:
67,174,83966,2,0,P|68:144|77:111,5,40.000000198682,2|2|2|2|2|2,1:2|0:0|0:0|0:0|0:0|0:0,0:0:0:0:
86,111,84566,6,0,P|146:110|183:164,1,120.000000596046,4|8,0:0|0:0,0:0:0:0:
354,37,85166,2,0,P|294:36|257:90,1,120.000000596046,0|8,0:0|0:0,0:0:0:0:
306,237,85766,1,0,0:0:0:0:
361,175,85966,2,0,L|486:167,1,120.000000596046,8|8,0:0|0:0,0:0:0:0:
484,199,86366,2,0,L|488:252,3,40.000000198682,4|0|0|0,0:2|1:0|3:0|3:0,0:0:0:0:
495,81,86966,5,4,3:1:0:0:
256,192,87066,12,0,88016,0:0:0:0:
