osu file format v14

[General]
AudioFilename: audio.mp3
AudioLeadIn: 0
PreviewTime: 47794
Countdown: 0
SampleSet: Soft
StackLeniency: 0.7
Mode: 0
LetterboxInBreaks: 0
WidescreenStoryboard: 1

[Editor]
DistanceSpacing: 0.4
BeatDivisor: 8
GridSize: 8
TimelineZoom: 2.3

[Metadata]
Title:Elder flower (TV Size)
TitleUnicode:Elder flower (TV Size)
Artist:Onishi Aguri
ArtistUnicode:大西亜玖璃
Creator:Ayucchi
Version:newton's Hard
Source:精霊幻想記
Tags:shikibe mayu kazato asa shizuku- newton- mocaotic japanese pop jpop j-pop anime agupon seirei gensoki gensouki spirit chronicles ed ending ISEKAI
BeatmapID:3094960
BeatmapSetID:1511491

[Difficulty]
HPDrainRate:4
CircleSize:4
OverallDifficulty:6.5
ApproachRate:8
SliderMultiplier:1.4
SliderTickRate:1

[Events]
//Background and Video events
0,0,"89243341_p0.jpg",0,0
//Break Periods
//Storyboard Layer 0 (Background)
//Storyboard Layer 1 (Fail)
//Storyboard Layer 2 (Pass)
//Storyboard Layer 3 (Foreground)
//Storyboard Layer 4 (Overlay)
//Storyboard Sound Samples

[TimingPoints]
-1448,500,4,2,1,40,1,0
5552,-100,4,2,1,40,0,0
5677,-100,4,2,1,50,0,0
6552,-100,4,2,1,55,0,0
16552,-111.111111111111,4,2,1,35,0,0
30552,-111.111111111111,4,2,1,40,0,0
32552,-100,4,2,1,50,0,0
40552,-100,4,2,1,55,0,0
44552,-100,4,2,1,65,0,0
48552,-76.9230769230769,4,2,1,75,0,1
68552,-100,4,2,1,65,0,0
88552,-100,4,2,1,55,0,0
94552,-111.111111111111,4,2,1,35,0,0
100614,-100,4,2,1,20,0,0
104552,-100,4,2,1,5,0,0

[Colours]
Combo1 : 176,194,255
Combo2 : 255,209,229
Combo3 : 131,105,83

[HitObjects]
101,77,6552,6,0,P|127:100|161:107,1,70,6|0,1:2|0:2,0:0:0:0:
195,103,6927,1,0,0:2:0:0:
195,103,7052,1,2,3:2:0:0:
276,163,7302,1,0,0:2:0:0:
362,102,7552,1,0,3:2:0:0:
362,102,7677,1,2,0:2:0:0:
362,102,7802,1,0,0:0:0:0:
406,210,8052,2,0,P|396:243|391:278,1,70,0|2,3:2|0:2,0:0:0:0:
304,240,8552,6,0,P|270:249|235:254,1,70,2|0,3:2|0:2,0:0:0:0:
201,253,8927,1,0,0:2:0:0:
201,253,9052,1,2,3:2:0:0:
127,309,9302,2,0,P|93:289|40:292,1,70,0|0,0:2|3:2,0:0:0:0:
45,294,9677,1,2,0:1:0:0:
50,281,9802,1,2,0:2:0:0:
55,268,9927,1,2,0:2:0:0:
61,255,10052,2,0,L|80:202,2,35,2|2|2,3:2|0:2|0:2,0:0:0:0:
20,142,10552,6,0,P|29:108|34:73,1,70,6|0,1:2|0:2,0:0:0:0:
33,39,10927,1,0,0:2:0:0:
33,39,11052,1,2,3:2:0:0:
124,114,11302,2,0,P|157:123|192:128,1,70,0|0,0:2|3:2,0:0:0:0:
227,127,11677,1,2,0:2:0:0:
227,127,11802,1,0,0:0:0:0:
294,59,12052,2,0,P|319:36|353:29,1,70,2|0,3:2|0:2,0:0:0:0:
417,97,12552,6,0,P|407:130|402:165,1,70,2|0,3:2|0:2,0:0:0:0:
404,200,12927,1,0,0:2:0:0:
404,200,13052,1,2,3:2:0:0:
324,235,13302,2,0,P|333:268|338:303,1,70,0|0,0:2|3:2,0:0:0:0:
337,338,13677,1,2,0:2:0:0:
337,338,13802,1,0,0:0:0:0:
239,297,14052,2,0,L|187:306,1,35,2|0,3:2|0:2,0:0:0:0:
183,325,14302,2,0,L|131:316,1,35,0|0,0:2|0:2,0:0:0:0:
126,298,14552,1,2,3:2:0:0:
245,298,16552,6,0,P|252:267|249:236,1,62.9999980773926,2|0,0:2|0:2,0:0:0:0:
259,210,16927,2,0,P|232:193|201:187,1,62.9999980773926,0|0,0:2|0:2,0:0:0:0:
179,169,17302,2,0,P|155:189|139:216,1,62.9999980773926,0|2,0:2|0:2,0:0:0:0:
139,216,18052,1,8,0:2:0:0:
253,306,18302,1,2,3:2:0:0:
253,306,18427,1,0,3:2:0:0:
253,306,18552,6,0,P|280:292|311:283,1,62.9999980773926,2|0,0:2|0:2,0:0:0:0:
343,253,18927,2,0,P|370:268|401:277,1,62.9999980773926,0|0,0:2|0:2,0:0:0:0:
437,260,19302,2,0,P|451:233|460:202,1,62.9999980773926,0|2,0:2|0:2,0:0:0:0:
460,201,20052,1,8,0:2:0:0:
394,115,20302,1,2,3:2:0:0:
394,115,20427,1,0,3:2:0:0:
394,115,20552,6,0,L|401:28,1,62.9999980773926,2|0,0:2|0:2,0:0:0:0:
377,29,20927,2,0,L|289:22,1,62.9999980773926,0|0,0:2|0:2,0:0:0:0:
291,46,21302,2,0,L|285:109,1,62.9999980773926,0|2,0:2|0:2,0:0:0:0:
285,108,22052,1,8,0:2:0:0:
221,198,22302,2,0,L|218:229,1,31.4999990386963,2|0,3:2|3:2,0:0:0:0:
193,252,22552,6,0,P|161:255|131:247,1,62.9999980773926,2|0,0:2|0:2,0:0:0:0:
107,221,22927,2,0,P|103:189|111:159,1,62.9999980773926,0|0,0:2|0:2,0:0:0:0:
131,130,23302,1,0,0:2:0:0:
71,48,23552,1,2,0:2:0:0:
71,48,24052,1,10,0:2:0:0:
17,146,24302,1,2,3:2:0:0:
17,146,24427,1,0,3:2:0:0:
17,146,24552,6,0,L|9:234,1,62.9999980773926,6|0,1:2|0:2,0:0:0:0:
34,232,24927,2,0,L|96:238,1,62.9999980773926,0|0,0:2|0:2,0:0:0:0:
124,256,25302,2,0,L|118:318,1,62.9999980773926,0|2,0:2|0:2,0:0:0:0:
117,318,26052,1,8,2:2:0:0:
222,247,26302,1,2,3:2:0:0:
222,247,26427,1,0,3:2:0:0:
222,247,26552,6,0,L|309:254,1,62.9999980773926,2|0,0:2|0:2,0:0:0:0:
312,234,26927,2,0,P|343:230|373:238,1,62.9999980773926,0|0,0:2|0:2,0:0:0:0:
395,265,27302,2,0,P|398:296|390:326,1,62.9999980773926,0|2,0:2|0:2,0:0:0:0:
389,326,28052,1,8,0:2:0:0:
490,249,28302,1,2,3:2:0:0:
490,249,28427,1,0,3:2:0:0:
490,249,28552,6,0,P|486:218|494:188,1,62.9999980773926,2|0,0:2|0:2,0:0:0:0:
473,162,28927,2,0,P|441:166|411:158,1,62.9999980773926,0|0,0:2|0:2,0:0:0:0:
380,166,29302,2,0,P|383:134|375:104,1,62.9999980773926,0|2,0:2|0:2,0:0:0:0:
375,104,30052,1,0,3:2:0:0:
269,45,30302,1,2,1:2:0:0:
238,52,30427,1,2,1:2:0:0:
207,59,30552,6,0,B|183:102|183:102|193:147,1,94.499997116089,2|2,1:2|0:2,0:0:0:0:
328,231,31302,2,0,B|338:276|338:276|314:319,1,94.499997116089,2|2,0:2|0:2,0:0:0:0:
181,229,32052,1,2,0:2:0:0:
103,315,32302,1,2,3:2:0:0:
103,315,32427,1,2,3:2:0:0:
103,315,32552,6,0,P|70:306|35:301,1,70,6|0,1:2|0:2,0:0:0:0:
21,281,32927,1,2,0:2:0:0:
21,281,33052,2,0,P|31:248|36:213,1,70,0|2,3:2|0:2,0:0:0:0:
109,120,33552,2,0,L|143:124,1,35,0|0,3:2|0:2,0:0:0:0:
165,101,33802,2,0,L|161:67,2,35,0|0|10,0:2|0:2|3:2,0:0:0:0:
261,178,34302,1,2,2:2:0:0:
256,202,34427,1,0,0:2:0:0:
251,226,34552,6,0,P|285:216|320:211,1,70,2|0,1:2|0:2,0:0:0:0:
342,200,34927,1,2,0:2:0:0:
342,200,35052,2,0,P|376:209|411:214,1,70,0|2,3:2|0:2,0:0:0:0:
429,123,35552,2,0,L|432:88,1,35,0|0,0:0|0:2,0:0:0:0:
419,70,35802,1,2,0:2:0:0:
321,7,36052,1,10,3:2:0:0:
321,7,36177,1,0,0:2:0:0:
321,7,36302,2,0,L|286:11,1,35,2|0,2:2|0:2,0:0:0:0:
256,35,36552,6,0,P|265:68|270:103,1,70,2|0,1:2|0:2,0:0:0:0:
303,127,36927,1,2,0:2:0:0:
303,127,37052,1,0,3:2:0:0:
232,202,37302,1,2,0:2:0:0:
332,234,37552,1,0,3:2:0:0:
332,234,37677,2,0,L|420:213,1,70,0|0,0:2|0:0,0:0:0:0:
423,238,38052,2,0,L|419:294,1,35,8|0,3:2|0:2,0:0:0:0:
431,305,38302,1,0,3:2:0:0:
338,358,38552,6,0,P|304:348|269:343,1,70,2|0,1:2|0:2,0:0:0:0:
233,343,38927,1,2,0:2:0:0:
233,343,39052,1,0,3:2:0:0:
175,269,39302,1,2,0:2:0:0:
73,325,39552,2,0,L|69:290,1,35,2|2,3:2|0:2,0:0:0:0:
44,272,39802,2,0,L|40:237,1,35,2|0,0:2|0:2,0:0:0:0:
65,209,40052,2,0,P|74:175|79:140,1,70,10|0,3:2|0:2,0:0:0:0:
99,118,40427,1,0,0:2:0:0:
99,118,40552,6,0,P|89:84|84:49,1,70,6|0,1:2|0:2,0:0:0:0:
189,13,41052,2,0,L|223:16,1,35,2|0,1:2|0:0,0:0:0:0:
249,43,41302,2,0,L|283:46,1,35,2|0,2:3|0:2,0:0:0:0:
313,70,41552,2,0,P|346:60|381:55,1,70,2|0,1:2|0:2,0:0:0:0:
467,5,42052,1,2,1:2:0:0:
488,103,42302,2,0,L|482:137,1,35,4|0,0:2|0:2,0:0:0:0:
462,152,42552,6,0,P|471:185|476:220,1,70,2|0,3:2|1:2,0:0:0:0:
501,309,43052,2,0,P|468:299|433:294,1,70,2|2,1:2|0:3,0:0:0:0:
355,356,43552,1,2,1:2:0:0:
300,268,43802,1,0,1:2:0:0:
222,340,44052,2,0,L|231:376,2,35,10|0|0,1:2|0:2|3:2,0:0:0:0:
145,260,44552,5,6,1:2:0:0:
145,260,44677,1,0,0:0:0:0:
145,260,44802,2,0,L|179:256,1,35,2|0,1:2|3:2,0:0:0:0:
236,202,45052,1,2,1:2:0:0:
236,202,45177,1,0,3:2:0:0:
236,202,45302,2,0,L|232:167,1,35,2|0,1:2|3:2,0:0:0:0:
171,121,45552,5,2,1:2:0:0:
171,121,45677,1,0,3:2:0:0:
171,121,45802,2,0,L|136:125,1,35,2|0,1:2|3:2,0:0:0:0:
62,92,46052,1,2,1:2:0:0:
62,92,46177,1,2,3:2:0:0:
62,92,46302,2,0,L|58:57,1,35,6|2,1:2|3:2,0:0:0:0:
112,4,46552,1,2,3:2:0:0:
256,192,46614,12,6,47552,1:2:0:0:
190,79,47927,5,4,2:3:0:0:
214,99,48052,2,0,P|220:150|202:199,1,105,0|0,1:2|0:0,0:0:0:0:
223,226,48552,6,0,P|271:223|306:255,1,90.9999958343508,4|0,3:2|0:2,0:0:0:0:
307,277,48927,1,0,3:2:0:0:
417,333,49177,1,2,0:2:0:0:
417,333,49302,1,2,3:2:0:0:
476,228,49552,5,2,0:2:0:0:
476,228,49677,2,0,L|462:157,1,45.4999979171754,2|0,0:2|0:2,0:0:0:0:
470,153,49927,2,0,P|433:166|380:173,1,90.9999958343508,2|2,0:2|0:2,0:0:0:0:
367,156,50302,1,2,1:2:0:0:
318,42,50552,6,0,P|257:27|193:28,1,90.9999958343508,6|0,3:2|0:2,0:0:0:0:
215,46,50927,1,2,3:2:0:0:
215,46,51052,1,2,1:2:0:0:
99,92,51302,1,0,3:2:0:0:
99,92,51427,1,0,0:2:0:0:
99,92,51552,6,0,P|100:111|111:138,1,45.4999979171754,2|0,0:2|0:0,0:0:0:0:
121,162,51802,2,0,P|138:170|167:174,1,45.4999979171754,0|0,3:2|3:2,0:0:0:0:
236,208,52052,2,0,P|248:244|236:295,1,90.9999958343508,0|0,3:2|1:2,0:0:0:0:
89,349,52552,6,0,P|77:313|89:262,1,90.9999958343508,2|0,3:2|0:2,0:0:0:0:
120,248,52927,1,2,3:2:0:0:
120,248,53052,2,0,P|132:212|120:161,1,90.9999958343508,0|2,1:2|3:2,0:0:0:0:
176,36,53677,6,0,P|214:38|262:88,1,90.9999958343508,0|2,0:2|0:2,0:0:0:0:
268,102,54052,2,0,L|253:159,1,45.4999979171754,0|2,3:2|3:2,0:0:0:0:
274,181,54302,2,0,L|331:166,1,45.4999979171754,0|0,1:2|0:2,0:0:0:0:
371,116,54552,1,2,1:2:0:0:
453,218,54802,6,0,L|441:285,1,45.4999979171754,0|2,0:2|0:2,0:0:0:0:
454,296,55052,2,0,P|404:287|348:306,1,90.9999958343508,2|0,1:2|3:2,0:0:0:0:
352,323,55427,1,2,0:2:0:0:
217,358,55677,6,0,L|207:303,1,45.4999979171754,2|0,0:1|0:2,0:0:0:0:
225,287,55927,1,2,0:1:0:0:
225,287,56052,2,0,L|235:232,1,45.4999979171754,0|0,3:2|0:0,0:0:0:0:
186,184,56302,1,2,1:1:0:0:
254,68,56552,5,6,3:2:0:0:
232,49,56677,2,0,P|195:63|131:63,1,90.9999958343508,0|2,0:2|3:2,0:0:0:0:
57,154,57177,1,0,0:2:0:0:
56,154,57302,2,0,P|49:171|49:199,1,45.4999979171754,6|0,2:2|0:2,0:0:0:0:
82,271,57552,5,0,0:2:0:0:
82,271,57677,2,0,L|133:265,1,45.4999979171754,0|0,0:2|0:2,0:0:0:0:
149,244,57927,2,0,P|194:269|260:264,1,90.9999958343508,2|2,0:2|3:2,0:0:0:0:
252,254,58302,1,0,1:2:0:0:
357,356,58552,6,0,P|363:311|379:259,1,90.9999958343508,6|0,0:2|0:0,0:0:0:0:
400,250,58927,1,2,3:2:0:0:
400,250,59052,1,0,1:2:0:0:
484,183,59302,2,0,P|496:142|451:98,1,90.9999958343508,6|0,1:2|0:2,0:0:0:0:
447,93,59677,1,0,0:2:0:0:
447,93,59802,2,0,L|385:107,1,45.4999979171754,2|0,0:2|1:2,0:0:0:0:
383,118,60052,2,0,L|321:104,1,45.4999979171754,2|0,3:2|0:2,0:0:0:0:
285,55,60302,1,2,1:2:0:0:
247,182,60552,6,0,P|262:250|263:302,1,90.9999958343508,6|0,1:2|0:2,0:0:0:0:
279,302,60927,1,2,3:2:0:0:
279,302,61052,2,0,P|231:332|190:312,1,90.9999958343508,0|2,1:2|3:2,0:0:0:0:
145,274,61427,1,2,0:2:0:0:
36,355,61677,6,0,L|28:297,1,45.4999979171754,0|0,0:2|0:2,0:0:0:0:
13,293,61927,1,0,1:2:0:0:
13,293,62052,2,0,L|21:235,1,45.4999979171754,2|0,3:2|0:2,0:0:0:0:
68,188,62302,1,0,1:2:0:0:
16,64,62552,5,6,1:2:0:0:
144,111,62802,2,0,L|217:99,1,45.4999979171754,0|2,0:2|3:2,0:0:0:0:
214,119,63052,2,0,P|247:86|292:80,1,90.9999958343508,2|2,1:1|3:2,0:0:0:0:
308,92,63427,1,2,0:1:0:0:
421,37,63677,2,0,L|431:103,1,45.4999979171754,2|0,0:1|0:2,0:0:0:0:
454,99,63927,2,0,L|444:165,1,45.4999979171754,2|2,0:2|0:2,0:0:0:0:
380,187,64177,1,2,0:1:0:0:
369,217,64302,1,2,1:2:0:0:
375,248,64427,1,2,3:2:0:0:
398,269,64552,1,2,1:2:0:0:
252,357,64802,5,0,0:2:0:0:
252,357,64927,2,0,P|216:301|233:268,1,90.9999958343508,2|0,3:2|0:2,0:0:0:0:
280,236,65302,1,6,0:2:0:0:
357,115,65552,5,0,0:2:0:0:
357,115,65677,2,0,L|268:96,1,90.9999958343508,2|0,3:2|1:2,0:0:0:0:
239,28,66052,2,0,L|185:42,1,45.4999979171754,2|0,3:2|0:2,0:0:0:0:
172,61,66302,2,0,L|118:47,1,45.4999979171754,6|0,3:2|0:2,0:0:0:0:
44,71,66552,6,0,P|78:121|63:181,1,90.9999958343508,6|0,3:2|1:2,0:0:0:0:
64,176,66927,1,2,3:2:0:0:
64,176,67052,1,0,0:2:0:0:
0,302,67302,2,0,P|71:283|120:274,1,90.9999958343508,6|0,0:2|0:2,0:0:0:0:
108,261,67677,1,2,1:2:0:0:
108,261,67802,1,0,0:2:0:0:
215,174,68052,6,0,P|221:191|221:223,1,45.4999979171754,2|2,3:2|0:2,0:0:0:0:
203,240,68302,2,0,P|203:262|209:284,1,45.4999979171754,2|2,3:2|3:2,0:0:0:0:
251,350,68552,6,0,P|285:345|319:334,1,70,6|0,3:2|0:0,0:0:0:0:
329,314,68927,1,0,0:0:0:0:
329,314,69052,1,0,3:2:0:0:
421,289,69302,1,2,2:2:0:0:
421,289,69427,2,0,P|426:323|437:357,2,70,2|0|0,2:2|0:0|1:2,0:0:0:0:
444,258,70052,2,0,P|477:248|511:243,1,70,2|2,3:2|1:2,0:0:0:0:
471,162,70552,1,6,3:2:0:0:
379,161,70802,5,0,0:2:0:0:
379,161,70927,1,0,0:2:0:0:
379,161,71052,2,0,P|368:127|363:93,1,70,2|0,1:2|0:2,0:0:0:0:
384,61,71427,1,2,0:2:0:0:
298,22,71677,2,0,P|264:32|230:37,1,70,2|0,0:2|1:2,0:0:0:0:
207,16,72052,2,0,P|173:5|139:0,1,70,2|2,3:2|1:2,0:0:0:0:
59,38,72552,6,0,P|53:72|43:105,1,70,0|0,3:3|0:2,0:0:0:0:
68,131,72927,1,0,3:2:0:0:
68,131,73052,1,2,1:2:0:0:
120,201,73302,1,0,0:2:0:0:
31,248,73552,2,0,P|36:282|46:315,1,70,2|0,3:2|0:2,0:0:0:0:
75,332,73927,1,0,1:2:0:0:
75,332,74052,2,0,P|109:326|142:316,1,70,2|0,3:2|1:2,0:0:0:0:
182,238,74552,6,0,L|217:242,1,35,2|0,3:2|0:0,0:0:0:0:
249,246,74802,1,0,0:2:0:0:
316,192,75052,2,0,L|320:157,1,35,2|0,1:2|0:0,0:0:0:0:
324,125,75302,1,0,0:2:0:0:
421,113,75552,2,0,P|426:147|436:180,1,70,2|0,3:2|0:2,0:0:0:0:
465,204,75927,1,2,0:2:0:0:
465,204,76052,1,0,3:2:0:0:
512,121,76302,1,2,1:2:0:0:
441,16,76552,6,0,P|407:26|373:31,1,70,6|0,3:2|0:2,0:0:0:0:
343,21,76927,1,0,0:2:0:0:
343,21,77052,2,0,P|309:10|275:5,1,70,2|2,1:2|2:2,0:0:0:0:
241,15,77427,1,0,0:2:0:0:
131,27,77677,1,2,0:2:0:0:
131,27,77802,2,0,L|135:62,1,35,0|0,0:2|1:2,0:0:0:0:
115,98,78052,2,0,P|125:131|130:165,2,70,2|0|6,3:2|1:2|3:2,0:0:0:0:
37,176,78802,5,0,0:2:0:0:
37,176,78927,1,0,0:2:0:0:
37,176,79052,2,0,P|42:210|52:243,1,70,2|0,1:2|0:2,0:0:0:0:
78,270,79427,1,2,0:2:0:0:
192,224,79677,2,0,P|225:213|259:208,1,70,0|0,0:2|1:2,0:0:0:0:
283,230,80052,2,0,P|316:240|350:245,1,70,2|2,3:2|1:2,0:0:0:0:
436,299,80552,6,0,P|441:264|451:231,1,70,6|0,3:2|0:2,0:0:0:0:
389,165,81052,1,2,3:2:0:0:
390,165,81302,1,4,1:2:0:0:
443,85,81552,2,0,P|408:79|375:69,1,70,2|0,3:2|0:2,0:0:0:0:
349,53,81927,1,0,0:2:0:0:
349,53,82052,1,2,3:2:0:0:
307,129,82302,1,0,1:2:0:0:
203,69,82552,6,0,P|213:102|218:136,1,70,2|0,3:2|0:2,0:0:0:0:
115,198,83052,2,0,P|125:164|130:130,1,70,2|4,3:2|1:2,0:0:0:0:
25,71,83552,2,0,P|35:104|40:138,1,70,2|0,3:2|0:2,0:0:0:0:
26,178,83927,1,0,0:2:0:0:
26,178,84052,1,2,3:2:0:0:
49,261,84302,1,2,1:2:0:0:
190,241,84552,6,0,P|223:251|257:256,1,70,6|0,3:2|0:2,0:0:0:0:
282,277,84927,2,0,P|315:266|349:261,1,70,2|0,3:2|0:2,0:0:0:0:
389,273,85302,1,6,3:2:0:0:
449,202,85552,1,0,0:2:0:0:
449,202,85677,2,0,P|443:167|433:134,1,70,2|0,3:2|1:2,0:0:0:0:
409,107,86052,1,2,3:2:0:0:
492,64,86302,1,6,1:2:0:0:
411,15,86552,6,0,P|377:25|343:30,1,70,6|0,3:2|0:2,0:0:0:0:
319,51,86927,2,0,P|285:40|251:35,1,70,2|0,1:2|0:2,0:0:0:0:
234,55,87302,2,0,P|200:65|166:70,1,70,6|0,3:2|0:2,0:0:0:0:
143,87,87677,1,2,3:1:0:0:
130,81,87802,1,2,0:2:0:0:
117,75,87927,1,2,1:2:0:0:
105,66,88052,2,0,L|101:32,2,35,2|2|2,3:2|0:2|3:2,0:0:0:0:
70,158,88552,6,0,P|59:191|54:225,1,70,6|0,3:2|0:2,0:0:0:0:
74,253,88927,2,0,P|84:286|89:320,1,70,0|0,0:2|0:2,0:0:0:0:
86,360,89302,2,0,P|50:323|0:324,2,105,0|2|2,0:2|2:2|3:2,0:0:0:0:
172,311,90302,1,2,0:2:0:0:
266,348,90552,6,0,P|256:315|251:281,1,70,2|0,3:2|0:2,0:0:0:0:
270,253,90927,2,0,P|281:220|286:186,1,70,0|0,0:2|0:2,0:0:0:0:
283,161,91302,2,0,P|233:176|181:182,2,105,0|2|2,0:2|2:2|3:2,0:0:0:0:
326,85,92302,1,2,0:2:0:0:
416,126,92552,6,0,P|405:160|400:194,1,70,6|0,3:2|0:2,0:0:0:0:
420,221,92927,2,0,P|430:255|435:289,1,70,0|0,0:2|0:2,0:0:0:0:
422,332,93302,2,0,P|458:295|509:296,2,105,0|2|2,0:2|0:2|3:2,0:0:0:0:
345,288,94302,1,2,0:2:0:0:
274,353,94552,6,0,P|241:343|203:340,1,62.9999980773926,2|0,0:2|0:2,0:0:0:0:
191,325,94927,2,0,P|201:292|204:254,1,62.9999980773926,0|0,0:2|0:2,0:0:0:0:
191,238,95302,2,0,P|158:248|120:251,1,62.9999980773926,2|2,0:2|0:2,0:0:0:0:
129,251,96052,1,10,0:2:0:0:
48,214,96302,1,0,3:2:0:0:
48,214,96427,1,0,0:2:0:0:
48,214,96552,6,0,L|54:149,1,62.9999980773926,2|0,0:2|0:2,0:0:0:0:
74,127,96927,2,0,L|139:133,1,62.9999980773926,0|0,0:2|0:2,0:0:0:0:
157,103,97302,2,0,L|222:109,1,62.9999980773926,2|2,0:2|0:2,0:0:0:0:
219,108,98052,1,10,0:2:0:0:
324,58,98302,1,0,3:2:0:0:
324,58,98427,1,0,3:2:0:0:
324,58,98552,6,0,P|335:88|333:132,1,62.9999980773926,2|0,0:2|0:2,0:0:0:0:
365,140,98927,2,0,P|395:129|439:131,1,62.9999980773926,0|0,0:2|0:2,0:0:0:0:
447,102,99302,2,0,P|436:72|438:28,1,62.9999980773926,0|2,0:2|0:2,0:0:0:0:
435,41,100052,1,8,0:2:0:0:
477,188,100302,6,0,L|509:176,2,31.4999990386963,2|0|0,3:2|0:2|0:2,0:0:0:0:
256,192,100614,12,0,104552,0:2:0:0:
