osu file format v14

[General]
AudioFilename: audio.mp3
AudioLeadIn: 0
PreviewTime: 47794
Countdown: 0
SampleSet: Soft
StackLeniency: 0.7
Mode: 0
LetterboxInBreaks: 0
WidescreenStoryboard: 1

[Editor]
Bookmarks: 16544
DistanceSpacing: 1.4
BeatDivisor: 4
GridSize: 8
TimelineZoom: 1

[Metadata]
Title:Elder flower (TV Size)
TitleUnicode:Elder flower (TV Size)
Artist:Onishi Aguri
ArtistUnicode:大西亜玖璃
Creator:Ayucchi
Version:Mocaotic's Normal
Source:精霊幻想記
Tags:shikibe mayu kazato asa shizuku- newton- mocaotic japanese pop jpop j-pop anime agupon seirei gensoki gensouki spirit chronicles ed ending ISEKAI
BeatmapID:3094959
BeatmapSetID:1511491

[Difficulty]
HPDrainRate:3
CircleSize:3.5
OverallDifficulty:4
ApproachRate:5.5
SliderMultiplier:1.2
SliderTickRate:1

[Events]
//Background and Video events
0,0,"89243341_p0.jpg",0,0
//Break Periods
//Storyboard Layer 0 (Background)
//Storyboard Layer 1 (Fail)
//Storyboard Layer 2 (Pass)
//Storyboard Layer 3 (Foreground)
//Storyboard Layer 4 (Overlay)
//Storyboard Sound Samples

[TimingPoints]
-1448,500,4,2,1,40,1,0
5677,-100,4,2,1,50,0,0
6552,-100,4,2,1,55,0,0
16552,-100,4,2,1,35,0,0
30552,-100,4,2,1,40,0,0
32552,-100,4,2,1,50,0,0
40552,-100,4,2,1,55,0,0
44552,-100,4,2,1,65,0,0
48552,-95.2380952380952,4,2,1,75,0,1
68552,-100,4,2,1,65,0,0
88552,-100,4,2,1,55,0,0
94552,-100,4,2,1,35,0,0
100552,-100,4,2,1,20,0,0
104552,-100,4,2,1,5,0,0

[Colours]
Combo1 : 176,194,255
Combo2 : 255,209,229
Combo3 : 131,105,83

[HitObjects]
28,66,5677,6,0,L|47:179,1,90,2|2,2:1|0:2,0:0:0:0:
4,229,6302,1,2,0:2:0:0:
67,284,6552,6,0,B|94:260|94:260|155:255,1,90,6|2,1:2|0:2,0:0:0:0:
211,147,7302,2,0,L|317:161,1,90,2|2,0:2|0:2,0:0:0:0:
379,256,8052,1,2,3:2:0:0:
436,194,8302,1,2,0:2:0:0:
509,234,8552,6,0,P|521:296|500:334,1,90,2|2,3:2|0:2,0:0:0:0:
400,379,9302,2,0,L|308:365,1,90,2|2,0:2|0:1,0:0:0:0:
188,337,10052,1,2,3:2:0:0:
267,191,10552,6,0,B|272:149|272:149|266:136|266:136|271:85,1,90,6|2,1:2|0:2,0:0:0:0:
189,5,11302,2,0,L|91:19,1,90,2|2,0:2|0:2,0:0:0:0:
19,114,12052,1,2,3:2:0:0:
80,171,12302,1,2,0:2:0:0:
27,236,12552,6,0,L|40:340,1,90,2|2,3:2|0:2,0:0:0:0:
150,381,13302,2,0,P|184:381|234:351,1,90,2|2,0:2|0:2,0:0:0:0:
307,253,14052,2,0,P|363:254|410:312,1,120,2|0,3:2|3:2,0:0:0:0:
330,339,16552,6,0,L|336:194,1,120,2|0,0:2|0:0,0:0:0:0:
402,168,17302,1,2,0:2:0:0:
402,168,17552,2,0,P|449:196|429:271,1,120,2|8,0:2|0:2,0:0:0:0:
284,301,18552,6,0,L|180:287,2,90,2|0|0,0:2|0:2|0:2,0:0:0:0:
357,341,19552,1,2,0:2:0:0:
482,223,20052,2,0,P|486:187|474:157,1,60,10|0,0:2|3:2,0:0:0:0:
409,117,20552,6,0,L|280:131,1,120,2|0,0:2|0:2,0:0:0:0:
213,279,21552,2,0,L|87:263,1,120,2|8,0:2|0:2,0:0:0:0:
38,200,22302,1,2,3:2:0:0:
83,129,22552,6,0,L|209:113,1,120,2|0,0:2|0:2,0:0:0:0:
280,157,23302,1,2,0:2:0:0:
280,157,23552,1,2,0:2:0:0:
348,3,24052,2,0,L|410:9,1,60,10|0,0:2|3:2,0:0:0:0:
479,52,24552,6,0,B|502:111|502:111|471:174,1,120,6|0,1:2|0:0,0:0:0:0:
410,212,25302,1,2,0:2:0:0:
410,212,25552,2,0,L|278:200,1,120,2|8,0:2|2:2,0:0:0:0:
143,283,26552,6,0,L|162:370,2,90,2|0|0,0:2|0:2|0:2,0:0:0:0:
94,214,27552,1,2,0:2:0:0:
249,149,28052,2,0,L|317:157,1,60,10|0,0:2|3:2,0:0:0:0:
355,225,28552,6,0,L|476:204,1,120,2|0,0:2|0:2,0:0:0:0:
509,40,29552,2,0,L|388:19,1,120,2|0,0:2|3:2,0:0:0:0:
308,4,30302,1,2,1:2:0:0:
260,73,30552,1,2,1:2:0:0:
260,73,32552,6,0,L|266:139,1,60,6|0,1:2|0:2,0:0:0:0:
314,200,33052,2,0,P|357:207|398:187,1,90,2|2,3:2|0:2,0:0:0:0:
459,132,33677,1,2,0:2:0:0:
508,247,34052,2,0,L|499:316,1,60,10|2,3:2|2:2,0:0:0:0:
437,361,34552,1,2,1:2:0:0:
285,288,35052,6,0,L|299:192,1,90,2|2,3:2|0:2,0:0:0:0:
262,122,35677,2,0,P|210:110|160:144,1,90,2|10,0:2|3:2,0:0:0:0:
116,181,36302,1,2,2:2:0:0:
39,146,36552,6,0,L|52:15,1,120,2|0,1:2|3:2,0:0:0:0:
135,5,37302,1,2,0:2:0:0:
135,5,37552,2,0,B|200:8|193:44|254:48,1,120,2|8,3:2|3:2,0:0:0:0:
385,140,38552,6,0,L|458:125,2,60,2|2|2,1:2|0:2|3:2,0:0:0:0:
321,195,39302,1,2,0:2:0:0:
249,150,39552,2,0,L|238:67,2,60,2|2|10,3:2|0:2|3:2,0:0:0:0:
83,178,40552,6,0,B|92:233|92:233|88:246|88:246|101:314,1,120,6|2,1:2|1:2,0:0:0:0:
156,360,41302,1,2,2:3:0:0:
156,360,41552,2,0,P|194:359|224:338,1,60,2|0,1:2|0:2,0:0:0:0:
269,287,42052,1,2,1:2:0:0:
202,235,42302,6,0,B|211:180|211:180|222:171|222:171|230:97,1,120,6|0,0:2|1:2,0:0:0:0:
190,45,43052,1,2,1:2:0:0:
266,9,43302,2,0,L|392:20,1,120,2|0,0:3|1:2,0:0:0:0:
445,79,44052,1,10,1:2:0:0:
350,217,44552,6,0,L|360:299,1,60,6|2,1:2|1:2,0:0:0:0:
426,325,45052,2,0,L|416:407,2,60,2|2|2,1:2|1:2|1:2,0:0:0:0:
500,286,45802,1,2,1:2:0:0:
472,206,46052,1,2,1:2:0:0:
390,227,46302,6,0,L|268:219,1,120,6|2,1:2|3:2,0:0:0:0:
206,164,47052,2,0,L|147:175,1,60,2|2,3:2|3:2,0:0:0:0:
89,236,47552,1,6,1:2:0:0:
89,236,48552,6,0,B|96:281|96:281|94:291|94:291|102:332,1,94.499997116089,6|2,3:2|3:2,0:0:0:0:
179,371,49177,2,0,B|221:347|221:347|289:358,1,94.499997116089,2|2,0:2|0:2,0:0:0:0:
396,379,49927,1,2,0:2:0:0:
450,309,50177,1,2,0:2:0:0:
352,188,50552,6,0,B|306:200|306:200|283:229|283:229|224:246,1,125.999996154785,6|2,3:2|1:2,0:0:0:0:
172,294,51302,1,0,3:2:0:0:
100,242,51552,2,0,L|109:151,1,62.9999980773926,2|0,0:2|3:2,0:0:0:0:
160,109,52052,1,2,3:2:0:0:
325,169,52552,6,0,L|403:179,1,62.9999980773926,2|0,3:2|0:2,0:0:0:0:
468,140,53052,2,0,P|486:85|464:35,1,94.499997116089,2|2,1:2|0:2,0:0:0:0:
396,13,53677,2,0,L|308:19,1,62.9999980773926,2|2,0:2|0:2,0:0:0:0:
262,70,54177,2,0,L|160:62,1,94.499997116089,2|0,3:2|1:2,0:0:0:0:
8,141,55052,6,0,P|0:194|31:247,1,94.499997116089,2|2,1:2|0:2,0:0:0:0:
91,276,55677,1,2,0:1:0:0:
165,229,55927,2,0,P|218:221|271:252,1,94.499997116089,2|2,0:1|1:1,0:0:0:0:
301,311,56552,6,0,B|329:305|329:305|373:318|373:318|421:309,1,94.499997116089,6|2,3:2|3:2,0:0:0:0:
460,257,57177,2,0,B|430:233|430:233|419:154,1,94.499997116089,2|2,0:2|0:2,0:0:0:0:
469,53,57927,1,2,0:2:0:0:
393,7,58177,1,2,3:2:0:0:
285,84,58552,6,0,B|296:142|296:142|306:155|306:155|317:232,1,125.999996154785,6|2,0:2|1:2,0:0:0:0:
397,230,59302,2,0,B|386:288|386:288|376:301|376:301|365:378,1,125.999996154785,6|2,1:2|0:2,0:0:0:0:
286,384,60052,1,2,3:2:0:0:
118,327,60552,6,0,L|126:242,1,62.9999980773926,6|0,1:2|0:2,0:0:0:0:
191,207,61052,2,0,L|175:100,1,94.499997116089,2|2,1:2|0:2,0:0:0:0:
135,35,61677,2,0,P|79:30|45:48,1,94.499997116089,2|2,0:2|3:2,0:0:0:0:
10,128,62302,1,2,1:2:0:0:
75,187,62552,6,0,L|72:257,1,62.9999980773926,6|0,1:2|0:2,0:0:0:0:
145,299,63052,2,0,L|244:282,1,94.499997116089,2|2,1:1|0:1,0:0:0:0:
299,219,63677,1,2,0:1:0:0:
380,252,63927,2,0,P|404:303|388:355,1,94.499997116089,2|2,0:2|1:2,0:0:0:0:
316,373,64552,6,0,B|279:365|279:365|261:348|261:348|204:338,1,94.499997116089,2|2,1:2|3:2,0:0:0:0:
170,224,65302,2,0,B|178:187|178:187|195:169|195:169|205:112,1,94.499997116089,6|2,0:2|3:2,0:0:0:0:
272,26,66052,1,2,3:2:0:0:
346,73,66302,1,6,3:2:0:0:
308,152,66552,6,0,B|332:267,1,94.499997116089,6|2,3:2|3:2,0:0:0:0:
432,325,67302,2,0,B|456:210,1,94.499997116089,6|2,0:2|1:2,0:0:0:0:
508,113,68052,1,2,3:2:0:0:
436,61,68302,1,2,3:2:0:0:
383,126,68552,6,0,B|320:125|342:74|264:77,1,120,6|0,3:2|3:2,0:0:0:0:
182,159,69427,1,2,2:2:0:0:
182,159,69677,2,0,L|199:254,1,90,2|2,0:0|3:2,0:0:0:0:
254,309,70302,1,2,1:2:0:0:
190,363,70552,6,0,B|134:339|134:339|69:357,1,120,6|2,3:2|1:2,0:0:0:0:
4,251,71427,1,2,0:2:0:0:
48,179,71677,2,0,L|142:191,1,90,2|2,0:2|3:2,0:0:0:0:
207,236,72302,1,2,1:2:0:0:
280,194,72552,6,0,P|299:145|276:77,1,120,2|2,3:2|1:2,0:0:0:0:
217,34,73302,1,2,0:2:0:0:
217,34,73552,2,0,L|85:43,1,120,2|2,3:2|3:2,0:0:0:0:
1,180,74552,6,0,L|15:266,2,60,2|2|2,3:2|0:2|1:2,0:0:0:0:
62,122,75302,1,2,0:2:0:0:
62,122,75552,2,0,L|150:127,1,60,2|2,3:2|0:2,0:0:0:0:
195,83,76052,1,2,3:2:0:0:
327,185,76552,6,0,B|317:234|317:234|305:250|305:250|297:310,1,120,6|2,3:2|1:2,0:0:0:0:
350,365,77302,2,0,B|400:336|400:336|467:346,1,120,2|0,2:2|0:2,0:0:0:0:
505,273,78052,1,2,3:2:0:0:
458,202,78302,1,0,1:2:0:0:
379,231,78552,6,0,B|330:226|330:226|308:207|308:207|257:203,1,120,6|2,3:2|1:2,0:0:0:0:
192,162,79302,2,0,B|176:102|176:102|208:36,1,120,2|0,0:2|0:2,0:0:0:0:
277,13,80052,1,2,3:2:0:0:
435,68,80552,6,0,B|451:128|451:128|419:194,1,120,6|2,3:2|3:2,0:0:0:0:
370,243,81302,1,6,1:2:0:0:
301,195,81552,2,0,P|234:176|172:205,1,120,2|2,3:2|3:2,0:0:0:0:
64,305,82552,6,0,B|28:288|28:288|7:193,1,120,2|2,3:2|3:2,0:0:0:0:
32,128,83302,1,6,1:2:0:0:
114,141,83552,2,0,L|242:116,1,120,2|2,3:2|3:2,0:0:0:0:
389,176,84552,6,0,B|382:217|382:217|374:229|374:229|365:275,1,90,6|2,3:2|3:2,0:0:0:0:
295,365,85302,2,0,L|185:350,1,90,6|2,3:2|3:2,0:0:0:0:
130,251,86052,1,2,3:2:0:0:
67,307,86302,1,6,1:2:0:0:
3,251,86552,6,0,P|-8:203|20:154,1,90,6|2,3:2|1:2,0:0:0:0:
101,82,87302,2,0,L|201:95,1,90,6|2,3:2|3:1,0:0:0:0:
257,200,88052,1,2,3:2:0:0:
210,270,88302,1,2,3:2:0:0:
272,326,88552,6,0,B|312:319|312:319|324:310|324:310|373:302,1,90,6|2,3:2|0:2,0:0:0:0:
468,243,89302,2,0,L|456:126,1,90,2|2,0:2|2:2,0:0:0:0:
409,37,90052,1,2,3:2:0:0:
342,87,90302,1,2,0:2:0:0:
268,46,90552,6,0,L|163:59,1,90,2|2,3:2|0:2,0:0:0:0:
64,111,91302,2,0,P|51:153|74:203,1,90,2|2,0:2|2:2,0:0:0:0:
175,257,92052,1,2,3:2:0:0:
239,203,92302,1,2,0:2:0:0:
311,245,92552,6,0,B|304:283|304:283|300:289|300:289|294:337,1,90,6|2,3:2|0:2,0:0:0:0:
178,380,93302,2,0,L|67:371,1,90,2|2,0:2|0:2,0:0:0:0:
8,275,94052,1,2,3:2:0:0:
69,217,94302,1,2,0:2:0:0:
138,264,94552,6,0,B|190:259|190:259|206:268|206:268|263:262,1,120,2|0,0:2|0:0,0:0:0:0:
329,314,95302,1,2,0:2:0:0:
329,314,95552,2,0,L|465:299,1,120,2|10,0:2|0:2,0:0:0:0:
507,143,96552,6,0,L|493:39,2,90,2|0|2,0:2|0:2|0:2,0:0:0:0:
447,202,97552,1,2,0:2:0:0:
285,155,98052,2,0,L|296:90,1,60,10|0,0:2|3:2,0:0:0:0:
239,32,98552,6,0,P|175:17|112:49,1,120,2|2,0:2|0:2,0:0:0:0:
11,158,99552,2,0,L|30:292,1,120,2|8,0:2|0:2,0:0:0:0:
40,360,100302,1,2,3:2:0:0:
256,192,100552,12,0,104552,0:2:0:0:
