osu file format v14

[General]
AudioFilename: audio.mp3
AudioLeadIn: 0
PreviewTime: 47794
Countdown: 0
SampleSet: Soft
StackLeniency: 0.7
Mode: 0
LetterboxInBreaks: 0
WidescreenStoryboard: 0

[Editor]
Bookmarks: 100552,104552
DistanceSpacing: 0.2
BeatDivisor: 8
GridSize: 8
TimelineZoom: 3.299999

[Metadata]
Title:Elder flower (TV Size)
TitleUnicode:Elder flower (TV Size)
Artist:Onishi Aguri
ArtistUnicode:大西亜玖璃
Creator:Ayucchi
Version:Lilac
Source:精霊幻想記
Tags:shikibe mayu kazato asa shizuku- newton- mocaotic japanese pop jpop j-pop anime agupon seirei gensoki gensouki spirit chronicles ed ending ISEKAI
BeatmapID:3094956
BeatmapSetID:1511491

[Difficulty]
HPDrainRate:6
CircleSize:4
OverallDifficulty:8.8
ApproachRate:9.3
SliderMultiplier:1.7
SliderTickRate:1

[Events]
//Background and Video events
0,0,"89243341_p0.jpg",0,0
//Break Periods
//Storyboard Layer 0 (Background)
//Storyboard Layer 1 (Fail)
//Storyboard Layer 2 (Pass)
//Storyboard Layer 3 (Foreground)
//Storyboard Layer 4 (Overlay)
//Storyboard Sound Samples

[TimingPoints]
-1448,500,4,2,1,40,1,0
5677,-100,4,2,1,50,0,0
6552,-58.8235294117647,4,2,1,55,0,0
16552,-83.3333333333333,4,2,1,35,0,0
30552,-250,4,2,1,40,0,0
31552,-125,4,2,1,40,0,0
32052,-76.9230769230769,4,2,1,40,0,0
32552,-66.6666666666667,4,2,1,50,0,0
40552,-58.8235294117647,4,2,1,55,0,0
44552,-58.8235294117647,4,2,1,65,0,0
48177,-250,4,2,1,65,0,0
48552,-50,4,2,1,75,0,1
68552,-50,4,2,1,65,0,0
70552,-58.8235294117647,4,2,1,65,0,0
88552,-58.8235294117647,4,2,1,55,0,0
94552,-83.3333333333333,4,2,1,35,0,0
100614,-83.3333333333333,4,2,1,20,0,0
104552,-83.3333333333333,4,2,1,5,0,0

[Colours]
Combo1 : 176,194,255
Combo2 : 255,209,229
Combo3 : 131,105,83

[HitObjects]
101,119,302,6,0,L|90:154,3,21.25,0|0|0|0,3:2|3:2|3:2|3:2,0:0:0:0:
112,104,552,1,0,1:2:0:0:
256,192,614,12,0,2302,3:2:0:0:
261,170,2552,6,0,L|252:219,2,42.5,2|0|0,1:2|0:2|0:2,0:0:0:0:
320,119,2927,1,0,0:2:0:0:
320,119,3052,2,0,P|360:144|413:135,1,85,2|0,0:2|0:2,0:0:0:0:
493,246,3427,6,0,P|453:221|400:230,1,85,2|0,0:2|0:2,0:0:0:0:
389,300,3802,1,0,0:2:0:0:
389,300,3927,2,0,L|335:286,1,42.5,2|0,0:2|0:2,0:0:0:0:
210,289,4177,5,2,0:2:0:0:
273,350,4302,1,2,0:2:0:0:
273,350,4364,1,2,0:2:0:0:
273,350,4427,1,2,0:2:0:0:
202,282,4552,6,0,L|101:297,1,85,0|0,1:2|0:2,0:0:0:0:
101,186,4927,2,0,P|119:197|135:229,1,42.5,2|0,0:2|0:2,0:0:0:0:
68,357,5177,1,0,0:2:0:0:
2,309,5302,2,0,L|12:259,1,42.5,2|0,0:2|0:2,0:0:0:0:
194,165,5552,1,0,0:2:0:0:
79,110,5677,5,2,2:1:0:0:
161,53,5802,1,2,0:2:0:0:
244,102,5927,5,2,0:2:0:0:
330,132,6052,1,2,0:2:0:0:
452,105,6177,5,2,0:2:0:0:
482,33,6302,1,2,0:2:0:0:
410,181,6427,5,2,0:2:0:0:
410,181,6489,1,2,0:2:0:0:
410,181,6552,2,0,P|440:242|395:309,1,144.500002756119,6|0,1:2|0:2,0:0:0:0:
204,298,6927,5,0,0:2:0:0:
265,349,7052,2,0,P|319:326|352:321,1,72.2500013780594,2|0,3:2|0:2,0:0:0:0:
217,208,7302,2,0,P|163:231|130:236,1,72.2500013780594,0|0,0:2|0:2,0:0:0:0:
82,378,7552,5,0,3:2:0:0:
9,341,7677,2,0,P|-6:275|40:219,1,144.500002756119,2|0,0:2|0:2,0:0:0:0:
169,83,8052,2,0,P|161:122|156:158,1,72.2500013780594,0|0,3:2|0:2,0:0:0:0:
16,57,8302,2,0,P|57:32|101:40,1,72.2500013780594,2|0,0:2|0:2,0:0:0:0:
217,208,8552,6,0,B|288:200|276:155|353:152,1,144.500002756119,2|0,3:2|0:2,0:0:0:0:
484,53,8927,1,0,0:2:0:0:
412,18,9052,2,0,P|366:31|319:41,1,72.2500013780594,2|0,3:2|0:2,0:0:0:0:
421,200,9302,2,0,P|467:187|514:177,1,72.2500013780594,0|0,0:2|0:2,0:0:0:0:
269,141,9552,1,0,3:2:0:0:
345,243,9677,5,2,0:1:0:0:
497,195,9802,1,2,0:2:0:0:
445,302,9927,5,2,0:2:0:0:
338,255,10052,1,2,3:2:0:0:
246,322,10177,5,2,0:2:0:0:
174,353,10302,2,0,P|133:324|136:265,1,108.375002067089,2|0,0:2|0:2,0:0:0:0:
141,265,10552,6,0,P|123:156|109:107,1,144.500002756119,6|0,1:2|0:2,0:0:0:0:
254,82,10927,1,0,0:2:0:0:
237,160,11052,2,0,P|184:173|162:180,1,72.2500013780594,2|0,3:2|0:2,0:0:0:0:
48,58,11302,2,0,P|83:50|117:40,1,72.2500013780594,0|0,0:2|0:2,0:0:0:0:
254,82,11552,5,0,3:2:0:0:
334,109,11677,2,0,P|420:77|492:65,1,144.500002756119,2|0,0:2|0:2,0:0:0:0:
369,248,12052,2,0,P|343:197|360:161,1,72.2500013780594,2|0,3:2|0:2,0:0:0:0:
482,72,12302,2,0,P|508:123|491:159,1,72.2500013780594,0|0,0:2|0:2,0:0:0:0:
359,327,12552,6,0,P|416:269|485:344,1,144.500002756119,2|0,3:2|0:2,0:0:0:0:
289,266,12927,1,0,0:2:0:0:
222,221,13052,2,0,P|164:241|129:250,1,72.2500013780594,2|0,3:2|0:2,0:0:0:0:
208,378,13302,2,0,P|266:358|301:349,1,72.2500013780594,0|0,0:2|0:2,0:0:0:0:
98,301,13552,5,0,3:2:0:0:
19,280,13677,2,0,P|2:195|74:156,1,144.500002756119,2|0,0:2|0:2,0:0:0:0:
161,135,14052,6,0,L|214:151,3,36.1250006890297,2|0|0|0,3:2|0:2|0:2|0:2,0:0:0:0:
76,80,14302,2,0,L|129:64,3,36.1250006890297,0|0|0|0,0:2|0:2|0:2|0:2,0:0:0:0:
171,19,14552,5,2,3:2:0:0:
171,19,16552,6,0,P|247:38|287:43,1,101.999996887207,2|0,0:2|0:2,0:0:0:0:
329,101,16927,2,0,P|374:58|358:8,1,101.999996887207,0|0,0:2|0:2,0:0:0:0:
252,110,17302,2,0,P|257:124|274:185,1,50.9999984436036,0|0,0:2|0:2,0:0:0:0:
445,97,17552,6,0,P|427:127|416:228,1,101.999996887207,2|0,0:2|0:2,0:0:0:0:
412,191,17927,1,0,0:2:0:0:
341,264,18052,2,0,P|328:239|343:203,1,50.9999984436036,8|0,0:2|0:2,0:0:0:0:
473,244,18302,2,0,P|476:268|463:290,1,50.9999984436036,2|0,3:2|3:2,0:0:0:0:
273,361,18552,6,0,B|216:360|240:322|156:328,1,101.999996887207,2|0,0:2|0:2,0:0:0:0:
107,364,18927,2,0,P|59:315|82:263,1,101.999996887207,0|0,0:2|0:2,0:0:0:0:
202,203,19302,2,0,P|193:229|187:260,1,50.9999984436036,0|0,0:2|0:2,0:0:0:0:
18,172,19552,6,0,P|81:160|149:137,1,101.999996887207,2|0,0:2|0:2,0:0:0:0:
165,36,19927,1,0,0:2:0:0:
88,18,20052,2,0,P|66:43|60:76,1,50.9999984436036,8|0,0:2|0:2,0:0:0:0:
126,156,20302,1,2,3:2:0:0:
242,81,20427,5,0,3:2:0:0:
315,111,20552,2,0,P|347:123|446:141,1,101.999996887207,2|0,0:2|0:2,0:0:0:0:
477,5,20927,1,0,0:2:0:0:
402,15,21052,2,0,P|385:38|388:77,1,50.9999984436036,0|0,0:2|0:2,0:0:0:0:
490,134,21302,1,0,0:2:0:0:
318,262,21552,6,0,B|378:256|356:229|421:226,1,101.999996887207,2|0,0:2|0:2,0:0:0:0:
512,288,21927,1,0,0:2:0:0:
448,335,22052,2,0,P|418:327|382:324,1,50.9999984436036,8|0,0:2|0:2,0:0:0:0:
251,217,22302,1,2,3:2:0:0:
121,340,22427,5,0,3:2:0:0:
44,292,22552,2,0,P|48:219|83:172,1,101.999996887207,2|0,0:2|0:2,0:0:0:0:
138,163,22927,1,0,0:2:0:0:
245,227,23052,6,0,P|292:235|334:252,1,50.9999984436036,0|0,0:2|0:2,0:0:0:0:
196,100,23302,2,0,P|215:121|207:157,1,50.9999984436036,0|0,0:2|0:2,0:0:0:0:
54,188,23552,6,0,P|62:107|60:48,1,101.999996887207,2|0,0:2|0:2,0:0:0:0:
59,82,23864,1,0,0:2:0:0:
55,77,23927,1,0,0:2:0:0:
52,72,23989,1,0,0:2:0:0:
49,67,24052,6,0,L|121:86,1,50.9999984436036,10|0,0:2|0:2,0:0:0:0:
241,42,24302,1,2,3:2:0:0:
156,202,24427,1,0,3:2:0:0:
275,341,24552,6,0,P|197:359|164:372,1,101.999996887207,6|0,1:2|0:2,0:0:0:0:
133,294,24927,2,0,P|122:232|153:203,1,101.999996887207,0|0,0:2|0:2,0:0:0:0:
304,218,25302,2,0,P|293:262|294:282,1,50.9999984436036,0|0,0:2|0:2,0:0:0:0:
197,85,25552,6,0,P|222:154|228:201,1,101.999996887207,2|0,0:2|0:2,0:0:0:0:
226,182,25927,1,0,0:2:0:0:
287,86,26052,2,0,P|310:90|358:98,1,50.9999984436036,8|0,2:2|0:2,0:0:0:0:
358,233,26302,2,0,P|335:229|287:221,1,50.9999984436036,2|0,3:2|3:2,0:0:0:0:
451,349,26552,6,0,P|491:316|480:261,1,101.999996887207,2|0,0:2|0:2,0:0:0:0:
435,211,26927,2,0,P|426:148|430:81,1,101.999996887207,0|0,0:2|0:2,0:0:0:0:
493,29,27302,2,0,P|511:55|493:100,1,50.9999984436036,0|0,0:2|0:2,0:0:0:0:
348,71,27552,6,0,B|290:83|314:107|229:121,1,101.999996887207,2|0,0:2|0:2,0:0:0:0:
124,86,27927,1,0,0:2:0:0:
187,33,28052,2,0,P|236:36|253:40,1,50.9999984436036,8|0,0:2|0:2,0:0:0:0:
49,56,28302,1,2,3:2:0:0:
163,161,28427,5,0,3:2:0:0:
112,219,28552,2,0,P|74:238|8:248,1,101.999996887207,2|0,0:2|0:2,0:0:0:0:
120,313,28927,1,0,0:2:0:0:
183,256,29052,2,0,P|206:260|257:274,1,50.9999984436036,0|0,0:2|0:2,0:0:0:0:
63,155,29302,1,0,0:2:0:0:
284,349,29552,6,0,P|317:309|301:240,1,101.999996887207,2|0,0:2|0:2,0:0:0:0:
442,231,29927,1,0,0:2:0:0:
365,204,30052,2,0,P|374:160|388:129,1,50.9999984436036,0|0,3:2|0:2,0:0:0:0:
398,303,30302,5,2,1:2:0:0:
291,156,30427,1,2,1:2:0:0:
397,36,30552,6,0,L|448:53,2,51,2|2|2,1:2|0:2|0:2,0:0:0:0:
283,149,31677,2,0,P|248:182|250:228,1,85,2|0,0:2|0:2,0:0:0:0:
295,277,32052,6,0,L|360:287,1,55.2499974708558,2|0,0:2|0:2,0:2:0:0:
237,345,32302,5,2,3:2:0:0:
166,369,32427,1,2,3:2:0:0:
42,328,32552,6,0,P|22:265|58:203,1,127.500004863739,6|0,1:2|0:2,0:0:0:0:
209,145,32927,1,2,0:2:0:0:
237,76,33052,2,0,P|229:56|179:27,1,63.7500024318696,0|0,3:2|0:2,0:0:0:0:
130,223,33302,5,2,0:2:0:0:
203,261,33427,2,0,P|252:247|284:245,1,63.7500024318696,0|0,0:2|3:2,0:0:0:0:
129,78,33677,2,0,P|118:129|111:155,1,63.7500024318696,0|0,0:2|0:2,0:0:0:0:
282,169,33927,1,0,0:2:0:0:
320,102,34052,5,10,3:2:0:0:
491,186,34177,1,0,0:2:0:0:
341,230,34302,5,2,2:2:0:0:
418,206,34427,1,0,0:2:0:0:
469,111,34552,6,0,P|481:58|433:10,1,127.500004863739,2|0,1:2|0:2,0:0:0:0:
385,141,34927,1,2,0:2:0:0:
426,214,35052,2,0,P|416:247|402:305,1,63.7500024318696,0|0,3:2|0:2,0:0:0:0:
369,51,35302,5,2,0:2:0:0:
305,8,35427,2,0,B|240:23|266:47|165:62,1,127.500004863739,0|0,0:2|0:2,0:0:0:0:
67,66,35802,5,2,0:2:0:0:
115,131,35927,1,0,0:2:0:0:
185,228,36052,5,10,3:2:0:0:
103,361,36177,1,0,0:2:0:0:
26,267,36302,5,2,2:2:0:0:
74,202,36427,1,0,0:2:0:0:
192,339,36552,6,0,P|279:319|340:311,1,127.500004863739,2|0,1:2|0:2,0:0:0:0:
315,121,36927,1,2,0:2:0:0:
261,179,37052,2,0,P|277:232|283:271,1,63.7500024318696,0|0,3:2|0:2,0:0:0:0:
413,383,37302,2,0,P|397:330|391:291,1,63.7500024318696,2|0,0:2|0:2,0:0:0:0:
443,203,37552,5,0,3:2:0:0:
512,160,37677,1,0,0:2:0:0:
491,43,37802,2,0,P|418:68|384:75,1,95.6250036478044,0|0,0:2|0:2,0:0:0:0:
393,79,38052,2,0,P|387:119|413:150,1,63.7500024318696,8|0,3:2|0:2,0:0:0:0:
278,240,38302,2,0,P|326:247|376:256,1,63.7500024318696,0|0,3:2|3:2,0:0:0:0:
506,372,38552,6,0,P|514:320|509:222,1,127.500004863739,2|0,1:2|0:2,0:0:0:0:
332,170,38927,1,2,0:2:0:0:
404,145,39052,2,0,P|455:156|477:161,1,63.7500024318696,0|0,3:2|0:2,0:0:0:0:
305,40,39302,2,0,P|273:46|242:53,1,63.7500024318696,2|0,0:2|0:2,0:0:0:0:
205,206,39552,5,2,3:2:0:0:
144,298,39677,1,2,0:2:0:0:
68,257,39802,2,0,P|67:209|61:168,1,63.7500024318696,2|0,0:2|0:2,0:0:0:0:
30,68,40052,6,0,P|78:117|132:96,1,127.500004863739,10|0,3:2|0:2,0:0:0:0:
127,100,40427,1,0,0:2:0:0:
151,285,40552,6,0,P|228:253|318:252,1,144.500002756119,6|0,1:2|0:2,0:0:0:0:
338,61,40927,1,0,0:2:0:0:
416,40,41052,2,0,P|462:92|448:150,1,108.375002067089,2|0,1:2|0:2,0:0:0:0:
455,138,41302,2,0,P|412:139|355:155,1,72.2500013780594,2|0,2:3|0:2,0:0:0:0:
337,312,41552,6,0,P|406:293|491:281,1,144.500002756119,2|0,1:2|0:2,0:0:0:0:
312,163,41927,1,0,0:2:0:0:
244,124,42052,2,0,P|253:65|254:32,1,72.2500013780594,2|0,1:2|0:2,0:0:0:0:
265,349,42302,2,0,P|211:364|180:377,1,72.2500013780594,4|0,0:2|0:2,0:0:0:0:
67,354,42552,6,0,P|56:303|45:264,1,72.2500013780594,2|0,3:2|0:2,0:0:0:0:
157,88,42802,2,0,P|168:139|179:178,1,72.2500013780594,0|0,1:2|0:2,0:0:0:0:
16,183,43052,2,0,P|65:182|100:184,1,72.2500013780594,2|0,1:2|0:2,0:0:0:0:
191,364,43302,6,0,P|177:309|208:256,1,108.375002067089,2|0,0:3|0:2,0:0:0:0:
205,259,43552,2,0,P|156:260|121:258,1,72.2500013780594,2|0,1:2|0:2,0:0:0:0:
279,147,43802,2,0,P|297:194|278:231,1,72.2500013780594,0|0,1:2|0:2,0:0:0:0:
157,88,44052,2,0,P|152:52|169:21,1,72.2500013780594,10|0,1:2|0:2,0:0:0:0:
345,101,44302,5,0,3:2:0:0:
464,43,44427,1,0,3:2:0:0:
459,123,44552,2,0,P|466:193|481:253,1,108.375002067089,6|0,1:2|0:2,0:0:0:0:
485,243,44802,5,2,1:2:0:0:
416,283,44927,1,0,3:2:0:0:
388,361,45052,5,2,1:2:0:0:
319,321,45177,1,0,3:2:0:0:
270,223,45302,5,2,1:2:0:0:
347,239,45427,1,0,3:2:0:0:
237,313,45552,5,2,1:2:0:0:
167,344,45677,1,0,3:2:0:0:
83,265,45802,5,2,1:2:0:0:
190,204,45927,1,0,3:2:0:0:
280,141,46052,5,2,1:2:0:0:
404,181,46177,1,2,3:2:0:0:
339,63,46302,5,6,1:2:0:0:
203,108,46427,1,2,3:2:0:0:
38,32,46552,6,0,L|48:84,3,36.1250006890297,2|0|0|0,3:2|0:2|0:2|0:2,0:0:0:0:
123,167,46802,2,0,L|133:115,3,36.1250006890297,2|0|0|0,3:2|0:2|0:2|0:2,0:0:0:0:
23,217,47052,2,0,L|33:269,3,36.1250006890297,2|0|0|0,3:2|0:2|0:2|0:2,0:0:0:0:
125,360,47302,6,0,L|179:346,1,36.1250006890297,2|0,3:2|0:2,0:0:0:0:
207,288,47427,2,0,L|261:302,1,36.1250006890297,2|0,1:2|0:2,0:0:0:0:
284,369,47552,6,0,P|300:282|323:215,1,144.500002756119,6|0,1:2|0:2,0:0:0:0:
449,197,47927,1,4,2:3:0:0:
277,163,48052,5,0,1:2:0:0:
281,87,48177,2,0,L|323:76,1,42.5,0|0,2:2|0:2,0:0:0:0:
502,134,48552,5,4,3:2:0:0:
474,60,48677,2,0,P|413:44|373:27,1,85,2|0,0:2|0:2,0:0:0:0:
449,278,48927,2,0,P|468:250|449:195,1,85,0|0,3:2|1:2,0:0:0:0:
277,163,49177,1,2,0:2:0:0:
205,125,49302,2,0,P|186:97|205:42,1,85,2|0,3:2|0:2,0:0:0:0:
317,285,49552,5,2,0:2:0:0:
247,239,49677,2,0,P|190:251|141:259,1,85,2|0,0:2|0:2,0:0:0:0:
38,361,49927,1,2,0:2:0:0:
98,301,50052,5,0,3:2:0:0:
5,171,50177,1,2,0:2:0:0:
105,309,50302,2,0,P|118:234|90:176,1,127.5,2|0,1:2|0:2,0:0:0:0:
89,183,50552,6,0,P|98:130|108:91,1,85,6|0,3:2|0:2,0:0:0:0:
0,36,50802,2,0,P|52:29|104:18,1,85,0|2,0:2|3:2,0:0:0:0:
279,194,51052,2,0,P|304:130|269:81,1,127.5,2|0,1:2|0:2,0:0:0:0:
265,82,51302,2,0,P|223:74|181:68,1,85,0|0,3:2|0:2,0:0:0:0:
228,256,51552,6,0,P|285:225|354:248,1,127.5,2|0,0:2|0:2,0:0:0:0:
347,248,51802,2,0,P|338:314|340:357,1,85,0|0,3:2|3:2,0:0:0:0:
424,196,52052,5,0,3:2:0:0:
497,161,52177,1,2,0:2:0:0:
373,84,52302,2,0,P|428:91|487:92,1,85,0|0,1:2|0:2,0:0:0:0:
489,337,52552,6,0,P|466:299|407:291,1,85,2|0,3:2|0:2,0:0:0:0:
279,194,52802,1,0,0:2:0:0:
182,282,52927,1,2,3:2:0:0:
254,318,53052,2,0,P|321:329|410:346,1,85,0|0,1:2|0:2,0:0:0:0:
109,327,53302,5,2,3:2:0:0:
34,369,53427,2,0,P|3:337|29:249,1,127.5,0|0,0:2|0:2,0:0:0:0:
26,261,53677,2,0,P|19:188|9:145,1,85,0|0,0:2|0:2,0:0:0:0:
70,117,53927,5,2,0:2:0:0:
6,178,54052,1,0,3:2:0:0:
103,43,54177,5,2,3:2:0:0:
219,125,54302,2,0,P|280:141|325:156,1,85,0|0,1:2|0:2,0:0:0:0:
183,341,54552,6,0,P|159:287|195:233,1,127.5,2|0,1:2|0:2,0:0:0:0:
205,229,54802,2,0,P|144:245|99:260,1,85,0|2,0:2|0:2,0:0:0:0:
308,67,55052,6,0,B|384:80|340:113|435:115,1,127.5,2|0,1:2|0:2,0:0:0:0:
435,104,55302,1,0,3:2:0:0:
328,229,55427,5,2,0:2:0:0:
300,147,55552,1,0,0:2:0:0:
251,10,55677,5,2,0:1:0:0:
191,153,55802,1,0,0:2:0:0:
263,302,55927,5,2,0:1:0:0:
422,243,56052,2,0,P|453:302|409:357,1,127.5,0|0,3:2|0:2,0:0:0:0:
417,355,56302,2,0,P|364:349|325:348,1,85,2|0,1:1|0:2,0:0:0:0:
96,292,56552,5,6,3:2:0:0:
168,332,56677,2,0,P|191:283|172:228,1,85,0|0,0:2|0:2,0:0:0:0:
28,145,56927,2,0,P|39:207|44:256,1,85,2|0,3:2|1:2,0:0:0:0:
79,38,57177,1,0,0:2:0:0:
146,78,57302,2,0,P|200:63|253:56,1,85,6|0,2:2|0:2,0:0:0:0:
187,253,57552,5,0,0:2:0:0:
257,215,57677,2,0,P|265:181|233:122,1,85,0|0,0:2|0:2,0:0:0:0:
360,52,57927,1,2,0:2:0:0:
347,206,58052,5,0,3:2:0:0:
403,282,58177,2,0,P|345:301|295:325,1,85,2|0,3:2|1:2,0:0:0:0:
429,181,58427,5,0,0:2:0:0:
481,120,58552,2,0,P|451:50|362:46,1,170,6|0,0:2|0:2,0:0:0:0:
435,190,58927,5,2,3:2:0:0:
492,250,59052,2,0,P|480:314|476:357,1,85,0|0,1:2|0:2,0:0:0:0:
259,364,59302,2,0,P|236:311|266:247,1,127.5,6|0,1:2|0:2,0:0:0:0:
273,245,59552,2,0,P|312:261|352:273,1,85,0|0,0:2|0:2,0:0:0:0:
281,88,59802,6,0,P|212:108|174:119,1,85,2|0,0:2|1:2,0:0:0:0:
163,291,60052,2,0,P|169:240|131:199,1,85,2|0,3:2|0:2,0:0:0:0:
0,35,60302,2,0,P|17:100|29:175,1,127.5,2|0,1:2|0:2,0:0:0:0:
34,169,60552,6,0,P|103:149|141:138,1,85,6|0,1:2|0:2,0:0:0:0:
143,52,60802,1,0,0:2:0:0:
79,245,60927,5,2,3:2:0:0:
152,212,61052,2,0,P|171:250|163:291,1,85,0|0,1:2|0:2,0:0:0:0:
199,111,61302,5,2,3:2:0:0:
261,166,61427,2,0,B|332:153|304:111|393:115,1,127.5,2|0,0:2|0:2,0:0:0:0:
381,122,61677,2,0,P|383:62|390:14,1,85,0|0,0:2|0:2,0:0:0:0:
435,208,61927,1,0,1:2:0:0:
483,272,62052,2,0,P|444:304|394:295,1,85,2|0,3:2|0:2,0:0:0:0:
255,176,62302,2,0,P|309:196|341:262,1,127.5,0|0,1:2|0:2,0:0:0:0:
344,267,62552,6,0,P|280:282|237:290,1,85,6|0,1:2|0:2,0:0:0:0:
483,136,62802,1,0,0:2:0:0:
386,37,62927,1,2,3:2:0:0:
310,81,63052,2,0,P|246:66|203:58,1,85,2|2,1:1|0:2,0:0:0:0:
255,176,63302,1,2,3:2:0:0:
142,41,63427,5,2,0:1:0:0:
167,119,63552,1,0,0:2:0:0:
89,206,63677,5,2,0:1:0:0:
64,284,63802,1,0,0:2:0:0:
165,366,63927,5,2,0:2:0:0:
165,366,63989,1,2,0:2:0:0:
165,366,64052,1,2,0:2:0:0:
228,313,64177,1,2,0:1:0:0:
153,244,64302,1,2,1:2:0:0:
71,293,64427,1,2,3:2:0:0:
236,319,64552,6,0,P|289:309|353:296,1,85,2|0,1:2|0:2,0:0:0:0:
428,175,64802,5,0,0:2:0:0:
361,122,64927,2,0,P|308:132|244:145,1,85,2|0,3:2|1:2,0:0:0:0:
386,354,65177,5,0,0:2:0:0:
459,325,65302,2,0,P|481:279|461:232,1,85,6|0,0:2|0:2,0:0:0:0:
273,147,65552,5,0,0:2:0:0:
196,120,65677,2,0,P|174:74|194:27,1,85,2|0,3:2|0:2,0:0:0:0:
319,29,65927,1,0,1:2:0:0:
250,243,66052,6,0,P|307:227|359:217,1,85,2|0,3:2|0:2,0:0:0:0:
173,38,66302,2,0,P|116:54|64:64,1,85,6|0,3:2|0:2,0:0:0:0:
157,306,66552,6,0,P|174:266|158:220,1,85,6|0,3:2|0:2,0:0:0:0:
48,129,66802,1,0,1:2:0:0:
0,194,66927,2,0,P|4:227|11:290,1,85,2|0,3:2|0:2,0:0:0:0:
170,147,67177,5,0,0:2:0:0:
237,93,67302,2,0,P|292:105|325:112,1,85,6|0,0:2|0:2,0:0:0:0:
512,59,67552,5,0,0:2:0:0:
438,21,67677,2,0,P|397:50|403:97,1,85,2|0,1:2|0:2,0:0:0:0:
511,176,67927,1,0,0:2:0:0:
323,215,68052,5,2,3:2:0:0:
420,164,68177,1,2,0:2:0:0:
497,290,68302,5,2,3:2:0:0:
320,224,68427,1,2,3:2:0:0:
176,310,68552,1,6,3:2:0:0:
256,192,68614,12,0,70489,0:0:0:0:
176,310,70552,6,0,P|161:250|151:216,1,72.2500013780594,6|0,3:2|0:2,0:0:0:0:
83,201,70802,1,0,0:2:0:0:
145,87,70927,1,0,0:2:0:0:
204,132,71052,2,0,B|287:126|257:91|341:86,1,144.500002756119,2|0,1:2|0:2,0:0:0:0:
352,220,71427,6,0,P|292:198|259:192,1,72.2500013780594,2|0,0:2|3:2,0:0:0:0:
408,43,71677,2,0,P|426:87|403:128,1,72.2500013780594,2|0,0:2|0:2,0:0:0:0:
264,74,71927,1,0,1:2:0:0:
449,182,72052,6,0,B|460:253|425:249|448:340,2,144.500002756119,2|2|0,3:2|1:2|3:3,0:0:0:0:
449,182,72677,1,0,0:2:0:0:
358,226,72802,1,0,0:2:0:0:
262,329,72927,5,0,3:2:0:0:
190,360,73052,2,0,P|152:308|166:254,1,108.375002067089,2|0,1:2|0:2,0:0:0:0:
166,259,73302,2,0,P|228:252|255:253,1,72.2500013780594,0|0,0:2|0:2,0:0:0:0:
74,160,73552,6,0,P|66:197|82:226,1,72.2500013780594,2|0,3:2|0:2,0:0:0:0:
179,179,73802,1,0,0:2:0:0:
242,28,73927,1,0,1:2:0:0:
170,73,74052,2,0,P|112:82|72:87,1,72.2500013780594,2|0,3:2|0:2,0:0:0:0:
264,168,74302,2,0,P|278:111|285:85,1,72.2500013780594,0|0,1:2|0:2,0:0:0:0:
312,273,74552,6,0,P|356:241|435:263,1,108.375002067089,2|0,3:2|0:2,0:0:0:0:
416,256,74802,2,0,P|407:308|404:339,1,72.2500013780594,0|0,0:2|0:2,0:0:0:0:
506,103,75052,6,0,B|439:117|463:135|407:147,1,108.375002067089,2|0,1:2|0:2,0:0:0:0:
396,154,75302,2,0,P|391:118|384:82,1,72.2500013780594,0|0,0:2|0:2,0:0:0:0:
309,285,75552,6,0,P|281:256|230:262,1,72.2500013780594,2|0,3:2|0:2,0:0:0:0:
189,203,75802,1,0,0:2:0:0:
50,363,75927,1,2,0:2:0:0:
128,339,76052,2,0,P|132:315|147:248,1,72.2500013780594,0|0,3:2|0:2,0:0:0:0:
47,141,76302,2,0,P|43:165|28:232,1,72.2500013780594,2|0,1:2|0:2,0:0:0:0:
233,113,76552,6,0,P|170:129|138:141,1,72.2500013780594,6|0,3:2|0:2,0:0:0:0:
110,70,76802,1,0,0:2:0:0:
279,41,76927,1,0,0:2:0:0:
349,85,77052,2,0,P|326:169|321:247,1,144.500002756119,2|2,1:2|2:2,0:0:0:0:
507,371,77427,6,0,P|511:336|462:293,1,72.2500013780594,0|0,0:2|3:2,0:0:0:0:
356,295,77677,1,2,0:2:0:0:
429,248,77802,1,0,0:2:0:0:
492,126,77927,5,0,1:2:0:0:
427,84,78052,2,0,P|373:95|314:106,1,72.2500013780594,2|0,3:2|0:2,0:0:0:0:
205,243,78302,2,0,P|299:223|336:220,1,108.375002067089,0|0,1:2|0:2,0:0:0:0:
320,225,78552,6,0,P|321:177|286:142,1,72.2500013780594,6|0,3:2|0:2,0:0:0:0:
236,130,78802,1,0,0:2:0:0:
139,287,78927,1,0,0:2:0:0:
79,343,79052,2,0,P|30:291|62:205,1,144.500002756119,2|0,1:2|0:2,0:0:0:0:
168,64,79427,6,0,P|158:126|153:158,1,72.2500013780594,2|0,0:2|0:2,0:0:0:0:
215,291,79677,2,0,P|153:281|121:276,1,72.2500013780594,0|0,0:2|0:2,0:0:0:0:
236,130,79927,1,0,1:2:0:0:
280,338,80052,6,0,P|333:314|440:284,2,144.500002756119,2|2|6,3:2|1:2|3:2,0:0:0:0:
280,338,80677,1,0,0:2:0:0:
411,374,80802,2,0,P|470:379|511:384,1,72.2500013780594,0|0,0:2|0:2,0:0:0:0:
345,201,81052,6,0,P|333:249|350:287,1,72.2500013780594,2|0,3:2|0:2,0:0:0:0:
478,163,81302,2,0,P|475:76|477:22,1,108.375002067089,4|0,1:2|0:2,0:0:0:0:
481,49,81552,2,0,P|425:60|400:66,1,72.2500013780594,2|0,3:2|0:2,0:0:0:0:
355,121,81802,1,0,0:2:0:0:
228,45,81927,5,0,0:2:0:0:
179,111,82052,2,0,P|172:146|185:179,1,72.2500013780594,2|0,3:2|0:2,0:0:0:0:
338,269,82302,2,0,P|350:221|333:183,1,72.2500013780594,0|0,1:2|0:2,0:0:0:0:
213,358,82552,6,0,P|155:329|68:312,1,144.500002756119,2|0,3:2|0:2,0:0:0:0:
34,127,82927,1,0,0:2:0:0:
110,154,83052,2,0,P|97:207|91:247,1,72.2500013780594,2|0,3:2|0:2,0:0:0:0:
5,51,83302,2,0,P|67:38|101:28,1,72.2500013780594,4|0,1:2|0:2,0:0:0:0:
192,188,83552,6,0,P|259:157|266:80,1,144.500002756119,2|0,3:2|0:2,0:0:0:0:
210,50,83927,1,0,0:2:0:0:
399,28,84052,5,2,3:2:0:0:
356,103,84177,1,2,0:2:0:0:
493,218,84302,5,2,1:2:0:0:
447,101,84427,1,2,0:2:0:0:
345,208,84552,6,0,P|430:218|493:237,1,144.500002756119,6|0,3:2|0:2,0:0:0:0:
319,357,84927,1,2,3:2:0:0:
259,307,85052,2,0,P|268:255|276:211,1,72.2500013780594,0|0,1:2|0:2,0:0:0:0:
272,70,85302,5,6,3:2:0:0:
200,109,85427,2,0,P|209:161|217:205,1,72.2500013780594,0|0,0:2|0:2,0:0:0:0:
108,274,85677,2,0,P|144:277|180:283,1,72.2500013780594,2|0,3:2|0:2,0:0:0:0:
39,365,85927,5,0,1:2:0:0:
0,292,86052,2,0,P|13:230|21:197,1,72.2500013780594,2|0,3:2|0:2,0:0:0:0:
128,164,86302,2,0,P|77:157|38:150,1,72.2500013780594,6|0,1:2|0:2,0:0:0:0:
137,28,86552,6,0,B|215:26|199:76|273:69,1,144.500002756119,6|0,3:2|0:2,0:0:0:0:
414,153,86927,1,2,1:2:0:0:
366,217,87052,2,0,P|317:222|282:226,1,72.2500013780594,0|0,0:2|0:2,0:0:0:0:
346,45,87302,6,0,P|420:36|460:105,1,144.500002756119,6|0,3:2|0:2,0:0:0:0:
457,231,87677,5,2,3:1:0:0:
401,342,87802,1,2,0:2:0:0:
287,233,87927,5,2,1:2:0:0:
325,311,88052,1,2,3:2:0:0:
325,311,88114,1,2,0:2:0:0:
325,311,88177,1,2,0:2:0:0:
249,352,88302,1,2,3:2:0:0:
220,277,88427,1,0,0:2:0:0:
237,137,88552,6,0,P|319:158|379:177,1,144.500002756119,6|0,3:2|0:2,0:0:0:0:
194,71,88927,1,0,0:2:0:0:
153,147,89052,2,0,P|159:173|164:237,1,72.2500013780594,2|0,3:2|0:2,0:0:0:0:
52,64,89302,2,0,P|103:48|138:34,1,72.2500013780594,0|0,0:2|0:2,0:0:0:0:
104,276,89552,5,2,3:2:0:0:
25,261,89677,2,0,P|-7:217|20:136,1,144.500002756119,2|0,2:2|0:2,0:0:0:0:
177,147,90052,2,0,P|167:192|162:227,1,72.2500013780594,2|0,3:2|0:2,0:0:0:0:
109,362,90302,2,0,P|157:344|188:336,1,72.2500013780594,2|0,0:2|0:2,0:0:0:0:
413,363,90552,6,0,P|444:297|393:222,1,144.500002756119,2|0,3:2|0:2,0:0:0:0:
274,198,90927,1,0,0:2:0:0:
233,265,91052,2,0,P|249:317|257:349,1,72.2500013780594,2|0,3:2|0:2,0:0:0:0:
354,187,91302,2,0,P|338:135|330:103,1,72.2500013780594,0|0,0:2|0:2,0:0:0:0:
174,48,91552,5,0,3:2:0:0:
123,108,91677,2,0,P|202:89|293:69,1,144.500002756119,2|0,2:2|0:2,0:0:0:0:
420,20,92052,2,0,P|409:74|404:114,1,72.2500013780594,2|0,3:2|0:2,0:0:0:0:
425,230,92302,2,0,P|475:215|510:207,1,72.2500013780594,2|0,0:2|0:2,0:0:0:0:
268,210,92552,6,0,P|231:260|270:347,1,144.500002756119,6|0,3:2|0:2,0:0:0:0:
382,367,92927,1,0,0:2:0:0:
432,305,93052,2,0,P|422:254|416:217,1,72.2500013780594,2|0,3:2|0:2,0:0:0:0:
258,341,93302,2,0,P|197:332|172:328,1,72.2500013780594,0|0,0:2|0:2,0:0:0:0:
63,134,93552,5,0,3:2:0:0:
125,83,93677,2,0,P|171:108|167:199,1,144.500002756119,2|0,0:2|0:2,0:0:0:0:
47,341,94052,2,0,P|32:297|16:249,1,72.2500013780594,2|0,3:2|0:2,0:0:0:0:
0,128,94302,2,0,P|40:136|70:142,1,72.2500013780594,2|0,0:2|0:2,0:0:0:0:
219,261,94552,6,0,P|269:244|332:231,1,101.999996887207,2|0,0:2|0:2,0:0:0:0:
392,285,94927,2,0,P|438:263|439:206,1,101.999996887207,0|0,0:2|0:2,0:0:0:0:
380,130,95302,2,0,P|376:166|375:194,1,50.9999984436036,2|0,0:2|0:2,0:0:0:0:
279,48,95552,6,0,P|232:87|180:59,1,101.999996887207,2|0,0:2|0:2,0:0:0:0:
196,77,95927,1,0,0:2:0:0:
132,16,96052,2,0,P|124:49|121:82,1,50.9999984436036,10|0,0:2|0:2,0:0:0:0:
27,137,96302,2,0,P|35:104|38:71,1,50.9999984436036,0|0,3:2|0:2,0:0:0:0:
153,195,96552,6,0,P|104:199|72:252,1,101.999996887207,2|0,0:2|0:2,0:0:0:0:
97,351,96927,1,0,0:2:0:0:
97,351,97052,2,0,P|129:343|161:338,1,50.9999984436036,0|0,0:2|0:2,0:0:0:0:
25,299,97302,1,2,0:2:0:0:
226,364,97552,6,0,P|268:325|232:257,1,101.999996887207,2|0,0:2|0:2,0:0:0:0:
263,284,97927,1,0,0:2:0:0:
238,211,98052,2,0,P|247:178|254:152,1,50.9999984436036,10|0,0:2|0:2,0:0:0:0:
340,262,98302,2,0,P|383:252|416:246,1,50.9999984436036,0|0,3:2|3:2,0:0:0:0:
461,370,98552,6,0,P|467:291|478:238,1,101.999996887207,2|0,0:2|0:2,0:0:0:0:
450,187,98927,1,0,0:2:0:0:
450,187,99052,2,0,P|407:177|374:171,1,50.9999984436036,2|0,0:2|0:2,0:0:0:0:
504,124,99302,1,0,0:2:0:0:
323,188,99552,6,0,P|285:142|323:83,1,101.999996887207,2|2,0:2|0:2,0:0:0:0:
294,104,99927,1,0,0:2:0:0:
380,23,100052,2,0,P|375:59|372:89,1,50.9999984436036,8|0,0:2|0:2,0:0:0:0:
238,42,100302,6,0,P|280:31|311:27,2,50.9999984436036,2|0|0,3:2|0:2|0:2,0:0:0:0:
256,192,100614,12,0,104552,0:2:0:0:
