osu file format v14

[General]
AudioFilename: audio.mp3
AudioLeadIn: 0
PreviewTime: -1
Countdown: 1
SampleSet: None
StackLeniency: 0.7
Mode: 0
LetterboxInBreaks: 0
WidescreenStoryboard: 1

[Editor]
DistanceSpacing: 1
BeatDivisor: 4
GridSize: 4
TimelineZoom: 1

[Metadata]
Title:Pursuit
TitleUnicode:Pursuit
Artist:Oni
ArtistUnicode:Oni
Creator:TuTuRoXx
Version:Normal
Source:
Tags:
BeatmapID:1386479
BeatmapSetID:654076

[Difficulty]
HPDrainRate:5
CircleSize:3
OverallDifficulty:5
ApproachRate:6
SliderMultiplier:1.4
SliderTickRate:1

[Events]
//Background and Video events
//Break Periods
//Storyboard Layer 0 (Background)
//Storyboard Layer 1 (Fail)
//Storyboard Layer 2 (Pass)
//Storyboard Layer 3 (Foreground)
//Storyboard Sound Samples

[TimingPoints]
0,764.331210191083,4,1,0,100,1,0
12229,-100,4,1,0,100,0,1
24076,-100,4,1,0,100,0,0
24458,-100,4,1,0,100,0,1
36305,-100,4,1,0,100,0,0
36687,-100,4,1,0,100,0,1
42420,-100,4,1,0,100,0,0
42802,-100,4,1,0,100,0,1
73375,-100,4,1,0,100,0,0

[HitObjects]
124,72,0,6,0,B|180:144|232:208|280:240|332:272,1,280,0|4,0:0|0:0,0:0:0:0:
392,176,2292,1,0,0:0:0:0:
320,60,2675,1,0,0:0:0:0:
322,266,3057,2,0,B|266:194|214:130|166:98|114:66,1,280,0|4,0:0|0:0,0:0:0:0:
112,220,4968,1,0,0:0:0:0:
248,280,5350,1,0,0:0:0:0:
376,164,5732,1,0,0:0:0:0:
116,56,6114,6,0,P|116:176|264:244,1,280,0|4,0:0|0:0,0:0:0:0:
340,192,8025,1,0,0:0:0:0:
252,72,8407,1,0,0:0:0:0:
112,172,8789,1,0,0:0:0:0:
136,292,9171,2,0,B|252:280|328:196|300:136|244:108,1,280,0|4,0:0|0:0,0:0:0:0:
160,88,11082,2,0,L|140:136,2,35
316,80,11847,1,0,0:0:0:0:
400,176,12229,5,0,0:0:0:0:
248,272,12611,1,0,0:0:0:0:
104,140,12993,1,0,0:0:0:0:
164,140,13184,1,0,0:0:0:0:
224,144,13375,1,4,0:0:0:0:
340,80,13757,5,0,0:0:0:0:
448,108,14140,1,0,0:0:0:0:
336,260,14522,1,0,0:0:0:0:
336,260,14713,1,0,0:0:0:0:
336,260,14904,1,4,0:0:0:0:
172,264,15286,5,0,0:0:0:0:
168,136,15668,1,0,0:0:0:0:
352,128,16050,1,0,0:0:0:0:
360,264,16433,1,0,0:0:0:0:
172,264,16815,1,0,0:0:0:0:
168,180,17006,1,0,0:0:0:0:
168,96,17197,1,4,0:0:0:0:
312,92,17579,5,0,0:0:0:0:
312,172,17770,1,0,0:0:0:0:
312,252,17961,1,4,0:0:0:0:
144,136,18343,6,0,P|216:112|304:144,1,140
364,172,19490,1,4,0:0:0:0:
304,280,19872,6,0,P|216:288|160:256,1,140
112,192,21019,1,4,0:0:0:0:
184,76,21401,5,0,0:0:0:0:
256,88,21592,1,0,0:0:0:0:
328,112,21783,1,4,0:0:0:0:
292,224,22165,5,0,0:0:0:0:
224,188,22356,1,0,0:0:0:0:
156,152,22547,1,4,0:0:0:0:
100,244,22929,5,0,0:0:0:0:
168,288,23121,1,0,0:0:0:0:
240,316,23312,1,4,0:0:0:0:
376,248,23694,5,0,0:0:0:0:
376,132,23885,1,0,0:0:0:0:
244,116,24076,1,0,0:0:0:0:
244,116,24267,1,0,0:0:0:0:
244,116,24458,1,4,0:0:0:0:
168,232,24840,5,0,0:0:0:0:
344,280,25222,1,0,0:0:0:0:
360,200,25414,1,0,0:0:0:0:
376,120,25605,1,0,0:0:0:0:
252,100,25796,2,0,L|208:96,1,35,0|4,0:0|0:0,0:0:0:0:
164,216,26369,5,0,0:0:0:0:
304,256,26751,2,0,L|328:200,2,35,0|0|4,0:0|0:0|0:0,0:0:0:0:
160,228,27515,5,0,0:0:0:0:
216,92,27898,2,0,L|248:152,1,35,4|0,0:0|0:0,0:0:0:0:
376,80,28471,1,4,0:0:0:0:
388,268,29044,5,0,0:0:0:0:
204,276,29426,1,4,0:0:0:0:
248,204,29617,5,0,0:0:0:0:
132,96,30000,1,4,0:0:0:0:
388,92,30573,5,0,0:0:0:0:
396,240,30955,1,0,0:0:0:0:
184,244,31337,1,0,0:0:0:0:
184,244,31528,1,0,0:0:0:0:
184,244,31719,1,4,0:0:0:0:
184,84,32101,5,0,0:0:0:0:
360,84,32484,1,0,0:0:0:0:
268,184,32866,1,4,0:0:0:0:
268,116,33057,1,0,0:0:0:0:
264,52,33248,1,4,0:0:0:0:
128,100,33630,5,0,0:0:0:0:
128,256,34012,1,0,0:0:0:0:
332,256,34394,1,4,0:0:0:0:
332,256,34585,1,4,0:0:0:0:
332,256,34777,1,4,0:0:0:0:
336,80,35159,5,0,0:0:0:0:
160,120,35541,1,0,0:0:0:0:
344,196,35923,1,0,0:0:0:0:
208,216,36305,2,0,L|268:144,1,70,0|4,0:0|0:0,0:0:0:0:
352,80,37070,5,0,0:0:0:0:
356,208,37452,2,0,L|312:228,1,35
232,244,37834,1,4,0:0:0:0:
136,80,38216,5,0,0:0:0:0:
340,84,38598,1,0,0:0:0:0:
236,148,38980,2,0,L|232:208,1,35
228,252,39363,1,4,0:0:0:0:
392,248,39745,6,0,L|396:184,1,35
396,136,40127,1,4,0:0:0:0:
240,132,40509,5,0,0:0:0:0:
240,132,40700,1,0,0:0:0:0:
240,132,40891,1,4,0:0:0:0:
144,224,41273,2,0,L|196:252,1,35
240,264,41656,1,4,0:0:0:0:
388,264,42038,5,0,0:0:0:0:
388,264,42229,1,0,0:0:0:0:
388,264,42420,1,4,0:0:0:0:
424,160,42802,6,0,P|384:112|284:96,1,140
204,112,43949,1,4,0:0:0:0:
120,212,44331,6,0,P|164:272|240:280,1,140
312,216,45477,1,4,0:0:0:0:
132,132,45859,6,0,P|220:108|344:156,1,210,0|4,0:0|0:0,0:0:0:0:
132,240,47388,6,0,P|216:272|328:228,1,210,0|4,0:0|0:0,0:0:0:0:
416,108,48917,1,0,0:0:0:0:
224,112,49299,1,0,0:0:0:0:
416,168,49681,1,0,0:0:0:0:
224,184,50063,1,4,0:0:0:0:
328,224,50445,5,0,0:0:0:0:
324,168,50636,1,0,0:0:0:0:
320,112,50828,1,4,0:0:0:0:
172,108,51210,5,0,0:0:0:0:
172,108,51401,1,0,0:0:0:0:
172,108,51592,1,4,0:0:0:0:
120,208,51974,6,0,P|128:260|252:240,1,210,0|4,0:0|0:0,0:0:0:0:
284,168,53503,5,0,0:0:0:0:
284,168,53694,1,0,0:0:0:0:
284,168,53885,2,0,P|300:128|176:56,1,210,4|4,0:0|0:0,0:0:0:0:
104,140,55414,5,0,0:0:0:0:
104,268,55796,1,0,0:0:0:0:
212,268,56178,2,0,L|312:272,1,70,0|4,0:0|0:0,0:0:0:0:
364,272,56942,2,0,L|364:220,1,35
364,160,57324,2,0,L|312:160,1,35
248,160,57707,1,0,0:0:0:0:
120,292,58089,1,4,0:0:0:0:
272,296,58471,6,0,L|364:296,1,70
336,180,59235,2,0,L|336:120,1,35
336,68,59617,2,0,L|280:72,1,35
216,84,60000,1,0,0:0:0:0:
216,248,60382,1,0,0:0:0:0:
384,244,60764,1,4,0:0:0:0:
256,192,61146,12,0,67261,0:0:0:0:
