osu file format v14

[General]
AudioFilename: audio.mp3
AudioLeadIn: 0
PreviewTime: -1
Countdown: 0
SampleSet: Soft
StackLeniency: 0.7
Mode: 0
LetterboxInBreaks: 0
SkinPreference:- ☾Moonshine v1.2☽ -
WidescreenStoryboard: 1
SamplesMatchPlaybackRate: 1

[Editor]
DistanceSpacing: 0.8
BeatDivisor: 4
GridSize: 16
TimelineZoom: 1

[Metadata]
Title:Drone
TitleUnicode:Drone
Artist:Onett
ArtistUnicode:Onett
Creator:flanflandre
Version:oh is not bumble man
Source:HOHOHO
Tags:BSS
BeatmapID:3691787
BeatmapSetID:1800733

[Difficulty]
HPDrainRate:6
CircleSize:5
OverallDifficulty:6
ApproachRate:8
SliderMultiplier:1.4
SliderTickRate:1

[Events]
//Background and Video events
0,0,"Captura de pantalla 2022-07-04 065856.png",0,0
//Break Periods
//Storyboard Layer 0 (Background)
//Storyboard Layer 1 (Fail)
//Storyboard Layer 2 (Pass)
//Storyboard Layer 3 (Foreground)
//Storyboard Layer 4 (Overlay)
//Storyboard Sound Samples

[TimingPoints]
0,487.80487804878,4,2,0,100,1,0
0,-100,4,2,0,100,0,0
37900,-83.3333333333333,4,3,1,87,0,0
46341,-76.9230769230769,4,2,1,100,0,0
69999,-100,4,2,0,100,0,0

[HitObjects]
175,213,1463,5,0,0:0:0:0:
357,193,1707,1,0,0:0:0:0:
383,93,2073,1,0,0:0:0:0:
245,147,2560,1,0,0:0:0:0:
361,175,2804,1,0,0:0:0:0:
243,169,3048,1,0,0:0:0:0:
273,177,3414,1,0,0:0:0:0:
242,186,3658,1,0,0:0:0:0:
238,224,4634,6,0,L|409:135,1,175
148,166,5975,2,0,L|327:241,1,175
203,146,7560,1,8,0:0:0:0:
251,171,7804,1,0,0:0:0:0:
251,171,8048,1,0,0:0:0:0:
251,171,8414,1,0,0:0:0:0:
352,237,8536,1,0,0:0:0:0:
301,204,8780,1,0,0:0:0:0:
366,151,11097,5,0,0:0:0:0:
338,154,11219,1,0,0:0:0:0:
282,161,11463,1,0,0:0:0:0:
190,198,11585,5,0,0:0:0:0:
241,167,13902,1,0,0:0:0:0:
241,167,14146,1,0,0:0:0:0:
241,167,14390,1,0,0:0:0:0:
235,204,14878,1,0,0:0:0:0:
179,223,15853,1,0,0:0:0:0:
179,223,15975,1,0,0:0:0:0:
179,223,16097,1,0,0:0:0:0:
179,223,16219,1,0,0:0:0:0:
266,184,16829,5,0,0:0:0:0:
228,189,17195,1,0,0:0:0:0:
329,187,17439,1,0,0:0:0:0:
166,149,17804,1,0,0:0:0:0:
219,152,18414,1,0,0:0:0:0:
246,180,19634,1,0,0:0:0:0:
147,233,20365,1,0,0:0:0:0:
245,230,20731,1,0,0:0:0:0:
163,151,21219,1,0,0:0:0:0:
163,151,21341,1,0,0:0:0:0:
241,211,21707,1,0,0:0:0:0:
402,264,22560,2,0,L|264:140,1,175
195,180,23658,1,0,0:0:0:0:
309,235,24024,2,0,L|439:117,1,175
252,191,25853,1,0,0:0:0:0:
195,268,26463,1,0,0:0:0:0:
180,218,27560,1,0,0:0:0:0:
230,206,28170,1,0,0:0:0:0:
175,223,28902,1,0,0:0:0:0:
174,161,29146,1,0,0:0:0:0:
294,279,29634,1,0,0:0:0:0:
168,166,29756,5,0,0:0:0:0:
346,208,29999,1,0,0:0:0:0:
112,137,30365,1,0,0:0:0:0:
266,201,30975,1,0,0:0:0:0:
266,201,31341,1,0,0:0:0:0:
266,201,31463,1,0,0:0:0:0:
266,201,31585,1,0,0:0:0:0:
266,201,31707,1,0,0:0:0:0:
187,198,32195,5,0,0:0:0:0:
354,208,32682,2,0,L|461:107,1,140
238,258,33658,2,0,P|197:218|314:196,1,245
465,260,35243,2,0,L|531:115,1,140
212,174,36097,1,0,0:0:0:0:
259,231,36585,2,0,L|408:126,1,175
246,157,37926,1,0,0:0:0:0:
178,161,38536,5,0,0:0:0:0:
327,277,38902,2,0,L|417:134,1,167.999994873047
214,171,39756,1,0,0:0:0:0:
341,291,40121,2,0,P|445:138|317:239,1,503.999984619141
83,208,43292,1,0,0:0:0:0:
144,214,44146,1,0,0:0:0:0:
79,127,46951,1,0,0:0:0:0:
127,147,47926,1,0,0:0:0:0:
211,186,48170,1,0,0:0:0:0:
185,124,48414,1,0,0:0:0:0:
146,157,48658,1,0,0:0:0:0:
95,140,49512,2,0,L|292:189,1,181.999991668702
252,223,50609,1,0,0:0:0:0:
438,224,51585,2,0,P|272:191|335:155,1,454.999979171754
123,180,54756,1,0,0:0:0:0:
183,218,55487,1,0,0:0:0:0:
137,180,55853,1,0,0:0:0:0:
185,222,56341,1,0,0:0:0:0:
184,222,56707,1,0,0:0:0:0:
184,222,56951,1,0,0:0:0:0:
184,222,57195,1,0,0:0:0:0:
184,222,57439,1,0,0:0:0:0:
184,222,57682,1,0,0:0:0:0:
268,137,59390,5,0,0:0:0:0:
146,158,59999,1,0,0:0:0:0:
205,204,60243,1,0,0:0:0:0:
205,204,60487,1,0,0:0:0:0:
205,204,60609,1,0,0:0:0:0:
205,204,60975,1,0,0:0:0:0:
205,204,61219,1,0,0:0:0:0:
205,204,61463,1,0,0:0:0:0:
205,204,61707,1,0,0:0:0:0:
205,204,61951,1,0,0:0:0:0:
205,204,62195,1,0,0:0:0:0:
205,204,62439,1,0,0:0:0:0:
205,204,62682,1,0,0:0:0:0:
57,208,63414,1,0,0:0:0:0:
344,209,64024,1,0,0:0:0:0:
80,272,64756,1,0,0:0:0:0:
208,192,65853,1,0,0:0:0:0:
96,176,66463,1,0,0:0:0:0:
320,240,66951,1,0,0:0:0:0:
256,96,67439,1,0,0:0:0:0:
352,256,68292,1,0,0:0:0:0:
320,192,68902,2,0,L|160:240,1,136.499993751526
240,208,70121,6,0,L|80:192,5,136.499993751526,0|0|0|0|0|0,1:1|1:1|1:1|1:1|1:1|1:1,1:1:0:0:
256,176,73536,2,0,L|64:176,8,175
176,144,79390,5,0,0:0:0:0:
352,256,79756,1,0,0:0:0:0:
112,208,79999,1,0,0:0:0:0:
288,240,80365,1,0,0:0:0:0:
224,160,80609,1,0,0:0:0:0:
224,160,80731,1,0,0:0:0:0:
224,160,80853,1,0,0:0:0:0:
80,160,81341,1,0,0:0:0:0:
272,224,81585,1,0,0:0:0:0:
112,160,81829,1,0,0:0:0:0:
288,192,82195,1,0,0:0:0:0:
283,195,82317,1,0,0:0:0:0:
288,192,82439,1,0,0:0:0:0:
96,160,83536,5,0,0:0:0:0:
256,192,84146,1,0,0:0:0:0:
144,160,84390,1,0,0:0:0:0:
240,288,84756,1,0,0:0:0:0:
224,224,85121,1,0,0:0:0:0:
224,224,85243,1,0,0:0:0:0:
224,224,85609,1,0,0:0:0:0:
224,224,85853,1,0,0:0:0:0:
224,224,86097,1,0,0:0:0:0:
224,224,86341,1,0,0:0:0:0:
352,128,86829,1,0,0:0:0:0:
144,208,87073,1,0,0:0:0:0:
256,288,87439,1,0,0:0:0:0:
224,176,87682,1,0,0:0:0:0:
208,224,88048,1,0,0:0:0:0:
208,224,88170,1,0,0:0:0:0:
208,224,88414,5,0,0:0:0:0:
288,160,88780,1,0,0:0:0:0:
208,160,89024,1,0,0:0:0:0:
272,240,89390,1,0,0:0:0:0:
192,192,89756,1,0,0:0:0:0:
272,192,89999,1,0,0:0:0:0:
192,192,90243,1,0,0:0:0:0:
128,224,91341,1,0,0:0:0:0:
224,240,91707,1,0,0:0:0:0:
96,112,92073,1,0,0:0:0:0:
64,256,92439,1,0,0:0:0:0:
144,240,93414,2,0,L|304:160,1,175
80,288,94512,5,0,0:0:0:0:
320,272,94999,2,0,L|464:176,1,140
176,208,97195,1,0,0:0:0:0:
80,160,97682,1,0,0:0:0:0:
160,224,98170,2,0,L|304:160,1,140
224,192,99268,1,0,0:0:0:0:
368,224,99756,2,0,L|464:128,1,105
144,176,100853,1,0,0:0:0:0:
368,272,101341,2,0,L|448:144,1,140
320,144,102439,2,0,L|192:128,1,105
208,320,103414,1,0,0:0:0:0:
288,224,104024,1,0,0:0:0:0:
167,192,104756,2,0,L|343:192,10,175
304,192,111585,2,0,L|128:176,4,175
288,208,114756,2,0,L|144:128,7,140
144,128,119024,2,0,L|288:192,5,140
352,128,124268,6,0,L|112:144,6,210
192,256,129390,2,0,L|32:112,4,210
176,160,133414,2,0,L|304:160,8,105
80,192,137195,1,0,0:0:0:0:
143,195,137804,2,0,L|363:202,5,210
214,207,142439,1,0,0:0:0:0:
348,275,143170,2,0,L|481:122,1,175
316,302,144878,2,0,L|139:308,1,175
125,223,145975,1,0,0:0:0:0:
154,222,146585,1,0,0:0:0:0:
192,181,146951,1,0,0:0:0:0:
90,223,147560,1,0,0:0:0:0:
154,220,147926,1,0,0:0:0:0:
154,220,148170,1,0,0:0:0:0:
154,220,148414,1,0,0:0:0:0:
154,220,148658,1,0,0:0:0:0:
310,211,149878,5,0,0:0:0:0:
177,106,150365,1,0,0:0:0:0:
188,212,150853,1,0,0:0:0:0:
302,212,151463,1,0,0:0:0:0:
301,247,151951,1,0,0:0:0:0:
50,246,152682,1,0,0:0:0:0:
70,113,153170,1,0,0:0:0:0:
188,142,153658,1,0,0:0:0:0:
276,186,154268,2,0,L|459:193,1,175
342,262,155609,1,0,0:0:0:0:
231,209,156341,2,0,L|70:213,1,140
168,187,157682,5,0,0:0:0:0:
294,256,158048,1,0,0:0:0:0:
288,158,158414,1,0,0:0:0:0:
217,208,158780,1,0,0:0:0:0:
217,161,159512,1,0,0:0:0:0:
357,235,159999,1,0,0:0:0:0:
227,270,160365,1,0,0:0:0:0:
186,180,160853,1,0,0:0:0:0:
186,180,161341,1,0,0:0:0:0:
186,180,161463,1,0,0:0:0:0:
186,180,161585,1,0,0:0:0:0:
323,177,162073,1,0,0:0:0:0:
195,177,162439,1,0,0:0:0:0:
204,234,162926,1,0,0:0:0:0:
256,212,163292,1,0,0:0:0:0:
81,231,164024,6,0,L|281:226,1,175
110,130,165853,2,0,P|305:182|310:160,2,315
259,166,169268,2,0,L|439:173,1,175
175,133,170853,6,0,L|382:124,1,175
300,226,171951,1,0,0:0:0:0:
128,162,172195,1,0,0:0:0:0:
311,196,173048,1,0,0:0:0:0:
293,112,173414,1,0,0:0:0:0:
249,310,174268,1,0,0:0:0:0:
259,262,174512,1,0,0:0:0:0:
270,212,174756,1,0,0:0:0:0:
270,212,174999,1,0,0:0:0:0:
270,212,175609,1,0,0:0:0:0:
155,138,176219,5,0,0:0:0:0:
429,221,177439,1,0,0:0:0:0:
283,186,178048,1,0,0:0:0:0:
228,173,178292,1,0,0:0:0:0:
174,160,178536,1,0,0:0:0:0:
174,160,178780,1,0,0:0:0:0:
174,160,179024,1,0,0:0:0:0:
292,181,179512,1,0,0:0:0:0:
115,149,180243,1,0,0:0:0:0:
175,159,180487,1,0,0:0:0:0:
243,172,180853,1,0,0:0:0:0:
243,172,181097,1,0,0:0:0:0:
245,218,181829,6,0,L|412:215,1,140
196,168,183170,1,0,0:0:0:0:
298,193,183658,1,0,0:0:0:0:
174,162,184268,1,0,0:0:0:0:
318,199,184878,1,0,0:0:0:0:
232,177,185243,1,0,0:0:0:0:
232,177,185487,1,0,0:0:0:0:
232,177,185853,1,0,0:0:0:0:
232,177,186097,1,0,0:0:0:0:
232,177,186341,1,0,0:0:0:0:
123,154,186829,1,0,0:0:0:0:
267,214,187560,1,0,0:0:0:0:
173,283,188048,1,0,0:0:0:0:
83,135,188780,2,0,L|246:138,1,140
99,157,190243,5,0,0:0:0:0:
99,157,190853,1,0,0:0:0:0:
99,157,191585,1,0,0:0:0:0:
315,254,192682,1,0,0:0:0:0:
284,240,192804,1,0,0:0:0:0:
196,200,193292,1,0,0:0:0:0:
284,242,193780,1,0,0:0:0:0:
201,202,194146,5,0,0:0:0:0:
201,202,194634,1,0,0:0:0:0:
201,202,195243,1,0,0:0:0:0:
201,202,195487,1,0,0:0:0:0:
201,202,195731,1,0,0:0:0:0:
201,202,195975,1,0,0:0:0:0:
154,222,196951,2,0,L|295:190,1,140
448,306,198292,2,0,L|227:253,1,210
74,33,200243,6,0,L|172:165,4,140
