osu file format v14

[General]
AudioFilename: audio.mp3
AudioLeadIn: 0
PreviewTime: 4547
Countdown: 0
SampleSet: Normal
StackLeniency: 0.7
Mode: 1
LetterboxInBreaks: 0
WidescreenStoryboard: 1

[Editor]
DistanceSpacing: 1.4
BeatDivisor: 2
GridSize: 32
TimelineZoom: 1.290095

[Metadata]
Title:fast odd snare
TitleUnicode:fast odd snare
Artist:Onefin
ArtistUnicode:Onefin
Creator:meiqth
Version:oni
Source:
Tags:electronic instrumental 1f1n1ty short
BeatmapID:4292877
BeatmapSetID:2054684

[Difficulty]
HPDrainRate:9
CircleSize:2
OverallDifficulty:6
ApproachRate:7
SliderMultiplier:1.4
SliderTickRate:1

[Events]
//Background and Video events
0,0,"OTTOBAUCH-status-1531844794569441285.jpg",0,0
//Break Periods
//Storyboard Layer 0 (Background)
//Storyboard Layer 1 (Fail)
//Storyboard Layer 2 (Pass)
//Storyboard Layer 3 (Foreground)
//Storyboard Layer 4 (Overlay)
//Storyboard Sound Samples

[TimingPoints]
295,267.558528428094,9,1,0,66,1,0
295,-125,9,1,0,66,0,0
4584,267.141585040071,9,1,0,66,1,0
4584,-125,9,1,0,66,0,0
9114,266.666666666667,9,1,0,80,1,0
9114,-111.111111111111,9,1,0,80,0,0
11513,269.058295964126,9,1,0,80,1,0
11513,-111.111111111111,9,1,0,80,0,0
13396,267.558528428094,9,1,0,80,1,0
13396,-111.111111111111,9,1,0,80,0,0
15804,269.662921348315,9,1,0,80,1,0
15804,-111.111111111111,9,1,0,80,0,0
17953,267.857142857143,9,1,0,100,1,0
22238,267.857142857143,9,1,0,100,1,0
26790,267.857142857143,9,1,0,100,1,0
31078,267.857142857143,9,1,0,100,1,0

[HitObjects]
256,192,295,5,0,0:0:0:0:
256,192,428,1,8,0:0:0:0:
256,192,696,1,0,0:0:0:0:
256,192,830,1,8,0:0:0:0:
256,192,1097,1,0,0:0:0:0:
256,192,1231,1,8,0:0:0:0:
256,192,1365,1,0,0:0:0:0:
256,192,1499,1,8,0:0:0:0:
256,192,1766,1,0,0:0:0:0:
256,192,1900,1,8,0:0:0:0:
256,192,2167,1,0,0:0:0:0:
256,192,2301,1,0,0:0:0:0:
256,192,2435,1,8,0:0:0:0:
256,192,2703,1,0,0:0:0:0:
256,192,2836,1,8,0:0:0:0:
256,192,3104,1,0,0:0:0:0:
256,192,3238,1,8,0:0:0:0:
256,192,3505,1,0,0:0:0:0:
256,192,3639,1,8,0:0:0:0:
256,192,3773,1,0,0:0:0:0:
256,192,3907,1,0,0:0:0:0:
256,192,4040,1,8,0:0:0:0:
256,192,4308,1,8,0:0:0:0:
256,192,4584,1,0,0:0:0:0:
256,192,4717,1,8,0:0:0:0:
256,192,4984,1,0,0:0:0:0:
256,192,5118,1,8,0:0:0:0:
256,192,5385,1,0,0:0:0:0:
256,192,5518,1,8,0:0:0:0:
256,192,5652,1,0,0:0:0:0:
256,192,5786,1,8,0:0:0:0:
256,192,6053,1,0,0:0:0:0:
256,192,6186,1,8,0:0:0:0:
256,192,6320,1,8,0:0:0:0:
256,192,6453,1,0,0:0:0:0:
256,192,6587,1,0,0:0:0:0:
256,192,6721,1,8,0:0:0:0:
256,192,6988,1,0,0:0:0:0:
256,192,7121,1,8,0:0:0:0:
256,192,7388,1,0,0:0:0:0:
256,192,7522,1,8,0:0:0:0:
256,192,7789,1,0,0:0:0:0:
256,192,7923,1,8,0:0:0:0:
256,192,8056,1,0,0:0:0:0:
256,192,8323,1,8,0:0:0:0:
256,192,8591,1,8,0:0:0:0:
256,192,8858,1,8,0:0:0:0:
256,192,9114,1,4,0:0:0:0:
256,192,9380,1,8,0:0:0:0:
256,192,9514,1,0,0:0:0:0:
256,192,9647,1,0,0:0:0:0:
256,192,9780,1,8,0:0:0:0:
256,192,9914,1,0,0:0:0:0:
256,192,9980,1,0,0:0:0:0:
256,192,10047,1,8,0:0:0:0:
256,192,10180,1,0,0:0:0:0:
256,192,10314,1,0,0:0:0:0:
256,192,10447,1,0,0:0:0:0:
256,192,10580,1,8,0:0:0:0:
256,192,10647,1,8,0:0:0:0:
256,192,10714,1,0,0:0:0:0:
256,192,10847,1,8,0:0:0:0:
256,192,10914,1,8,0:0:0:0:
256,192,10980,1,0,0:0:0:0:
256,192,11114,1,8,0:0:0:0:
256,192,11247,1,8,0:0:0:0:
256,192,11513,1,0,0:0:0:0:
256,192,11647,1,8,0:0:0:0:
256,192,11714,1,8,0:0:0:0:
256,192,11782,1,8,0:0:0:0:
256,192,11916,1,0,0:0:0:0:
256,192,12051,1,0,0:0:0:0:
256,192,12185,1,8,0:0:0:0:
256,192,12320,1,0,0:0:0:0:
256,192,12387,1,0,0:0:0:0:
256,192,12454,1,8,0:0:0:0:
256,192,12589,1,8,0:0:0:0:
256,192,12723,1,0,0:0:0:0:
256,192,12858,1,8,0:0:0:0:
256,192,13127,1,8,0:0:0:0:
256,192,13396,1,0,0:0:0:0:
256,192,13462,1,0,0:0:0:0:
256,192,13529,1,0,0:0:0:0:
256,192,13663,1,8,0:0:0:0:
256,192,13797,1,8,0:0:0:0:
256,192,13931,1,0,0:0:0:0:
256,192,14064,1,8,0:0:0:0:
256,192,14131,1,8,0:0:0:0:
256,192,14198,1,8,0:0:0:0:
256,192,14332,1,0,0:0:0:0:
256,192,14466,1,8,0:0:0:0:
256,192,14600,1,0,0:0:0:0:
256,192,14733,1,0,0:0:0:0:
256,192,14867,1,8,0:0:0:0:
256,192,14934,1,8,0:0:0:0:
256,192,15001,1,0,0:0:0:0:
256,192,15135,1,8,0:0:0:0:
256,192,15202,1,8,0:0:0:0:
256,192,15268,1,0,0:0:0:0:
256,192,15402,1,8,0:0:0:0:
256,192,15536,1,8,0:0:0:0:
256,192,15804,1,0,0:0:0:0:
256,192,15938,1,8,0:0:0:0:
256,192,16006,1,8,0:0:0:0:
256,192,16073,1,8,0:0:0:0:
256,192,16208,1,0,0:0:0:0:
256,192,16343,1,0,0:0:0:0:
256,192,16478,1,8,0:0:0:0:
256,192,16545,1,8,0:0:0:0:
256,192,16612,1,8,0:0:0:0:
256,192,16747,1,0,0:0:0:0:
256,192,16882,1,8,0:0:0:0:
256,192,17152,1,0,0:0:0:0:
256,192,17421,1,0,0:0:0:0:
256,192,17691,1,8,0:0:0:0:
256,192,17953,1,4,0:0:0:0:
256,192,18086,1,8,0:0:0:0:
256,192,18220,1,0,0:0:0:0:
256,192,18287,1,0,0:0:0:0:
256,192,18354,1,8,0:0:0:0:
256,192,18488,1,0,0:0:0:0:
256,192,18622,1,8,0:0:0:0:
256,192,18689,1,8,0:0:0:0:
256,192,18756,1,0,0:0:0:0:
256,192,18890,1,8,0:0:0:0:
256,192,19024,1,0,0:0:0:0:
256,192,19158,1,8,0:0:0:0:
256,192,19292,1,0,0:0:0:0:
256,192,19426,1,8,0:0:0:0:
256,192,19493,1,8,0:0:0:0:
256,192,19560,1,0,0:0:0:0:
256,192,19627,1,0,0:0:0:0:
256,192,19694,1,8,0:0:0:0:
256,192,19828,1,0,0:0:0:0:
256,192,19961,1,8,0:0:0:0:
256,192,20095,1,0,0:0:0:0:
256,192,20363,1,0,0:0:0:0:
256,192,20497,1,8,0:0:0:0:
256,192,20564,1,0,0:0:0:0:
256,192,20631,1,8,0:0:0:0:
256,192,20765,1,0,0:0:0:0:
256,192,20899,1,8,0:0:0:0:
256,192,21033,1,0,0:0:0:0:
256,192,21100,1,0,0:0:0:0:
256,192,21167,1,8,0:0:0:0:
256,192,21301,1,0,0:0:0:0:
256,192,21435,1,8,0:0:0:0:
256,192,21569,1,8,0:0:0:0:
256,192,21703,1,0,0:0:0:0:
256,192,21769,1,0,0:0:0:0:
256,192,21836,1,8,0:0:0:0:
256,192,21970,1,0,0:0:0:0:
256,192,22037,1,0,0:0:0:0:
256,192,22104,1,8,0:0:0:0:
256,192,22238,1,0,0:0:0:0:
256,192,22371,1,8,0:0:0:0:
256,192,22505,1,0,0:0:0:0:
256,192,22572,1,8,0:0:0:0:
256,192,22639,1,0,0:0:0:0:
256,192,22773,1,8,0:0:0:0:
256,192,22907,1,0,0:0:0:0:
256,192,23041,1,8,0:0:0:0:
256,192,23108,1,8,0:0:0:0:
256,192,23175,1,0,0:0:0:0:
256,192,23242,1,0,0:0:0:0:
256,192,23309,1,8,0:0:0:0:
256,192,23443,1,0,0:0:0:0:
256,192,23577,1,8,0:0:0:0:
256,192,23644,1,8,0:0:0:0:
256,192,23711,1,8,0:0:0:0:
256,192,23845,1,0,0:0:0:0:
256,192,23979,1,8,0:0:0:0:
256,192,24046,1,8,0:0:0:0:
256,192,24113,1,0,0:0:0:0:
256,192,24246,1,0,0:0:0:0:
256,192,24380,1,8,0:0:0:0:
256,192,24648,1,0,0:0:0:0:
256,192,24782,1,8,0:0:0:0:
256,192,24916,1,0,0:0:0:0:
256,192,24983,1,0,0:0:0:0:
256,192,25050,1,8,0:0:0:0:
256,192,25184,1,0,0:0:0:0:
256,192,25318,1,8,0:0:0:0:
256,192,25385,1,8,0:0:0:0:
256,192,25452,1,8,0:0:0:0:
256,192,25586,1,8,0:0:0:0:
256,192,25720,1,0,0:0:0:0:
256,192,25787,1,0,0:0:0:0:
256,192,25854,1,8,0:0:0:0:
256,192,25921,1,8,0:0:0:0:
256,192,25988,1,0,0:0:0:0:
256,192,26121,1,0,0:0:0:0:
256,192,26255,1,12,0:0:0:0:
256,192,26523,1,4,0:0:0:0:
256,192,26790,1,8,0:0:0:0:
256,192,26857,1,8,0:0:0:0:
256,192,26924,1,0,0:0:0:0:
256,192,27058,1,8,0:0:0:0:
256,192,27192,1,0,0:0:0:0:
256,192,27259,1,0,0:0:0:0:
256,192,27326,1,8,0:0:0:0:
256,192,27460,1,0,0:0:0:0:
256,192,27594,1,8,0:0:0:0:
256,192,27728,1,0,0:0:0:0:
256,192,27862,1,8,0:0:0:0:
256,192,27996,1,0,0:0:0:0:
256,192,28063,1,0,0:0:0:0:
256,192,28130,1,8,0:0:0:0:
256,192,28264,1,8,0:0:0:0:
256,192,28398,1,0,0:0:0:0:
256,192,28531,1,8,0:0:0:0:
256,192,28665,1,0,0:0:0:0:
256,192,28732,1,0,0:0:0:0:
256,192,28799,1,0,0:0:0:0:
256,192,28933,1,8,0:0:0:0:
256,192,29201,1,8,0:0:0:0:
256,192,29335,1,0,0:0:0:0:
256,192,29402,1,0,0:0:0:0:
256,192,29469,1,8,0:0:0:0:
256,192,29603,1,0,0:0:0:0:
256,192,29737,1,8,0:0:0:0:
256,192,29871,1,8,0:0:0:0:
256,192,30005,1,0,0:0:0:0:
256,192,30072,1,8,0:0:0:0:
256,192,30139,1,0,0:0:0:0:
256,192,30273,1,8,0:0:0:0:
256,192,30406,1,8,0:0:0:0:
256,192,30540,1,0,0:0:0:0:
256,192,30674,1,8,0:0:0:0:
256,192,30741,1,8,0:0:0:0:
256,192,30808,1,0,0:0:0:0:
256,192,30942,1,8,0:0:0:0:
256,192,31076,1,0,0:0:0:0:
256,192,31211,1,8,0:0:0:0:
256,192,31278,1,0,0:0:0:0:
256,192,31345,1,8,0:0:0:0:
256,192,31479,1,8,0:0:0:0:
256,192,31613,1,0,0:0:0:0:
256,192,31747,1,0,0:0:0:0:
256,192,31881,1,8,0:0:0:0:
256,192,32015,1,0,0:0:0:0:
256,192,32082,1,0,0:0:0:0:
256,192,32149,1,8,0:0:0:0:
256,192,32283,1,8,0:0:0:0:
256,192,32417,1,0,0:0:0:0:
256,192,32484,1,0,0:0:0:0:
256,192,32551,1,0,0:0:0:0:
256,192,32685,1,8,0:0:0:0:
256,192,32819,1,8,0:0:0:0:
256,192,32953,1,0,0:0:0:0:
256,192,33019,1,8,0:0:0:0:
256,192,33086,1,0,0:0:0:0:
256,192,33220,1,8,0:0:0:0:
256,192,33488,1,0,0:0:0:0:
256,192,33622,1,8,0:0:0:0:
256,192,33689,1,8,0:0:0:0:
256,192,33756,1,0,0:0:0:0:
256,192,33890,1,0,0:0:0:0:
256,192,34024,1,8,0:0:0:0:
256,192,34091,1,8,0:0:0:0:
256,192,34158,1,0,0:0:0:0:
256,192,34292,1,8,0:0:0:0:
256,192,34426,1,8,0:0:0:0:
256,192,34560,1,0,0:0:0:0:
256,192,34694,1,8,0:0:0:0:
256,192,34761,1,8,0:0:0:0:
256,192,34828,1,0,0:0:0:0:
256,192,34894,1,0,0:0:0:0:
256,192,34961,1,8,0:0:0:0:
256,192,35095,1,0,0:0:0:0:
256,192,35229,1,8,0:0:0:0:
256,192,35296,1,8,0:0:0:0:
256,192,35363,1,0,0:0:0:0:
256,192,35496,1,8,0:0:0:0:
