osu file format v14

[General]
AudioFilename: audio.mp3
AudioLeadIn: 0
PreviewTime: 61989
Countdown: 0
SampleSet: Soft
StackLeniency: 0.5
Mode: 0
LetterboxInBreaks: 0
WidescreenStoryboard: 1

[Editor]
DistanceSpacing: 1.2
BeatDivisor: 4
GridSize: 4
TimelineZoom: 2.6

[Metadata]
Title:Everybody Loves Me
TitleUnicode:Everybody Loves Me
Artist:OneRepublic
ArtistUnicode:OneRepublic
Creator:Grissaryath
Version:Insane
Source:
Tags:waking up daycore one republic interscope records english pop alternative rock
BeatmapID:2445727
BeatmapSetID:1171113

[Difficulty]
HPDrainRate:5
CircleSize:3.8
OverallDifficulty:8
ApproachRate:8.8
SliderMultiplier:1.8
SliderTickRate:1

[Events]
//Background and Video events
0,0,"Konachan.com - 306254 sample.jpg",0,0
//Break Periods
//Storyboard Layer 0 (Background)
//Storyboard Layer 1 (Fail)
//Storyboard Layer 2 (Pass)
//Storyboard Layer 3 (Foreground)
//Storyboard Layer 4 (Overlay)
//Storyboard Sound Samples

[TimingPoints]
588,348.837209302326,4,2,1,25,1,0
588,-200,4,2,1,25,0,0
1639,357.142857142857,4,2,1,25,1,0
1639,-200,4,2,1,25,0,0
2176,342.857142857143,4,2,1,25,1,0
2176,-200,4,2,1,25,0,0
3058,352.941176470588,4,2,1,25,1,0
3058,-200,4,2,1,25,0,0
3410,352.941176470588,4,2,1,25,1,0
3410,-200,4,2,1,25,0,0
5175,326.086956521739,4,2,1,25,1,0
5175,-200,4,2,1,25,0,0
5528,348.837209302326,4,2,1,25,1,0
5528,-200,4,2,1,25,0,0
6225,352.941176470588,4,2,1,25,1,0
6225,-142.857142857143,4,2,1,50,0,0
17519,-125,4,2,1,50,0,0
28813,-100,4,2,1,65,0,0
34019,-100,4,2,1,5,0,0
34107,-100,4,2,1,65,0,0
34460,-125,4,2,1,50,0,0
51401,-100,4,2,1,65,0,0
56607,-100,4,2,1,5,0,0
56695,-100,4,2,1,65,0,0
57048,-125,4,2,1,50,0,0
61989,-500,4,2,1,50,0,0
62695,-83.3333333333333,4,2,1,75,0,1
71166,-142.857142857143,4,2,1,55,0,0
73989,-83.3333333333333,4,2,1,75,0,1
82460,-142.857142857143,4,2,1,55,0,0
85283,-100,4,2,1,65,0,0
88107,-125,4,2,1,50,0,0
94019,-125,4,2,1,5,0,0
94107,-125,4,2,1,50,0,0
95077,-125,4,2,1,5,0,0
95166,-125,4,2,1,50,0,0
96136,-125,4,2,1,5,0,0
96225,-125,4,2,1,50,0,0
96842,-125,4,2,1,5,0,0
96930,-125,4,2,1,50,0,0
97901,-125,4,2,1,5,0,0
97989,-125,4,2,1,50,0,0
99666,-125,4,2,1,5,0,0
99754,-125,4,2,1,50,0,0
100725,-125,4,2,1,5,0,0
100813,-125,4,2,1,50,0,0
103901,-125,4,2,1,5,0,0
103989,-125,4,2,1,50,0,0
105048,-100,4,2,1,65,0,0
110254,-100,4,2,1,5,0,0
110342,-100,4,2,1,55,0,0
110695,-111.111111111111,4,2,1,50,0,0
115636,-500,4,2,1,50,0,0
116342,-83.3333333333333,4,2,1,75,0,1
124813,-142.857142857143,4,2,1,55,0,0
127636,-83.3333333333333,4,2,1,75,0,1
136107,-142.857142857143,4,2,1,55,0,0
138930,-100,4,2,1,55,0,0
147401,-333.333333333333,4,2,1,25,0,0
158695,-200,4,2,1,30,0,0
169283,-200,4,2,1,50,0,0
169989,-76.9230769230769,4,2,1,80,0,1
178460,-142.857142857143,4,2,1,55,0,0
181283,-76.9230769230769,4,2,1,80,0,1
189754,-142.857142857143,4,2,1,55,0,0
192577,-90.909090909091,4,2,1,65,0,0
201048,-90.909090909091,4,2,1,60,0,0
216577,-90.909090909091,4,2,1,5,0,0

[Colours]
Combo1 : 255,122,94
Combo2 : 117,62,62
Combo3 : 149,149,149
Combo4 : 187,103,0
Combo5 : 243,176,122
Combo6 : 94,162,223
Combo7 : 185,0,0
Combo8 : 255,203,47
SliderTrackOverride : 143,81,35

[HitObjects]
65,118,588,22,0,L|165:108,1,90,0|0,1:0|1:0,0:0:0:0:
301,245,1285,1,8,0:0:0:0:
182,228,1639,1,2,0:0:0:0:
238,153,1817,102,0,L|292:159,1,45,0|0,1:2|1:0,0:0:0:0:
301,245,2176,1,0,1:2:0:0:
301,245,2347,1,0,1:2:0:0:
367,186,2518,1,0,1:2:0:0:
327,99,2690,1,8,0:0:0:0:
465,41,3058,1,2,0:0:0:0:
512,117,3234,1,2,0:0:0:0:
488,197,3410,6,0,P|475:244|471:295,1,90,0|0,1:0|1:0,0:0:0:0:
371,377,4116,1,8,0:0:0:0:
323,272,4469,101,2,0:0:0:0:
344,236,4646,1,0,3:0:0:0:
323,272,4822,1,0,0:0:0:0:
256,217,4999,1,0,3:0:0:0:
301,137,5175,1,0,3:0:0:0:
391,163,5338,1,0,3:0:0:0:
323,272,5528,69,2,0:0:0:0:
282,119,5702,1,2,0:0:0:0:
340,243,5876,1,2,0:0:0:0:
381,90,6051,1,2,0:0:0:0:
225,244,6225,70,0,P|177:248|137:188,1,125.999996154785,2|0,1:2|1:2,0:0:0:0:
196,50,6754,1,2,0:0:0:0:
215,213,6930,2,0,B|288:207|264:167|340:163,1,125.999996154785,10|2,0:0|0:0,0:0:0:0:
464,214,7460,6,0,L|335:197,1,125.999996154785,2|0,1:2|1:2,0:0:0:0:
267,41,7989,2,0,L|192:50,1,62.9999980773926,2|2,1:2|0:0,0:0:0:0:
82,136,8342,2,0,L|91:201,1,62.9999980773926,10|2,0:0|0:0,0:0:0:0:
208,140,8695,1,2,0:0:0:0:
102,112,8872,1,2,1:2:0:0:
87,280,9048,102,0,B|161:276|136:234|206:232,1,125.999996154785,2|0,1:2|1:2,0:0:0:0:
263,346,9577,1,2,0:0:0:0:
387,278,9754,2,0,P|371:225|364:143,1,125.999996154785,10|2,0:0|0:0,0:0:0:0:
266,38,10283,6,0,P|221:25|157:76,1,125.999996154785,2|0,1:2|1:2,0:0:0:0:
75,193,10813,2,0,P|94:234|102:263,1,62.9999980773926,2|2,1:2|0:0,0:0:0:0:
261,205,11166,2,0,P|273:171|286:146,1,62.9999980773926,10|2,0:0|0:0,0:0:0:0:
167,137,11519,1,2,0:0:0:0:
203,280,11695,1,8,0:1:0:0:
203,280,11783,1,2,1:0:0:0:
203,280,11872,102,0,P|237:317|314:310,1,125.999996154785,2|0,1:2|1:2,0:0:0:0:
371,199,12401,1,2,0:0:0:0:
326,319,12577,2,0,P|292:356|216:356,1,125.999996154785,10|2,0:0|0:0,0:0:0:0:
62,251,13107,6,0,B|45:230|40:204|52:171|75:157|107:164|110:174|110:189,1,125.999996154785,2|0,1:2|1:2,0:0:0:0:
109,317,13636,2,0,P|79:331|34:325,1,62.9999980773926,2|2,1:2|0:0,0:0:0:0:
107,176,13989,2,0,P|142:174|169:191,1,62.9999980773926,10|2,0:0|0:0,0:0:0:0:
232,281,14342,1,2,0:0:0:0:
303,191,14519,1,2,1:2:0:0:
229,108,14695,102,0,P|162:81|102:93,1,125.999996154785,2|0,1:2|1:2,0:0:0:0:
137,172,15224,1,2,0:0:0:0:
209,40,15401,2,0,P|265:21|304:73,1,125.999996154785,10|0,0:0|0:0,0:0:0:0:
251,224,15930,6,0,P|233:262|314:292,1,125.999996154785,2|2,1:2|0:0,0:0:0:0:
396,230,16460,2,0,P|387:181|387:155,1,62.9999980773926,2|2,1:2|0:0,0:0:0:0:
241,127,16813,2,0,P|250:78|251:54,1,62.9999980773926,10|2,0:0|0:0,0:0:0:0:
333,140,17166,1,2,0:0:0:0:
250,212,17342,1,8,0:1:0:0:
152,113,17519,102,0,B|124:120|124:120|111:134|111:134|86:141,1,72,0|2,1:2|0:0,0:0:0:0:
6,245,17872,2,0,B|14:274|14:274|28:285|28:285|33:309,1,72,2|0,1:2|0:0,0:0:0:0:
184,384,18224,2,0,B|269:364|230:329|317:313,1,144,10|2,0:0|0:0,0:0:0:0:
438,367,18754,1,0,1:2:0:0:
487,248,18930,5,2,0:0:0:0:
428,346,19107,1,2,1:2:0:0:
334,220,19283,2,0,P|361:197|405:205,1,72,2|2,1:2|0:0,0:0:0:0:
512,137,19636,2,0,P|487:92|389:104,1,144,10|2,0:0|0:0,0:0:0:0:
505,222,20166,1,0,1:2:0:0:
334,220,20342,102,0,P|285:193|256:182,1,72,0|2,1:2|0:0,0:0:0:0:
266,42,20695,2,0,P|217:69|188:80,1,72,2|0,1:2|0:0,0:0:0:0:
106,208,21048,2,0,B|135:128|79:143|109:63,1,144,10|2,0:0|0:0,0:0:0:0:
266,42,21577,1,0,1:2:0:0:
220,147,21754,5,2,0:0:0:0:
141,60,21930,1,2,1:2:0:0:
246,133,22107,2,0,P|260:176|250:209,1,72,2|2,1:2|0:0,0:0:0:0:
150,335,22460,2,0,B|128:360|128:360|252:353,1,144,10|2,0:0|0:0,0:0:0:0:
345,241,22989,1,8,0:1:0:0:
345,241,23077,1,2,1:2:0:0:
345,241,23166,102,0,L|427:255,1,72,0|0,1:2|0:0,0:0:0:0:
506,126,23519,2,0,L|424:140,1,72,2|0,1:2|0:0,0:0:0:0:
264,174,23872,2,0,P|219:147|260:68,1,144,10|2,0:0|0:0,0:0:0:0:
353,96,24401,1,2,1:2:0:0:
273,188,24577,5,2,0:0:0:0:
346,70,24754,1,2,1:2:0:0:
429,193,24930,2,0,P|437:238|426:273,1,72,2|2,1:2|0:0,0:0:0:0:
311,373,25283,2,0,B|228:353|270:318|174:300,1,144,10|2,0:0|0:0,0:0:0:0:
61,361,25813,1,0,1:2:0:0:
0,250,25989,102,0,P|27:212|65:214,1,72,0|0,1:2|0:0,0:0:0:0:
210,235,26342,2,0,P|194:267|187:302,1,72,2|2,1:2|0:0,0:0:0:0:
157,104,26695,2,0,B|244:111|205:154|297:164,1,144,10|2,0:0|0:0,0:0:0:0:
381,66,27224,1,0,1:2:0:0:
286,23,27401,5,2,0:0:0:0:
211,85,27577,1,2,1:2:0:0:
292,184,27754,2,0,P|336:158|367:146,1,72,2|2,1:2|0:0,0:0:0:0:
293,312,28107,2,0,P|248:284|162:249,1,144,10|2,0:0|1:2,0:0:0:0:
105,129,28636,1,8,0:1:0:0:
19,252,28813,38,0,P|21:297|138:316,1,180,4|2,1:2|1:2,0:0:0:0:
105,129,29342,1,0,0:0:0:0:
145,296,29519,1,10,0:0:0:0:
297,166,29695,1,2,0:0:0:0:
278,273,29872,1,0,0:0:0:0:
363,86,30048,6,0,P|343:30|312:9,1,90,2|0,1:2|0:0,0:0:0:0:
413,251,30401,2,0,P|456:211|463:174,1,90,2|0,1:2|1:2,0:0:0:0:
202,302,30754,2,0,P|242:345|279:352,1,90,2|8,0:0|0:0,0:0:0:0:
96,169,31107,2,0,P|72:222|80:259,1,90,2|0,0:0|0:0,0:0:0:0:
252,124,31460,1,2,1:2:0:0:
252,124,31548,1,2,0:0:0:0:
252,124,31636,102,0,P|206:93|77:86,1,180,0|0,1:2|1:2,0:0:0:0:
212,200,32166,1,0,0:0:0:0:
84,83,32342,2,0,P|130:52|259:45,1,180,8|2,0:0|0:0,0:0:0:0:
383,179,32872,6,0,P|362:233|354:267,1,90,2|0,1:2|0:0,0:0:0:0:
148,281,33224,2,0,P|169:335|177:369,1,90,2|0,1:2|0:0,0:0:0:0:
348,384,33577,1,2,1:2:0:0:
272,260,33754,2,0,P|215:237|146:261,1,135,8|0,0:0|0:0,0:0:0:0:
98,314,34107,1,2,0:0:0:0:
58,194,34283,1,8,0:1:0:0:
197,157,34460,38,0,P|242:127|193:59,1,144,2|0,1:2|1:2,0:0:0:0:
114,115,34989,1,2,0:0:0:0:
182,252,35166,2,0,B|267:242|227:207|312:199,1,144,10|2,0:0|0:0,0:0:0:0:
430,114,35695,6,0,P|482:142|476:228,1,144,2|0,1:2|1:2,0:0:0:0:
379,331,36224,2,0,P|335:309|296:297,1,72,2|2,1:2|0:0,0:0:0:0:
185,176,36577,2,0,P|151:188|119:205,1,72,10|2,0:0|0:0,0:0:0:0:
215,346,36930,1,2,0:0:0:0:
250,264,37107,1,2,1:2:0:0:
109,345,37283,102,0,P|72:355|43:275,1,144,2|0,1:2|1:2,0:0:0:0:
160,280,37813,1,2,0:0:0:0:
303,369,37989,2,0,P|340:379|369:299,1,144,10|2,0:0|0:0,0:0:0:0:
207,201,38519,2,0,P|178:152|250:107,1,144,2|2,1:2|1:2,0:0:0:0:
413,210,39048,2,0,L|340:199,1,72,2|0,1:2|0:0,0:0:0:0:
424,106,39401,5,10,0:0:0:0:
497,222,39577,1,2,0:0:0:0:
402,129,39754,1,2,1:2:0:0:
512,64,39930,1,8,0:1:0:0:
413,210,40107,102,0,L|340:199,1,72,0|0,1:2|0:0,0:0:0:0:
275,43,40460,2,0,L|202:54,1,72,2|0,1:2|0:0,0:0:0:0:
52,164,40813,2,0,B|121:181|76:240|146:266,1,144,10|2,0:0|0:0,0:0:0:0:
260,192,41342,1,2,1:2:0:0:
304,331,41519,5,2,0:0:0:0:
254,215,41695,1,2,1:2:0:0:
150,288,41872,2,0,P|108:306|79:291,1,72,2|2,1:2|0:0,0:0:0:0:
254,215,42224,2,0,P|294:199|355:271,1,144,10|2,0:0|0:0,0:0:0:0:
252,236,42754,1,0,1:2:0:0:
346,363,42930,102,0,P|356:326|373:291,1,72,0|0,1:2|0:0,0:0:0:0:
453,160,43283,2,0,B|431:130|431:130|386:136,1,72,2|0,1:2|0:0,0:0:0:0:
252,236,43636,2,0,B|169:222|208:178|123:168,1,144,10|2,0:0|0:0,0:0:0:0:
42,277,44166,1,2,1:2:0:0:
127,244,44342,5,2,0:0:0:0:
14,159,44519,1,2,1:2:0:0:
118,45,44695,2,0,B|156:34|156:34|192:63,1,72,2|2,1:2|0:0,0:0:0:0:
256,211,45048,2,0,L|400:193,1,144,10|2,0:0|0:0,0:0:0:0:
316,77,45577,1,8,0:1:0:0:
230,240,45754,102,0,L|221:169,1,72,0|0,1:2|0:0,0:0:0:0:
398,193,46107,2,0,L|407:122,1,72,2|0,1:2|0:0,0:0:0:0:
212,276,46460,2,0,L|194:132,1,144,10|2,0:0|0:0,0:0:0:0:
275,3,46989,1,2,1:2:0:0:
208,115,47166,5,2,0:0:0:0:
114,25,47342,1,2,1:2:0:0:
279,81,47519,2,0,L|350:72,1,72,2|2,1:2|0:0,0:0:0:0:
185,204,47872,2,0,L|42:186,1,144,10|2,0:0|0:0,0:0:0:0:
0,279,48401,1,0,1:2:0:0:
104,340,48577,102,0,P|152:310|160:286,1,72,0|0,1:2|0:0,0:0:0:0:
328,281,48930,2,0,P|279:251|271:227,1,72,2|0,1:2|0:0,0:0:0:0:
225,59,49283,2,0,P|177:21|99:53,1,144,10|2,0:0|0:0,0:0:0:0:
162,195,49813,1,2,1:2:0:0:
231,78,49989,5,2,0:0:0:0:
339,136,50166,1,2,1:2:0:0:
279,270,50342,2,0,P|235:281|207:296,1,72,2|2,1:2|0:0,0:0:0:0:
347,112,50695,2,0,P|406:126|488:182,1,144,10|2,0:0|1:2,0:0:0:0:
374,280,51224,1,8,0:1:0:0:
335,82,51401,38,0,B|235:104|284:165|199:192,1,180,4|2,1:2|1:2,0:0:0:0:
77,75,51930,1,0,0:0:0:0:
184,108,52107,1,10,0:0:0:0:
41,247,52283,1,2,0:0:0:0:
198,222,52460,1,0,0:0:0:0:
20,228,52636,6,0,P|14:171|4:136,1,90,2|0,1:2|0:0,0:0:0:0:
221,243,52989,2,0,P|209:286|206:331,1,90,2|0,1:2|1:2,0:0:0:0:
184,108,53342,2,0,P|230:93|277:115,1,90,2|8,0:0|0:0,0:0:0:0:
91,344,53695,2,0,P|47:349|9:326,1,90,2|0,0:0|0:0,0:0:0:0:
184,108,54048,1,2,1:2:0:0:
184,108,54136,1,2,0:0:0:0:
184,108,54224,102,0,B|286:118|232:177|333:194,1,180,0|0,1:2|1:2,0:0:0:0:
350,17,54754,1,0,0:0:0:0:
409,174,54930,2,0,B|307:184|361:243|260:260,1,180,8|2,0:0|0:0,0:0:0:0:
103,137,55460,6,0,P|148:115|190:125,1,90,2|0,1:2|0:0,0:0:0:0:
119,307,55813,2,0,P|75:313|36:292,1,90,2|0,1:2|1:2,0:0:0:0:
88,115,56166,1,2,0:0:0:0:
258,177,56342,2,0,B|248:219|248:219|156:235,1,135,8|0,0:0|0:0,0:0:0:0:
85,212,56695,1,2,0:0:0:0:
79,84,56872,1,8,0:1:0:0:
233,43,57048,38,0,P|267:50|240:138,1,144,2|0,1:2|1:2,0:0:0:0:
101,61,57577,1,2,0:0:0:0:
171,215,57754,2,0,B|255:205|219:167|306:159,1,144,10|2,0:0|0:0,0:0:0:0:
415,257,58283,6,0,B|331:247|367:209|280:201,1,144,2|0,1:2|1:2,0:0:0:0:
430,107,58813,2,0,P|410:156|406:185,1,72,2|2,1:2|0:0,0:0:0:0:
289,280,59166,2,0,P|309:329|313:358,1,72,10|2,0:0|0:0,0:0:0:0:
415,257,59519,1,2,0:0:0:0:
330,169,59695,1,2,1:2:0:0:
430,107,59872,102,0,B|444:141|444:141|332:120,1,144,2|0,1:2|1:2,0:0:0:0:
295,0,60401,1,2,0:0:0:0:
238,154,60577,2,0,B|224:188|224:188|336:167,1,144,10|2,0:0|0:0,0:0:0:0:
216,267,61107,6,0,B|138:247|178:208|83:190,1,144,2|0,1:2|1:2,0:0:0:0:
0,300,61636,2,0,P|13:348|16:374,1,72,2|2,1:2|0:0,0:0:0:0:
206,348,61989,22,0,P|201:355|196:367,2,18,10|2|2,0:0|0:0|0:0,0:0:0:0:
206,348,62695,6,0,P|267:304|436:322,1,215.999993408203,6|0,1:2|1:2,0:0:0:0:
488,246,63224,1,0,0:0:0:0:
391,88,63401,2,0,B|262:112|328:170|201:189,1,215.999993408203,10|0,0:0|0:0,0:0:0:0:
75,128,63930,1,0,1:2:0:0:
182,16,64107,6,0,P|223:59|222:110,1,107.999996704102,2|0,0:0|1:2,0:0:0:0:
409,171,64460,2,0,P|413:118|452:82,1,107.999996704102,2|0,1:2|0:0,0:0:0:0:
489,275,64813,2,0,P|477:328|468:382,1,107.999996704102,10|0,0:0|0:0,0:0:0:0:
397,253,65166,2,0,P|387:200|376:148,1,107.999996704102,2|0,0:0|1:2,0:0:0:0:
200,370,65519,102,0,B|58:351|135:310|-11:300,1,215.999993408203,6|0,1:2|1:2,0:0:0:0:
0,384,66048,1,0,0:0:0:0:
156,197,66224,2,0,P|202:140|344:161,1,215.999993408203,10|0,0:0|0:0,0:0:0:0:
373,294,66754,1,0,1:2:0:0:
426,158,66930,6,0,P|452:102|482:59,1,107.999996704102,2|0,0:0|1:2,0:0:0:0:
215,253,67283,2,0,P|244:297|267:347,1,107.999996704102,2|0,1:2|0:0,0:0:0:0:
412,148,67636,2,0,P|438:92|468:49,1,107.999996704102,10|0,0:0|0:0,0:0:0:0:
505,219,67989,1,2,0:0:0:0:
348,267,68166,1,8,0:1:0:0:
424,60,68342,102,0,B|426:21|394:10|394:10|245:54,1,215.999993408203,6|0,1:2|1:2,0:0:0:0:
248,160,68872,1,0,0:0:0:0:
77,100,69048,2,0,B|74:71|102:54|138:51|161:69|172:105|170:143|157:162|117:189,1,215.999993408203,10|0,0:0|0:0,0:0:0:0:
0,199,69577,1,0,1:2:0:0:
77,100,69754,5,2,0:0:0:0:
5,236,69930,1,0,1:2:0:0:
0,87,70107,2,0,P|52:48|81:70,1,107.999996704102,2|0,1:2|0:0,0:0:0:0:
79,280,70460,2,0,P|32:299|0:260,1,107.999996704102,10|0,0:0|0:0,0:0:0:0:
248,246,70813,2,0,P|221:311|213:352,1,107.999996704102,2|0,0:0|1:2,0:0:0:0:
164,190,71166,70,0,P|199:152|288:148,1,125.999996154785,2|2,1:2|1:2,0:0:0:0:
347,220,71695,1,0,0:0:0:0:
269,141,71872,2,0,P|234:103|145:99,1,125.999996154785,10|2,0:0|0:0,0:0:0:0:
80,162,72401,1,0,1:2:0:0:
14,66,72577,2,0,P|28:46|50:3,1,62.9999980773926,2|0,0:0|1:2,0:0:0:0:
58,168,72930,2,0,P|72:195|90:221,1,62.9999980773926,0|2,1:2|0:0,0:0:0:0:
242,223,73283,2,0,P|220:167|161:164,1,125.999996154785,10|0,0:0|1:2,0:0:0:0:
87,244,73813,1,8,0:1:0:0:
246,383,73989,22,0,B|378:368|311:310|453:298,1,215.999993408203,6|0,1:2|1:2,0:0:0:0:
498,384,74519,1,0,0:0:0:0:
508,186,74695,2,0,P|466:136|303:140,1,215.999993408203,10|0,0:0|0:0,0:0:0:0:
358,285,75224,1,0,1:2:0:0:
182,238,75401,6,0,P|212:179|227:121,1,107.999996704102,2|0,0:0|1:2,0:0:0:0:
415,314,75754,2,0,P|385:255|370:197,1,107.999996704102,2|0,1:2|0:0,0:0:0:0:
404,66,76107,2,0,P|454:33|505:59,1,107.999996704102,10|0,0:0|0:0,0:0:0:0:
212,117,76460,2,0,P|262:103|303:135,1,107.999996704102,2|0,0:0|1:2,0:0:0:0:
23,296,76813,102,0,B|124:279|124:279|130:269|130:269|234:254,1,215.999993408203,6|0,1:2|1:2,0:0:0:0:
389,384,77342,1,0,0:0:0:0:
317,264,77519,2,0,B|216:247|216:247|210:237|210:237|106:222,1,215.999993408203,10|0,0:0|0:0,0:0:0:0:
63,380,78048,1,0,1:2:0:0:
92,207,78224,6,0,L|69:93,1,107.999996704102,2|0,0:0|1:2,0:0:0:0:
267,159,78577,2,0,L|290:45,1,107.999996704102,2|0,1:2|0:0,0:0:0:0:
79,230,78930,2,0,L|56:116,1,107.999996704102,10|0,0:0|0:0,0:0:0:0:
205,226,79283,1,2,0:0:0:0:
94,365,79460,1,8,0:1:0:0:
193,207,79636,102,0,P|253:201|338:326,1,215.999993408203,6|0,1:2|1:2,0:0:0:0:
414,375,80166,1,0,0:0:0:0:
288,252,80342,2,0,P|331:158|434:145,1,215.999993408203,10|0,0:0|0:0,0:0:0:0:
418,355,80872,1,0,1:2:0:0:
478,194,81048,5,2,0:0:0:0:
421,335,81224,1,0,1:2:0:0:
397,140,81401,2,0,P|345:109|292:117,1,107.999996704102,2|0,1:2|0:0,0:0:0:0:
195,261,81754,2,0,P|247:230|300:238,1,107.999996704102,10|0,0:0|0:0,0:0:0:0:
186,383,82107,2,0,P|128:351|80:335,1,107.999996704102,2|0,0:0|1:2,0:0:0:0:
11,204,82460,70,0,P|44:163|118:155,1,125.999996154785,2|2,1:2|1:2,0:0:0:0:
111,247,82989,1,0,0:0:0:0:
113,153,83166,2,0,P|80:112|6:104,1,125.999996154785,10|2,0:0|0:0,0:0:0:0:
0,28,83695,1,0,1:2:0:0:
116,39,83872,2,0,L|179:27,1,62.9999980773926,2|0,0:0|1:2,0:0:0:0:
276,87,84224,2,0,L|339:99,1,62.9999980773926,0|2,1:2|0:0,0:0:0:0:
251,96,84577,2,0,L|226:234,1,125.999996154785,10|0,0:0|1:2,0:0:0:0:
113,153,85107,1,8,0:1:0:0:
206,306,85283,22,0,B|314:299|267:249|395:243,1,180,6|2,1:2|1:2,0:0:0:0:
215,328,85989,2,0,B|107:321|154:271|26:265,1,180,10|2,0:0|0:0,0:0:0:0:
114,147,86519,1,0,1:2:0:0:
215,225,86695,2,0,P|257:197|271:151,1,90,2|0,0:0|1:2,0:0:0:0:
56,253,87048,2,0,P|14:225|0:179,1,90,0|2,1:2|0:0,0:0:0:0:
114,129,87401,37,10,0:0:0:0:
115,109,87754,1,2,0:0:0:0:
116,90,88107,6,0,L|270:72,1,144,2|0,1:2|1:2,0:0:0:0:
355,173,88636,1,2,0:0:0:0:
282,61,88813,2,0,L|128:43,1,144,10|2,0:0|0:0,0:0:0:0:
263,91,89342,6,0,L|417:73,1,144,2|0,1:2|1:2,0:0:0:0:
256,209,89872,2,0,L|184:216,1,72,2|2,1:2|0:0,0:0:0:0:
355,173,90224,2,0,L|427:180,1,72,10|2,0:0|0:0,0:0:0:0:
329,300,90577,1,2,0:0:0:0:
256,209,90754,1,0,1:2:0:0:
185,304,90930,102,0,B|97:299|135:259|43:250,1,144,2|0,1:2|1:2,0:0:0:0:
171,198,91460,1,2,0:0:0:0:
46,146,91636,2,0,B|126:138|88:98|176:93,1,144,10|2,0:0|0:0,0:0:0:0:
338,12,92166,6,0,B|424:24|382:62|462:75,1,144,2|0,1:2|1:2,0:0:0:0:
403,210,92695,2,0,P|355:174|362:139,1,72,2|2,1:2|0:0,0:0:0:0:
477,92,93048,85,10,0:0:0:0:
477,92,93754,6,0,P|457:147|449:207,1,108,2|0,1:2|0:0,0:0:0:0:
489,264,94107,2,0,P|465:298|428:293,1,72,2|2,1:2|0:0,0:0:0:0:
307,168,94460,2,0,P|331:134|368:139,1,72,10|2,0:0|0:0,0:0:0:0:
323,306,94813,2,0,L|206:281,1,108,2|0,0:0|0:0,0:0:0:0:
144,311,95166,6,0,L|233:294,1,72,2|0,0:0|1:2,0:0:0:0:
98,127,95519,2,0,L|187:144,1,72,2|2,0:0|0:0,0:0:0:0:
14,272,95872,2,0,L|39:155,1,108,10|0,0:0|0:0,0:0:0:0:
14,89,96224,1,2,0:0:0:0:
154,18,96401,1,0,1:2:0:0:
154,18,96489,1,2,0:0:0:0:
154,18,96577,102,0,B|211:32|174:72|235:94,1,108,0|0,1:2|0:0,0:0:0:0:
267,155,96930,2,0,P|296:132|335:112,1,72,2|2,1:2|0:0,0:0:0:0:
189,258,97283,2,0,P|160:235|121:215,1,72,10|2,0:0|0:0,0:0:0:0:
212,362,97636,2,0,P|270:337|337:325,1,108,2|0,0:0|0:0,0:0:0:0:
386,364,97989,6,0,P|426:333|432:308,1,72,2|0,0:0|1:2,0:0:0:0:
277,176,98342,2,0,P|302:226|308:249,1,72,2|2,1:2|0:0,0:0:0:0:
356,145,98695,1,10,0:0:0:0:
242,82,98872,1,2,0:0:0:0:
277,176,99048,1,2,1:2:0:0:
353,51,99224,1,8,0:1:0:0:
251,177,99401,102,0,B|189:165|220:136|147:124,1,108,0|0,1:2|0:0,0:0:0:0:
95,168,99754,2,0,P|107:216|109:255,1,72,2|2,1:2|0:0,0:0:0:0:
265,348,100107,2,0,P|269:312|278:277,1,72,10|2,0:0|0:0,0:0:0:0:
64,331,100460,2,0,P|99:370|157:349,1,108,2|0,0:0|0:0,0:0:0:0:
169,290,100813,6,0,P|137:256|100:263,1,72,2|0,0:0|1:2,0:0:0:0:
265,348,101166,2,0,P|307:331|347:324,1,72,2|2,1:2|0:0,0:0:0:0:
411,193,101519,1,10,0:0:0:0:
309,251,101695,1,2,0:0:0:0:
416,215,101872,1,2,0:0:0:0:
326,130,102048,1,0,1:2:0:0:
326,130,102136,1,2,0:0:0:0:
326,130,102224,102,0,L|244:118,1,72,0|2,1:2|0:0,0:0:0:0:
167,205,102577,1,2,1:2:0:0:
222,124,102754,1,2,0:0:0:0:
285,227,102930,1,10,0:0:0:0:
230,146,103107,1,2,0:0:0:0:
181,253,103283,1,2,0:0:0:0:
236,172,103460,1,2,1:2:0:0:
276,318,103636,2,0,P|234:348|170:329,1,108,2|0,0:0|0:0,0:0:0:0:
102,344,103989,6,0,P|93:290|84:265,1,72,2|2,1:2|0:0,0:0:0:0:
236,172,104342,2,0,P|225:206|221:242,1,72,10|2,0:0|0:0,0:0:0:0:
117,134,104695,1,2,0:0:0:0:
202,67,104872,1,2,0:0:0:0:
118,162,105048,38,0,P|62:150|80:39,1,180,4|0,1:2|1:2,0:0:0:0:
202,67,105577,1,2,0:0:0:0:
73,19,105754,1,10,0:0:0:0:
197,96,105930,1,2,0:0:0:0:
31,157,106107,1,0,0:0:0:0:
144,234,106283,6,0,B|108:202|108:202|120:149,1,90,2|0,1:2|0:0,0:0:0:0:
316,303,106636,2,0,B|325:343|325:343|289:375,1,90,0|0,1:2|1:2,0:0:0:0:
355,179,106989,2,0,B|395:189|395:189|406:236,1,90,2|8,0:0|0:0,0:0:0:0:
239,82,107342,2,0,B|267:51|267:51|314:63,1,90,2|0,0:0|0:0,0:0:0:0:
222,202,107695,1,2,1:2:0:0:
222,202,107783,1,2,0:0:0:0:
222,202,107872,102,0,B|127:179|173:113|85:96,1,180,0|0,1:2|1:2,0:0:0:0:
0,194,108401,1,0,0:0:0:0:
91,88,108577,2,0,B|179:105|133:171|228:194,1,180,8|2,0:0|0:0,0:0:0:0:
344,61,109107,6,0,B|299:42|299:42|263:73,1,90,2|0,1:2|0:0,0:0:0:0:
412,225,109460,2,0,L|424:126,1,90,2|0,1:2|1:2,0:0:0:0:
235,218,109813,1,2,0:0:0:0:
380,325,109989,2,0,L|398:186,1,135,8|0,0:0|0:0,0:0:0:0:
339,147,110342,1,2,0:0:0:0:
437,243,110519,1,8,0:1:0:0:
512,76,110695,38,0,P|484:28|385:28,1,161.999995056153,2|0,1:2|1:2,0:0:0:0:
339,147,111224,1,2,0:0:0:0:
437,243,111401,2,0,B|461:280|461:280|336:250,1,161.999995056153,10|2,0:0|0:0,0:0:0:0:
228,120,111930,6,0,B|252:83|252:83|127:113,1,161.999995056153,2|0,1:2|1:2,0:0:0:0:
114,255,112460,2,0,B|156:264|156:264|183:237,1,80.9999975280763,2|2,1:2|0:0,0:0:0:0:
111,96,112813,2,0,B|68:86|68:86|41:113,1,80.9999975280763,10|2,0:0|0:0,0:0:0:0:
168,162,113166,1,2,0:0:0:0:
287,150,113342,1,2,1:2:0:0:
287,150,113430,1,2,0:0:0:0:
287,150,113519,102,0,B|321:106|326:74|306:41|274:32|244:51|247:74,1,161.999995056153,2|0,1:2|1:2,0:0:0:0:
168,162,114048,1,2,0:0:0:0:
291,260,114224,2,0,B|394:242|336:199|449:185,1,161.999995056153,10|2,0:0|0:0,0:0:0:0:
380,339,114754,6,0,B|277:321|335:278|222:264,1,161.999995056153,2|0,1:2|1:2,0:0:0:0:
168,162,115283,1,2,1:2:0:0:
168,162,115636,22,0,L|164:140,1,18,2|2,1:2|1:2,0:0:0:0:
240,67,115989,1,8,0:0:0:0:
240,67,116342,6,0,L|460:33,1,215.999993408203,6|0,1:2|1:2,0:0:0:0:
512,206,116872,1,0,0:0:0:0:
497,34,117048,2,0,L|277:0,1,215.999993408203,10|0,0:0|0:0,0:0:0:0:
140,89,117577,1,0,1:2:0:0:
243,217,117754,6,0,B|310:206|282:178|349:170,1,107.999996704102,2|0,0:0|1:2,0:0:0:0:
497,329,118107,2,0,B|430:318|458:290|391:282,1,107.999996704102,2|0,1:2|0:0,0:0:0:0:
512,123,118460,2,0,P|494:191|490:237,1,107.999996704102,10|0,0:0|0:0,0:0:0:0:
285,355,118813,2,0,P|278:301|263:249,1,107.999996704102,2|0,0:0|1:2,0:0:0:0:
318,23,119166,102,0,P|214:32|163:123,1,215.999993408203,6|0,1:2|1:2,0:0:0:0:
375,191,119695,1,0,0:0:0:0:
318,23,119872,2,0,P|211:14|145:96,1,215.999993408203,10|0,0:0|0:0,0:0:0:0:
183,329,120401,1,0,1:2:0:0:
75,263,120577,6,0,B|123:243|123:243|167:278,1,107.999996704102,2|0,0:0|1:2,0:0:0:0:
319,384,120930,2,0,P|333:325|354:273,1,107.999996704102,2|0,1:2|0:0,0:0:0:0:
205,106,121283,2,0,P|224:156|236:209,1,107.999996704102,10|0,0:0|0:0,0:0:0:0:
367,281,121636,1,2,0:0:0:0:
479,182,121813,1,8,0:1:0:0:
288,53,121989,102,0,B|166:62|220:135|98:151,1,215.999993408203,6|0,1:2|1:2,0:0:0:0:
0,5,122519,1,0,0:0:0:0:
113,159,122695,2,0,B|229:143|175:70|299:66,1,215.999993408203,10|0,0:0|0:0,0:0:0:0:
399,218,123224,1,0,1:2:0:0:
310,77,123401,5,2,0:0:0:0:
376,205,123577,1,0,1:2:0:0:
452,101,123754,2,0,P|465:48|486:0,1,107.999996704102,2|0,1:2|0:0,0:0:0:0:
252,142,124107,2,0,P|273:191|286:243,1,107.999996704102,10|0,0:0|0:0,0:0:0:0:
458,114,124460,2,0,P|471:61|492:12,1,107.999996704102,2|0,0:0|1:2,0:0:0:0:
512,247,124813,70,0,L|385:223,1,125.999996154785,2|2,1:2|1:2,0:0:0:0:
327,281,125342,1,0,0:0:0:0:
262,335,125519,2,0,L|389:311,1,125.999996154785,10|2,0:0|0:0,0:0:0:0:
442,371,126048,1,0,1:2:0:0:
496,308,126224,2,0,L|513:242,1,62.9999980773926,2|0,0:0|1:2,0:0:0:0:
410,167,126577,2,0,L|425:228,1,62.9999980773926,0|2,1:2|0:0,0:0:0:0:
500,122,126930,2,0,P|458:72|385:82,1,125.999996154785,10|0,0:0|1:2,0:0:0:0:
384,154,127460,1,8,0:1:0:0:
261,0,127636,22,0,P|331:2|349:134,1,215.999993408203,6|0,1:2|1:2,0:0:0:0:
339,225,128166,1,0,0:0:0:0:
291,12,128342,2,0,B|163:24|216:86|87:94,1,215.999993408203,10|0,0:0|0:0,0:0:0:0:
0,14,128872,1,0,1:2:0:0:
8,191,129048,6,0,P|61:199|102:241,1,107.999996704102,2|0,0:0|1:2,0:0:0:0:
274,118,129401,2,0,P|224:138|197:192,1,107.999996704102,2|0,1:2|0:0,0:0:0:0:
311,364,129754,2,0,B|344:310|344:310|318:263,1,107.999996704102,10|0,0:0|0:0,0:0:0:0:
198,183,130107,2,0,B|175:143|175:143|209:90,1,107.999996704102,2|0,0:0|1:2,0:0:0:0:
386,0,130460,102,0,L|361:226,1,215.999993408203,6|0,1:2|1:2,0:0:0:0:
481,382,130989,1,0,0:0:0:0:
345,292,131166,2,0,L|321:77,1,215.999993408203,10|0,0:0|0:0,0:0:0:0:
427,8,131695,1,0,1:2:0:0:
294,104,131872,6,0,L|184:88,1,107.999996704102,2|0,0:0|1:2,0:0:0:0:
15,16,132224,2,0,L|125:0,1,107.999996704102,2|0,1:2|0:0,0:0:0:0:
309,0,132577,2,0,L|293:110,1,107.999996704102,10|0,0:0|0:0,0:0:0:0:
166,109,132930,1,2,0:0:0:0:
143,2,133107,1,8,0:1:0:0:
299,217,133283,102,0,L|330:3,1,215.999993408203,6|0,1:2|1:2,0:0:0:0:
166,109,133813,1,0,0:0:0:0:
271,304,133989,2,0,L|239:90,1,215.999993408203,10|0,0:0|0:0,0:0:0:0:
346,3,134519,1,0,1:2:0:0:
319,124,134695,5,2,0:0:0:0:
162,14,134872,1,0,1:2:0:0:
166,109,135048,2,0,B|227:96|205:62|270:54,1,107.999996704102,2|0,1:2|0:0,0:0:0:0:
411,177,135401,2,0,B|350:164|372:130|307:122,1,107.999996704102,10|0,0:0|0:0,0:0:0:0:
153,91,135754,2,0,B|214:78|192:44|257:36,1,107.999996704102,2|0,0:0|1:2,0:0:0:0:
295,150,136107,70,0,P|277:204|267:285,1,125.999996154785,2|2,1:2|1:2,0:0:0:0:
201,330,136636,1,0,0:0:0:0:
117,305,136813,2,0,B|93:260|93:260|154:185,1,125.999996154785,10|2,0:0|0:0,0:0:0:0:
207,164,137342,1,0,1:2:0:0:
145,113,137519,2,0,L|131:48,1,62.9999980773926,2|0,0:0|1:2,0:0:0:0:
228,84,137872,2,0,L|242:19,1,62.9999980773926,0|2,1:2|0:0,0:0:0:0:
324,70,138224,2,0,L|345:207,1,125.999996154785,10|0,0:0|1:2,0:0:0:0:
413,245,138754,1,8,0:1:0:0:
307,84,138930,22,0,L|280:271,1,180,6|2,1:2|1:2,0:0:0:0:
141,0,139636,2,0,L|168:187,1,180,10|2,0:0|0:0,0:0:0:0:
291,73,140166,1,0,1:2:0:0:
197,156,140342,2,0,L|181:245,1,90,2|0,0:0|1:2,0:0:0:0:
40,55,140695,2,0,L|56:144,1,90,0|2,1:2|0:0,0:0:0:0:
239,131,141048,2,0,L|206:317,1,180,10|0,0:0|0:0,0:0:0:0:
77,369,141577,1,8,0:1:0:0:
230,308,141754,6,0,B|239:356|239:356|199:395,1,90,4|0,1:2|0:0,0:0:0:0:
99,253,142107,1,2,1:2:0:0:
202,205,142283,1,2,0:0:0:0:
88,225,142460,1,10,0:0:0:0:
81,106,142636,1,2,0:0:0:0:
221,222,142813,2,0,P|262:192|267:151,1,90,0|0,0:0|1:2,0:0:0:0:
167,37,143166,101,2,0:0:0:0:
192,130,143342,1,2,1:2:0:0:
306,34,143519,1,2,1:2:0:0:
285,130,143695,1,2,0:0:0:0:
430,86,143872,2,0,L|405:-1,1,90,8|0,0:0|0:0,0:0:0:0:
488,215,144224,6,0,L|513:128,1,90,2|0,0:0|1:2,0:0:0:0:
368,209,144577,1,4,1:2:0:0:
430,307,144754,1,0,0:0:0:0:
332,221,144930,101,2,1:2:0:0:
441,146,145107,1,2,0:0:0:0:
341,258,145283,1,10,0:0:0:0:
251,101,145460,1,2,0:0:0:0:
164,237,145636,1,0,0:0:0:0:
303,172,145813,1,0,1:2:0:0:
111,97,145989,5,2,0:0:0:0:
156,264,146166,1,2,1:2:0:0:
131,73,146342,1,2,1:2:0:0:
52,232,146519,1,2,0:0:0:0:
156,68,146695,1,10,0:0:0:0:
0,105,146872,1,0,0:0:0:0:
167,152,147048,101,2,0:0:0:0:
243,114,147224,1,0,1:2:0:0:
221,21,147401,37,2,0:0:0:0:
250,139,147754,1,2,0:0:0:0:
313,34,148107,2,0,P|286:17|261:14,1,53.9999983520508,2|2,0:0|0:0,0:0:0:0:
343,134,148813,2,0,L|428:128,1,80.9999975280763,2|0,0:0|0:0,0:0:0:0:
423,128,149519,1,2,0:0:0:0:
407,247,149872,1,2,0:0:0:0:
379,382,150224,102,0,L|320:367,1,53.9999983520508,2|2,0:0|0:0,0:0:0:0:
231,278,150930,2,0,L|172:293,1,53.9999983520508,2|2,0:0|0:0,0:0:0:0:
63,339,151636,2,0,P|32:309|35:270,1,80.9999975280763,2|0,0:0|0:0,0:0:0:0:
33,273,152342,1,2,0:0:0:0:
209,137,153048,5,0,0:0:0:0:
159,253,153401,1,2,0:0:0:0:
62,185,153754,2,0,L|69:125,1,53.9999983520508,2|2,0:0|0:0,0:0:0:0:
162,42,154460,2,0,L|245:51,1,80.9999975280763,2|0,0:0|0:0,0:0:0:0:
242,50,155166,1,2,0:0:0:0:
376,69,155519,1,2,0:0:0:0:
385,203,155872,102,0,B|361:221|361:221|326:212,1,53.9999983520508,2|2,0:0|0:0,0:0:0:0:
284,106,156577,2,0,B|260:88|260:88|225:97,1,53.9999983520508,2|2,0:0|0:0,0:0:0:0:
143,212,157283,2,0,L|228:210,1,80.9999975280763,2|0,0:0|0:0,0:0:0:0:
223,210,157989,1,2,0:0:0:0:
221,21,158695,5,0,1:2:0:0:
148,141,159048,2,0,P|130:127|95:128,1,45,2|0,1:2|0:0,0:0:0:0:
92,222,159401,2,0,B|141:213|127:185|175:178,1,90,10|2,0:0|0:0,0:0:0:0:
239,235,159930,1,0,1:2:0:0:
308,174,160107,2,0,L|293:125,1,45,2|0,0:0|1:2,0:0:0:0:
390,182,160460,2,0,L|376:225,1,45,0|0,1:2|0:0,0:0:0:0:
413,314,160813,102,0,B|359:318|380:348|331:352,1,90,10|2,0:0|0:0,0:0:0:0:
268,276,161342,1,0,1:2:0:0:
333,206,161519,2,0,P|361:214|374:236,1,45,2|0,1:2|0:0,0:0:0:0:
268,276,161872,2,0,P|246:282|225:275,1,45,2|0,1:2|0:0,0:0:0:0:
144,199,162224,6,0,B|128:150|164:161|144:101,1,90,10|2,0:0|0:0,0:0:0:0:
94,35,162754,1,0,1:2:0:0:
161,98,162930,2,0,P|191:111|219:108,1,45,2|0,0:0|1:2,0:0:0:0:
239,31,163283,2,0,P|269:18|297:21,1,45,0|0,1:2|0:0,0:0:0:0:
387,40,163636,2,0,B|401:89|401:89|366:116,1,90,10|0,0:0|0:0,0:0:0:0:
267,175,164166,1,8,0:1:0:0:
267,175,164254,1,2,1:2:0:0:
267,175,164342,102,0,B|253:224|253:224|288:251,1,90,0|2,1:2|1:2,0:0:0:0:
360,256,164872,1,0,0:0:0:0:
434,225,165048,2,0,P|454:256|425:301,1,90,10|2,0:0|0:0,0:0:0:0:
398,373,165577,2,0,P|376:362|344:354,1,45,0|2,1:2|0:0,0:0:0:0:
199,372,165930,1,0,1:2:0:0:
250,296,166107,2,0,P|271:289|291:279,1,45,0|0,1:2|0:0,0:0:0:0:
141,264,166460,1,10,0:0:0:0:
216,186,166813,5,2,0:0:0:0:
256,192,166901,12,0,168754,0:0:0:0:
175,161,169283,53,8,0:0:0:0:
250,63,169460,1,8,0:0:0:0:
276,185,169636,1,8,0:0:0:0:
201,283,169813,1,8,0:0:0:0:
65,177,169989,6,0,P|69:116|227:66,1,233.999989288331,6|0,1:2|1:2,0:0:0:0:
159,181,170519,1,0,0:0:0:0:
236,21,170695,2,0,P|250:131|356:166,1,233.999989288331,10|0,0:0|0:0,0:0:0:0:
350,9,171224,1,0,1:2:0:0:
361,146,171401,6,0,P|391:207|404:257,1,116.999994644165,2|0,0:0|1:2,0:0:0:0:
221,365,171754,2,0,P|236:308|263:256,1,116.999994644165,2|0,1:2|0:0,0:0:0:0:
452,373,172107,2,0,L|333:362,1,116.999994644165,10|0,0:0|0:0,0:0:0:0:
159,181,172460,2,0,L|278:170,1,116.999994644165,2|0,0:0|1:2,0:0:0:0:
64,372,172813,102,0,B|93:307|76:239|18:297|18:182|63:140,1,233.999989288331,6|0,1:2|1:2,0:0:0:0:
233,56,173342,1,0,0:0:0:0:
43,64,173519,2,0,B|70:121|70:121|254:78,1,233.999989288331,10|0,0:0|0:0,0:0:0:0:
142,0,174048,1,0,1:2:0:0:
194,184,174224,6,0,P|268:198|302:147,1,116.999994644165,2|0,0:0|1:2,0:0:0:0:
482,99,174577,2,0,P|492:24|439:-7,1,116.999994644165,2|0,1:2|0:0,0:0:0:0:
292,71,174930,2,0,P|313:136|316:188,1,116.999994644165,10|0,0:0|0:0,0:0:0:0:
250,379,175283,1,2,0:0:0:0:
202,282,175460,1,8,0:1:0:0:
411,384,175636,102,0,B|444:333|447:264|378:283|383:195|434:157,1,233.999989288331,6|0,1:2|1:2,0:0:0:0:
483,225,176166,1,0,0:0:0:0:
332,75,176342,2,0,B|353:126|353:126|167:97,1,233.999989288331,10|0,0:0|0:0,0:0:0:0:
67,0,176872,1,0,1:2:0:0:
93,153,177048,5,2,0:0:0:0:
181,65,177224,1,0,1:2:0:0:
68,170,177401,2,0,P|101:235|113:289,1,116.999994644165,2|0,1:2|0:0,0:0:0:0:
321,354,177754,2,0,P|336:297|364:246,1,116.999994644165,10|0,0:0|0:0,0:0:0:0:
57,187,178107,2,0,P|90:252|102:306,1,116.999994644165,2|0,0:0|1:2,0:0:0:0:
239,234,178460,70,0,P|278:203|243:143,1,125.999996154785,2|0,1:2|1:2,0:0:0:0:
169,162,178989,1,0,0:0:0:0:
186,38,179166,2,0,B|265:32|235:77|309:75,1,125.999996154785,10|2,0:0|0:0,0:0:0:0:
343,0,179695,1,0,1:2:0:0:
421,55,179872,1,2,0:0:0:0:
339,27,180048,1,0,1:2:0:0:
355,125,180224,69,2,1:2:0:0:
435,197,180401,1,2,0:0:0:0:
419,295,180577,1,10,0:0:0:0:
299,215,180754,1,2,0:0:0:0:
243,117,180930,53,0,0:0:0:0:
355,125,181107,1,8,0:1:0:0:
326,298,181283,6,0,B|276:311|198:276|245:209|169:190|110:223,1,233.999989288331,6|0,1:2|1:2,0:0:0:0:
71,368,181813,1,0,0:0:0:0:
131,200,181989,2,0,B|173:174|249:193|202:260|279:301|330:282,1,233.999989288331,10|0,0:0|0:0,0:0:0:0:
449,179,182519,1,0,1:2:0:0:
377,61,182695,6,0,P|317:27|268:50,1,116.999994644165,2|0,0:0|1:2,0:0:0:0:
408,241,183048,2,0,P|462:255|509:222,1,116.999994644165,2|0,1:2|0:0,0:0:0:0:
232,132,183401,2,0,P|252:207|257:263,1,116.999994644165,10|0,0:0|0:0,0:0:0:0:
449,179,183754,2,0,P|456:121|473:65,1,116.999994644165,2|0,0:0|1:2,0:0:0:0:
316,342,184107,102,0,B|434:327|353:250|535:249,1,233.999989288331,6|0,1:2|1:2,0:0:0:0:
512,384,184636,1,0,0:0:0:0:
304,329,184813,2,0,P|325:255|342:89,1,233.999989288331,10|0,0:0|0:0,0:0:0:0:
488,0,185342,1,0,1:2:0:0:
342,99,185519,6,0,P|283:115|209:94,1,116.999994644165,2|0,0:0|1:2,0:0:0:0:
145,222,185872,2,0,P|184:265|238:287,1,116.999994644165,2|0,1:2|0:0,0:0:0:0:
37,379,186224,2,0,P|8:325|11:248,1,116.999994644165,10|0,0:0|0:0,0:0:0:0:
0,90,186577,1,2,0:0:0:0:
125,29,186754,1,8,0:1:0:0:
145,222,186930,102,0,P|207:245|343:152,1,233.999989288331,6|0,1:2|1:2,0:0:0:0:
413,0,187460,1,2,0:0:0:0:
283,70,187636,2,0,P|299:148|451:187,1,233.999989288331,10|0,0:0|0:0,0:0:0:0:
353,361,188166,1,0,1:2:0:0:
239,251,188342,5,2,0:0:0:0:
322,363,188519,1,0,1:2:0:0:
178,378,188695,2,0,L|53:352,1,116.999994644165,2|0,1:2|0:0,0:0:0:0:
54,174,189048,2,0,L|179:148,1,116.999994644165,10|0,0:0|0:0,0:0:0:0:
136,384,189401,2,0,L|11:358,1,116.999994644165,2|0,0:0|1:2,0:0:0:0:
273,353,189754,70,0,P|345:336|416:324,1,125.999996154785,2|0,1:2|1:2,0:0:0:0:
431,222,190283,1,0,0:0:0:0:
410,341,190460,2,0,P|348:352|286:367,1,125.999996154785,10|2,0:0|1:2,0:0:0:0:
415,211,190989,1,0,1:2:0:0:
316,273,191166,2,0,P|310:235|301:204,1,62.9999980773926,2|0,0:0|1:2,0:0:0:0:
493,299,191519,2,0,P|501:265|515:235,1,62.9999980773926,0|0,1:2|0:0,0:0:0:0:
291,297,191872,5,8,0:0:0:0:
269,155,192048,1,8,0:0:0:0:
460,321,192224,1,8,0:0:0:0:
482,179,192401,1,8,0:0:0:0:
291,297,192577,6,0,P|217:290|182:174,1,198.000006042481,6|2,1:2|1:2,0:0:0:0:
308,102,193107,1,2,0:0:0:0:
398,221,193283,2,0,P|472:214|507:98,1,198.000006042481,10|2,0:0|0:0,0:0:0:0:
312,71,193813,1,2,1:2:0:0:
292,206,193989,2,0,P|317:266|330:321,1,99.0000030212403,2|2,0:0|1:2,0:0:0:0:
388,134,194342,2,0,P|401:86|421:41,1,99.0000030212403,2|2,1:2|0:0,0:0:0:0:
279,177,194695,2,0,L|81:146,1,198.000006042481,10|0,0:0|0:0,0:0:0:0:
36,16,195224,1,2,1:2:0:0:
61,164,195401,6,0,B|103:194|169:193|138:125|223:132|264:171,1,198.000006042481,2|2,1:2|1:2,0:0:0:0:
340,41,195930,1,2,0:0:0:0:
219,133,196107,2,0,B|270:141|316:190|244:215|309:271|365:273,1,198.000006042481,10|2,0:0|0:0,0:0:0:0:
464,192,196636,1,2,1:2:0:0:
330,241,196813,2,0,P|308:303|345:338,1,99.0000030212403,2|2,0:0|1:2,0:0:0:0:
464,192,197166,2,0,P|402:170|367:207,1,99.0000030212403,2|2,1:2|0:0,0:0:0:0:
339,360,197519,2,0,P|279:332|139:304,1,198.000006042481,10|2,0:0|0:0,0:0:0:0:
17,382,198048,1,8,0:1:0:0:
123,328,198224,102,0,B|165:282|151:223|92:256|86:168|116:141,1,198.000006042481,2|0,1:2|1:2,0:0:0:0:
232,114,198754,1,2,0:0:0:0:
98,89,198930,2,0,B|76:142|76:142|213:88,1,198.000006042481,10|2,0:0|0:0,0:0:0:0:
298,11,199460,1,0,1:2:0:0:
384,116,199636,2,0,L|368:214,1,99.0000030212403,2|0,0:0|1:2,0:0:0:0:
480,19,199989,2,0,L|496:117,1,99.0000030212403,2|2,1:2|0:0,0:0:0:0:
442,264,200342,1,10,0:0:0:0:
442,264,200695,101,0,0:0:0:0:
282,235,200872,1,0,1:2:0:0:
282,235,200960,1,2,1:2:0:0:
282,235,201048,6,0,L|306:137,1,99.0000030212403,6|0,1:2|0:0,0:0:0:0:
253,24,201401,2,0,L|276:120,1,99.0000030212403,2|0,1:2|0:0,0:0:0:0:
246,307,201754,2,0,L|270:209,1,99.0000030212403,10|0,0:0|0:0,0:0:0:0:
137,125,202107,5,2,0:0:0:0:
179,229,202283,1,0,1:2:0:0:
143,98,202460,1,2,1:2:0:0:
82,240,202636,1,2,1:2:0:0:
15,120,202813,1,2,1:2:0:0:
96,214,202989,1,0,0:0:0:0:
225,105,203166,2,0,P|212:46|173:29,1,99.0000030212403,10|0,0:0|0:0,0:0:0:0:
104,195,203519,101,2,0:0:0:0:
262,187,203695,1,2,0:0:0:0:
106,302,203872,1,6,1:2:0:0:
264,310,204048,1,2,0:0:0:0:
95,284,204224,1,0,1:2:0:0:
180,240,204401,1,0,0:0:0:0:
272,343,204577,5,10,0:0:0:0:
247,173,204754,1,2,0:0:0:0:
385,349,204930,1,2,0:0:0:0:
410,179,205107,1,2,1:2:0:0:
373,323,205283,1,0,0:0:0:0:
318,251,205460,1,0,1:2:0:0:
483,219,205636,101,2,1:2:0:0:
385,88,205813,1,2,0:0:0:0:
331,235,205989,1,10,0:0:0:0:
233,104,206166,1,2,0:0:0:0:
338,214,206342,1,0,0:0:0:0:
435,149,206519,1,0,1:2:0:0:
305,52,206695,6,0,L|198:81,1,99.0000030212403,4|0,1:2|0:0,0:0:0:0:
44,0,207048,2,0,L|151:29,1,99.0000030212403,2|0,1:2|0:0,0:0:0:0:
107,180,207401,1,8,0:0:0:0:
97,48,207577,1,2,0:0:0:0:
103,209,207754,1,0,1:2:0:0:
113,77,207930,1,0,1:2:0:0:
97,243,208107,101,2,0:0:0:0:
87,111,208283,1,2,1:2:0:0:
207,317,208460,1,0,1:2:0:0:
217,185,208636,1,0,1:2:0:0:
95,366,208813,101,10,0:0:0:0:
15,192,208989,1,10,0:0:0:0:
215,303,209166,1,10,0:0:0:0:
1,346,209342,1,10,0:0:0:0:
256,192,209430,12,0,216577,0:0:0:0:
