osu file format v14

[General]
AudioFilename: audio.mp3
AudioLeadIn: 0
PreviewTime: 77932
Countdown: 0
SampleSet: Soft
StackLeniency: 0.7
Mode: 0
LetterboxInBreaks: 0
WidescreenStoryboard: 0

[Editor]
DistanceSpacing: 1.8
BeatDivisor: 8
GridSize: 4
TimelineZoom: 3.599999

[Metadata]
Title:Counting Stars
TitleUnicode:Counting Stars
Artist:OneRepublic
ArtistUnicode:OneRepublic
Creator:-Keitaro
Version:Break Out
Source:
Tags:native pop english
BeatmapID:2237868
BeatmapSetID:1068991

[Difficulty]
HPDrainRate:5
CircleSize:4
OverallDifficulty:8
ApproachRate:9
SliderMultiplier:1.9
SliderTickRate:1

[Events]
//Background and Video events
0,0,"unknown.png",0,0
//Break Periods
//Storyboard Layer 0 (Background)
//Storyboard Layer 1 (Fail)
//Storyboard Layer 2 (Pass)
//Storyboard Layer 3 (Foreground)
//Storyboard Layer 4 (Overlay)
//Storyboard Sound Samples

[TimingPoints]
629,557.103064066852,4,2,0,40,1,0
629,-133.333333333333,4,2,0,40,0,0
18489,571.428571428571,4,2,0,40,1,0
18489,-133.333333333333,4,2,0,40,0,0
19631,535.714285714286,4,2,0,40,1,0
19898,555.555555555556,4,2,0,40,1,0
20175,631.578947368421,4,2,0,40,1,0
22543,-133.333333333333,4,2,0,5,0,0
22802,491.803278688525,4,2,0,70,1,0
38539,-133.333333333333,4,2,0,55,0,0
46408,-117.647058823529,4,2,0,60,0,0
54277,-100,4,2,0,70,0,0
77883,-83.3333333333333,4,2,0,75,0,1
93621,-66.6666666666667,4,2,0,80,0,1
108867,-80,4,2,0,80,0,1
109359,-100,4,2,0,70,0,0
117228,-133.333333333333,4,2,0,50,0,0
125097,-100,4,2,0,70,0,0
148703,-76.9230769230769,4,2,0,75,0,1
164441,-62.5,4,2,0,80,0,1
180179,-142.857142857143,4,2,0,40,0,0
184113,-133.333333333333,4,2,0,30,0,0
188047,-100,4,2,0,35,0,0
191982,-100,4,2,0,45,0,0
192474,-133.333333333333,4,2,0,45,0,0
192965,-100,4,2,0,45,0,0
193457,-133.333333333333,4,2,0,45,0,0
193949,-100,4,2,0,45,0,0
194441,-133.333333333333,4,2,0,45,0,0
194933,-100,4,2,0,45,0,0
195424,-133.333333333333,4,2,0,45,0,0
195916,-66.6666666666667,4,2,0,60,0,0
197883,-66.6666666666667,4,2,0,70,0,0
199851,1111.11111111111,4,2,0,40,1,0
199851,-66.6666666666667,4,2,0,40,0,0
206736,491.803278688525,4,2,0,75,1,0
206736,-66.6666666666667,4,2,0,75,0,1
222473,-50,4,2,0,80,0,1
238211,-66.6666666666667,4,2,0,75,0,0
251981,-100,4,2,0,50,0,0
253949,-100,4,2,0,10,0,0
254686,-100,4,2,0,5,0,0

[Colours]
Combo1 : 214,73,77
Combo2 : 164,32,240
Combo3 : 50,116,226
Combo4 : 197,145,35

[HitObjects]
74,33,629,6,0,B|60:54|60:54|74:193,1,142.5,2|0,0:0|0:0,0:0:0:0:
222,238,1743,2,0,B|236:217|236:217|222:78,1,142.5,2|0,0:0|0:0,0:0:0:0:
375,0,2856,2,0,L|366:83,1,71.2500027179719,2|0,0:0|0:0,0:0:0:0:
328,149,3414,1,2,0:0:0:0:
328,149,3553,2,0,L|343:237,1,71.2500027179719,2|0,0:0|0:0,0:0:0:0:
342,249,3971,2,0,P|292:213|200:238,1,142.500005435944,2|0,0:0|0:0,0:0:0:0:
198,245,4807,1,0,0:0:0:0:
52,355,5085,6,0,P|36:308|48:269,1,71.2500027179719,2|0,0:0|0:0,0:0:0:0:
96,226,5642,2,0,P|108:177|92:139,1,71.2500027179719,2|0,0:0|0:0,0:0:0:0:
81,133,6060,2,0,L|218:145,1,106.875004076958,2|0,0:0|0:0,0:0:0:0:
291,65,6757,1,2,0:0:0:0:
277,216,7035,1,2,0:0:0:0:
421,21,7314,6,0,B|330:22|352:84|276:61,2,142.500005435944,2|2|2,0:0|0:0|0:0,0:0:0:0:
497,43,8706,1,0,0:0:0:0:
493,125,8985,2,0,L|485:208,1,71.2500027179719,2|0,0:0|0:0,0:0:0:0:
499,275,9542,6,0,P|461:234|365:247,1,142.500005435944,2|0,0:0|0:0,0:0:0:0:
281,327,10656,2,0,P|209:359|140:324,1,142.500005435944,2|0,0:0|0:0,0:0:0:0:
6,326,11771,2,0,L|14:242,1,71.2500027179719,2|0,0:0|0:0,0:0:0:0:
94,241,12328,1,2,0:0:0:0:
94,241,12467,2,0,L|85:142,1,71.2500027179719,2|0,0:0|0:0,0:0:0:0:
85,138,12885,2,0,P|111:112|217:136,1,142.500005435944,2|0,0:0|0:0,0:0:0:0:
280,167,13720,1,2,0:0:0:0:
335,98,13999,6,0,L|321:3,1,71.2500027179719,2|0,0:0|0:0,0:0:0:0:
416,139,14556,2,0,L|405:227,1,71.2500027179719,2|0,0:0|0:0,0:0:0:0:
486,317,15113,2,0,P|448:288|413:290,1,71.2500027179719,2|0,0:0|0:0,0:0:0:0:
341,305,15670,1,2,0:0:0:0:
341,305,15810,2,0,P|290:332|230:320,1,106.875004076958,2|2,0:0|0:0,0:0:0:0:
192,270,16506,5,2,0:0:0:0:
241,195,16784,2,0,L|230:115,1,71.2500027179719,2|0,0:0|0:0,0:0:0:0:
263,36,17342,2,0,P|201:29|141:89,1,142.500005435944,2|0,0:0|0:0,0:0:0:0:
134,165,18177,1,2,0:0:0:0:
66,116,18489,2,0,P|49:169|53:190,1,71.2500027179719,2|0,0:0|0:0,0:0:0:0:
7,265,19060,2,0,P|44:262|83:289,1,71.2500027179719,2|0,0:0|0:0,0:0:0:0:
130,333,19631,1,2,0:0:0:0:
205,367,19898,1,2,0:0:0:0:
275,334,20175,1,2,0:0:0:0:
316,263,20490,1,2,0:0:0:0:
256,192,20648,12,0,22543,0:0:0:0:
46,140,22802,6,0,P|97:112|185:140,1,142.5,4|0,0:0|0:0,0:0:0:0:
190,143,23293,2,0,P|247:162|300:140,1,95,0|0,1:0|0:0,0:0:0:0:
394,17,23785,2,0,P|349:56|341:113,1,95,0|0,1:0|0:0,0:0:0:0:
437,227,24277,2,0,P|397:182|340:174,1,95,0|0,1:0|0:0,0:0:0:0:
233,263,24769,6,0,B|155:295|173:232|76:266,1,142.5,0|0,1:0|0:0,0:0:0:0:
77,268,25261,2,0,P|53:236|80:178,1,95,0|0,1:0|0:0,0:0:0:0:
62,86,25752,2,0,P|101:81|138:133,1,95,0|0,1:0|0:0,0:0:0:0:
220,170,26244,2,0,P|204:206|140:212,1,95,0|0,1:0|0:0,0:0:0:0:
244,84,26736,6,0,B|318:84|310:142|388:128,1,142.5,0|0,1:0|0:0,0:0:0:0:
396,128,27228,2,0,P|413:86|380:40,1,95,0|0,1:0|0:0,0:0:0:0:
349,212,27720,2,0,P|376:247|433:242,1,95,0|0,1:0|0:0,0:0:0:0:
304,130,28211,2,0,P|259:136|235:187,1,95,0|0,1:0|0:0,0:0:0:0:
243,357,28703,6,0,P|228:305|136:317,1,142.5,0|0,1:0|0:0,0:0:0:0:
135,315,29195,2,0,P|94:322|41:287,1,95,0|0,1:0|0:0,0:0:0:0:
79,167,29687,2,0,P|120:160|173:195,1,95,0|0,1:0|0:0,0:0:0:0:
243,357,30179,1,8,0:0:0:0:
109,238,30424,1,8,0:0:0:0:
277,39,30670,6,0,B|281:98|281:98|269:117|269:117|280:203,1,142.5,4|0,1:2|0:0,0:0:0:0:
282,206,31162,1,8,0:0:0:0:
190,68,31408,1,0,0:0:0:0:
365,154,31654,2,0,L|472:138,1,95,0|0,1:0|0:0,0:0:0:0:
190,68,32146,2,0,L|83:52,1,95,8|0,0:0|0:0,0:0:0:0:
55,56,32515,1,0,3:0:0:0:
55,56,32638,6,0,P|37:116|104:176,1,142.5,0|0,1:0|0:0,0:0:0:0:
113,180,33129,1,8,0:0:0:0:
32,329,33375,1,0,0:0:0:0:
195,234,33621,2,0,P|249:231|293:264,1,95,0|0,1:0|0:0,0:0:0:0:
373,360,34113,2,0,P|436:348|458:306,1,95,8|0,0:0|0:0,0:0:0:0:
459,300,34482,1,0,3:0:0:0:
459,300,34605,6,0,B|417:232|484:233|425:129,1,142.5,0|0,1:0|0:0,0:0:0:0:
416,146,35097,1,8,0:0:0:0:
304,340,35342,1,0,0:0:0:0:
199,234,35588,2,0,L|311:243,1,95,0|0,1:0|0:0,0:0:0:0:
210,135,36080,2,0,P|143:146|116:190,1,95,8|0,0:0|0:0,0:0:0:0:
116,182,36449,1,0,3:0:0:0:
116,182,36572,6,0,P|60:194|4:112,1,142.5,0|0,1:0|0:0,0:0:0:0:
5,112,37064,1,8,0:0:0:0:
44,287,37310,1,0,0:0:0:0:
210,135,37556,2,0,L|326:154,1,95,0|0,1:0|3:0,0:0:0:0:
338,156,37924,1,0,3:0:0:0:
338,156,38047,1,8,0:0:0:0:
178,51,38293,1,0,3:0:0:0:
241,338,38539,6,0,B|310:326|303:382|389:365,1,142.500005435944,4|0,3:2|3:0,0:0:0:0:
444,312,39277,1,0,3:0:0:0:
444,312,39400,1,0,3:0:0:0:
444,312,39523,2,0,L|450:230,1,71.2500027179719,0|0,3:0|0:0,0:0:0:0:
359,187,40015,2,0,L|353:105,1,71.2500027179719,0|0,3:0|0:0,0:0:0:0:
394,39,40506,6,0,B|359:71|359:71|256:82,1,142.500005435944,0|0,3:0|3:0,0:0:0:0:
184,38,41244,1,0,0:0:0:0:
116,90,41490,2,0,P|112:141|137:178,1,71.2500027179719,0|0,3:0|3:0,0:0:0:0:
137,178,41859,1,0,3:0:0:0:
137,178,41982,2,0,P|157:221|141:272,1,71.2500027179719,0|0,3:0|0:0,0:0:0:0:
98,327,42474,6,0,P|123:302|231:316,1,142.500005435944,0|0,3:0|3:0,0:0:0:0:
294,361,43211,1,0,0:0:0:0:
344,286,43457,2,0,L|334:202,1,71.2500027179719,0|0,3:0|0:0,0:0:0:0:
422,356,43949,1,0,3:0:0:0:
433,70,44441,6,0,P|392:123|296:115,1,142.500005435944,0|0,3:0|3:0,0:0:0:0:
243,85,45179,1,0,0:0:0:0:
162,133,45424,2,0,L|82:127,1,71.2500027179719,0|0,3:0|0:0,0:0:0:0:
166,36,45916,1,0,3:0:0:0:
1,117,46408,6,0,P|44:156|42:240,1,121.125002310276,0|0,3:0|0:0,0:0:0:0:
43,249,46900,1,8,0:0:0:0:
162,133,47146,1,2,0:0:0:0:
159,113,47268,1,2,0:0:0:0:
156,93,47391,1,0,3:0:0:0:
281,194,47638,1,0,0:0:0:0:
174,245,47883,2,0,L|185:343,1,80.750001540184,8|0,0:0|0:0,0:0:0:0:
318,343,48375,6,0,P|277:304|174:335,1,161.500003080368,0|8,3:0|0:0,0:0:0:0:
38,365,49113,1,2,0:2:0:0:
51,349,49236,1,2,0:2:0:0:
53,328,49359,1,0,3:0:0:0:
43,249,49605,1,0,0:0:0:0:
162,133,49851,2,0,L|266:142,1,80.750001540184,8|0,0:0|0:0,0:0:0:0:
390,150,50342,5,0,3:0:0:0:
439,219,50588,1,0,0:0:0:0:
316,142,50834,5,8,0:0:0:0:
403,287,51080,1,0,0:0:0:0:
241,139,51326,5,0,3:0:0:0:
331,351,51572,1,0,0:0:0:0:
470,144,51818,6,0,L|376:150,1,80.750001540184,8|0,0:0|0:0,0:0:0:0:
249,147,52310,5,0,3:0:0:0:
249,147,52433,1,0,3:0:0:0:
249,147,52556,1,0,3:0:0:0:
322,2,52802,2,0,L|313:95,1,80.750001540184,8|0,0:0|0:0,0:0:0:0:
123,226,53293,2,0,L|115:145,1,80.750001540184,0|0,3:0|0:0,0:0:0:0:
100,0,53785,1,8,0:0:0:0:
100,0,54277,6,0,L|76:165,1,142.5,4|0,1:2|0:0,0:0:0:0:
74,174,54769,1,8,0:0:0:0:
215,31,55015,1,0,3:0:0:0:
215,31,55138,1,0,3:0:0:0:
215,31,55261,2,0,L|225:133,1,95,0|0,1:0|0:0,0:0:0:0:
350,243,55752,2,0,L|360:141,1,95,8|0,0:0|0:0,0:0:0:0:
398,318,56244,6,0,P|318:327|270:260,1,142.5,0|0,1:0|0:0,0:0:0:0:
253,288,56736,2,0,L|266:175,1,95,8|0,0:0|0:0,0:0:0:0:
155,66,57228,1,0,1:0:0:0:
126,268,57474,1,8,0:0:0:0:
41,55,57720,2,0,L|29:185,1,95,8|0,0:0|0:0,0:0:0:0:
210,235,58211,6,0,P|176:174|77:186,1,142.5,0|0,1:0|0:0,0:0:0:0:
92,189,58703,1,8,0:0:0:0:
248,115,58949,1,0,3:0:0:0:
248,115,59072,1,0,3:0:0:0:
248,115,59195,2,0,L|353:128,1,95,0|0,1:0|0:0,0:0:0:0:
477,142,59687,1,8,0:0:0:0:
316,36,59933,1,0,0:0:0:0:
485,0,60179,6,0,L|476:168,1,142.5,0|0,1:0|0:0,0:0:0:0:
477,173,60670,1,8,0:0:0:0:
316,36,60916,1,0,0:0:0:0:
298,267,61162,2,0,L|417:260,1,95,0|0,1:0|3:0,0:0:0:0:
426,258,61531,1,0,3:0:0:0:
426,258,61654,2,0,P|446:324|426:371,1,95,8|0,0:0|0:0,0:0:0:0:
203,270,62146,6,0,B|169:188|232:211|191:108,1,142.5,4|0,1:2|0:0,0:0:0:0:
181,100,62638,1,8,0:0:0:0:
77,332,62883,1,0,3:0:0:0:
77,332,63006,1,0,3:0:0:0:
77,332,63129,2,0,P|144:342|167:389,1,95,0|0,1:0|0:0,0:0:0:0:
361,249,63621,2,0,P|310:224|242:261,1,95,8|0,0:0|0:0,0:0:0:0:
77,332,64113,6,0,B|38:244|112:272|58:156,1,142.5,0|0,1:0|0:0,0:0:0:0:
54,173,64605,1,8,0:0:0:0:
185,99,64851,1,0,0:0:0:0:
65,39,65097,1,0,1:0:0:0:
188,237,65342,1,8,0:0:0:0:
311,14,65588,2,0,L|326:133,1,95,8|0,0:0|0:0,0:0:0:0:
510,238,66080,6,0,P|470:183|369:203,1,142.5,0|0,1:0|0:0,0:0:0:0:
381,197,66572,1,8,0:0:0:0:
512,64,66818,1,0,0:0:0:0:
285,160,67064,2,0,P|280:221|307:265,1,95,0|0,1:0|0:0,0:0:0:0:
432,348,67556,1,8,0:0:0:0:
324,275,67802,6,0,B|232:267|257:346|141:311,1,190,0|0,3:0|0:0,0:0:0:0:
147,130,68539,2,0,P|191:186|179:227,1,95,8|0,0:0|0:0,0:0:0:0:
52,376,69031,1,0,1:0:0:0:
33,197,69277,1,0,3:0:0:0:
33,197,69400,1,0,3:0:0:0:
33,197,69523,1,8,0:0:0:0:
146,312,69769,1,0,0:0:0:0:
241,136,70015,6,0,L|105:127,1,95,0|0,1:0|0:0,0:0:0:0:
34,42,70506,6,0,L|198:33,1,142.5,8|0,0:0|0:0,0:0:0:0:
207,57,70998,2,0,L|107:52,1,95,0|0,1:0|0:0,0:0:0:0:
163,205,71490,6,0,L|327:196,1,142.5,8|0,0:0|0:0,0:0:0:0:
336,220,71982,2,0,L|236:215,1,95,0|0,1:0|0:0,0:0:0:0:
325,367,72474,6,0,L|489:358,1,142.5,8|0,0:0|0:0,0:0:0:0:
498,382,72966,2,0,L|398:377,1,95,0|0,1:0|0:0,0:0:0:0:
165,365,73457,5,8,0:0:0:0:
252,318,73703,1,0,0:0:0:0:
424,222,73949,1,4,0:2:0:0:
256,192,74072,12,0,77392,0:0:0:0:
186,10,77883,6,0,B|155:23|147:46|147:46|209:84|180:186,1,170.999994781494,4|0,3:0|0:0,0:0:0:0:
10,139,78375,2,0,B|37:108|37:108|74:102|113:130,1,113.999996520996,8|0,0:0|0:0,0:0:0:0:
463,98,78867,6,0,B|374:94|388:167|278:147,1,170.999994781494,4|0,3:0|0:0,0:0:0:0:
231,85,79359,2,0,P|304:46|340:88,1,113.999996520996,8|0,0:0|0:0,0:0:0:0:
453,192,79851,6,0,L|466:285,1,56.9999982604981,4|0,3:0|0:0,0:0:0:0:
357,315,80097,2,0,L|364:258,1,56.9999982604981,2|0,0:3|0:0,0:0:0:0:
312,162,80342,1,8,0:0:0:0:
312,162,80465,2,0,P|261:194|190:164,1,113.999996520996,2|0,0:3|0:0,0:0:0:0:
157,121,80834,2,0,P|81:129|47:180,1,113.999996520996,4|0,3:0|0:0,0:0:0:0:
357,315,81326,6,0,P|433:323|467:374,1,113.999996520996,8|0,0:0|0:0,0:0:0:0:
130,346,81818,5,4,3:0:0:0:
57,153,82064,1,0,0:0:0:0:
213,288,82310,2,0,P|232:228|208:176,1,113.999996520996,8|0,0:0|0:0,0:0:0:0:
161,117,82679,2,0,B|207:154|207:154|328:120,1,170.999994781494,0|0,3:0|3:0,0:0:0:0:
512,59,83293,1,8,0:0:0:0:
416,271,83539,1,0,0:0:0:0:
302,21,83785,6,0,P|290:86|347:139,1,113.999996520996,4|0,3:0|0:0,0:0:0:0:
512,312,84277,2,0,P|461:269|387:291,1,113.999996520996,8|0,0:0|0:0,0:0:0:0:
154,348,84769,2,0,P|216:325|233:250,1,113.999996520996,4|8,3:0|0:0,0:0:0:0:
66,75,85261,1,8,0:0:0:0:
35,259,85506,1,0,3:0:0:0:
35,259,85629,1,0,3:0:0:0:
35,259,85752,6,0,B|90:254|152:265|152:265|121:241|116:214,1,170.999994781494,4|0,3:0|0:0,0:0:0:0:
182,95,86244,2,0,P|211:159|188:199,1,113.999996520996,8|0,0:0|0:0,0:0:0:0:
246,370,86736,6,0,P|236:349|336:337,1,170.999994781494,4|0,3:0|0:0,0:0:0:0:
384,373,87228,2,0,P|408:317|389:265,1,113.999996520996,8|0,0:0|0:0,0:0:0:0:
290,57,87720,6,0,L|286:126,1,56.9999982604981,4|0,3:0|0:0,0:0:0:0:
374,166,87965,2,0,L|370:109,1,56.9999982604981,2|0,0:3|0:0,0:0:0:0:
466,13,88211,1,8,0:0:0:0:
466,13,88334,2,0,L|457:138,1,113.999996520996,2|0,0:3|0:0,0:0:0:0:
464,201,88703,2,0,P|394:157|357:181,1,113.999996520996,4|0,3:0|0:0,0:0:0:0:
328,335,89195,6,0,P|398:379|435:355,1,113.999996520996,8|0,0:0|0:0,0:0:0:0:
208,191,89687,6,0,L|129:189,1,56.9999982604981,4|0,3:0|0:0,0:0:0:0:
96,286,89933,2,0,L|175:284,1,56.9999982604981,2|0,0:3|0:0,0:0:0:0:
225,177,90179,2,0,L|94:173,1,113.999996520996,8|0,0:0|0:0,0:0:0:0:
208,360,90670,6,0,L|286:355,1,56.9999982604981,4|0,3:0|0:0,0:0:0:0:
357,243,90916,2,0,L|279:238,1,56.9999982604981,2|0,0:3|0:0,0:0:0:0:
197,382,91162,1,8,0:0:0:0:
197,382,91285,2,0,L|344:370,1,113.999996520996,2|0,0:3|0:0,0:0:0:0:
397,358,91654,5,4,3:0:0:0:
221,263,91900,1,0,0:0:0:0:
422,132,92146,1,8,0:0:0:0:
313,308,92392,1,0,0:0:0:0:
253,65,92638,5,4,3:0:0:0:
512,166,92883,1,0,3:0:0:0:
221,263,93129,1,8,0:0:0:0:
377,0,93375,1,0,3:0:0:0:
377,0,93498,1,0,3:0:0:0:
377,0,93621,6,0,L|392:240,1,213.750008153916,4|0,3:0|0:0,0:0:0:0:
511,252,94113,2,0,P|452:204|378:221,1,142.500005435944,8|0,0:0|0:0,0:0:0:0:
264,351,94605,6,0,B|133:375|175:273|53:312,1,213.750008153916,4|0,3:0|0:0,0:0:0:0:
47,221,95097,2,0,P|123:213|214:262,1,142.500005435944,8|0,0:0|0:0,0:0:0:0:
400,47,95588,6,0,P|340:53|301:106,1,71.2500027179719,4|0,3:0|0:0,0:0:0:0:
391,138,95834,2,0,P|451:144|490:197,1,71.2500027179719,2|0,0:3|0:0,0:0:0:0:
416,226,96080,1,8,0:0:0:0:
416,226,96203,2,0,B|336:213|360:279|270:254,1,142.500005435944,2|0,0:3|0:0,0:0:0:0:
217,195,96572,2,0,P|237:145|308:179,1,142.500005435944,4|0,3:0|0:0,0:0:0:0:
129,351,97064,6,0,B|24:365|24:365|62:336,1,142.500005435944,8|0,0:0|0:0,0:0:0:0:
124,47,97556,6,0,L|106:127,1,71.2500027179719,4|0,3:0|0:0,0:0:0:0:
217,195,97802,2,0,L|201:125,1,71.2500027179719,2|0,0:3|0:0,3:3:0:0:
324,0,98047,2,0,L|306:156,1,142.500005435944,8|0,0:0|0:0,0:0:0:0:
337,225,98416,2,0,P|424:266|486:223,1,142.500005435944,2|0,0:3|0:0,0:0:0:0:
501,171,98785,1,0,3:0:0:0:
196,359,99031,1,8,0:0:0:0:
307,141,99277,1,0,0:0:0:0:
478,311,99523,6,0,L|314:298,1,142.500005435944,4|0,3:0|0:0,0:0:0:0:
79,235,100015,2,0,L|243:222,1,142.500005435944,8|0,0:0|0:0,0:0:0:0:
440,215,100506,1,4,3:0:0:0:
79,112,100752,1,8,0:0:0:0:
312,0,100998,1,8,0:0:0:0:
216,363,101244,1,0,3:0:0:0:
216,363,101367,1,0,3:0:0:0:
216,363,101490,6,0,P|165:315|263:201,1,213.750008153916,4|0,3:0|0:0,0:0:0:0:
368,292,101982,2,0,P|271:306|230:262,1,142.500005435944,8|0,0:0|0:0,0:0:0:0:
186,127,102474,6,0,B|304:107|279:218|407:174,1,213.750008153916,4|0,3:0|0:0,0:0:0:0:
468,103,102965,2,0,P|389:62|338:109,1,142.500005435944,8|0,0:0|0:0,0:0:0:0:
242,302,103457,6,0,L|350:291,1,71.2500027179719,4|0,3:0|0:0,0:0:0:0:
386,204,103703,2,0,L|278:193,1,71.2500027179719,2|0,0:3|0:0,0:0:0:0:
206,122,103949,1,8,0:0:0:0:
206,122,104072,2,0,L|362:105,1,142.500005435944,2|0,0:3|0:0,0:0:0:0:
480,21,104441,6,0,L|324:4,1,142.500005435944,4|0,3:0|0:0,0:0:0:0:
64,137,104933,2,0,L|220:120,1,142.500005435944,8|0,0:0|0:0,0:0:0:0:
480,21,105424,5,4,3:0:0:0:
371,283,105670,1,0,0:0:0:0:
205,121,105916,1,8,0:0:0:0:
509,179,106162,1,0,0:0:0:0:
275,0,106408,6,0,L|287:91,1,71.2500027179719,4|0,3:0|0:0,0:0:0:0:
195,191,106654,2,0,L|204:120,1,71.2500027179719,2|0,0:3|0:0,0:0:0:0:
89,9,106900,1,8,0:0:0:0:
89,9,107023,2,0,L|101:162,1,142.500005435944,2|0,0:3|0:0,0:0:0:0:
115,250,107392,6,0,L|27:242,1,71.2500027179719,4|0,3:0|0:0,0:0:0:0:
88,326,107638,2,0,L|0:318,1,71.2500027179719,0|0,3:0|0:0,0:0:0:0:
167,314,107883,2,0,L|321:297,1,142.500005435944,8|0,0:0|0:0,0:0:0:0:
415,94,108375,6,0,L|503:86,1,71.2500027179719,4|0,3:0|0:0,0:0:0:0:
442,170,108621,2,0,L|530:162,1,71.2500027179719,0|0,3:0|0:0,3:3:0:0:
360,158,108867,6,0,L|272:150,1,59.375,8|0,0:0|0:0,0:0:0:0:
342,370,109113,1,0,3:0:0:0:
361,335,109236,1,0,3:0:0:0:
378,299,109359,6,0,P|354:255|248:251,1,142.5,4|0,1:2|0:0,0:0:0:0:
252,246,109851,2,0,P|202:255|156:220,1,95,8|0,0:0|0:0,0:0:0:0:
48,116,110342,1,0,1:0:0:0:
70,316,110588,1,0,3:0:0:0:
70,316,110711,1,0,3:0:0:0:
70,316,110834,2,0,L|58:209,1,95,8|0,0:0|3:0,0:0:0:0:
139,162,111203,1,0,3:0:0:0:
139,162,111326,6,0,B|205:152|198:214|279:178,1,142.5,0|0,1:0|0:0,0:0:0:0:
288,168,111818,2,0,L|275:62,1,95,8|0,0:0|0:0,0:0:0:0:
452,12,112310,1,0,1:0:0:0:
379,181,112556,1,0,3:0:0:0:
379,181,112679,1,0,3:0:0:0:
379,181,112802,2,0,L|366:75,1,95,8|0,0:0|3:0,0:0:0:0:
454,229,113170,1,0,3:0:0:0:
454,229,113293,6,0,P|404:268|317:243,1,142.5,0|0,1:0|0:0,0:0:0:0:
314,245,113785,2,0,P|252:230|201:265,1,95,8|0,0:0|0:0,0:0:0:0:
75,333,114277,1,0,1:0:0:0:
163,382,114523,1,0,3:0:0:0:
163,382,114646,1,0,3:0:0:0:
163,382,114769,2,0,L|153:266,1,95,8|0,0:0|3:0,0:0:0:0:
104,236,115138,1,0,3:0:0:0:
104,236,115261,6,0,L|111:92,1,142.5,0|0,1:0|0:0,0:0:0:0:
113,73,115752,2,0,L|-4:82,1,95,8|0,0:0|0:0,0:0:0:0:
198,159,116244,1,0,1:0:0:0:
214,0,116490,1,0,0:0:0:0:
308,237,116736,1,8,0:0:0:0:
331,45,116982,1,0,3:0:0:0:
331,45,117105,1,0,3:0:0:0:
331,45,117228,6,0,L|481:54,1,142.5,4|0,3:2|3:0,0:0:0:0:
481,138,117965,1,0,3:0:0:0:
481,138,118088,1,0,3:0:0:0:
481,138,118211,2,0,L|385:132,1,71.2500027179719,0|0,3:0|0:0,0:0:0:0:
356,196,118703,2,0,L|260:190,1,71.2500027179719,0|0,3:0|0:0,0:0:0:0:
210,140,119195,6,0,B|233:172|233:172|221:291,1,142.500005435944,0|0,3:0|3:0,0:0:0:0:
164,344,119933,1,0,3:0:0:0:
164,344,120056,1,0,3:0:0:0:
164,344,120179,2,0,P|113:349|90:337,1,71.2500027179719,0|0,3:0|0:0,0:0:0:0:
15,330,120547,1,0,0:0:0:0:
15,330,120670,2,0,P|36:283|58:269,1,71.2500027179719,0|0,3:0|0:0,0:0:0:0:
37,198,121162,6,0,P|75:238|167:205,1,142.500005435944,0|0,3:0|3:0,0:0:0:0:
208,153,121900,1,0,0:0:0:0:
273,220,122146,1,0,3:0:0:0:
273,220,122269,2,0,L|359:209,1,71.2500027179719,0|0,3:0|0:0,0:0:0:0:
368,204,122638,1,0,3:0:0:0:
395,118,122883,1,0,0:0:0:0:
353,41,123129,6,0,L|257:47,1,71.2500027179719,0|0,3:0|0:0,0:0:0:0:
210,18,123621,1,0,3:0:0:0:
210,18,123744,1,0,0:0:0:0:
210,18,124113,5,0,3:0:0:0:
196,106,124359,1,8,0:0:0:0:
150,370,124605,1,8,0:0:0:0:
150,370,125097,6,0,B|170:347|192:336|192:336|129:352|82:329,1,142.5,4|0,1:2|0:0,0:0:0:0:
33,301,125588,1,8,0:0:0:0:
145,145,125834,1,2,0:2:0:0:
145,145,125957,1,2,0:2:0:0:
145,145,126080,2,0,L|149:268,1,95,0|0,1:0|0:0,0:0:0:0:
257,11,126572,2,0,L|251:167,1,142.5,8|0,0:0|0:0,0:0:0:0:
263,231,127064,6,0,P|337:207|306:175,1,142.5,0|0,1:0|0:0,0:0:0:0:
186,201,127556,1,8,0:0:0:0:
288,360,127802,1,2,0:2:0:0:
288,360,127924,1,2,0:2:0:0:
288,360,128047,1,0,1:0:0:0:
381,78,128293,1,8,0:0:0:0:
124,146,128539,2,0,P|102:212|128:256,1,95,8|8,0:0|0:0,0:0:0:0:
415,267,129031,5,0,1:0:0:0:
186,201,129277,1,0,0:0:0:0:
381,78,129523,1,8,0:0:0:0:
328,189,129769,1,0,0:0:0:0:
201,34,130015,1,0,1:0:0:0:
285,53,130261,1,0,0:0:0:0:
186,201,130506,1,8,0:0:0:0:
111,16,130752,1,0,3:0:0:0:
111,16,130875,1,0,3:0:0:0:
111,16,130998,6,0,L|101:144,1,95,0|0,1:0|3:0,0:0:0:0:
45,173,131367,1,0,3:0:0:0:
45,173,131490,2,0,L|59:290,1,95,8|0,0:0|0:0,0:0:0:0:
103,110,131982,1,0,1:0:0:0:
258,288,132228,1,0,3:0:0:0:
258,288,132351,1,0,3:0:0:0:
258,288,132474,1,8,0:0:0:0:
103,110,132720,1,0,3:0:0:0:
381,0,132965,6,0,P|419:46|386:144,1,142.5,4|0,1:2|0:0,0:0:0:0:
259,72,133457,2,0,B|309:57|309:57|354:74,1,95,8|0,0:0|0:0,0:0:0:0:
456,204,133949,2,0,B|406:219|406:219|361:202,1,95,0|0,1:0|3:0,0:0:0:0:
285,167,134318,1,0,3:0:0:0:
285,167,134441,2,0,L|294:266,1,95,8|0,0:0|0:0,0:0:0:0:
411,318,134933,6,0,B|340:299|352:369|266:344,1,142.5,0|0,1:0|0:0,0:0:0:0:
218,287,135424,2,0,L|111:304,1,95,8|0,0:0|0:0,0:0:0:0:
184,4,135916,5,0,1:0:0:0:
197,194,136162,1,8,0:0:0:0:
211,384,136408,1,8,0:0:0:0:
126,344,136654,5,0,3:0:0:0:
126,344,136777,1,0,3:0:0:0:
126,344,136900,2,0,L|9:358,1,95,0|0,1:0|3:0,0:0:0:0:
204,288,137269,1,0,3:0:0:0:
204,288,137392,2,0,L|321:302,1,95,8|0,0:0|0:0,0:0:0:0:
461,145,137883,1,0,1:0:0:0:
436,324,138129,1,0,0:0:0:0:
323,120,138375,1,8,0:0:0:0:
298,299,138621,1,0,3:0:0:0:
298,299,138744,1,0,3:0:0:0:
298,299,138867,6,0,L|204:288,1,95,0|0,1:0|0:0,0:0:0:0:
138,81,139359,2,0,L|125:220,1,95,8|0,0:0|0:0,0:0:0:0:
111,375,139851,1,0,1:0:0:0:
293,167,140097,1,0,3:0:0:0:
293,167,140220,1,0,3:0:0:0:
293,167,140342,1,8,0:0:0:0:
138,81,140588,1,0,0:0:0:0:
291,255,140834,6,0,P|345:245|371:201,1,95,0|0,1:0|0:0,0:0:0:0:
423,0,141326,6,0,P|403:53|452:128,1,142.5,8|0,0:0|0:0,0:0:0:0:
440,145,141818,2,0,P|399:104|384:45,1,95,0|0,1:0|0:0,0:0:0:0:
311,351,142310,6,0,P|329:284|291:227,1,142.5,8|0,0:0|0:0,0:0:0:0:
294,205,142802,2,0,P|328:236|347:279,1,95,0|0,1:0|0:0,0:0:0:0:
133,14,143293,6,0,P|151:80|113:137,1,142.5,8|0,0:0|0:0,0:0:0:0:
116,160,143785,2,0,P|150:128|169:85,1,95,0|0,1:0|0:0,0:0:0:0:
24,380,144277,5,8,0:0:0:0:
175,368,144523,1,8,0:0:0:0:
251,360,144769,1,0,0:0:0:0:
256,192,144892,12,0,148211,0:0:0:0:
78,32,148703,6,0,P|176:70|134:138,1,185.249991519928,4|0,3:0|0:0,0:0:0:0:
52,217,149195,2,0,P|124:203|170:261,1,123.499994346619,8|0,0:0|0:0,0:0:0:0:
507,154,149687,6,0,B|410:138|423:216|317:186,1,185.249991519928,4|0,3:0|0:0,0:0:0:0:
329,64,150179,2,0,B|337:53|349:30|349:30|346:75|363:119,1,123.499994346619,8|0,0:0|0:0,0:0:0:0:
479,309,150670,2,0,L|481:234,1,61.7499971733095,4|0,3:0|0:0,0:0:0:0:
399,340,150916,2,0,L|401:265,1,61.7499971733095,2|0,0:3|0:0,0:0:0:0:
318,359,151162,1,8,0:0:0:0:
318,359,151285,6,0,L|325:221,1,123.499994346619,2|0,0:3|0:0,0:0:0:0:
322,143,151654,2,0,P|255:125|209:166,1,123.499994346619,4|0,3:0|0:0,0:0:0:0:
168,223,152023,1,0,0:0:0:0:
168,223,152146,2,0,B|58:245|96:153|-13:181,1,185.249991519928,8|0,0:0|0:0,0:0:0:0:
37,93,152638,5,4,3:0:0:0:
21,267,152883,1,0,0:0:0:0:
150,89,153129,2,0,P|73:73|27:102,1,123.499994346619,8|0,0:0|0:0,0:0:0:0:
96,164,153498,2,0,B|196:160|152:268|287:220,1,185.249991519928,0|0,3:0|3:0,0:0:0:0:
360,19,154113,1,8,0:0:0:0:
377,115,154359,1,0,0:0:0:0:
481,38,154605,6,0,L|306:10,1,123.499994346619,4|0,3:0|0:0,0:0:0:0:
255,134,155097,2,0,L|430:106,1,123.499994346619,8|0,0:0|0:0,0:0:0:0:
480,228,155588,1,4,3:0:0:0:
156,169,155834,1,8,0:0:0:0:
359,18,156080,1,8,0:0:0:0:
269,377,156326,1,0,3:0:0:0:
269,377,156449,1,0,3:0:0:0:
269,377,156572,6,0,P|154:333|54:330,1,185.249991519928,4|0,3:0|0:0,0:0:0:0:
10,298,157064,2,0,P|45:233|87:268,1,123.499994346619,8|0,0:0|0:0,0:0:0:0:
456,151,157556,6,0,P|370:155|230:211,1,185.249991519928,4|0,3:0|0:0,0:0:0:0:
229,259,158047,2,0,P|285:289|316:237,1,123.499994346619,8|0,0:0|0:0,0:0:0:0:
113,21,158539,6,0,P|98:64|93:109,1,61.7499971733095,4|0,3:0|0:0,0:0:0:0:
16,129,158785,2,0,P|29:168|51:201,1,61.7499971733095,2|0,0:3|0:0,0:0:0:0:
26,270,159031,1,8,0:0:0:0:
26,270,159154,2,0,P|79:289|165:262,1,123.499994346619,2|0,0:3|0:0,0:0:0:0:
193,109,159523,6,0,B|175:98|175:98|179:208,1,123.499994346619,4|0,3:0|0:0,0:0:0:0:
229,271,159892,1,0,0:0:0:0:
229,271,160015,2,0,P|308:246|317:166,1,123.499994346619,8|0,0:0|0:0,0:0:0:0:
386,14,160506,6,0,P|372:46|390:92,1,61.7499971733095,4|0,3:0|0:0,0:0:0:0:
471,226,160752,2,0,P|485:194|467:148,1,61.7499971733095,2|0,0:3|0:0,0:0:0:0:
373,4,160998,2,0,P|359:52|400:146,1,123.499994346619,8|0,0:0|0:0,0:0:0:0:
206,338,161490,6,0,P|192:306|210:260,1,61.7499971733095,4|0,3:0|0:0,0:0:0:0:
291,126,161736,2,0,P|305:158|287:204,1,61.7499971733095,2|0,0:3|0:0,0:0:0:0:
193,348,161982,1,8,0:0:0:0:
193,348,162105,2,0,P|179:300|220:206,1,123.499994346619,2|0,0:3|0:0,0:0:0:0:
277,263,162474,5,4,3:0:0:0:
30,179,162720,1,0,0:0:0:0:
227,0,162965,1,8,0:0:0:0:
197,230,163211,1,0,0:0:0:0:
0,99,163457,5,4,3:0:0:0:
373,44,163703,1,0,3:0:0:0:
123,298,163949,1,8,0:0:0:0:
227,0,164195,1,0,3:0:0:0:
227,0,164318,1,0,3:0:0:0:
227,0,164441,6,0,L|245:268,1,228,4|0,3:0|0:0,0:0:0:0:
340,34,164933,2,0,L|335:191,1,152,8|0,0:0|0:0,0:0:0:0:
181,321,165424,6,0,B|151:304|119:312|119:312|209:261|210:378|313:292,1,228,4|0,3:0|0:0,0:0:0:0:
411,214,165916,2,0,P|351:157|356:227,1,152,8|0,0:0|0:0,0:0:0:0:
512,384,166408,6,0,L|497:279,1,76,4|0,3:0|0:0,0:0:0:0:
421,138,166654,2,0,L|411:214,1,76,2|0,0:3|0:0,0:0:0:0:
293,364,166900,1,8,0:0:0:0:
293,364,167023,2,0,P|256:282|165:294,1,152,2|0,0:3|0:0,0:0:0:0:
109,327,167392,6,0,B|135:305|135:305|114:152,1,152,4|0,3:0|0:0,0:0:0:0:
149,87,167761,1,0,0:0:0:0:
149,87,167883,2,0,B|68:73|101:154|-1:133,1,152,8|0,0:0|0:0,0:0:0:0:
316,9,168375,6,0,P|342:39|348:86,1,76,4|0,3:0|0:0,0:0:0:0:
449,117,168621,2,0,P|423:147|417:194,1,76,2|0,0:3|0:0,3:3:0:0:
301,241,168867,2,0,B|380:230|358:301|450:272,1,152,8|0,0:0|0:0,0:0:0:0:
443,94,169236,2,0,B|417:70|417:70|380:130|432:211,1,152,2|0,0:3|0:0,0:0:0:0:
496,218,169605,5,0,3:0:0:0:
224,123,169851,1,8,0:0:0:0:
288,38,170097,1,0,0:0:0:0:
187,371,170342,6,0,P|98:364|52:296,1,152,4|0,3:0|0:0,0:0:0:0:
224,123,170834,2,0,P|313:130|359:198,1,152,8|0,0:0|0:0,0:0:0:0:
153,283,171326,1,4,3:0:0:0:
42,9,171572,1,8,0:0:0:0:
351,173,171818,1,8,0:0:0:0:
22,379,172064,1,0,3:0:0:0:
22,379,172187,1,0,3:0:0:0:
22,379,172310,6,0,P|-17:277|71:174,1,228,4|0,3:0|0:0,0:0:0:0:
130,163,172802,2,0,P|127:74|44:58,1,152,8|0,0:0|0:0,0:0:0:0:
105,247,173293,6,0,B|216:294|202:158|344:203,1,228,4|0,3:0|0:0,0:0:0:0:
388,132,173785,2,0,B|430:194|430:194|380:281,1,152,8|0,0:0|0:0,0:0:0:0:
159,384,174277,6,0,P|192:325|260:330,1,76,4|0,3:0|0:0,0:0:0:0:
170,230,174523,2,0,P|237:229|267:290,1,76,2|0,0:3|0:0,0:0:0:0:
304,163,174769,1,8,0:0:0:0:
304,163,174892,2,0,P|332:224|280:316,1,152,2|0,0:3|0:0,0:0:0:0:
90,215,175261,6,0,L|296:237,1,152,4|0,3:0|0:0,0:0:0:0:
378,98,175629,1,0,0:0:0:0:
378,98,175752,2,0,L|186:115,1,152,8|0,0:0|0:0,0:0:0:0:
27,17,176244,6,0,L|18:109,1,76,4|0,3:0|0:0,0:0:0:0:
90,215,176490,2,0,L|82:139,1,76,0|0,0:0|0:0,0:0:0:0:
9,13,176736,2,0,L|-6:200,1,152,8|0,0:0|0:0,0:0:0:0:
262,180,177228,6,0,L|271:272,1,76,4|0,3:0|0:0,0:0:0:0:
199,378,177474,2,0,L|206:302,1,76,2|0,0:3|0:0,0:0:0:0:
280,176,177720,1,8,0:0:0:0:
280,176,177842,2,0,L|295:363,1,152,2|0,0:3|0:0,0:0:0:0:
368,358,178211,5,4,3:0:0:0:
110,281,178457,1,0,3:0:0:0:
439,185,178703,2,0,P|479:253|437:338,1,152,8|0,0:0|0:0,0:0:0:0:
110,281,179195,5,4,3:0:0:0:
439,185,179441,1,0,3:0:0:0:
180,34,179687,1,8,0:0:0:0:
307,0,179933,1,0,3:0:0:0:
307,0,180056,1,0,3:0:0:0:
307,0,180179,2,0,B|312:77|312:77|379:109|379:109|307:137|307:137|297:211|297:211|247:151|247:151|174:165|174:165|215:99|215:99|179:34|179:34|253:52|253:52|304:-2|304:-2,1,731.499977676392,4|0,0:2|0:0,0:0:0:0:
6,0,184113,6,0,L|1:83,1,71.2500027179719,8|0,0:0|0:0,0:0:0:0:
8,2,184605,2,0,L|3:85,1,71.2500027179719,8|0,0:0|0:0,0:0:0:0:
10,4,185097,2,0,L|5:87,1,71.2500027179719,8|0,0:0|0:0,0:0:0:0:
12,6,185588,2,0,L|7:89,1,71.2500027179719,8|0,0:0|0:0,0:0:0:0:
131,79,186080,6,0,L|136:162,1,71.2500027179719,8|0,0:0|0:0,0:0:0:0:
129,81,186572,2,0,L|134:164,1,71.2500027179719,8|0,0:0|0:0,0:0:0:0:
127,83,187064,2,0,L|132:166,1,71.2500027179719,8|0,0:0|0:0,0:0:0:0:
125,85,187556,2,0,L|130:168,1,71.2500027179719,8|0,0:0|0:0,0:0:0:0:
318,24,188047,6,0,L|312:125,1,95,8|0,0:0|0:0,0:0:0:0:
321,28,188539,2,0,L|315:129,1,95,8|0,0:0|0:0,0:0:0:0:
324,30,189031,2,0,L|318:131,1,95,8|0,0:0|0:0,0:0:0:0:
327,34,189523,2,0,L|321:135,1,95,8|0,0:0|0:0,0:0:0:0:
437,138,190015,6,0,L|443:239,1,95,8|0,0:0|0:0,0:0:0:0:
434,142,190507,2,0,L|440:243,1,95,8|0,0:0|0:0,0:0:0:0:
431,144,190999,2,0,L|437:245,1,95,8|0,0:0|0:0,0:0:0:0:
428,148,191491,2,0,L|434:249,1,95,8|0,0:0|0:0,0:0:0:0:
53,368,191982,6,0,B|34:322|34:322|57:251,1,95,0|0,3:0|0:0,0:0:0:0:
138,283,192474,2,0,L|141:364,1,71.2500027179719,8|0,0:0|0:0,0:0:0:0:
42,375,192965,6,0,B|23:329|23:329|46:258,1,95,0|0,3:0|0:0,0:0:0:0:
127,290,193457,2,0,L|130:371,1,71.2500027179719,8|0,0:0|0:0,0:0:0:0:
225,181,193949,6,0,B|244:135|244:135|221:64,1,95,0|0,3:0|0:0,0:0:0:0:
140,96,194441,2,0,L|137:177,1,71.2500027179719,8|0,0:0|0:0,0:0:0:0:
236,188,194933,6,0,B|255:142|255:142|232:71,1,95,0|0,3:0|0:0,0:0:0:0:
151,103,195424,2,0,L|148:184,1,71.2500027179719,8|0,0:0|0:0,0:0:0:0:
380,384,195916,6,0,L|383:194,1,142.500005435944,0|0,3:0|0:0,0:0:0:0:
129,241,196408,2,0,L|132:384,1,142.500005435944,0|0,3:0|0:0,0:0:0:0:
509,157,196900,6,0,L|512:-33,1,142.500005435944,0|0,3:0|0:0,0:0:0:0:
0,14,197392,2,0,L|3:157,1,142.500005435944,0|0,3:0|0:0,0:0:0:0:
308,367,197883,6,0,L|311:271,1,71.2500027179719,0|0,3:0|0:0,0:0:0:0:
201,295,198129,2,0,L|204:367,1,71.2500027179719,0|0,3:0|0:0,0:0:0:0:
313,367,198375,6,0,L|316:271,1,71.2500027179719,0|0,3:0|0:0,0:0:0:0:
196,295,198621,2,0,L|198:367,1,71.2500027179719,0|0,3:0|0:0,0:0:0:0:
380,218,198867,6,0,L|387:122,1,71.2500027179719,0|0,3:0|0:0,0:0:0:0:
123,146,199113,2,0,L|129:217,1,71.2500027179719,0|0,3:0|0:0,0:0:0:0:
316,110,199359,6,0,L|318:47,1,35.625001358986,0|0,3:0|0:0,0:0:0:0:
274,86,199482,2,0,L|272:50,1,35.625001358986,0|0,3:0|0:0,0:0:0:0:
236,86,199605,2,0,L|238:50,1,35.625001358986,0|0,3:0|0:0,0:0:0:0:
194,110,199728,2,0,L|192:47,1,35.625001358986,0|0,3:0|0:0,0:0:0:0:
256,192,199851,5,2,0:0:0:0:
256,192,202073,5,2,0:0:0:0:
256,192,205406,12,0,206517,0:0:0:0:
49,103,206736,6,0,P|125:45|236:75,1,213.750008153916,4|0,3:0|0:0,0:0:0:0:
211,148,207227,2,0,P|138:190|77:152,1,142.500005435944,8|0,0:0|0:0,0:0:0:0:
473,165,207719,6,0,P|397:107|286:137,1,213.750008153916,4|0,3:0|0:0,0:0:0:0:
309,210,208211,2,0,P|382:252|443:214,1,142.500005435944,8|0,0:0|0:0,0:0:0:0:
211,148,208703,6,0,L|224:243,1,71.2500027179719,4|0,3:0|0:0,0:0:0:0:
105,226,208949,2,0,L|92:321,1,71.2500027179719,2|0,0:3|0:0,0:0:0:0:
224,369,209195,1,8,0:0:0:0:
224,369,209317,2,0,L|197:202,1,142.500005435944,2|0,0:3|0:0,0:0:0:0:
87,196,209686,6,0,L|114:29,1,142.500005435944,4|0,3:0|0:0,0:0:0:0:
224,13,210055,1,0,0:0:0:0:
224,13,210178,2,0,B|310:10|263:86|417:57,1,142.500005435944,8|0,0:0|0:0,0:0:0:0:
489,222,210670,6,0,P|444:194|384:213,1,71.2500027179719,4|0,3:0|0:0,0:0:0:0:
397,268,210916,2,0,P|442:296|502:277,1,71.2500027179719,0|0,0:0|0:0,0:0:0:0:
345,201,211162,2,0,B|268:198|294:269|187:254,1,142.500005435944,8|0,0:0|0:0,0:0:0:0:
165,99,211531,2,0,B|186:75|186:75|231:108|217:185,1,142.500005435944,0|0,3:0|0:0,0:0:0:0:
149,213,211899,1,0,3:0:0:0:
397,268,212145,1,8,0:0:0:0:
338,335,212391,1,0,0:0:0:0:
88,276,212637,6,0,P|61:202|104:138,1,142.500005435944,4|0,3:0|0:0,0:0:0:0:
312,0,213129,2,0,P|339:74|296:138,1,142.500005435944,8|0,0:0|0:0,0:0:0:0:
25,374,213621,1,4,3:0:0:0:
435,252,213867,1,8,0:0:0:0:
102,0,214113,1,8,0:0:0:0:
233,384,214358,1,0,3:0:0:0:
233,384,214481,1,0,3:0:0:0:
233,384,214604,6,0,L|223:122,1,213.750008153916,4|0,3:0|0:0,0:0:0:0:
301,95,215096,2,0,L|313:267,1,142.500005435944,8|0,0:0|0:0,0:0:0:0:
512,7,215588,6,0,P|423:-12|395:115,1,213.750008153916,4|0,3:0|0:0,0:0:0:0:
486,235,216080,2,0,P|485:199|376:180,1,142.500005435944,8|0,0:0|0:0,0:0:0:0:
186,318,216572,6,0,L|279:330,1,71.2500027179719,4|0,3:0|0:0,0:0:0:0:
335,252,216817,2,0,L|264:242,1,71.2500027179719,2|0,0:3|0:0,0:0:0:0:
95,226,217063,1,8,0:0:0:0:
95,226,217186,2,0,P|49:315|85:392,1,142.500005435944,2|0,0:3|0:0,0:0:0:0:
177,198,217555,6,0,P|186:112|112:52,1,142.500005435944,4|0,3:0|0:0,0:0:0:0:
73,38,217924,1,0,0:0:0:0:
73,38,218047,2,0,L|235:8,1,142.500005435944,8|0,0:0|0:0,0:0:0:0:
494,59,218539,6,0,L|408:45,1,71.2500027179719,4|0,3:0|0:0,0:0:0:0:
322,264,218785,2,0,L|408:250,1,71.2500027179719,2|0,0:3|0:0,0:0:0:0:
483,161,219031,2,0,L|289:143,1,142.500005435944,8|0,0:0|0:0,0:0:0:0:
26,166,219522,6,0,P|64:164|112:152,1,71.2500027179719,4|0,3:0|0:0,0:0:0:0:
198,371,219768,2,0,P|162:360|112:357,1,71.2500027179719,2|0,0:3|0:0,0:0:0:0:
37,268,220014,1,8,0:0:0:0:
37,268,220137,2,0,P|114:261|231:250,1,142.500005435944,2|0,0:3|0:0,0:0:0:0:
263,246,220506,5,4,3:0:0:0:
130,60,220752,1,0,0:0:0:0:
319,325,220998,1,8,0:0:0:0:
398,8,221244,1,0,0:0:0:0:
37,268,221490,5,4,3:0:0:0:
417,378,221736,1,0,3:0:0:0:
255,0,221981,1,8,0:0:0:0:
137,370,222227,1,0,3:0:0:0:
137,370,222350,1,0,3:0:0:0:
137,370,222473,6,0,P|145:260|54:102,1,285,4|0,3:0|0:0,0:0:0:0:
35,205,222965,2,0,P|148:206|184:89,1,190,8|0,0:0|0:0,0:0:0:0:
497,0,223457,6,0,B|335:-19|405:114|218:98,1,285,4|0,3:0|0:0,0:0:0:0:
135,38,223949,2,0,B|195:25|195:25|222:86|168:193,1,190,8|0,0:0|0:0,0:0:0:0:
36,358,224440,6,0,B|21:286|21:286|39:238,1,95,4|0,3:0|0:0,0:0:0:0:
116,211,224686,2,0,B|123:231|123:231|108:303,1,95,2|0,0:3|0:0,0:0:0:0:
224,376,224932,1,8,0:0:0:0:
224,376,225055,2,0,B|201:272|201:272|284:253,1,190,2|0,0:3|0:0,0:0:0:0:
490,355,225424,6,0,P|386:367|348:293,1,190,4|0,3:0|0:0,0:0:0:0:
355,220,225793,1,0,0:0:0:0:
355,220,225916,2,0,B|500:205|500:205|564:256,1,190,8|0,0:0|0:0,0:0:0:0:
460,0,226408,5,4,3:0:0:0:
432,293,226654,1,2,0:3:0:0:
170,73,226899,2,0,B|260:41|260:41|375:98,1,190,8|0,0:0|0:0,0:0:0:0:
257,166,227268,2,0,B|122:166|168:292|2:277,1,285,2|0,0:3|3:0,0:0:0:0:
284,369,227883,1,8,0:0:0:0:
35,163,228129,1,0,0:0:0:0:
416,0,228375,6,0,L|435:227,1,190,4|0,3:0|0:0,0:0:0:0:
154,262,228867,2,0,L|169:72,1,190,8|0,0:0|0:0,0:0:0:0:
483,360,229358,5,4,3:0:0:0:
11,227,229604,1,8,0:0:0:0:
512,109,229850,1,8,0:0:0:0:
0,1,230096,1,0,3:0:0:0:
0,1,230219,1,0,3:0:0:0:
0,1,230342,6,0,L|12:314,1,285,4|0,3:0|0:0,0:0:0:0:
278,100,230834,2,0,P|185:47|93:91,1,190,8|0,0:0|0:0,0:0:0:0:
362,356,231326,6,0,B|429:240|317:182|317:182|284:229|301:301,1,285,4|0,3:0|0:0,0:0:0:0:
459,345,231817,2,0,P|464:235|423:149,1,190,8|0,0:0|0:0,0:0:0:0:
114,318,232309,6,0,P|164:331|233:303,1,95,4|0,3:0|0:0,0:0:0:0:
202,211,232555,2,0,P|152:198|83:226,1,95,2|0,0:3|0:0,0:0:0:0:
292,252,232801,1,8,0:0:0:0:
292,252,232924,2,0,P|288:173|183:111,1,190,2|0,0:3|0:0,0:0:0:0:
36,217,233293,6,0,P|106:253|212:193,1,190,4|0,3:0|0:0,0:0:0:0:
292,252,233662,1,0,0:0:0:0:
292,252,233785,2,0,P|367:209|477:259,1,190,8|0,0:0|0:0,0:0:0:0:
191,341,234276,6,0,L|76:333,1,95,4|0,3:0|0:0,0:0:0:0:
292,252,234522,2,0,L|407:244,1,95,0|0,0:0|0:0,0:0:0:0:
190,366,234768,2,0,L|-24:354,1,190,8|0,0:0|0:0,0:0:0:0:
252,151,235260,6,0,L|367:143,1,95,4|0,3:0|0:0,0:0:0:0:
151,62,235506,2,0,L|36:54,1,95,2|0,0:3|0:0,0:0:0:0:
253,176,235752,1,8,0:0:0:0:
253,176,235875,2,0,L|467:164,1,190,2|0,0:3|0:0,0:0:0:0:
498,102,236244,5,4,3:0:0:0:
120,204,236490,1,0,3:0:0:0:
448,325,236736,2,0,P|487:263|421:155,1,190,8|0,0:0|0:0,0:0:0:0:
82,374,237227,1,4,3:0:0:0:
393,244,237473,1,0,3:0:0:0:
393,244,237596,1,0,3:0:0:0:
393,244,237719,1,8,0:0:0:0:
11,97,237965,1,0,3:0:0:0:
11,97,238088,1,0,3:0:0:0:
11,97,238211,6,0,L|22:221,1,71.2500027179719,6|0,1:2|0:0,0:0:0:0:
88,115,238457,2,0,L|99:239,1,71.2500027179719,2|0,0:0|0:0,0:0:0:0:
168,129,238703,1,2,1:2:0:0:
168,129,238826,2,0,L|179:253,1,71.2500027179719,2|0,0:0|0:0,0:0:0:0:
328,367,239072,6,0,L|334:296,1,71.2500027179719,2|0,0:0|1:2,0:0:0:0:
251,143,239317,2,0,L|262:267,1,71.2500027179719,2|0,0:0|0:0,0:0:0:0:
403,384,239563,2,0,L|414:229,1,142.500005435944,2|0,0:0|0:0,0:0:0:0:
489,221,239932,1,0,0:0:0:0:
489,221,240055,6,0,L|306:203,1,142.500005435944,2|0,0:0|0:0,0:0:0:0:
264,216,240424,1,2,0:0:0:0:
264,216,240547,1,2,0:0:0:0:
201,167,240670,1,2,1:2:0:0:
201,167,240793,1,2,0:0:0:0:
130,200,240916,1,2,0:0:0:0:
130,200,241039,6,0,L|48:212,1,71.2500027179719,2|0,0:0|1:0,0:0:0:0:
6,320,241285,1,2,0:0:0:0:
6,320,241408,2,0,L|107:333,1,71.2500027179719,2|0,0:0|0:0,0:0:0:0:
166,293,241654,2,0,B|258:303|217:371|326:350,1,142.500005435944,2|0,1:2|0:0,0:0:0:0:
369,321,242022,1,0,0:0:0:0:
369,321,242145,6,0,L|361:236,1,71.2500027179719,2|0,1:2|0:0,0:0:0:0:
446,294,242391,2,0,L|438:209,1,71.2500027179719,2|0,0:0|0:0,0:0:0:0:
290,217,242637,1,2,1:2:0:0:
290,217,242760,2,0,L|282:132,1,71.2500027179719,2|0,0:0|0:0,0:0:0:0:
387,61,243006,6,0,L|290:71,1,71.2500027179719,2|0,0:0|1:2,0:0:0:0:
249,26,243252,2,0,L|152:36,1,71.2500027179719,2|0,0:0|0:0,0:0:0:0:
118,87,243498,2,0,B|106:116|106:116|127:236,1,142.500005435944,2|0,0:0|0:0,0:0:0:0:
180,296,243867,1,0,0:0:0:0:
180,296,243990,6,0,B|254:279|242:357|339:313,1,142.500005435944,2|0,0:0|0:0,0:0:0:0:
373,278,244358,1,2,0:0:0:0:
373,278,244481,1,2,0:0:0:0:
436,330,244604,1,2,1:2:0:0:
436,330,244727,1,2,0:0:0:0:
497,282,244850,1,2,0:0:0:0:
497,282,244973,6,0,L|489:204,1,71.2500027179719,2|0,0:0|1:2,0:0:0:0:
380,207,245219,1,2,0:0:0:0:
380,207,245342,2,0,L|372:277,1,71.2500027179719,2|0,0:0|0:0,0:0:0:0:
435,135,245588,2,0,L|427:57,1,71.2500027179719,2|0,1:2|0:0,0:0:0:0:
217,9,245834,1,8,0:0:0:0:
229,94,245957,1,8,0:0:0:0:
242,177,246080,6,0,L|128:165,1,71.2500027179719,6|0,1:2|0:0,0:0:0:0:
86,272,246326,2,0,L|200:260,1,71.2500027179719,2|0,0:0|0:0,0:0:0:0:
79,163,246572,1,2,1:2:0:0:
79,163,246695,2,0,L|-35:151,1,71.2500027179719,2|0,0:0|0:0,0:0:0:0:
86,272,246940,6,0,L|200:260,1,71.2500027179719,2|0,0:0|1:2,0:0:0:0:
237,253,247186,2,0,L|351:241,1,71.2500027179719,2|0,0:0|0:0,0:0:0:0:
424,228,247432,2,0,P|351:205|304:285,1,142.500005435944,2|0,0:0|0:0,0:0:0:0:
330,321,247801,1,0,0:0:0:0:
330,321,247924,6,0,L|500:341,1,142.500005435944,2|0,0:0|0:0,0:0:0:0:
501,261,248293,1,2,0:0:0:0:
497,236,248416,1,2,0:0:0:0:
432,186,248539,1,2,1:2:0:0:
438,160,248662,1,2,0:0:0:0:
498,106,248785,1,2,0:0:0:0:
490,74,248908,6,0,L|402:80,1,71.2500027179719,2|0,0:0|1:2,0:0:0:0:
339,188,249154,1,2,0:0:0:0:
339,188,249276,2,0,L|267:183,1,71.2500027179719,2|0,0:0|0:0,0:0:0:0:
93,58,249522,2,0,L|247:49,1,142.500005435944,2|0,1:2|0:0,0:0:0:0:
326,41,249891,1,0,0:0:0:0:
326,41,250014,6,0,L|320:128,1,71.2500027179719,2|0,1:2|0:0,0:0:0:0:
178,234,250260,2,0,L|173:162,1,71.2500027179719,2|0,0:0|0:0,0:0:0:0:
311,274,250506,1,2,1:2:0:0:
311,274,250629,2,0,L|305:361,1,71.2500027179719,2|0,0:0|0:0,0:0:0:0:
178,234,250875,2,0,L|173:162,1,71.2500027179719,2|0,0:0|1:2,0:0:0:0:
167,84,251121,2,0,L|162:12,1,71.2500027179719,2|0,0:0|0:0,0:0:0:0:
101,274,251367,6,0,B|178:251|171:327|277:279,1,142.500005435944,2|0,0:0|0:0,0:0:0:0:
311,274,251736,1,2,0:0:0:0:
351,205,251858,1,2,0:0:0:0:
317,133,251981,1,2,1:2:0:0:
256,192,252104,12,0,255670,0:0:0:0:
