osu file format v14

[General]
AudioFilename: One Direction - Up All Night.mp3
AudioLeadIn: 0
PreviewTime: 34848
Countdown: 0
SampleSet: Soft
StackLeniency: 0.3
Mode: 0
LetterboxInBreaks: 0
WidescreenStoryboard: 1

[Editor]
Bookmarks: 7276,21089,34902,48715,62528,76341,90154,103967,117780,131593,138499,155765,169578,183391,191161
DistanceSpacing: 1.1
BeatDivisor: 4
GridSize: 4
TimelineZoom: 1.6

[Metadata]
Title:Up All Night
TitleUnicode:Up All Night
Artist:One Direction
ArtistUnicode:One Direction
Creator:-Ziam-
Version:Shine
Source:
Tags:Ziam Gero Take Me Home Boy Band Irish Columbia Records Syco Music Sony Music Zayn Malik Harry Styles Louis Tomlinson Niall Horan Liam Payne
BeatmapID:482508
BeatmapSetID:204344

[Difficulty]
HPDrainRate:7
CircleSize:4
OverallDifficulty:7
ApproachRate:8
SliderMultiplier:1.9
SliderTickRate:2

[Events]
//Background and Video events
0,0,"BG.png",0,0
//Break Periods
2,131793,137749
//Storyboard Layer 0 (Background)
//Storyboard Layer 1 (Fail)
//Storyboard Layer 2 (Pass)
//Storyboard Layer 3 (Foreground)
Sprite,Foreground,Centre,"Names\Gero.png",320,240 M,0,6844,,111,400 S,0,6844,,0.9466665 F,0,6844,7276,0.005333252,1 F,0,7276,20657,1 F,0,20657,20981,1,0 M,0,34794,,111,400 S,0,34794,,0.9466665 F,0,34794,35226,0.005333252,1 F,0,35226,48283,1 F,0,48283,48607,1,0 M,0,62420,,111,400 S,0,62420,,0.9466665 F,0,62420,62852,0.005333252,1 F,0,62852,75909,1 F,0,75909,76233,1,0 M,0,90046,,111,400 S,0,90046,,0.9466665 F,0,90046,90478,0.005333252,1 F,0,90478,103535,1 F,0,103535,103859,1,0 M,0,117672,,111,400 S,0,117672,,0.9466665 F,0,117672,118104,0.005333252,1 F,0,118104,131161,1 F,0,131161,131485,1,0 M,0,155657,,111,400 S,0,155657,,0.9466665 F,0,155657,156089,0.005333252,1 F,0,156089,169146,1 F,0,169146,169470,1,0 M,0,183283,,111,400 S,0,183283,,0.9466665 F,0,183283,183715,0.005333252,1 F,0,183715,190298,1 F,0,190298,191161,1,0
Sprite,Foreground,Centre,"Names\Ziam.png",320,240 M,0,20981,,111,400 S,0,20981,,0.9466665 F,0,20981,21413,0.005333252,1 F,0,21413,34470,1 F,0,34470,34794,1,0 M,0,48607,,111,400 S,0,48607,,0.9466665 F,0,48607,49039,0.005333252,1 F,0,49039,62096,1 F,0,62096,62420,1,0 M,0,76233,,111,400 S,0,76233,,0.9466665 F,0,76233,76665,0.005333252,1 F,0,76665,89722,1 F,0,89722,90046,1,0 M,0,103859,,111,400 S,0,103859,,0.9466665 F,0,103859,104291,0.005333252,1 F,0,104291,117348,1 F,0,117348,117672,1,0 M,0,138391,,111,400 S,0,138391,,0.9466665 F,0,138391,138823,0.005333252,1 F,0,138823,152312,1 F,0,152312,155334,1,0 M,0,169470,,111,400 S,0,169470,,0.9466665 F,0,169470,169902,0.005333252,1 F,0,169902,182959,1 F,0,182959,183283,1,0
//Storyboard Sound Samples

[TimingPoints]
370,431.654676258993,4,2,0,80,1,0
34902,-100,4,1,0,80,0,1
41700,-100,4,1,0,80,0,0
41808,-100,4,1,0,80,0,1
48607,-100,4,1,0,80,0,0
48715,-100,4,1,0,80,0,1
55513,-100,4,1,0,80,0,0
55621,-100,4,1,0,80,0,1
62528,-100,4,2,0,80,0,0
69434,-100,4,2,0,80,0,0
97060,-100,4,1,0,80,0,1
103859,-100,4,1,0,80,0,0
103967,-100,4,1,0,80,0,1
110765,-100,4,1,0,80,0,0
110873,-100,4,1,0,80,0,1
117672,-100,4,1,0,80,0,0
117780,-100,4,1,0,80,0,1
124686,-100,4,2,0,80,0,0
155765,-100,4,1,0,80,0,1
162564,-100,4,1,0,80,0,0
162672,-100,4,1,0,80,0,1
169470,-100,4,1,0,80,0,0
169578,-100,4,1,0,80,0,1
176377,-100,4,1,0,80,0,0
176485,-100,4,1,0,80,0,1
183391,-100,4,2,0,80,0,0
190405,-100,4,2,0,5,0,0

[Colours]
Combo1 : 247,213,196
Combo2 : 148,210,111
Combo3 : 255,66,66
Combo4 : 209,209,209
Combo5 : 255,176,138
Combo6 : 222,205,173
Combo7 : 183,255,255
Combo8 : 238,236,191

[HitObjects]
120,252,7276,5,0,0:0:0:0:
24,208,7492,1,0,0:0:0:0:
112,148,7708,2,0,P|127:104|112:60,1,95,8|0,0:0|0:0,0:0:0:0:
24,208,8139,2,0,P|9:252|24:296,1,95,0|0,0:0|0:0,0:0:0:0:
120,340,8571,1,8,0:0:0:0:
216,300,8787,1,0,0:0:0:0:
216,300,9003,6,0,P|304:300|380:224,1,190,0|8,0:0|0:0,0:0:0:0:
448,156,9650,1,0,0:0:0:0:
376,80,9866,2,0,B|328:80|328:80|292:44,1,95
204,96,10298,2,0,L|276:168,2,95,8|0|0,0:0|0:0|0:0,0:0:0:0:
132,20,10945,5,0,0:0:0:0:
40,68,11161,2,0,P|4:104|-12:152,1,95,8|0,0:0|0:0,0:0:0:0:
143,236,11593,2,0,P|125:192|92:160,2,95,0|0|8,0:0|0:0|0:0,0:0:0:0:
164,340,12240,1,0,0:0:0:0:
164,340,12456,6,0,B|212:332|256:355|256:355|300:332|348:340,1,190,0|8,0:0|0:0,0:0:0:0:
256,264,13103,1,0,0:0:0:0:
256,264,13319,2,0,L|256:64,2,190,0|8|0,0:0|0:0|0:0,0:0:0:0:
108,248,14398,5,0,0:0:0:0:
39,168,14614,2,0,P|81:147|129:147,1,95,8|0,0:0|0:0,0:0:0:0:
175,328,15046,2,0,P|133:347|86:348,2,95,0|0|8,0:0|0:0|0:0,0:0:0:0:
256,264,15693,1,0,0:0:0:0:
336,328,15909,6,0,P|428:328|484:248,1,190,0|8,0:0|0:0,0:0:0:0:
440,160,16557,1,0,0:0:0:0:
344,120,16772,2,0,B|292:120|256:150|256:150|220:120|168:120,2,190,0|8|0,0:0|0:0|0:0,0:0:0:0:
256,56,17852,5,0,0:0:0:0:
300,223,18067,2,0,P|256:238|212:224,1,95,8|0,0:0|0:0,0:0:0:0:
120,336,18499,2,0,P|164:320|208:335,1,95,0|0,0:0|0:0,0:0:0:0:
392,336,18931,2,0,P|347:320|303:335,1,95,8|0,0:0|0:0,0:0:0:0:
168,216,19362,6,0,P|256:247|344:216,1,190,0|8,0:0|0:0,0:0:0:0:
256,156,20010,1,0,0:0:0:0:
343,99,20226,2,0,P|255:69|168:100,1,190,0|8,0:0|0:0,0:0:0:0:
48,276,21089,6,0,B|72:308|72:308|140:308,1,95,0|0,0:0|0:0,0:0:0:0:
232,308,21521,2,0,B|288:308|288:308|324:272,1,95,8|0,0:0|0:0,0:0:0:0:
320,172,21952,1,0,0:0:0:0:
320,68,22168,2,0,B|272:56|272:56|220:72,1,95,0|8,0:0|0:0,0:0:0:0:
228,69,22600,1,0,0:0:0:0:
124,68,22816,5,0,0:0:0:0:
60,152,23031,1,0,0:0:0:0:
124,236,23247,1,8,0:0:0:0:
208,300,23463,2,0,B|260:300|260:300|296:256,1,95
287,266,23895,1,0,0:0:0:0:
287,266,24111,1,8,0:0:0:0:
312,84,24542,6,0,B|372:84|372:84|396:56,2,95,0|0|8,0:0|0:0|0:0,0:0:0:0:
224,144,25190,2,0,B|164:144|164:144|140:116,2,95,0|0|0,0:0|0:0|0:0,0:0:0:0:
288,224,25837,1,8,0:0:0:0:
224,304,26053,1,0,0:0:0:0:
120,304,26269,1,0,0:0:0:0:
48,228,26485,1,0,0:0:0:0:
48,120,26700,6,0,B|104:120|104:120|128:84,2,95,8|0|0,0:0|0:0|0:0,0:0:0:0:
48,224,27348,2,0,B|104:224|104:224|132:252,1,95,0|8,0:0|0:0,0:0:0:0:
236,252,27780,1,0,0:0:0:0:
340,252,27995,6,0,P|368:164|320:56,2,190,0|8|0,0:0|0:0|0:0,0:0:0:0:
236,252,29075,1,0,0:0:0:0:
132,252,29290,2,0,B|80:252|80:252|48:208,1,95,8|0,0:0|0:0,0:0:0:0:
52,112,29722,1,0,0:0:0:0:
116,32,29938,6,0,B|140:72|140:72|188:72,1,95,0|8,0:0|0:0,0:0:0:0:
288,80,30370,2,0,B|340:80|340:80|360:120,1,95,0|0,0:0|0:0,0:0:0:0:
360,212,30801,1,0,0:0:0:0:
360,212,31017,1,8,0:0:0:0:
204,352,31449,6,0,L|68:204,1,190,0|8,0:0|0:0,0:0:0:0:
120,116,32096,2,0,B|68:116|68:116|16:56,2,95,0|0|0,0:0|0:0|0:0,0:0:0:0:
224,116,32744,2,0,B|272:116|272:116|336:56,2,95,8|0|4,0:0|0:0|0:0,0:0:0:0:
120,304,33823,5,2,0:0:0:0:
204,364,34039,1,0,0:0:0:0:
308,364,34254,1,2,0:0:0:0:
392,304,34470,1,0,0:0:0:0:
256,144,34902,5,4,0:0:0:0:
212,240,35118,1,0,0:0:0:0:
212,240,35334,2,0,B|256:257|256:257|300:240,1,95,8|0,0:0|0:0,0:0:0:0:
344,144,35765,2,0,P|256:114|168:144,1,190,0|8,0:0|0:0,0:0:0:0:
88,216,36413,1,0,0:0:0:0:
88,216,36628,6,0,B|70:260|70:260|88:304,2,95,0|0|8,0:0|0:0|0:0,0:0:0:0:
168,144,37276,2,0,B|186:100|186:100|168:56,2,95,0|0|0,0:0|0:0|0:0,0:0:0:0:
72,100,37923,1,8,0:0:0:0:
72,100,38139,6,0,L|272:100,1,190
344,168,38787,1,8,0:0:0:0:
260,232,39003,2,0,B|236:272|199:304|199:304|236:336|260:376,1,190
336,304,39650,2,0,B|376:304|376:304|384:300|384:300|384:308|384:308|392:304|392:304|424:304,1,95,8|0,0:0|0:0,0:0:0:0:
260,232,40082,6,0,B|220:232|220:232|212:236|212:236|212:228|212:228|204:232|204:232|172:232,1,95,0|0,0:0|0:0,0:0:0:0:
344,168,40514,2,0,B|384:168|384:168|392:164|392:164|392:172|392:172|400:168|400:168|432:168,1,95,8|0,0:0|0:0,0:0:0:0:
256,96,40945,2,0,B|216:96|216:96|208:100|208:100|208:92|208:92|200:96|200:96|168:96,1,95,0|0,0:0|0:0,0:0:0:0:
84,152,41377,1,8,0:0:0:0:
16,232,41593,1,0,0:0:0:0:
16,232,41700,1,0,0:0:0:0:
16,232,41808,6,0,P|16:324|96:372,1,190,4|8,0:0|0:0,0:0:0:0:
188,332,42456,1,0,0:0:0:0:
276,276,42672,2,0,P|244:244|192:228,2,95,0|0|8,0:0|0:0|0:0,0:0:0:0:
188,332,43319,6,0,L|384:288,1,190,0|0,0:0|0:0,0:0:0:0:
456,224,43967,1,8,0:0:0:0:
408,132,44182,2,0,P|364:132|320:104,1,95
256,24,44614,1,0,0:0:0:0:
190,105,44830,2,0,P|150:131|104:132,1,95,8|0,0:0|0:0,0:0:0:0:
56,224,45262,5,0,0:0:0:0:
56,224,45477,2,0,B|56:272|56:272|88:312,1,95,0|8,0:0|0:0,0:0:0:0:
164,236,45909,2,0,B|212:216|256:236|256:236|312:260|348:236,1,190
456,224,46557,1,8,0:0:0:0:
456,224,46772,2,0,B|456:272|456:272|424:312,2,95,0|0|0,0:0|0:0|0:0,0:0:0:0:
408,132,47420,1,8,0:0:0:0:
316,184,47636,6,0,L|260:172,5,47.5,0|0|0|0|0|0,0:0|0:0|0:0|0:0|0:0|0:0,0:0:0:0:
236,136,48283,2,0,L|204:128,8,23.75,8|0|0|0|0|0|0|0|4,0:0|0:0|0:0|0:0|0:0|0:0|0:0|0:0|0:0,0:0:0:0:
152,72,48931,1,0,0:0:0:0:
76,140,49146,2,0,P|80:196|112:216,1,95,8|0,0:0|0:0,0:0:0:0:
216,216,49578,1,0,0:0:0:0:
320,212,49794,2,0,P|352:196|368:132,1,95,0|8,0:0|0:0,0:0:0:0:
296,68,50226,5,0,0:0:0:0:
296,68,50334,1,0,0:0:0:0:
296,68,50441,1,0,0:0:0:0:
192,68,50657,2,0,B|132:68|132:68|116:100,1,95,0|8,0:0|0:0,0:0:0:0:
116,204,51089,1,0,0:0:0:0:
116,204,51305,2,0,B|144:256|144:256|184:256,1,95
284,260,51736,1,8,0:0:0:0:
284,104,51952,1,0,0:0:0:0:
440,104,52168,5,0,0:0:0:0:
440,260,52384,1,0,0:0:0:0:
284,260,52600,1,8,0:0:0:0:
128,260,52816,1,0,0:0:0:0:
104,212,52924,1,0,0:0:0:0:
132,168,53032,1,0,0:0:0:0:
200,92,53247,6,0,B|252:92|252:92|296:32,2,95,0|8|0,0:0|0:0|0:0,0:0:0:0:
200,196,53895,1,0,0:0:0:0:
276,264,54111,1,0,0:0:0:0:
276,264,54218,1,0,0:0:0:0:
276,264,54326,1,8,0:0:0:0:
364,204,54542,6,0,L|404:164,5,47.5,0|0|0|0|0|0,0:0|0:0|0:0|0:0|0:0|0:0,0:0:0:0:
400,120,55190,2,0,L|368:112,8,23.75,8|0|0|0|0|0|0|0|4,0:0|0:0|0:0|0:0|0:0|0:0|0:0|0:0|0:0,0:0:0:0:
256,56,55837,1,0,0:0:0:0:
152,56,56053,2,0,B|100:56|100:56|48:124,1,95,8|0,0:0|0:0,0:0:0:0:
73,293,56485,2,0,B|100:328|100:328|152:328,1,95,8|0,0:0|0:0,0:0:0:0:
256,292,56916,1,8,0:0:0:0:
256,292,57024,1,0,0:0:0:0:
256,292,57132,1,0,0:0:0:0:
360,292,57348,2,0,B|416:292|416:292|452:244,1,95
440,156,57780,5,8,0:0:0:0:
472,52,57995,1,0,0:0:0:0:
472,52,58103,1,0,0:0:0:0:
472,52,58211,1,0,0:0:0:0:
372,80,58427,2,0,B|340:112|340:112|264:112,1,95,0|8,0:0|0:0,0:0:0:0:
88,136,58859,2,0,B|116:164|116:164|200:164,1,95
376,216,59290,2,0,B|344:248|344:248|260:248,1,95,0|8,0:0|0:0,0:0:0:0:
88,296,59722,2,0,B|116:316|116:316|176:316,1,95
280,316,60154,5,0,0:0:0:0:
364,252,60370,1,8,0:0:0:0:
360,148,60585,1,0,0:0:0:0:
280,84,60801,1,0,0:0:0:0:
176,84,61017,1,0,0:0:0:0:
96,152,61233,1,8,0:0:0:0:
96,256,61449,2,0,B|128:300|128:300|192:300,1,95
272,300,61880,2,0,B|308:300|308:300|356:256,2,95,0|8|0,0:0|0:0|0:0,0:0:0:0:
268,196,62528,6,0,L|464:252,1,190,4|0,0:0|0:0,0:0:0:0:
504,340,63175,1,4,1:3:0:0:
451,248,63391,2,0,P|436:204|451:160,1,95,4|0,1:3|0:0,0:0:0:0:
452,71,63823,2,0,P|467:115|452:159,1,95,8|0,0:0|0:0,0:0:0:0:
356,116,64254,2,0,B|320:72|264:72|264:72|172:72,1,190,4|0,1:3|0:0,0:0:0:0:
104,148,64902,2,0,B|87:192|87:192|104:236,1,95,4|4,1:3|1:3,0:0:0:0:
72,336,65334,2,0,L|56:304,4,23.75,8|8|8|8|8,0:0|0:0|0:0|0:0|0:0,0:0:0:0:
176,356,65765,1,0,0:0:0:0:
176,356,65981,6,0,P|256:356|304:268,1,190,4|0,1:3|0:0,0:0:0:0:
256,176,66628,1,4,1:3:0:0:
208,267,66844,2,0,P|245:349|336:356,1,190,4|8,1:3|0:0,0:0:0:0:
428,304,67492,1,0,0:0:0:0:
504,360,67708,2,0,L|336:236,1,190,4|0,1:3|0:0,0:0:0:0:
420,168,68355,1,4,1:3:0:0:
420,168,68571,2,0,P|324:168|268:92,1,190,4|4,1:3|1:3,0:0:0:0:
372,72,69218,1,0,0:0:0:0:
270,99,69434,6,0,B|221:99|221:99|184:136,1,95,4|0,0:0|0:0,0:0:0:0:
164,232,69866,2,0,P|148:276|164:320,2,95,8|0|0,0:0|0:0|0:0,0:0:0:0:
256,280,70513,1,0,0:0:0:0:
348,232,70729,2,0,P|364:276|348:320,1,95,8|0,0:0|0:0,0:0:0:0:
256,280,71161,6,0,L|376:120,1,190,0|8,0:0|0:0,0:0:0:0:
440,52,71808,1,0,0:0:0:0:
340,20,72024,2,0,B|288:20|256:57|256:57|224:20|172:20,2,190,0|8|0,0:0|0:0|0:0,0:0:0:0:
440,52,73103,1,0,0:0:0:0:
384,140,73319,6,0,P|394:181|408:236,1,95,8|0,0:0|0:0,0:0:0:0:
320,284,73751,2,0,P|309:242|296:188,1,95
204,244,74182,2,0,P|214:285|228:340,1,95,8|0,0:0|0:0,0:0:0:0:
124,356,74614,2,0,P|36:356|-4:268,1,190,0|8,0:0|0:0,0:0:0:0:
64,192,75262,1,0,0:0:0:0:
0,110,75477,2,0,P|33:29|124:28,2,190,0|8|0,0:0|0:0|0:0,0:0:0:0:
64,192,76557,1,0,0:0:0:0:
136,268,76772,6,0,B|172:312|172:312|212:312,1,95,8|0,0:0|0:0,0:0:0:0:
316,312,77204,2,0,B|352:312|352:312|392:268,2,95,0|0|8,0:0|0:0|0:0,0:0:0:0:
256,224,77852,1,0,0:0:0:0:
256,120,78067,2,0,P|340:84|428:124,1,190,0|8,0:0|0:0,0:0:0:0:
340,184,78715,1,0,0:0:0:0:
424,244,78931,2,0,P|336:280|252:240,1,190,0|8,0:0|0:0,0:0:0:0:
196,160,79578,1,0,0:0:0:0:
196,160,79686,1,0,0:0:0:0:
196,160,79794,1,0,0:0:0:0:
76,156,80010,6,0,B|76:208|76:208|116:228,1,95,0|8,0:0|0:0,0:0:0:0:
209,228,80441,6,0,B|248:248|248:248|248:300,1,95,0|8,0:0|0:0,0:0:0:0:
360,304,80873,1,0,0:0:0:0:
424,224,81089,1,8,0:0:0:0:
424,120,81305,1,0,0:0:0:0:
360,40,81521,1,0,0:0:0:0:
228,36,81736,6,0,L|180:36,2,47.5,0|0|8,0:0|0:0|0:0,0:0:0:0:
228,140,82168,2,0,L|288:140,2,47.5,0|0|0,0:0|0:0|0:0,0:0:0:0:
144,204,82600,1,0,0:0:0:0:
216,280,82816,2,0,B|272:280|272:280|320:248,2,95,8|0|0,0:0|0:0|0:0,0:0:0:0:
112,284,83463,1,0,0:0:0:0:
76,188,83679,1,8,0:0:0:0:
76,84,83895,6,0,B|108:52|108:52|168:52,1,95
264,52,84326,2,0,B|320:52|320:52|348:80,1,95,0|8,0:0|0:0,0:0:0:0:
352,184,84758,6,0,B|396:184|396:184|432:148,2,95,0|0|0,0:0|0:0|0:0,0:0:0:0:
248,184,85405,1,8,0:0:0:0:
184,104,85621,1,0,0:0:0:0:
80,104,85837,1,0,0:0:0:0:
56,152,85945,1,0,0:0:0:0:
80,200,86053,1,0,0:0:0:0:
140,288,86269,6,0,B|196:288|196:288|224:260,2,95,8|0|0,0:0|0:0|0:0,0:0:0:0:
140,184,86916,1,0,0:0:0:0:
204,100,87132,2,0,B|244:100|244:100|252:96|252:96|252:104|252:104|260:100|260:100|292:100,1,95,8|0,0:0|0:0,0:0:0:0:
332,196,87564,2,0,B|292:196|292:196|284:200|284:200|284:192|284:192|276:196|276:196|244:196,1,95,0|0,0:0|0:0,0:0:0:0:
248,300,87995,1,8,0:0:0:0:
380,300,88211,2,0,B|428:300|428:300|460:264,2,95,0|0|0,0:0|0:0|0:0,0:0:0:0:
248,300,88859,6,0,B|200:300|200:300|168:260,1,95,8|0,0:0|0:0,0:0:0:0:
172,160,89290,1,0,0:0:0:0:
172,160,89398,1,0,0:0:0:0:
172,160,89506,2,0,B|192:112|192:112|244:96,1,95,0|8,0:0|0:0,0:0:0:0:
340,100,89938,1,0,0:0:0:0:
432,152,90154,5,0,0:0:0:0:
480,244,90370,2,0,P|496:288|480:332,1,95,0|8,0:0|0:0,0:0:0:0:
388,384,90801,1,0,0:0:0:0:
300,324,91017,2,0,B|256:307|256:307|212:324,1,95
112,356,91449,2,0,P|190:319|162:238,1,190,8|0,0:0|0:0,0:0:0:0:
96,156,92096,5,0,0:0:0:0:
200,140,92312,2,0,L|300:153,1,95,8|0,0:0|0:0,0:0:0:0:
396,128,92744,2,0,B|384:68|316:52|316:52|244:40,2,190,0|8|0,0:0|0:0|0:0,0:0:0:0:
480,192,93823,5,0,0:0:0:0:
396,256,94039,2,0,P|396:300|368:352,1,95,8|0,0:0|0:0,0:0:0:0:
216,276,94470,2,0,B|256:251|256:251|296:276,1,95
137,345,94902,2,0,P|116:303|116:256,1,95,8|0,0:0|0:0,0:0:0:0:
32,192,95334,1,4,0:0:0:0:
256,20,95981,5,12,0:3:0:0:
308,112,96197,2,0,P|340:80|360:32,1,95,0|12,0:0|0:3,0:0:0:0:
152,34,96628,2,0,P|170:78|204:111,1,95,12|12,0:3|0:3,0:0:0:0:
256,20,97060,6,0,L|256:216,1,190,4|8,0:0|0:0,0:0:0:0:
344,268,97708,1,0,0:0:0:0:
300,364,97923,2,0,P|256:348|212:364,2,95,0|0|8,0:0|0:0|0:0,0:0:0:0:
344,268,98571,6,0,P|256:238|168:268,1,190,0|0,0:0|0:0,0:0:0:0:
80,324,99218,1,8,0:0:0:0:
20,236,99434,2,0,B|38:192|38:192|20:148,1,95
80,60,99866,1,0,0:0:0:0:
176,100,100082,1,8,0:0:0:0:
176,100,100298,6,0,B|256:100|256:100|276:36|336:24,1,190,0|0,0:0|0:0,0:0:0:0:
432,52,100945,1,8,0:0:0:0:
364,132,101161,2,0,B|364:176|364:176|396:216,1,95
476,284,101593,1,0,0:0:0:0:
396,352,101808,6,0,P|352:328|308:328,1,95,8|0,0:0|0:0,0:0:0:0:
116,352,102240,2,0,P|160:328|204:328,2,95,0|0|8,0:0|0:0|0:0,0:0:0:0:
36,284,102887,5,0,0:0:0:0:
36,284,102995,1,0,0:0:0:0:
36,284,103103,2,0,L|12:188,1,95
76,108,103535,1,8,0:0:0:0:
144,28,103751,1,0,0:0:0:0:
144,28,103859,1,0,0:0:0:0:
144,28,103967,5,4,0:0:0:0:
207,113,104182,2,0,B|215:169|215:169|251:193,1,95,0|8,0:0|0:0,0:0:0:0:
352,192,104614,2,0,B|380:172|380:172|400:112,2,95,0|0|0,0:0|0:0|0:0,0:0:0:0:
352,296,105262,1,8,0:0:0:0:
248,296,105477,1,0,0:0:0:0:
248,296,105585,1,0,0:0:0:0:
248,296,105693,1,0,0:0:0:0:
144,296,105909,6,0,P|88:260|96:208,1,95,0|8,0:0|0:0,0:0:0:0:
84,132,106341,1,0,0:0:0:0:
116,88,106449,1,0,0:0:0:0:
152,48,106557,1,0,0:0:0:0:
252,52,106772,2,0,B|260:108|260:108|328:144,1,95,0|8,0:0|0:0,0:0:0:0:
400,128,107204,2,0,B|432:112|432:112|460:40,2,95,0|0|0,0:0|0:0|0:0,0:0:0:0:
404,232,107852,1,8,0:0:0:0:
328,304,108067,5,0,0:0:0:0:
232,304,108283,2,0,B|176:304|176:304|144:256,1,95
152,168,108715,2,0,B|96:168|96:168|68:208,1,95,8|0,0:0|0:0,0:0:0:0:
76,304,109146,1,0,0:0:0:0:
176,268,109362,1,0,0:0:0:0:
264,212,109578,1,8,0:0:0:0:
264,108,109794,1,0,0:0:0:0:
160,108,110010,5,0,0:0:0:0:
192,148,110118,1,0,0:0:0:0:
240,172,110226,1,0,0:0:0:0:
288,148,110334,1,0,0:0:0:0:
320,108,110441,2,0,L|344:84,6,31.6666666666667,8|0|0|0|0|0|4,0:0|0:0|0:0|0:0|0:0|0:0|0:0,0:0:0:0:
424,108,111089,5,0,0:0:0:0:
428,212,111305,1,8,0:0:0:0:
352,284,111521,2,0,B|292:284|292:284|260:256,1,95
200,180,111952,1,0,0:0:0:0:
200,76,112168,2,0,B|264:76|264:76|308:112,1,95,8|0,0:0|0:0,0:0:0:0:
287,95,112492,1,0,0:0:0:0:
287,95,112600,1,0,0:0:0:0:
400,96,112816,6,0,B|448:96|448:96|492:44,2,95,0|8|0,0:0|0:0|0:0,0:0:0:0:
287,95,113463,2,0,B|244:96|244:96|204:128,2,95,0|0|8,0:0|0:0|0:0,0:0:0:0:
360,172,114111,1,0,0:0:0:0:
364,276,114326,2,0,B|332:316|332:316|272:316,1,95
208,316,114758,1,8,0:0:0:0:
124,252,114974,1,0,0:0:0:0:
80,148,115190,2,0,B|112:108|112:108|172:108,1,95
155,108,115513,1,0,0:0:0:0:
155,108,115621,1,8,0:0:0:0:
276,88,115837,5,0,0:0:0:0:
380,88,116053,1,0,0:0:0:0:
456,160,116269,1,0,0:0:0:0:
480,204,116377,1,0,0:0:0:0:
456,252,116485,1,8,0:0:0:0:
352,252,116700,1,0,0:0:0:0:
248,252,116916,5,0,0:0:0:0:
196,244,117024,1,0,0:0:0:0:
152,216,117132,1,0,0:0:0:0:
124,172,117240,1,0,0:0:0:0:
104,124,117348,2,0,L|92:88,8,23.75,8|0|0|0|0|0|0|0|4,0:0|0:0|0:0|0:0|0:0|0:0|0:0|0:0|0:0,0:0:0:0:
212,116,117996,5,0,0:0:0:0:
212,116,118212,2,0,B|256:133|256:133|300:116,1,95,8|0,0:0|0:0,0:0:0:0:
360,28,118643,2,0,P|330:116|360:204,1,190,0|8,0:0|0:0,0:0:0:0:
408,296,119291,1,0,0:0:0:0:
504,340,119506,6,0,B|522:296|522:296|504:252,2,95,0|0|8,0:0|0:0|0:0,0:0:0:0:
408,296,120154,2,0,B|344:296|344:296|288:320|288:320|220:320,1,190
136,264,120801,1,8,0:0:0:0:
60,192,121017,1,0,0:0:0:0:
60,192,121125,1,0,0:0:0:0:
60,192,121233,6,0,P|40:152|40:100,1,95
120,36,121664,2,0,P|140:76|140:128,1,95,8|0,0:0|0:0,0:0:0:0:
60,192,122096,2,0,L|256:136,1,190,0|8,0:0|0:0,0:0:0:0:
300,48,122744,1,0,0:0:0:0:
300,48,122852,1,0,0:0:0:0:
300,48,122959,6,0,P|270:136|300:224,1,190,4|8,0:0|0:0,0:0:0:0:
392,280,123607,1,0,0:0:0:0:
392,280,123715,1,0,0:0:0:0:
392,280,123823,2,0,B|328:280|328:280|284:324,2,126.666666666667,8|8|8,0:0|0:0|0:0,0:0:0:0:
476,89,124686,6,0,B|392:45|392:45|344:25|300:48,1,190,4|0,0:0|0:0,0:0:0:0:
256,152,125334,1,4,1:3:0:0:
212,48,125549,2,0,B|167:25|119:45|119:45|36:89,1,190,4|8,1:3|0:0,0:0:0:0:
16,192,126197,1,0,0:0:0:0:
108,240,126413,6,0,P|148:272|172:320,1,95,4|0,1:3|0:0,0:0:0:0:
404,240,126844,2,0,P|364:272|340:320,1,95,0|4,0:0|1:3,0:0:0:0:
256,368,127276,1,0,0:0:0:0:
256,264,127492,2,0,L|256:228,4,23.75,8|8|8|8|8,0:0|0:0|0:0|0:0|0:0,0:0:0:0:
256,368,127923,1,0,0:0:0:0:
328,172,128139,6,0,B|280:160|256:115|256:115|232:160|184:172,1,190,4|0,1:3|0:0,0:0:0:0:
92,120,128787,1,4,1:3:0:0:
172,52,129003,2,0,P|256:14|340:52,2,190,4|8|12,1:3|0:0|1:3,0:0:0:0:
92,120,130082,5,0,0:0:0:0:
16,192,130298,1,12,1:3:0:0:
16,192,130405,1,12,1:3:0:0:
16,192,130513,1,12,1:3:0:0:
92,264,130729,2,2,B|124:232|124:232|176:232,1,95,0|12,0:0|1:3,0:0:0:0:
252,300,131161,2,2,B|220:332|220:332|168:332,1,95,0|12,0:0|1:3,0:0:0:0:
174,232,131593,5,4,0:0:0:0:
300,104,138499,6,0,B|340:104|340:104|380:44,2,95,4|0|0,1:3|0:0|0:0,0:0:0:0:
196,104,139146,2,0,B|160:104|160:104|104:40,2,95,4|0|0,1:3|0:0|0:0,0:0:0:0:
272,176,139794,1,8,0:0:0:0:
352,244,140010,1,0,0:0:0:0:
276,316,140226,2,0,B|236:316|236:316|176:260,2,95,4|0|0,1:3|0:0|0:0,0:0:0:0:
280,212,140873,2,0,B|324:212|324:212|360:152,2,95,4|0|0,1:3|0:0|0:0,0:0:0:0:
280,212,141521,1,8,0:0:0:0:
176,212,141736,1,0,0:0:0:0:
72,212,141952,6,0,P|80:80|152:52,1,190,4|0,1:3|0:0,0:0:0:0:
224,60,142600,2,0,B|272:60|272:60|320:16,2,95,4|0|0,1:3|0:0|0:0,0:0:0:0:
120,60,143247,1,8,0:0:0:0:
120,60,143463,1,0,0:0:0:0:
120,164,143679,2,0,P|196:276|268:256,1,190,4|0,1:3|0:0,0:0:0:0:
340,276,144326,2,0,B|384:276|384:276|440:224,1,95,4|0,1:3|0:0,0:0:0:0:
421,241,144758,1,0,0:0:0:0:
421,241,144974,1,8,0:0:0:0:
420,136,145190,5,0,0:0:0:0:
336,76,145405,2,0,B|300:32|300:32|232:32,1,95,4|0,1:3|0:0,0:0:0:0:
156,32,145837,1,0,0:0:0:0:
156,136,146053,1,4,1:3:0:0:
160,240,146269,2,0,B|104:240|104:240|60:192,2,95,0|0|8,0:0|0:0|0:0,0:0:0:0:
264,240,146916,1,0,0:0:0:0:
368,240,147132,2,0,B|416:240|416:240|448:188,1,95,4|0,1:3|0:0,0:0:0:0:
440,96,147564,2,0,B|416:56|416:56|348:56,1,95,0|4,0:0|1:3,0:0:0:0:
264,60,147995,2,0,B|220:60|220:60|172:20,1,95
180,27,148427,5,8,0:0:0:0:
72,80,148643,1,0,0:0:0:0:
72,80,148859,6,0,P|80:200|164:256,1,190,4|0,1:3|0:0,0:0:0:0:
232,248,149506,2,0,B|280:248|280:248|328:184,2,95,4|0|0,1:3|0:0|0:0,0:0:0:0:
126,243,150154,1,8,0:0:0:0:
124,144,150370,5,0,0:0:0:0:
204,76,150585,2,0,B|264:64|264:64|324:88|324:88|400:68,1,190,4|0,1:3|0:0,0:0:0:0:
386,71,151449,1,0,0:0:0:0:
256,192,152312,12,2,155334,0:0:0:0:
256,144,155765,5,4,0:0:0:0:
300,240,155981,1,0,0:0:0:0:
300,240,156197,2,0,B|256:257|256:257|212:240,1,95,8|0,0:0|0:0,0:0:0:0:
168,144,156628,2,0,P|256:114|344:144,1,190,0|8,0:0|0:0,0:0:0:0:
424,216,157276,1,0,0:0:0:0:
424,216,157491,6,0,B|442:260|442:260|424:304,2,95,0|0|8,0:0|0:0|0:0,0:0:0:0:
344,144,158139,2,0,B|326:100|326:100|344:56,2,95,0|0|0,0:0|0:0|0:0,0:0:0:0:
440,100,158786,1,8,0:0:0:0:
440,100,159002,6,0,L|240:100,1,190
168,168,159650,1,8,0:0:0:0:
252,232,159866,2,0,B|276:272|313:304|313:304|276:336|252:376,1,190
176,304,160513,2,0,B|136:304|136:304|128:300|128:300|128:308|128:308|120:304|120:304|88:304,1,95,8|0,0:0|0:0,0:0:0:0:
252,232,160945,6,0,B|292:232|292:232|300:236|300:236|300:228|300:228|308:232|308:232|340:232,1,95,0|0,0:0|0:0,0:0:0:0:
168,168,161377,2,0,B|128:168|128:168|120:164|120:164|120:172|120:172|112:168|112:168|80:168,1,95,8|0,0:0|0:0,0:0:0:0:
256,96,161808,2,0,B|296:96|296:96|304:100|304:100|304:92|304:92|312:96|312:96|344:96,1,95,0|0,0:0|0:0,0:0:0:0:
428,152,162240,1,8,0:0:0:0:
496,232,162456,1,0,0:0:0:0:
496,232,162563,1,0,0:0:0:0:
496,232,162671,6,0,P|496:324|416:372,1,190,4|8,0:0|0:0,0:0:0:0:
324,332,163319,1,0,0:0:0:0:
236,276,163535,2,0,P|268:244|320:228,2,95,0|0|8,0:0|0:0|0:0,0:0:0:0:
324,332,164182,6,0,L|128:288,1,190,0|0,0:0|0:0,0:0:0:0:
56,224,164830,1,8,0:0:0:0:
104,132,165045,2,0,P|148:132|192:104,1,95
256,24,165477,1,0,0:0:0:0:
322,105,165693,2,0,P|362:131|408:132,1,95,8|0,0:0|0:0,0:0:0:0:
456,224,166125,5,0,0:0:0:0:
456,224,166340,2,0,B|456:272|456:272|424:312,1,95,0|8,0:0|0:0,0:0:0:0:
348,236,166772,2,0,B|300:216|256:236|256:236|200:260|164:236,1,190
56,224,167420,1,8,0:0:0:0:
56,224,167635,2,0,B|56:272|56:272|88:312,2,95,0|0|0,0:0|0:0|0:0,0:0:0:0:
104,132,168283,1,8,0:0:0:0:
196,184,168499,6,0,L|252:172,5,47.5,0|0|0|0|0|0,0:0|0:0|0:0|0:0|0:0|0:0,0:0:0:0:
276,136,169146,2,0,L|308:128,8,23.75,8|0|0|0|0|0|0|0|4,0:0|0:0|0:0|0:0|0:0|0:0|0:0|0:0|0:0,0:0:0:0:
380,136,169794,1,0,0:0:0:0:
432,228,170010,1,8,0:0:0:0:
392,260,170118,1,0,0:0:0:0:
340,244,170226,1,0,0:0:0:0:
236,244,170441,2,0,B|176:244|176:244|144:208,1,95
152,217,170765,1,0,0:0:0:0:
152,217,170873,1,8,0:0:0:0:
152,112,171089,6,0,L|112:80,2,47.5,0|0|0,0:0|0:0|0:0,0:0:0:0:
240,56,171521,2,0,B|288:92|288:92|360:92,1,95,0|8,0:0|0:0,0:0:0:0:
428,96,171952,1,0,0:0:0:0:
428,200,172168,1,0,0:0:0:0:
336,148,172384,1,0,0:0:0:0:
340,252,172600,1,8,0:0:0:0:
248,304,172816,6,0,B|216:280|216:280|172:280|172:280|144:260,2,95,0|4|0,0:0|0:0|0:0,0:0:0:0:
248,304,173463,1,8,0:0:0:0:
352,304,173679,2,0,B|388:304|388:304|412:256|412:256|424:224,1,95
412,144,174111,1,0,0:0:0:0:
336,76,174326,2,0,B|392:76|392:76|444:28,2,95,8|0|0,0:0|0:0|0:0,0:0:0:0:
112,84,174974,1,0,0:0:0:0:
112,84,175082,1,0,0:0:0:0:
112,84,175190,1,8,0:0:0:0:
112,196,175405,5,0,0:0:0:0:
224,196,175621,1,0,0:0:0:0:
248,148,175729,1,0,0:0:0:0:
284,112,175837,1,0,0:0:0:0:
336,96,175945,1,0,0:0:0:0:
388,88,176053,2,0,L|416:80,8,23.75,8|0|0|0|0|0|4|0|4,0:0|0:0|0:0|0:0|0:0|0:0|0:0|0:0|0:0,0:0:0:0:
392,192,176700,6,0,B|384:240|384:240|328:288,1,95,0|8,0:0|0:0,0:0:0:0:
284,188,177132,2,0,B|252:216|252:216|236:268,1,95
132,264,177564,1,0,0:0:0:0:
80,172,177780,2,0,B|80:116|80:116|128:76,1,95,8|0,0:0|0:0,0:0:0:0:
216,92,178211,1,0,0:0:0:0:
276,256,178427,1,0,0:0:0:0:
336,92,178643,1,8,0:0:0:0:
276,256,178859,1,0,0:0:0:0:
216,92,179075,6,0,B|176:52|176:52|128:52,1,95
60,124,179506,1,8,0:0:0:0:
60,228,179722,2,0,B|112:228|112:228|168:184,1,95
148,96,180154,2,0,B|188:68|188:68|248:68,1,95,0|8,0:0|0:0,0:0:0:0:
340,68,180585,2,0,B|384:68|384:68|436:20,2,95,0|0|0,0:0|0:0|0:0,0:0:0:0:
236,68,181233,1,8,0:0:0:0:
144,116,181449,6,0,B|96:144|96:144|96:200,1,95
192,228,181880,2,0,B|232:208|232:208|248:140,2,95,0|8|0,0:0|0:0|0:0,0:0:0:0:
172,124,182528,5,0,0:0:0:0:
52,52,182744,1,12,0:3:0:0:
68,156,182959,1,12,0:0:0:0:
144,40,183175,1,12,0:3:0:0:
116,212,183391,6,0,P|88:288|172:288,1,190,4|0,0:0|0:0,0:0:0:0:
256,232,184039,1,4,1:3:0:0:
342,291,184254,2,0,B|342:335|342:335|306:379,1,95,4|0,1:3|0:0,0:0:0:0:
170,291,184686,2,0,B|170:335|170:335|202:374,1,95,8|0,0:0|0:0,0:0:0:0:
342,291,185118,2,0,P|424:289|397:213,1,190,4|0,1:3|0:0,0:0:0:0:
476,144,185765,1,4,1:3:0:0:
397,213,185981,5,0,0:0:0:0:
476,144,186197,2,0,L|496:120,4,23.75,8|8|8|8|8,0:0|0:0|0:0|0:0|0:0,0:0:0:0:
388,88,186628,1,4,1:3:0:0:
296,36,186844,6,0,P|200:36|144:104,1,190,4|0,1:3|0:0,0:0:0:0:
200,192,187492,1,4,1:3:0:0:
144,280,187708,2,0,P|204:349|296:348,2,190,4|8|4,1:3|0:0|1:3,0:0:0:0:
88,192,188787,1,0,0:0:0:0:
156,112,189003,6,0,P|199:96|243:112,1,95,0|4,0:0|1:3,0:0:0:0:
404,188,189434,2,0,P|360:203|316:187,2,95,0|0|0,0:0|0:0|0:0,0:0:0:0:
484,120,190082,1,0,0:0:0:0:
404,52,190298,1,0,0:0:0:0:
256,192,190405,12,0,191161,0:0:0:0:
