osu file format v14

[General]
AudioFilename: One Direction - Up All Night.mp3
AudioLeadIn: 0
PreviewTime: 34848
Countdown: 0
SampleSet: Soft
StackLeniency: 0.3
Mode: 0
LetterboxInBreaks: 0
WidescreenStoryboard: 1

[Editor]
Bookmarks: 7276,21089,34902,48715,62528,76341,90154,103967,117780,131593,138499,155765,169578,183391,191161
DistanceSpacing: 1.1
BeatDivisor: 4
GridSize: 4
TimelineZoom: 1.6

[Metadata]
Title:Up All Night
TitleUnicode:Up All Night
Artist:One Direction
ArtistUnicode:One Direction
Creator:-Ziam-
Version:Relaxing
Source:
Tags:Ziam Gero Take Me Home Boy Band Irish Columbia Records Syco Music Sony Music Zayn Malik Harry Styles Louis Tomlinson Niall Horan Liam Payne
BeatmapID:482509
BeatmapSetID:204344

[Difficulty]
HPDrainRate:2
CircleSize:3
OverallDifficulty:2
ApproachRate:3
SliderMultiplier:0.999999999999999
SliderTickRate:2

[Events]
//Background and Video events
0,0,"BG.png",0,0
//Break Periods
2,131792,143965
//Storyboard Layer 0 (Background)
//Storyboard Layer 1 (Fail)
//Storyboard Layer 2 (Pass)
//Storyboard Layer 3 (Foreground)
//Storyboard Sound Samples

[TimingPoints]
370,431.654676258993,4,2,0,80,1,0
7600,-100,4,2,1,80,0,0
7816,-100,4,2,0,80,0,0
11916,-100,4,2,1,80,0,0
12132,-100,4,2,0,80,0,0
17959,-100,4,2,1,80,0,0
18175,-100,4,2,0,80,0,0
20549,-100,4,2,1,80,0,0
20765,-100,4,2,0,80,0,0
24866,-100,4,2,1,80,0,0
25082,-100,4,2,0,80,0,0
28319,-100,4,2,1,80,0,0
28535,-100,4,2,0,80,0,0
31772,-100,4,2,1,80,0,0
31988,-100,4,2,0,80,0,0
34902,-100,4,1,0,80,0,1
35226,-100,4,2,1,80,0,1
35441,-100,4,2,0,80,0,1
37816,-100,4,2,1,80,0,1
38031,-100,4,2,0,80,0,1
38031,-100,4,2,0,80,0,1
41700,-100,4,1,0,80,0,0
41808,-100,4,1,0,80,0,1
42995,-100,4,2,1,80,0,1
43211,-100,4,2,0,80,0,1
46449,-100,4,2,1,80,0,1
46664,-100,4,2,0,80,0,1
48607,-100,4,1,0,80,0,0
48715,-100,4,1,0,80,0,1
50765,-100,4,2,1,80,0,1
50765,-100,4,2,1,80,0,1
50981,-100,4,2,0,80,0,1
50981,-100,4,2,0,80,0,1
50981,-100,4,2,0,80,0,1
53355,-100,4,2,1,80,0,1
53571,-100,4,2,0,80,0,1
55513,-100,4,1,0,80,0,0
55621,-100,4,1,0,80,0,1
58535,-100,4,2,1,80,0,1
58751,-100,4,2,0,80,0,1
62528,-100,4,2,0,80,0,0
62852,-100,4,2,1,80,0,0
63067,-100,4,2,0,80,0,0
65441,-100,4,2,1,80,0,0
65657,-100,4,2,0,80,0,0
68463,-100,4,2,1,80,0,0
68679,-100,4,2,0,80,0,0
68895,-100,4,2,1,80,0,0
69111,-100,4,2,0,80,0,0
69434,-100,4,2,0,80,0,0
77528,-100,4,2,1,80,0,0
77744,-100,4,2,0,80,0,0
80981,-100,4,2,1,80,0,0
81197,-100,4,2,0,80,0,0
83571,-100,4,2,1,80,0,0
83787,-100,4,2,0,80,0,0
87024,-100,4,2,1,80,0,0
87240,-100,4,2,0,80,0,0
91341,-100,4,2,1,80,0,0
91557,-100,4,2,0,80,0,0
95927,-100,4,2,1,80,0,0
96035,-100,4,2,0,80,0,0
96359,-100,4,2,1,80,0,0
96467,-100,4,2,0,80,0,0
96575,-100,4,2,1,80,0,0
96682,-100,4,2,0,80,0,0
96790,-100,4,2,1,80,0,0
96898,-100,4,2,0,80,0,0
97060,-100,4,1,0,80,0,1
103427,-100,4,2,1,80,0,1
103643,-100,4,2,0,80,0,1
103859,-100,4,1,0,80,0,0
103967,-100,4,1,0,80,0,1
110334,-100,4,2,1,80,0,1
110549,-100,4,2,0,80,0,1
110765,-100,4,1,0,80,0,0
110873,-100,4,1,0,80,0,1
114650,-100,4,2,1,80,0,1
114866,-100,4,2,0,80,0,1
117672,-100,4,1,0,80,0,0
117780,-100,4,1,0,80,0,1
124686,-100,4,2,0,80,0,0
149182,-100,4,2,1,80,0,0
149398,-100,4,2,0,80,0,0
155765,-100,4,1,0,80,0,1
156089,-100,4,2,1,80,0,1
156305,-100,4,2,0,80,0,1
162564,-100,4,1,0,80,0,0
162672,-100,4,1,0,80,0,1
162995,-100,4,2,1,80,0,1
163211,-100,4,2,0,80,0,1
168607,-100,4,2,1,80,0,1
168823,-100,4,2,0,80,0,1
169039,-100,4,2,1,80,0,1
169254,-100,4,2,0,80,0,1
169470,-100,4,1,0,80,0,0
169578,-100,4,1,0,80,0,1
175513,-100,4,2,1,80,0,1
175729,-100,4,2,0,80,0,1
175945,-100,4,2,1,80,0,1
176161,-100,4,2,0,80,0,1
176377,-100,4,1,0,80,0,0
176485,-100,4,1,0,80,0,1
183391,-100,4,2,0,80,0,0
183715,-100,4,2,1,80,0,0
183931,-100,4,2,0,80,0,0
187168,-100,4,2,1,80,0,0
187384,-100,4,2,0,80,0,0
190405,-100,4,2,0,5,0,0

[Colours]
Combo1 : 247,213,196
Combo2 : 148,210,111
Combo3 : 255,66,66
Combo4 : 209,209,209
Combo5 : 255,176,138
Combo6 : 222,205,173
Combo7 : 183,255,255
Combo8 : 238,236,191

[HitObjects]
68,84,7276,6,0,P|80:240|208:296,1,300,0|8,0:0|0:0,0:0:0:0:
308,296,9003,1,0,0:0:0:0:
372,204,9434,2,0,L|408:104,2,99.9999999999999,8|0|8,0:0|0:0|0:0,0:0:0:0:
304,120,10729,1,0,0:0:0:0:
192,120,11161,1,8,0:0:0:0:
92,168,11593,2,0,B|104:244|104:244|168:244|168:244|208:308,1,200
312,294,12887,2,0,B|344:244|344:244|408:244|408:244|420:168,1,200,8|8,0:0|0:0,0:0:0:0:
348,84,14182,1,0,0:0:0:0:
240,68,14614,6,0,L|132:120,1,99.9999999999999,8|0,0:0|0:0,0:0:0:0:
200,212,15477,2,0,L|100:264,1,99.9999999999999,8|0,0:0|0:0,0:0:0:0:
200,324,16341,2,0,L|312:324,2,99.9999999999999,8|0|8,0:0|0:0|0:0,0:0:0:0:
148,228,17636,2,0,P|256:140|364:232,1,300,0|8,0:0|0:0,0:0:0:0:
256,244,19362,1,0,0:0:0:0:
192,324,19794,2,0,P|330:338|459:236,1,300,8|0,0:0|0:0,0:0:0:0:
468,144,21521,5,8,0:0:0:0:
372,92,21952,2,0,P|324:72|272:104,1,99.9999999999999,0|8,0:0|0:0,0:0:0:0:
260,196,22816,2,0,P|212:216|160:184,1,99.9999999999999,0|8,0:0|0:0,0:0:0:0:
116,108,23679,1,0,0:0:0:0:
60,204,24111,1,8,0:0:0:0:
136,284,24542,2,0,P|288:304|408:220,1,300,0|8,0:0|0:0,0:0:0:0:
356,132,26269,2,0,P|404:120|452:132,2,99.9999999999999,0|8|0,0:0|0:0|0:0,0:0:0:0:
256,76,27564,1,8,0:0:0:0:
148,80,27995,6,0,B|124:172|224:224|224:224|272:360,1,300,0|8,0:0|0:0,0:0:0:0:
368,300,29722,1,0,0:0:0:0:
412,200,30154,2,0,L|460:112,2,99.9999999999999,8|0|8,0:0|0:0|0:0,0:0:0:0:
324,268,31449,2,0,B|240:248|160:144|160:144|64:124,1,300
72,236,33175,1,4,0:0:0:0:
256,100,34039,1,2,0:0:0:0:
256,208,34470,1,8,0:0:0:0:
364,192,34902,6,0,P|400:312|260:312,1,300,0|8,0:0|0:0,0:0:0:0:
196,232,36628,1,0,0:0:0:0:
264,144,37060,1,8,0:0:0:0:
196,56,37492,2,0,B|108:80|108:80|48:168|48:168|48:284,1,300,0|8,0:0|0:0,0:0:0:0:
148,312,39218,2,0,P|192:340|248:352,2,99.9999999999999,0|8|0,0:0|0:0|0:0,0:0:0:0:
216,228,40513,1,8,0:0:0:0:
312,176,40945,1,0,0:0:0:0:
408,124,41377,2,0,P|432:172|416:236,1,99.9999999999999,8|0,0:0|0:0,0:0:0:0:
360,304,42240,1,8,0:0:0:0:
256,264,42672,6,0,B|216:172|216:172|136:216|136:216|64:112,1,300,0|8,0:0|0:0,0:0:0:0:
160,60,44398,1,0,0:0:0:0:
256,60,44830,1,8,0:0:0:0:
352,60,45262,1,0,0:0:0:0:
437,126,45693,2,0,B|376:216|376:216|296:172|296:172|256:264,1,300,8|0,0:0|0:0,0:0:0:0:
152,224,47420,1,8,0:0:0:0:
116,120,47852,6,0,L|28:40,2,99.9999999999999,0|8|0,0:0|0:0|0:0,0:0:0:0:
216,80,49146,1,8,0:0:0:0:
320,120,49578,1,0,0:0:0:0:
424,88,50010,2,0,P|424:200|264:308,1,300,8|0,0:0|0:0,0:0:0:0:
212,224,51736,1,8,0:0:0:0:
120,284,52168,1,0,0:0:0:0:
84,180,52600,2,0,P|152:88|340:64,1,300,8|0,0:0|0:0,0:0:0:0:
404,136,54326,2,0,P|460:108|496:72,2,99.9999999999999,8|0|8,0:0|0:0|0:0,0:0:0:0:
404,248,55621,5,0,0:0:0:0:
316,312,56053,1,8,0:0:0:0:
212,276,56485,2,0,L|96:244,2,99.9999999999999,0|8|0,0:0|0:0|0:0,0:0:0:0:
248,172,57780,2,0,B|276:64|276:64|64:64,1,300,8|0,0:0|0:0,0:0:0:0:
84,176,59506,2,0,P|104:224|164:244,1,99.9999999999999,8|0,0:0|0:0,0:0:0:0:
244,228,60370,2,0,P|289:253|348:232,1,99.9999999999999,8|0,0:0|0:0,0:0:0:0:
360,144,61233,2,0,P|416:140|452:96,2,99.9999999999999,8|2|8,0:0|0:0|0:0,0:0:0:0:
284,64,62528,6,0,P|172:88|76:240,1,300,0|8,0:0|0:0,0:0:0:0:
164,300,64254,1,0,0:0:0:0:
248,228,64686,1,8,0:0:0:0:
260,120,65118,2,0,P|380:104|464:256,1,300,0|8,0:0|0:0,0:0:0:0:
364,284,66844,2,0,P|396:328|460:344,2,99.9999999999999,0|8|0,0:0|0:0|0:0,0:0:0:0:
340,176,68139,2,0,B|288:104|288:104|176:104|176:104|84:64,1,300,0|4,0:0|0:0,0:0:0:0:
98,174,69866,5,8,0:0:0:0:
200,216,70298,2,0,P|182:263|131:298,2,99.9999999999999,0|8|0,0:0|0:0|0:0,0:0:0:0:
312,216,71593,2,0,P|330:263|381:298,2,99.9999999999999,8|0|8,0:0|0:0|0:0,0:0:0:0:
404,162,72887,1,0,0:0:0:0:
332,78,73319,1,8,0:0:0:0:
222,69,73751,2,0,P|178:104|117:115,1,99.9999999999999,0|8,0:0|0:0,0:0:0:0:
272,178,74614,2,0,P|228:213|167:224,1,99.9999999999999,0|8,0:0|0:0,0:0:0:0:
81,257,75477,2,0,L|154:330,2,99.9999999999999,0|8|0,0:0|0:0|0:0,0:0:0:0:
105,149,76772,5,8,0:0:0:0:
171,61,77204,2,0,B|250:69|297:183|297:183|421:184,1,300,0|8,0:0|0:0,0:0:0:0:
464,96,78931,2,0,L|348:96,1,99.9999999999999,0|8,0:0|0:0,0:0:0:0:
249,92,79794,1,0,0:0:0:0:
144,56,80226,1,8,0:0:0:0:
47,108,80657,2,0,B|118:139|118:139|127:195|127:195|195:238,1,200
292,242,81952,2,0,P|342:269|368:316,2,99.9999999999999,8|0|8,0:0|0:0|0:0,0:0:0:0:
236,147,83247,2,0,B|178:66|178:66|268:38|268:38|377:38,1,300,0|8,0:0|0:0,0:0:0:0:
390,147,84974,6,0,P|445:129|484:84,2,99.9999999999999,0|8|0,0:0|0:0|0:0,0:0:0:0:
430,249,86269,1,8,0:0:0:0:
374,346,86700,2,0,B|268:346|268:346|178:318|178:318|236:237,1,300,0|8,0:0|0:0,0:0:0:0:
303,149,88427,2,0,P|358:132|394:79,1,99.9999999999999,0|8,0:0|0:0,0:0:0:0:
280,40,89290,2,0,P|225:57|189:110,1,99.9999999999999,0|8,0:0|0:0,0:0:0:0:
104,144,90154,1,0,0:0:0:0:
55,242,90585,1,8,0:0:0:0:
131,321,91017,2,0,B|226:288|258:202|378:146,1,300,0|8,0:0|0:0,0:0:0:0:
444,232,92744,5,0,0:0:0:0:
344,277,93175,1,8,0:0:0:0:
307,173,93607,2,0,P|336:129|337:68,2,99.9999999999999,0|8|0,0:0|0:0|0:0,0:0:0:0:
204,133,94902,1,8,0:0:0:0:
93,134,95334,1,4,0:0:0:0:
120,240,95765,2,0,B|180:281|180:281|329:281|329:281|405:238,1,300
404,132,97492,5,8,0:0:0:0:
312,71,97923,1,0,0:0:0:0:
201,71,98355,2,0,L|85:260,1,200,8|8,0:0|0:0,0:0:0:0:
206,245,99650,2,0,L|153:332,2,99.9999999999999,0|8|0,0:0|0:0|0:0,0:0:0:0:
313,220,100945,1,8,0:0:0:0:
354,118,101377,1,0,0:0:0:0:
252,77,101808,2,0,P|200:67|152:26,2,99.9999999999999,8|0|8,0:0|0:0|0:0,0:0:0:0:
362,80,103103,2,0,P|357:188|283:263,1,200
204,198,104398,6,0,P|154:175|125:125,1,99.9999999999999,8|0,0:0|0:0,0:0:0:0:
204,59,105262,2,0,P|233:99|279:119,1,99.9999999999999,8|0,0:0|0:0,0:0:0:0:
386,94,106125,1,8,0:0:0:0:
416,199,106557,1,0,0:0:0:0:
347,284,106988,2,0,L|460:313,2,99.9999999999999,8|0|8,0:0|0:0|0:0,0:0:0:0:
272,203,108283,2,0,L|165:177,1,99.9999999999999,0|8,0:0|0:0,0:0:0:0:
103,78,109146,1,0,0:0:0:0:
213,79,109578,2,0,B|310:79|310:79|390:126|390:126|425:233,1,300,8|0,0:0|0:0,0:0:0:0:
345,308,111305,1,8,0:0:0:0:
255,244,111736,1,0,0:0:0:0:
147,267,112168,6,0,L|58:332,2,99.9999999999999,8|0|8,0:0|0:0|0:0,0:0:0:0:
85,176,113463,1,0,0:0:0:0:
120,71,113895,1,8,0:0:0:0:
229,63,114326,2,0,P|407:98|436:209,1,300,0|8,0:0|0:0,0:0:0:0:
361,273,116053,1,0,0:0:0:0:
257,234,116485,2,0,L|257:337,2,99.9999999999999,8|0|8,0:0|0:0|0:0,0:0:0:0:
259,123,117780,5,0,0:0:0:0:
333,42,118211,2,0,L|428:111,1,99.9999999999999,8|0,0:0|0:0,0:0:0:0:
289,133,119075,2,0,L|288:239,1,99.9999999999999,8|0,0:0|0:0,0:0:0:0:
192,287,119938,2,0,P|148:315|94:319,2,99.9999999999999,8|2|8,0:0|0:0|0:0,0:0:0:0:
135,192,121233,5,0,0:0:0:0:
202,104,121664,2,0,L|123:43,2,99.9999999999999,8|2|8,0:0|0:0|0:0,0:0:0:0:
310,104,122959,2,0,L|389:43,2,99.9999999999999,2|8|8,0:0|0:0|0:0,0:0:0:0:
359,202,124254,5,0,0:0:0:0:
293,290,124686,1,8,0:0:0:0:
190,250,125118,2,0,L|102:313,2,99.9999999999999,0|8|0,0:0|0:0|0:0,0:0:0:0:
141,151,126413,1,8,0:0:0:0:
213,68,126844,1,0,0:0:0:0:
323,65,127276,2,0,P|413:140|429:237,1,200,8|8,0:0|0:0,0:0:0:0:
352,293,128571,2,0,L|459:333,2,99.9999999999999,0|8|0,0:0|0:0|0:0,0:0:0:0:
255,239,129866,1,8,0:0:0:0:
186,152,130298,5,0,0:0:0:0:
290,117,130729,2,0,P|330:84|399:77,2,99.9999999999999,8|0|8,0:0|0:0|0:0,0:0:0:0:
163,135,145405,6,0,L|73:86,2,99.9999999999999,0|8|0,0:0|0:0|0:0,0:0:0:0:
256,76,146700,1,8,0:0:0:0:
349,135,147132,2,0,L|439:86,2,99.9999999999999,0|8|0,0:0|0:0|0:0,0:0:0:0:
348,245,148427,5,8,0:0:0:0:
251,298,148859,2,0,B|165:262|155:137|155:137|85:64,1,300,0|8,0:0|0:0,0:0:0:0:
204,40,150585,2,0,L|320:40,2,99.9999999999999,0|8|4,0:0|0:0|0:0,0:0:0:0:
256,192,151772,12,0,154470,0:0:0:0:
132,92,155765,6,0,P|237:126|304:205,1,200
389,248,157060,2,0,L|303:331,1,99.9999999999999,8|0,0:0|0:0,0:0:0:0:
194,317,157923,2,0,L|123:248,1,99.9999999999999,8|0,0:0|0:0,0:0:0:0:
152,141,158787,2,0,P|99:102|89:51,2,99.9999999999999,8|0|8,0:0|0:0|0:0,0:0:0:0:
229,63,160082,2,0,P|279:82|308:130,1,99.9999999999999,0|8,0:0|0:0,0:0:0:0:
392,185,160945,1,0,0:0:0:0:
355,288,161377,2,0,L|456:288,2,99.9999999999999,8|0|8,0:0|0:0|0:0,0:0:0:0:
245,282,162672,2,0,L|98:114,1,200
210,79,163967,6,0,L|313:79,2,99.9999999999999,8|0|8,0:0|0:0|0:0,0:0:0:0:
231,186,165262,1,0,0:0:0:0:
335,219,165693,1,8,0:0:0:0:
382,318,166125,2,0,P|435:297|473:260,2,99.9999999999999,0|8|0,0:0|0:0|0:0,0:0:0:0:
273,300,167420,1,8,0:0:0:0:
187,230,167852,1,0,0:0:0:0:
114,312,168283,2,0,P|75:161|180:66,1,300,8|4,0:0|0:0,0:0:0:0:
250,142,170010,1,8,0:0:0:0:
354,106,170441,1,0,0:0:0:0:
358,215,170873,6,0,P|419:193|442:150,2,99.9999999999999,8|0|8,0:0|0:0|0:0,0:0:0:0:
280,293,172168,2,0,L|161:293,1,99.9999999999999,0|8,0:0|0:0,0:0:0:0:
119,201,173031,1,0,0:0:0:0:
67,103,173463,1,8,0:0:0:0:
170,64,173895,2,0,L|228:155,2,99.9999999999999,0|8|0,0:0|0:0|0:0,0:0:0:0:
94,143,175190,2,0,P|135:269|291:306,1,300,8|4,0:0|0:0,0:0:0:0:
394,303,176916,2,0,P|440:275|463:221,1,99.9999999999999,8|0,0:0|0:0,0:0:0:0:
351,219,177780,2,0,P|380:173|377:115,1,99.9999999999999,8|0,0:0|0:0,0:0:0:0:
274,153,178643,2,0,P|289:101|270:45,1,99.9999999999999,8|2,0:0|0:0,0:0:0:0:
172,89,179506,5,0,0:0:0:0:
114,183,179938,1,0,0:0:0:0:
194,258,180370,2,0,B|154:290|154:290|127:341,2,99.9999999999999,8|2|0,0:0|0:0|0:0,0:0:0:0:
318,258,181664,2,0,B|358:290|358:290|385:341,2,99.9999999999999,2|8|0,0:0|0:0|0:0,0:0:0:0:
256,166,182959,1,8,0:0:0:0:
172,96,183391,2,0,P|278:53|351:111,1,200
381,187,184686,2,0,P|423:155|452:109,2,99.9999999999999,8|0|8,0:0|0:0|0:0,0:0:0:0:
301,262,185981,5,0,0:0:0:0:
228,178,186413,1,8,0:0:0:0:
129,225,186844,2,0,P|135:110|218:68,1,200
224,177,188139,2,0,L|326:221,2,99.9999999999999,8|0|8,0:0|0:0|0:0,0:0:0:0:
271,77,189434,1,0,0:0:0:0:
363,136,189866,1,8,0:0:0:0:
418,231,190298,1,4,0:0:0:0:
256,192,190513,12,0,191916,0:0:0:0:
