osu file format v14

[General]
AudioFilename: One Direction - Up All Night.mp3
AudioLeadIn: 0
PreviewTime: 34848
Countdown: 0
SampleSet: Soft
StackLeniency: 0.3
Mode: 0
LetterboxInBreaks: 0
WidescreenStoryboard: 1

[Editor]
Bookmarks: 7276,21089,34902,48715,62528,76341,90154,103967,117780,131593,138499,155765,169578,183391,191161
DistanceSpacing: 1.1
BeatDivisor: 4
GridSize: 4
TimelineZoom: 1.6

[Metadata]
Title:Up All Night
TitleUnicode:Up All Night
Artist:One Direction
ArtistUnicode:One Direction
Creator:-Ziam-
Version:Average
Source:
Tags:Ziam Gero Take Me Home Boy Band Irish Columbia Records Syco Music Sony Music Zayn Malik Harry Styles Louis Tomlinson Niall Horan Liam Payne
BeatmapID:482510
BeatmapSetID:204344

[Difficulty]
HPDrainRate:2
CircleSize:3
OverallDifficulty:2
ApproachRate:3
SliderMultiplier:0.799999999999999
SliderTickRate:2

[Events]
//Background and Video events
0,0,"BG.png",0,0
//Break Periods
2,131793,137059
//Storyboard Layer 0 (Background)
//Storyboard Layer 1 (Fail)
//Storyboard Layer 2 (Pass)
//Storyboard Layer 3 (Foreground)
//Storyboard Sound Samples

[TimingPoints]
370,431.654676258993,4,2,0,80,1,0
12780,-100,4,2,1,80,0,0
12995,-100,4,2,0,80,0,0
23139,-100,4,2,1,80,0,0
23355,-100,4,2,0,80,0,0
31772,-100,4,2,1,80,0,0
31988,-100,4,2,0,80,0,0
34902,-100,4,1,0,80,0,1
41700,-100,4,1,0,80,0,0
41808,-100,4,1,0,80,0,1
48607,-100,4,1,0,80,0,0
48715,-100,4,1,0,80,0,1
55513,-100,4,1,0,80,0,0
55621,-100,4,1,0,80,0,1
62528,-100,4,2,0,80,0,0
69434,-100,4,2,0,80,0,0
97060,-100,4,1,0,80,0,1
103859,-100,4,1,0,80,0,0
103967,-100,4,1,0,80,0,1
110765,-100,4,1,0,80,0,0
110873,-100,4,1,0,80,0,1
117672,-100,4,1,0,80,0,0
117780,-100,4,1,0,80,0,1
124686,-100,4,2,0,80,0,0
155765,-100,4,1,0,80,0,1
162564,-100,4,1,0,80,0,0
162672,-100,4,1,0,80,0,1
169470,-100,4,1,0,80,0,0
169578,-100,4,1,0,80,0,1
176377,-100,4,1,0,80,0,0
176485,-100,4,1,0,80,0,1
183391,-100,4,2,0,80,0,0
190405,-100,4,2,0,5,0,0

[Colours]
Combo1 : 247,213,196
Combo2 : 148,210,111
Combo3 : 255,66,66
Combo4 : 209,209,209
Combo5 : 255,176,138
Combo6 : 222,205,173
Combo7 : 183,255,255
Combo8 : 238,236,191

[HitObjects]
176,100,7276,5,0,0:0:0:0:
296,100,7708,2,0,B|344:128|344:128|352:184|352:184|408:216,1,160,8|8,0:0|0:0,0:0:0:0:
320,292,9003,2,0,L|232:292,1,79.9999999999999,0|8,0:0|0:0,0:0:0:0:
244,192,9866,2,0,L|308:140,1,79.9999999999999,0|8,0:0|0:0,0:0:0:0:
216,88,10729,5,0,0:0:0:0:
112,88,11161,1,8,0:0:0:0:
56,180,11593,2,0,B|56:224|56:224|88:268,1,79.9999999999999,0|8,0:0|0:0,0:0:0:0:
188,260,12456,2,0,B|264:284|264:284|352:256,1,160
340,259,13751,1,8,0:0:0:0:
340,259,14182,1,0,0:0:0:0:
340,148,14614,6,0,B|340:112|340:112|384:72,1,79.9999999999999,8|0,0:0|0:0,0:0:0:0:
199,82,15477,2,0,B|232:112|232:112|232:148,1,79.9999999999999,8|0,0:0|0:0,0:0:0:0:
112,148,16341,2,0,B|96:192|96:192|96:240,2,79.9999999999999,8|0|8,0:0|0:0|0:0,0:0:0:0:
192,72,17636,1,0,0:0:0:0:
300,72,18067,2,0,B|348:48|348:48|388:48,1,79.9999999999999,8|0,0:0|0:0,0:0:0:0:
472,124,18931,2,0,B|424:148|424:148|384:148,1,79.9999999999999,8|0,0:0|0:0,0:0:0:0:
368,244,19794,2,0,L|412:272,2,40,8|0|0,0:0|0:0|0:0,0:0:0:0:
264,232,20657,2,0,B|220:232|220:232|176:208,1,79.9999999999999,8|0,0:0|0:0,0:0:0:0:
188,108,21521,1,8,0:0:0:0:
276,40,21952,1,0,0:0:0:0:
364,108,22384,1,8,0:0:0:0:
368,216,22816,6,0,B|332:248|332:248|268:232|268:232|216:264,1,160
228,256,24111,1,8,0:0:0:0:
120,260,24542,2,0,B|104:220|104:220|100:180,1,79.9999999999999,0|8,0:0|0:0,0:0:0:0:
108,72,25405,1,0,0:0:0:0:
220,72,25837,1,8,0:0:0:0:
332,72,26269,2,0,B|372:72|372:72|408:32,2,79.9999999999999,0|8|0,0:0|0:0|0:0,0:0:0:0:
332,72,27564,1,8,0:0:0:0:
224,72,27995,6,0,B|192:88|192:88|168:140,1,79.9999999999999,0|8,0:0|0:0,0:0:0:0:
172,236,28859,1,0,0:0:0:0:
280,236,29290,1,8,0:0:0:0:
308,128,29722,2,0,B|344:100|344:100|356:52,2,79.9999999999999,0|8|0,0:0|0:0|0:0,0:0:0:0:
308,128,31017,1,8,0:0:0:0:
196,128,31449,2,0,B|124:168|124:168|124:260,1,160
236,248,32744,1,8,0:0:0:0:
344,248,33175,5,4,0:0:0:0:
256,192,33607,12,0,34470,0:0:0:0:
292,140,34902,6,0,L|352:80,2,79.9999999999999,0|8|0,0:0|0:0|0:0,0:0:0:0:
180,140,36197,1,8,0:0:0:0:
88,196,36628,1,0,0:0:0:0:
180,140,37060,2,0,L|260:108,1,79.9999999999999,8|0,0:0|0:0,0:0:0:0:
364,112,37923,2,0,B|396:112|396:112|440:64,2,79.9999999999999,8|0|8,0:0|0:0|0:0,0:0:0:0:
252,112,39218,1,0,0:0:0:0:
188,200,39650,2,0,B|140:200|140:200|107:168,1,79.9999999999999,8|0,0:0|0:0,0:0:0:0:
172,68,40513,2,0,B|220:68|220:68|253:100,1,79.9999999999999,8|0,0:0|0:0,0:0:0:0:
288,196,41377,1,8,0:0:0:0:
236,296,41808,5,0,0:0:0:0:
132,240,42240,2,0,B|104:208|104:208|96:160,1,79.9999999999999,8|0,0:0|0:0,0:0:0:0:
100,60,43103,1,8,0:0:0:0:
212,60,43535,2,0,B|252:52|252:52|296:60,1,79.9999999999999,0|8,0:0|0:0,0:0:0:0:
396,84,44398,2,0,B|436:84|436:84|480:48,2,79.9999999999999,0|8|0,0:0|0:0|0:0,0:0:0:0:
300,136,45693,1,8,0:0:0:0:
212,204,46125,1,0,0:0:0:0:
212,204,46557,2,0,B|176:175|176:175|165:128,1,79.9999999999999,8|0,0:0|0:0,0:0:0:0:
244,68,47420,5,0,0:0:0:0:
352,68,47852,1,2,0:0:0:0:
376,172,48283,2,0,L|300:232,1,79.9999999999999,8|0,0:0|0:0,0:0:0:0:
220,168,49146,1,8,0:0:0:0:
108,168,49578,2,0,L|92:248,1,79.9999999999999,2|8,0:0|0:0,0:0:0:0:
204,252,50441,1,0,0:0:0:0:
308,252,50873,5,8,0:0:0:0:
336,140,51305,2,0,B|376:140|376:140|400:92,2,79.9999999999999,2|8|0,0:0|0:0|0:0,0:0:0:0:
228,140,52600,1,8,0:0:0:0:
120,140,53031,2,0,B|84:140|84:140|64:92,2,79.9999999999999,2|8|0,0:0|0:0|0:0,0:0:0:0:
236,152,54326,1,8,0:0:0:0:
288,248,54758,1,2,0:0:0:0:
376,180,55190,1,8,0:0:0:0:
376,72,55621,5,0,0:0:0:0:
268,88,56053,2,0,L|172:88,1,79.9999999999999,8|2,0:0|0:0,0:0:0:0:
108,168,56916,2,0,B|80:208|80:208|96:252,1,79.9999999999999,8|0,0:0|0:0,0:0:0:0:
200,240,57780,1,8,0:0:0:0:
312,240,58211,1,2,0:0:0:0:
300,132,58643,2,8,L|208:132,1,79.9999999999999,8|0,0:0|0:0,0:0:0:0:
108,136,59506,1,8,0:0:0:0:
108,248,59938,6,0,B|152:268|152:268|200:268,2,79.9999999999999,2|8|0,0:0|0:0|0:0,0:0:0:0:
108,136,61233,2,0,B|152:112|152:112|192:112,2,79.9999999999999,8|2|8,0:0|0:0|0:0,0:0:0:0:
108,248,62528,1,0,0:0:0:0:
200,152,62959,1,8,0:0:0:0:
288,248,63391,1,0,0:0:0:0:
400,248,63823,2,0,B|424:216|424:216|432:168,1,79.9999999999999,8|0,0:0|0:0,0:0:0:0:
430,176,64686,1,8,0:0:0:0:
336,56,65118,5,0,0:0:0:0:
259,148,65549,1,8,0:0:0:0:
180,56,65981,1,0,0:0:0:0:
68,56,66413,2,0,B|56:96|56:96|80:144,1,79.9999999999999,8|0,0:0|0:0,0:0:0:0:
76,264,67276,1,8,0:0:0:0:
76,264,67708,1,0,0:0:0:0:
184,264,68139,1,8,0:0:0:0:
296,264,68571,6,0,B|336:264|336:264|368:216,2,79.9999999999999,2|8|0,0:0|0:0|0:0,0:0:0:0:
188,264,69866,1,8,0:0:0:0:
188,152,70298,1,0,0:0:0:0:
292,88,70729,2,0,L|384:56,1,79.9999999999999,8|0,0:0|0:0,0:0:0:0:
388,152,71593,2,0,L|296:184,1,79.9999999999999,8|0,0:0|0:0,0:0:0:0:
312,178,72456,1,8,0:0:0:0:
212,140,72887,1,0,0:0:0:0:
100,140,73319,1,8,0:0:0:0:
212,140,73751,5,0,0:0:0:0:
344,140,74182,2,0,B|380:140|380:140|424:176,1,79.9999999999999,8|0,0:0|0:0,0:0:0:0:
344,240,75046,2,0,L|372:268,2,40,8|0|0,0:0|0:0|0:0,0:0:0:0:
344,240,75909,1,8,0:0:0:0:
344,240,76341,1,0,0:0:0:0:
240,252,76772,2,0,B|200:256|200:256|160:228,1,79.9999999999999,8|0,0:0|0:0,0:0:0:0:
168,112,77636,6,0,B|200:96|200:96|256:116,1,79.9999999999999,8|0,0:0|0:0,0:0:0:0:
356,112,78499,2,0,L|428:60,2,79.9999999999999,8|0|8,0:0|0:0|0:0,0:0:0:0:
360,224,79794,1,0,0:0:0:0:
280,300,80226,1,8,0:0:0:0:
168,300,80657,2,0,B|128:284|128:284|96:244,2,79.9999999999999,0|8|0,0:0|0:0|0:0,0:0:0:0:
280,300,81952,2,0,L|320:260,2,40,8|0|0,0:0|0:0|0:0,0:0:0:0:
280,300,82816,1,8,0:0:0:0:
280,300,83247,1,0,0:0:0:0:
168,300,83679,6,0,L|112:228,1,79.9999999999999,8|0,0:0|0:0,0:0:0:0:
118,236,84542,1,8,0:0:0:0:
120,128,84974,2,0,B|160:108|160:108|188:68,2,79.9999999999999,0|8|0,0:0|0:0|0:0,0:0:0:0:
118,236,86269,1,8,0:0:0:0:
228,240,86700,2,0,L|300:176,1,79.9999999999999,0|8,0:0|0:0,0:0:0:0:
364,108,87564,5,0,0:0:0:0:
260,68,87995,1,8,0:0:0:0:
160,108,88427,1,0,0:0:0:0:
108,204,88859,2,0,B|104:256|104:256|72:276,2,79.9999999999999,8|0|8,0:0|0:0|0:0,0:0:0:0:
160,108,90154,1,0,0:0:0:0:
268,108,90585,1,8,0:0:0:0:
380,108,91017,6,0,B|412:92|412:92|440:40,2,79.9999999999999,0|8|0,0:0|0:0|0:0,0:0:0:0:
352,216,92312,2,0,B|276:236|276:236|192:212,1,160,8|8,0:0|0:0,0:0:0:0:
197,213,93607,1,0,0:0:0:0:
112,144,94039,2,0,B|76:112|76:112|64:64,2,79.9999999999999,8|0|8,0:0|0:0|0:0,0:0:0:0:
112,144,95334,1,4,0:0:0:0:
256,192,95765,12,0,96628,0:0:0:0:
332,112,97060,5,0,0:0:0:0:
300,216,97492,1,8,0:0:0:0:
200,244,97923,1,0,0:0:0:0:
200,112,98355,2,0,L|144:48,2,79.9999999999999,8|0|8,0:0|0:0|0:0,0:0:0:0:
280,192,99650,1,0,0:0:0:0:
200,280,100082,2,0,B|168:304|168:304|120:280,2,79.9999999999999,8|0|8,0:0|0:0|0:0,0:0:0:0:
312,280,101377,2,0,B|348:304|348:304|384:280,2,79.9999999999999,0|8|0,0:0|0:0|0:0,0:0:0:0:
256,180,102672,5,8,0:0:0:0:
256,72,103103,1,0,0:0:0:0:
148,124,103535,2,0,L|148:212,1,79.9999999999999,8|0,0:0|0:0,0:0:0:0:
232,276,104398,2,0,L|308:240,2,79.9999999999999,8|0|8,0:0|0:0|0:0,0:0:0:0:
100,276,105693,5,0,0:0:0:0:
100,276,106125,2,0,L|100:184,2,79.9999999999999,8|0|8,0:0|0:0|0:0,0:0:0:0:
212,276,107420,1,0,0:0:0:0:
332,276,107852,1,8,0:0:0:0:
392,180,108283,2,0,B|424:152|424:152|436:104,2,79.9999999999999,0|8|0,0:0|0:0|0:0,0:0:0:0:
280,180,109578,1,8,0:0:0:0:
168,180,110010,5,2,0:0:0:0:
172,76,110441,2,0,L|252:32,1,79.9999999999999,8|0,0:0|0:0,0:0:0:0:
288,128,111305,1,8,0:0:0:0:
368,208,111736,1,2,0:0:0:0:
288,288,112168,2,0,B|248:288|248:288|208:256,2,79.9999999999999,8|0|8,0:0|0:0|0:0,0:0:0:0:
368,208,113463,1,2,0:0:0:0:
328,116,113895,6,0,B|312:68|312:68|272:48,2,79.9999999999999,8|0|8,0:0|0:0|0:0,0:0:0:0:
328,224,115190,1,2,0:0:0:0:
228,224,115621,1,8,0:0:0:0:
128,224,116053,1,0,0:0:0:0:
132,120,116485,2,0,L|188:44,2,79.9999999999999,8|2|8,0:0|0:0|0:0,0:0:0:0:
164,232,117780,5,0,0:0:0:0:
252,292,118211,1,8,0:0:0:0:
352,248,118643,2,0,L|400:184,1,79.9999999999999,2|8,0:0|0:0,0:0:0:0:
364,84,119506,2,0,L|312:156,1,79.9999999999999,0|8,0:0|0:0,0:0:0:0:
204,148,120370,1,2,0:0:0:0:
92,148,120801,1,8,0:0:0:0:
204,148,121233,5,0,0:0:0:0:
312,148,121664,2,0,L|384:84,2,79.9999999999999,8|2|8,0:0|0:0|0:0,0:0:0:0:
204,148,122959,2,0,L|144:84,2,79.9999999999999,0|8|2,0:0|0:0|0:0,0:0:0:0:
312,152,124254,1,8,0:0:0:0:
384,72,124686,1,0,0:0:0:0:
452,152,125118,1,8,0:0:0:0:
452,260,125549,5,0,0:0:0:0:
344,260,125981,2,0,L|252:260,1,79.9999999999999,8|0,0:0|0:0,0:0:0:0:
176,200,126844,1,8,0:0:0:0:
136,92,127276,2,0,B|172:80|172:80|212:40,1,79.9999999999999,0|8,0:0|0:0,0:0:0:0:
276,132,128139,1,0,0:0:0:0:
344,48,128571,2,0,B|376:84|376:84|420:96,2,79.9999999999999,8|0|8,0:0|0:0|0:0,0:0:0:0:
232,48,129866,2,0,B|136:48,2,79.9999999999999,0|8|0,0:0|0:0|0:0,0:0:0:0:
232,48,131161,1,2,0:0:0:0:
232,48,131593,1,4,0:0:0:0:
296,104,138499,6,0,L|356:44,2,79.9999999999999,0|8|0,0:0|0:0|0:0,0:0:0:0:
184,104,139794,2,0,L|128:36,2,79.9999999999999,8|0|8,0:0|0:0|0:0,0:0:0:0:
240,200,141089,1,0,0:0:0:0:
324,272,141521,1,8,0:0:0:0:
408,340,141952,6,0,B|444:320|444:320|476:272,1,79.9999999999999,0|8,0:0|0:0,0:0:0:0:
464,192,142816,2,0,B|472:144|472:144|464:96,1,79.9999999999999,0|8,0:0|0:0,0:0:0:0:
388,60,143679,5,0,0:0:0:0:
280,60,144111,1,8,0:0:0:0:
168,60,144542,1,0,0:0:0:0:
280,60,144974,1,8,0:0:0:0:
280,176,145405,6,0,L|192:176,1,79.9999999999999,0|8,0:0|0:0,0:0:0:0:
280,288,146269,2,0,L|376:288,1,79.9999999999999,0|8,0:0|0:0,0:0:0:0:
408,196,147132,5,0,0:0:0:0:
408,84,147564,2,0,B|452:84|452:84|476:44,2,79.9999999999999,8|0|8,0:0|0:0|0:0,0:0:0:0:
300,84,148859,1,0,0:0:0:0:
188,84,149290,2,0,B|144:84|144:84|120:44,2,79.9999999999999,8|0|8,0:0|0:0|0:0,0:0:0:0:
300,84,150585,1,8,0:0:0:0:
336,188,151017,1,8,0:0:0:0:
260,256,151449,1,4,0:0:0:0:
256,192,151880,12,0,154470,0:0:0:0:
256,84,155765,5,0,0:0:0:0:
332,164,156197,1,8,0:0:0:0:
336,272,156628,2,0,L|408:228,2,79.9999999999999,0|8|0,0:0|0:0|0:0,0:0:0:0:
224,272,157923,1,8,0:0:0:0:
112,272,158355,1,0,0:0:0:0:
112,160,158787,6,0,L|172:88,1,79.9999999999999,8|0,0:0|0:0,0:0:0:0:
272,100,159650,1,8,0:0:0:0:
384,100,160082,2,0,L|456:40,2,79.9999999999999,0|8|0,0:0|0:0|0:0,0:0:0:0:
388,208,161377,1,8,0:0:0:0:
316,292,161808,1,0,0:0:0:0:
208,264,162240,2,0,L|144:196,1,79.9999999999999,8|0,0:0|0:0,0:0:0:0:
136,96,163103,1,8,0:0:0:0:
244,76,163535,1,0,0:0:0:0:
244,184,163967,2,0,L|328:184,1,79.9999999999999,8|0,0:0|0:0,0:0:0:0:
436,188,164830,2,0,L|504:124,2,79.9999999999999,8|0|8,0:0|0:0|0:0,0:0:0:0:
416,296,166125,5,0,0:0:0:0:
308,296,166557,1,8,0:0:0:0:
196,296,166988,2,0,B|156:284|156:284|128:252,2,79.9999999999999,0|8|0,0:0|0:0|0:0,0:0:0:0:
308,300,168283,1,8,0:0:0:0:
412,232,168715,2,0,L|476:296,2,79.9999999999999,2|8|0,0:0|0:0|0:0,0:0:0:0:
332,152,170010,5,8,0:0:0:0:
252,76,170441,1,2,0:0:0:0:
140,76,170873,2,0,L|140:168,2,79.9999999999999,8|0|8,0:0|0:0|0:0,0:0:0:0:
252,76,172168,1,2,0:0:0:0:
252,188,172600,1,8,0:0:0:0:
360,260,173031,6,0,L|428:196,2,79.9999999999999,0|8|2,0:0|0:0|0:0,0:0:0:0:
228,260,174326,2,0,L|160:196,2,79.9999999999999,8|0|8,0:0|0:0|0:0,0:0:0:0:
300,176,175621,1,2,0:0:0:0:
300,64,176053,1,8,0:0:0:0:
192,64,176485,5,0,0:0:0:0:
96,120,176916,2,0,L|96:216,1,79.9999999999999,8|2,0:0|0:0,0:0:0:0:
184,204,177780,2,0,L|184:284,1,79.9999999999999,8|0,0:0|0:0,0:0:0:0:
296,212,178643,2,0,L|348:136,2,79.9999999999999,8|2|8,0:0|0:0|0:0,0:0:0:0:
188,212,179938,5,0,0:0:0:0:
188,104,180370,1,8,0:0:0:0:
76,104,180801,1,2,0:0:0:0:
76,212,181233,2,0,B|76:256|76:256|48:292,2,79.9999999999999,8|0|8,0:0|0:0|0:0,0:0:0:0:
188,212,182528,2,0,B|188:256|188:256|224:292,2,79.9999999999999,2|8|0,0:0|0:0|0:0,0:0:0:0:
188,100,183823,5,8,0:0:0:0:
276,36,184254,1,0,0:0:0:0:
364,100,184686,2,0,L|320:176,1,79.9999999999999,8|0,0:0|0:0,0:0:0:0:
323,169,185549,1,8,0:0:0:0:
240,244,185981,5,0,0:0:0:0:
140,292,186413,1,8,0:0:0:0:
40,244,186844,1,0,0:0:0:0:
44,136,187276,2,0,L|96:68,2,79.9999999999999,8|0|8,0:0|0:0|0:0,0:0:0:0:
144,224,188571,5,0,0:0:0:0:
256,224,189003,1,8,0:0:0:0:
336,148,189434,2,0,B|368:120|368:120|380:72,2,79.9999999999999,0|8|0,0:0|0:0|0:0,0:0:0:0:
256,192,190405,12,0,191593,0:0:0:0:
