osu file format v14

[General]
AudioFilename: audio.mp3
AudioLeadIn: 0
PreviewTime: 184622
Countdown: 0
SampleSet: Soft
StackLeniency: 0.4
Mode: 0
LetterboxInBreaks: 0
WidescreenStoryboard: 0

[Editor]
Bookmarks: 28925,52630,64337,76044,84824,99601,111453,123160,134592,134867,143647,164134,178769,187549,190475,205109
DistanceSpacing: 0.8
BeatDivisor: 8
GridSize: 4
TimelineZoom: 1.7

[Metadata]
Title:One Day
TitleUnicode:One Day
Artist:Omoinotake
ArtistUnicode:Omoinotake
Creator:hypercyte
Version:Today
Source:
Tags:オモイノタケ long for hypercute landscape painting art ocean chime 1 paradogi japanese pop male vocals jpop j-pop leo fujii tomoaki fukushima hironoshin tomita taehoon kang taegongsin
BeatmapID:2489781
BeatmapSetID:1195193

[Difficulty]
HPDrainRate:6
CircleSize:4.5
OverallDifficulty:8
ApproachRate:9.2
SliderMultiplier:1.8
SliderTickRate:1

[Events]
//Background and Video events
0,0,"82104637_p01.jpg",0,0
Video,0,"omointotake.mp4"
//Break Periods
2,84824,86266
2,178769,184052
//Storyboard Layer 0 (Background)
//Storyboard Layer 1 (Fail)
//Storyboard Layer 2 (Pass)
//Storyboard Layer 3 (Foreground)
//Storyboard Layer 4 (Overlay)
//Storyboard Sound Samples

[TimingPoints]
5222,740.740740740741,4,2,44,38,1,0
28925,-66.6666666666667,4,2,44,38,0,0
29944,-66.6666666666667,4,2,44,5,0,0
30037,-66.6666666666667,4,2,44,38,0,0
34759,-66.6666666666667,4,2,44,5,0,0
34852,-66.6666666666667,4,2,44,38,0,0
52630,365.853658536585,4,2,44,44,1,0
52630,-117.64705882353,4,2,44,44,0,0
55556,-117.64705882353,4,2,44,44,0,0
58483,-105.263157894737,4,2,44,44,0,0
58758,-105.263157894737,4,2,44,5,0,0
58849,-105.263157894737,4,2,44,44,0,0
58940,-105.263157894737,4,2,44,5,0,0
59032,-105.263157894737,4,2,44,44,0,0
59855,-105.263157894737,4,2,44,5,0,0
59947,-105.263157894737,4,2,44,44,0,0
60038,-105.263157894737,4,2,44,5,0,0
60129,-105.263157894737,4,2,44,44,0,0
61410,-100,4,2,44,48,0,0
62142,-133.333333333333,4,2,44,52,0,0
62233,-133.333333333333,4,2,44,5,0,0
62325,-133.333333333333,4,2,44,52,0,0
62416,-133.333333333333,4,2,44,5,0,0
62508,-100,4,2,44,52,0,0
62599,-133.333333333333,4,2,44,5,0,0
62690,-100,4,2,44,52,0,0
62782,-133.333333333333,4,2,44,5,0,0
62873,-133.333333333333,4,2,44,52,0,0
63056,-133.333333333333,4,2,44,61,0,0
63422,-133.333333333333,4,2,44,44,0,0
63514,-133.333333333333,4,2,44,5,0,0
63605,-133.333333333333,4,2,44,44,0,0
64337,-83.3333333333333,4,2,44,64,0,1
64611,-83.3333333333333,4,2,44,5,0,1
64702,-83.3333333333333,4,2,44,64,0,1
66166,-83.3333333333333,4,2,44,64,0,1
66257,-83.3333333333333,4,2,44,5,0,1
66349,-83.3333333333333,4,2,44,64,0,1
69001,-83.3333333333333,4,2,44,5,0,1
69093,-83.3333333333333,4,2,44,64,0,1
69184,-83.3333333333333,4,2,44,5,0,1
69276,-83.3333333333333,4,2,44,64,0,1
70190,-149.253731343284,4,2,44,64,0,1
70465,-149.253731343284,4,2,44,5,0,1
70556,-83.3333333333333,4,2,44,64,0,1
73391,-83.3333333333333,4,2,44,5,0,1
73483,-83.3333333333333,4,2,44,64,0,1
76044,-227.272727272727,4,2,44,64,0,0
76318,-227.272727272727,4,2,44,5,0,0
76410,-83.3333333333333,4,2,44,64,0,1
77782,-83.3333333333333,4,2,44,5,0,1
77873,-83.3333333333333,4,2,44,64,0,1
77965,-83.3333333333333,4,2,44,5,0,1
78056,-83.3333333333333,4,2,44,64,0,1
78971,-149.253731343284,4,2,44,64,0,1
79245,-149.253731343284,4,2,44,5,0,1
79336,-83.3333333333333,4,2,44,64,0,1
80708,-83.3333333333333,4,2,44,5,0,1
80800,-83.3333333333333,4,2,44,64,0,1
80891,-83.3333333333333,4,2,44,5,0,1
80983,-83.3333333333333,4,2,44,64,0,1
81806,-83.3333333333333,4,2,44,5,0,1
81897,-125,4,2,44,64,0,1
82172,-125,4,2,44,5,0,1
82263,-125,4,2,44,64,0,1
82995,-227.272727272727,4,2,44,64,0,1
83544,-227.272727272727,4,2,44,21,0,0
84824,731.707317073171,4,2,44,33,1,0
87750,740.740740740741,4,2,44,44,1,0
87750,-76.9230769230769,4,2,44,44,0,0
88768,-76.9230769230769,4,2,44,5,0,0
88861,-76.9230769230769,4,2,44,44,0,0
99601,-45.4545454545455,4,2,44,44,0,0
100157,-100,4,2,44,44,0,0
100712,-45.4545454545455,4,2,44,44,0,0
101268,-100,4,2,44,44,0,0
102472,-100,4,2,44,5,0,0
102564,-76.9230769230769,4,2,44,44,0,0
105527,-45.4545454545455,4,2,44,44,0,0
106083,-100,4,2,44,44,0,0
106638,-45.4545454545455,4,2,44,44,0,0
107194,-100,4,2,44,44,0,0
109787,-43.4782608695652,4,2,44,44,0,0
110064,-43.4782608695652,4,2,44,5,0,0
110157,-76.9230769230769,4,2,44,44,0,0
111453,365.853658536585,4,2,44,44,1,0
111453,-117.64705882353,4,2,44,44,0,0
114013,-153.846153846154,4,2,44,44,0,0
114379,-117.64705882353,4,2,44,44,0,0
114471,-117.64705882353,4,2,44,44,0,0
116940,-117.647058823529,4,2,44,44,0,0
117581,-117.647058823529,4,2,44,5,0,0
117672,-117.647058823529,4,2,44,44,0,0
117763,-117.647058823529,4,2,44,5,0,0
117855,-117.647058823529,4,2,44,44,0,0
118678,-117.647058823529,4,2,44,5,0,0
118770,-117.647058823529,4,2,44,44,0,0
118861,-117.647058823529,4,2,44,5,0,0
118952,-117.647058823529,4,2,44,44,0,0
120233,-133.333333333333,4,2,44,54,0,0
121696,-133.333333333333,4,2,44,60,0,0
122337,-133.333333333333,4,2,44,5,0,0
122428,-133.333333333333,4,2,44,45,0,0
123068,-133.333333333333,4,2,44,5,0,0
123160,-83.3333333333333,4,2,44,63,0,1
123434,-83.3333333333333,4,2,44,5,0,1
123525,-83.3333333333333,4,2,44,63,0,1
123983,-83.3333333333333,4,2,44,5,0,1
124074,-83.3333333333333,4,2,44,63,0,1
124623,-76.9230769230769,4,2,44,63,0,1
124897,-76.9230769230769,4,2,44,5,0,1
124989,-76.9230769230769,4,2,44,63,0,1
125172,-83.3333333333333,4,2,44,63,0,1
125629,-83.3333333333333,4,2,44,5,0,1
125720,-83.3333333333333,4,2,44,63,0,1
126086,-181.818181818181,4,2,44,63,0,1
126361,-181.818181818181,4,2,44,5,0,1
126452,-83.3333333333333,4,2,44,63,0,1
127550,-76.9230769230769,4,2,44,63,0,1
127824,-76.9230769230769,4,2,44,5,0,1
127916,-76.9230769230769,4,2,44,63,0,1
128007,-76.9230769230769,4,2,44,5,0,1
128099,-83.3333333333333,4,2,44,63,0,1
129013,-227.272727272727,4,2,44,63,0,1
129288,-227.272727272727,4,2,44,5,0,1
129379,-83.3333333333333,4,2,44,63,0,1
130934,-83.3333333333333,4,2,44,5,0,1
131025,-83.3333333333333,4,2,44,63,0,1
131208,-83.3333333333333,4,2,44,5,0,1
131391,-83.3333333333333,4,2,44,63,0,1
132214,-83.3333333333333,4,2,44,5,0,1
132306,-76.9230769230769,4,2,44,63,0,1
132397,-76.9230769230769,4,2,44,5,0,1
132489,-76.9230769230769,4,2,44,63,0,1
133129,-76.9230769230769,4,2,44,5,0,1
133220,-76.9230769230769,4,2,44,63,0,1
133495,-76.9230769230769,4,2,44,5,0,1
133586,-76.9230769230769,4,2,44,63,0,1
134867,-156.25,4,2,44,63,0,0
134959,-156.25,4,2,44,5,0,0
135050,-156.25,4,2,44,63,0,0
135142,-156.25,4,2,44,5,0,0
135233,-76.9230769230769,4,2,44,63,0,1
135507,-76.9230769230769,4,2,44,5,0,1
135599,-76.9230769230769,4,2,44,63,0,1
135690,-76.9230769230769,4,2,44,5,0,1
135781,-76.9230769230769,4,2,44,63,0,1
136056,-76.9230769230769,4,2,44,5,0,1
136147,-76.9230769230769,4,2,44,63,0,1
136330,-71.4285714285714,4,2,44,63,0,1
136605,-71.4285714285714,4,2,44,5,0,1
136696,-71.4285714285714,4,2,44,63,0,1
137336,-71.4285714285714,4,2,44,5,0,1
137428,-71.4285714285714,4,2,44,63,0,1
137794,-83.3333333333333,4,2,44,63,0,1
137885,-83.3333333333333,4,2,44,5,0,1
138159,-71.4285714285714,4,2,44,63,0,1
138434,-71.4285714285714,4,2,44,5,0,1
138525,-83.3333333333333,4,2,44,63,0,1
138617,-83.3333333333333,4,2,44,5,0,1
138708,-83.3333333333333,4,2,44,63,0,1
138983,-83.3333333333333,4,2,44,5,0,1
139074,-83.3333333333333,4,2,44,63,0,1
139257,-71.4285714285714,4,2,44,63,0,1
139531,-71.4285714285714,4,2,44,5,0,1
139623,-71.4285714285714,4,2,44,63,0,1
139714,-71.4285714285714,4,2,44,5,0,1
139806,-71.4285714285714,4,2,44,63,0,1
140263,-71.4285714285714,4,2,44,5,0,1
140355,-71.4285714285714,4,2,44,63,0,1
140629,-71.4285714285714,4,2,44,5,0,1
140720,-83.3333333333333,4,2,44,63,0,1
140995,-83.3333333333333,4,2,44,5,0,1
141086,-83.3333333333333,4,2,44,63,0,1
141909,-83.3333333333333,4,2,44,5,0,1
142001,-227.272727272727,4,2,44,63,0,1
142367,-227.272727272727,4,2,44,5,0,1
142550,-454.545454545455,4,2,44,50,0,0
142824,-454.545454545455,4,2,44,5,0,0
142916,-71.4285714285714,4,2,44,50,0,0
143556,-71.4285714285714,4,2,44,5,0,0
143647,-227.272727272727,4,2,44,50,0,0
143648,731.707317073171,4,2,44,50,1,0
144196,-31.25,4,2,44,50,0,0
144288,-31.25,4,2,44,5,0,0
144379,-50,4,2,44,50,0,0
145568,-50,4,2,44,5,0,0
145842,-50,4,2,44,50,0,0
148495,-50,4,2,44,5,0,0
148769,-50,4,2,44,50,0,0
150233,-83.3333333333333,4,2,44,50,0,0
150964,-36.3636363636364,4,2,44,50,0,0
153068,-38.4615384615385,4,2,44,5,0,0
153159,-35.7142857142857,4,2,44,50,0,0
153891,-113.636363636364,4,2,44,50,0,0
154166,-113.636363636364,4,2,44,5,0,0
154257,-113.636363636364,4,2,44,50,0,0
155355,-66.6666666666667,4,2,44,50,0,0
157550,-66.6666666666667,4,2,44,50,0,0
157916,-41.6666666666667,4,2,44,50,0,0
158190,-35.7142857142857,4,2,44,5,0,0
158281,-66.6666666666667,4,2,44,50,0,0
160842,-40.983606557377,4,2,44,50,0,0
161117,-40.983606557377,4,2,44,5,0,0
161208,-66.6666666666667,4,2,44,50,0,0
162763,-66.6666666666667,4,2,44,5,0,0
162855,-66.6666666666667,4,2,44,50,0,0
163312,-66.6666666666667,4,2,44,5,0,0
163403,-66.6666666666667,4,2,44,50,0,0
163769,-113.636363636364,4,2,44,50,0,0
164044,-113.636363636364,4,2,44,5,0,0
164135,365.853658536585,4,2,44,60,1,0
164135,-76.9230769230769,4,2,44,60,0,0
164409,-76.9230769230769,4,2,44,5,0,0
164500,-153.846153846154,4,2,44,60,0,0
164592,-76.9230769230769,4,2,44,5,0,0
164683,-76.9230769230769,4,2,44,60,0,0
164958,-38.4615384615385,4,2,44,5,0,0
165049,-153.846153846153,4,2,44,60,0,0
165141,-153.846153846153,4,2,44,5,0,0
165232,-153.846153846153,4,2,44,60,0,0
165324,-153.846153846153,4,2,44,5,0,0
165415,-69.4444444444444,4,2,44,60,0,0
166970,-69.4444444444444,4,2,44,5,0,0
167061,-100,4,2,44,60,0,0
167062,-100,4,2,44,60,0,0
167336,-100,4,2,44,5,0,0
167427,-71.4285714285714,4,2,44,60,0,0
168525,-117.647058823529,4,2,44,60,0,0
168891,-71.4285714285714,4,2,44,60,0,0
169166,-71.4285714285714,4,2,44,5,0,0
169257,-117.647058823529,4,2,44,60,0,0
169897,-117.647058823529,4,2,44,5,0,0
169988,-71.4285714285714,4,2,44,60,0,0
170354,-71.4285714285714,4,2,44,60,0,0
170445,-71.4285714285714,4,2,44,5,0,0
170537,-71.4285714285714,4,2,44,60,0,0
170628,-71.4285714285714,4,2,44,5,0,0
170720,-71.4285714285714,4,2,44,60,0,0
171452,-100,4,2,44,60,0,0
172915,-66.6666666666667,4,2,44,60,0,0
175293,-100,4,2,44,60,0,0
175476,-57.1428571428571,4,2,44,60,0,0
175751,-57.1428571428571,4,2,44,5,0,0
175842,-133.333333333333,4,2,44,44,0,0
176208,-133.333333333333,4,2,44,22,0,0
178769,731.707317073171,4,2,44,34,1,0
184622,-133.333333333333,4,2,44,34,0,0
185171,-69.4444444444444,4,2,44,34,0,0
185903,-100,4,2,44,34,0,0
186634,-227.272727272727,4,2,44,34,0,0
187458,-227.272727272727,4,2,44,5,0,0
187549,365.853658536585,4,2,44,64,1,0
187549,-50,4,2,44,64,0,1
187914,-83.3333333333333,4,2,44,64,0,1
188097,-50,4,2,44,64,0,1
188463,-83.3333333333333,4,2,44,64,0,1
188646,-50,4,2,44,64,0,1
188829,-83.3333333333333,4,2,44,64,0,1
189195,-50,4,2,44,64,0,1
190475,-227.272727272727,4,2,44,64,0,0
190750,-227.272727272727,4,2,44,5,0,0
190841,-50,4,2,44,64,0,1
191116,-50,4,2,44,5,0,1
191207,-80,4,2,44,64,0,1
191299,-80,4,2,44,5,0,1
191390,-80,4,2,44,64,0,1
191664,-80,4,2,44,5,0,1
191756,-80,4,2,44,64,0,1
191939,-74.0740740740741,4,2,44,64,0,1
192213,-74.0740740740741,4,2,44,5,0,1
192305,-80,4,2,44,64,0,1
192945,-80,4,2,44,5,0,1
193036,-80,4,2,44,64,0,1
193128,-80,4,2,44,5,0,1
193219,-80,4,2,44,64,0,1
193311,-80,4,2,44,5,0,1
193402,-227.272727272727,4,2,44,64,0,1
193722,-227.272727272727,4,2,44,5,0,1
193768,-80,4,2,44,64,0,1
194042,-80,4,2,44,5,0,1
194134,-80,4,2,44,64,0,1
194591,-80,4,2,44,5,0,1
194683,-80,4,2,44,64,0,1
194866,-74.0740740740741,4,2,44,64,0,1
195140,-74.0740740740741,4,2,44,5,0,1
195231,-74.0740740740741,4,2,44,64,0,1
195414,-100,4,2,44,64,0,1
196329,-133.333333333333,4,2,44,64,0,1
196603,-133.333333333333,4,2,44,5,0,1
196695,-133.333333333333,4,2,44,64,0,1
196786,-133.333333333333,4,2,44,5,0,1
196878,-100,4,2,44,64,0,1
197609,-133.333333333333,4,2,44,64,0,1
198158,-83.3333333333333,4,2,44,64,0,1
199256,-227.272727272727,4,2,44,64,0,1
199530,-227.272727272727,4,2,44,5,0,1
199622,-74.0740740740741,4,2,44,64,0,1
199896,-74.0740740740741,4,2,44,5,0,1
199988,-74.0740740740741,4,2,44,64,0,1
200079,-74.0740740740741,4,2,44,5,0,1
200170,-74.0740740740741,4,2,44,64,0,1
200719,-68.9655172413793,4,2,44,64,0,1
200994,-68.9655172413793,4,2,44,5,0,1
201085,-80,4,2,44,64,0,1
201725,-80,4,2,44,5,0,1
201817,-80,4,2,44,64,0,1
201908,-80,4,2,44,5,0,1
202000,-80,4,2,44,64,0,1
202091,-80,4,2,44,5,0,1
202183,-227.272727272727,4,2,44,64,0,1
202457,-227.272727272727,4,2,44,5,0,1
202548,-74.0740740740741,4,2,44,64,0,1
203006,-74.0740740740741,4,2,44,5,0,1
203097,-74.0740740740741,4,2,44,64,0,1
203189,-74.0740740740741,4,2,44,5,0,1
203280,-133.333333333333,4,2,44,64,0,1
203555,-133.333333333333,4,2,44,5,0,1
203646,-68.9655172413793,4,2,44,64,0,1
205109,-227.272727272727,4,2,44,64,0,1
205384,-227.272727272727,4,2,44,5,0,1
205475,-74.6268656716418,4,2,44,64,0,1
205567,-74.6268656716418,4,2,44,5,0,1
205658,-74.6268656716418,4,2,44,64,0,1
205933,-74.6268656716418,4,2,44,5,0,1
206024,-74.6268656716418,4,2,44,64,0,1
206298,-74.6268656716418,4,2,44,5,0,1
206390,-74.6268656716418,4,2,44,64,0,1
206847,-74.6268656716418,4,2,44,5,0,1
206939,-74.6268656716418,4,2,44,64,0,1
207030,-74.6268656716418,4,2,44,5,0,1
207122,-74.6268656716418,4,2,44,64,0,1
208311,-74.6268656716418,4,2,44,5,0,1
208402,-74.6268656716418,4,2,44,64,0,1
208448,-74.6268656716418,4,2,44,5,0,1
208585,-74.6268656716418,4,2,44,64,0,1
210963,-227.272727272727,4,2,44,64,0,0
211238,-227.272727272727,4,2,44,5,0,0
211329,-74.0740740740741,4,2,44,64,0,1
211603,-74.0740740740741,4,2,44,5,0,1
211695,-74.0740740740741,4,2,44,64,0,1
211786,-74.0740740740741,4,2,44,5,0,1
211878,-74.0740740740741,4,2,44,64,0,1
212427,-68.9655172413793,4,2,44,64,0,1
212701,-68.9655172413793,4,2,44,5,0,1
212747,-68.9655172413793,4,2,44,64,0,1
212884,-68.9655172413793,4,2,44,5,0,1
212975,-68.9655172413793,4,2,44,64,0,1
213387,-68.9655172413793,4,2,44,5,0,1
213524,-68.9655172413793,4,2,44,64,0,1
213981,-68.9655172413793,4,2,44,5,0,1
214073,-68.9655172413793,4,2,44,64,0,1
214164,-68.9655172413793,4,2,44,5,0,1
214256,-80,4,2,44,64,0,1
214713,-80,4,2,44,5,0,1
214805,-80,4,2,44,64,0,1
214896,-80,4,2,44,5,0,1
214988,-80,4,2,44,64,0,1
215353,-74.0740740740741,4,2,44,64,0,1
215628,-74.0740740740741,4,2,44,5,0,1
215719,-86.9565217391304,4,2,44,64,0,1
215811,-86.9565217391304,4,2,44,5,0,1
215902,-86.9565217391304,4,2,44,64,0,1
216451,-74.0740740740741,4,2,44,64,0,1
216725,-74.0740740740741,4,2,44,5,0,1
216817,-133.333333333333,4,2,44,54,0,1
217274,-133.333333333333,4,2,44,5,0,1
217366,-133.333333333333,4,2,44,54,0,1
218097,-227.272727272727,4,2,44,54,0,1
218189,-227.272727272727,4,2,44,34,0,1
218555,-227.272727272727,4,2,44,5,0,1
218646,-100,4,2,44,54,0,0
218738,-100,4,2,44,34,0,0

[Colours]
Combo1 : 233,182,148
Combo2 : 172,208,253
Combo3 : 129,233,209
Combo4 : 235,217,156

[HitObjects]
207,292,27999,5,8,0:0:0:0:
207,292,28184,1,8,0:0:0:0:
188,208,28370,1,8,0:1:0:0:
171,124,28555,1,8,0:1:0:0:
185,134,28925,6,0,B|253:115|288:167|266:181|307:228|371:209,1,202.500007724762,14|8,0:0|0:0,0:0:0:0:
492,35,29666,2,0,B|508:69|508:69|477:160,1,101.250003862381,8|0,0:1|0:0,0:0:0:0:
487,129,30036,2,0,P|451:130|432:104,1,67.5000025749208,8|0,0:0|0:0,0:0:0:0:
297,43,30407,5,2,0:0:0:0:
297,43,30592,1,6,0:3:0:0:
222,78,30777,1,6,0:3:0:0:
73,50,30962,2,0,B|130:61|130:61|139:66|139:66|219:80,1,135.000005149842,2|0,0:0|0:0,0:0:0:0:
260,155,31518,2,0,B|252:172|251:189|251:189|245:172|229:155,1,67.5000025749208
60,266,31888,6,0,P|96:252|123:271,1,67.5000025749208,8|0,0:0|0:0,0:0:0:0:
196,351,32259,2,0,P|200:309|206:278,1,67.5000025749208,0|8,0:0|0:0,0:0:0:0:
345,188,32629,1,10,0:1:0:0:
373,270,32814,1,2,0:0:0:0:
338,173,32999,1,10,0:0:0:0:
121,200,33184,6,0,P|86:227|120:312,1,135.000005149842,2|8,0:0|0:0,0:0:0:0:
142,189,33740,2,0,P|134:145|96:135,1,67.5000025749208,8|0,0:0|0:0,0:0:0:0:
36,128,34110,5,10,0:1:0:0:
36,128,34296,1,2,0:0:0:0:
135,55,34481,2,0,B|159:43|167:17|167:17|161:42|179:70,1,101.250003862381,2|0,0:0|0:0,0:0:0:0:
189,74,34851,6,0,P|248:67|267:-15,1,135.000005149842,10|0,0:0|0:0,0:0:0:0:
362,95,35407,1,8,0:0:0:0:
362,95,35592,2,0,P|341:142|334:172,1,67.5000025749208,8|0,0:1|0:0,0:0:0:0:
195,217,35962,2,0,P|237:211|261:237,1,67.5000025749208,8|0,0:0|0:0,0:0:0:0:
366,351,36333,5,2,0:0:0:0:
432,303,36518,1,10,0:0:0:0:
357,271,36703,1,10,0:0:0:0:
285,318,36888,2,0,P|216:315|148:316,1,135.000005149842,2|0,0:0|0:0,0:0:0:0:
48,361,37444,2,0,B|61:327|61:327|76:362,1,67.5000025749208
7,199,37814,6,0,P|30:161|66:163,1,67.5000025749208,8|0,0:0|0:0,0:0:0:0:
142,52,38184,2,0,P|133:97|131:131,1,67.5000025749208,0|8,0:0|0:0,0:0:0:0:
221,245,38555,1,10,0:1:0:0:
248,165,38740,1,2,0:0:0:0:
212,264,38925,1,10,0:0:0:0:
396,316,39110,2,0,P|444:297|456:245,1,101.250003862381,2|0,0:0|0:0,0:0:0:0:
448,242,39481,5,4,0:3:0:0:
399,169,39666,1,4,0:3:0:0:
318,180,40036,5,10,0:1:0:0:
293,257,40314,5,2,0:0:0:0:
215,281,40592,5,10,0:1:0:0:
96,148,40777,6,0,B|83:166|90:187|90:187|120:290,1,135.000005149842,14|0,0:0|0:0,0:0:0:0:
103,130,41333,2,0,P|73:97|46:102,2,67.5000025749208,10|10|2,0:0|0:1|0:0,0:0:0:0:
247,185,41888,6,0,B|265:200|290:194|290:194|402:156,1,135.000005149842,10|0,0:0|0:0,0:0:0:0:
218,181,42444,2,0,P|198:219|208:243,2,67.5000025749208,10|10|2,0:0|0:0|0:0,0:0:0:0:
330,80,42999,1,8,0:1:0:0:
330,80,43184,1,0,0:0:0:0:
286,11,43370,1,0,0:0:0:0:
255,6,43740,6,0,P|222:32|225:64,1,67.5000025749208,8|0,0:0|0:0,0:0:0:0:
160,174,44110,2,0,P|113:182|88:160,1,67.5000025749208,0|8,0:0|0:0,0:0:0:0:
276,248,44481,5,10,0:1:0:0:
338,215,44666,1,2,0:0:0:0:
440,265,44851,1,10,0:0:0:0:
510,175,45036,2,0,P|492:87|483:21,1,135.000005149842,2|8,0:0|0:0,0:0:0:0:
440,265,45592,2,0,P|430:320|424:347,1,67.5000025749208,8|0,0:0|0:0,0:0:0:0:
282,138,45962,6,0,P|241:158|237:193,1,67.5000025749208,8|0,0:1|0:0,0:0:0:0:
171,303,46333,2,0,P|164:234|155:207,1,67.5000025749208,0|8,0:0|0:0,0:0:0:0:
64,75,46703,6,0,B|93:90|93:90|216:51,1,135.000005149842,10|0,0:0|0:0,0:0:0:0:
41,70,47259,2,0,P|17:98|31:132,1,67.5000025749208,10|10,0:0|0:1,0:0:0:0:
164,236,47629,5,2,0:0:0:0:
164,236,47814,2,0,B|135:251|135:251|12:212,1,135.000005149842,10|0,0:0|0:0,0:0:0:0:
187,231,48370,2,0,P|211:259|197:293,2,67.5000025749208,10|10|2,0:0|0:0|0:0,0:0:0:0:
288,146,48925,1,8,0:1:0:0:
240,79,49110,1,0,0:0:0:0:
343,0,49296,1,0,0:0:0:0:
358,11,49666,6,0,P|349:58|349:88,1,67.5000025749208,8|0,0:0|0:0,0:0:0:0:
420,244,50036,2,0,P|446:218|441:189,1,67.5000025749208,0|8,0:0|0:0,0:0:0:0:
292,292,50407,1,10,0:1:0:0:
292,292,50592,1,2,0:0:0:0:
201,244,50777,1,10,0:0:0:0:
61,280,50962,6,0,P|134:269|203:264,1,135.000005149842,2|8,0:0|0:0,0:0:0:0:
314,137,51518,2,0,P|320:219|323:285,1,135.000005149842,8|8,0:0|0:1,0:0:0:0:
238,382,52073,5,10,0:0:0:0:
212,359,52259,1,10,0:0:0:0:
223,327,52444,1,10,0:1:0:0:
273,168,52630,6,0,P|247:87|210:18,1,153.000002918243,14|8,0:0|0:1,0:0:0:0:
222,92,53178,1,8,0:0:0:0:
349,132,53361,2,0,P|389:128|414:94,1,76.5000014591217
456,210,53636,1,2,0:0:0:0:
456,210,53727,2,0,B|469:173|469:173|467:161|467:161|479:132,1,76.5000014591217,10|0,0:1|0:0,0:0:0:0:
233,258,54093,6,0,B|192:242|157:275|182:290|135:324|93:302,1,153.000002918243,2|10,0:0|0:1,0:0:0:0:
231,102,54642,1,2,0:0:0:0:
273,163,54825,1,2,0:0:0:0:
219,110,55008,1,2,0:0:0:0:
233,258,55190,6,0,P|320:247|350:244,1,114.750002188683,10|0,0:1|0:0,0:0:0:0:
405,198,55556,2,0,P|458:220|452:285,1,114.750002188683,2|0,0:0|0:0,0:0:0:0:
406,316,55922,6,0,L|448:301,1,38.2500007295609,8|0,0:1|0:0,0:0:0:0:
336,341,56105,1,2,0:0:0:0:
197,235,56288,1,2,0:0:0:0:
231,173,56471,1,2,0:0:0:0:
155,48,56654,1,10,0:1:0:0:
155,48,56837,1,2,0:0:0:0:
296,102,57020,6,0,P|350:96|393:147,1,114.750002188683,2|0,0:0|0:0,0:0:0:0:
466,138,57386,2,0,P|488:104|465:70,1,76.5000014591217,8|0,0:1|0:0,0:0:0:0:
366,209,57751,1,2,0:0:0:0:
359,218,58117,5,8,0:1:0:0:
359,218,58300,1,0,0:0:0:0:
188,184,58483,6,0,P|136:198|131:271,1,128.249996575356,10|0,0:0|0:0,0:0:0:0:
126,264,58849,2,0,P|162:266|179:254,1,42.7499988584519,8|0,0:1|0:0,0:0:0:0:
44,198,59032,1,2,0:0:0:0:
266,202,59215,2,0,B|291:164|291:164|251:140,1,85.4999977169037,10|2,0:0|0:0,0:0:0:0:
225,321,59581,6,0,B|237:346|263:344|263:344|351:324,1,128.249996575356,10|8,0:1|0:0,0:0:0:0:
413,303,59947,2,0,B|424:286|424:286|401:285,1,42.7499988584519,8|0,0:0|0:0,0:0:0:0:
198,309,60129,2,0,P|171:327|168:380,2,85.4999977169037,2|10|2,0:0|0:1|0:0,0:0:0:0:
395,384,60678,5,8,0:0:0:0:
395,384,60861,1,2,0:0:0:0:
470,242,61044,1,10,0:1:0:0:
390,146,61227,1,2,0:0:0:0:
504,8,61410,6,0,P|488:58|469:146,1,135,8|0,0:0|0:0,0:0:0:0:
473,153,61776,1,8,0:1:0:0:
393,57,61959,1,2,0:0:0:0:
163,109,62142,6,0,P|136:84|139:62,1,33.7500012874604,10|0,0:0|0:0,0:0:0:0:
197,31,62325,2,0,P|224:48|227:70,1,33.7500012874604,2|0,0:0|0:0,0:0:0:0:
288,183,62508,6,0,P|297:150|305:123,1,45,10|0,0:1|0:0,0:0:0:0:
386,150,62690,2,0,P|379:171|373:193,1,45,10|0,0:0|0:0,0:0:0:0:
358,363,62873,5,8,0:0:0:0:
465,295,63056,1,8,0:0:0:0:
373,193,63239,1,8,0:0:0:0:
210,271,63422,6,0,B|218:288|218:288|226:266,1,33.7500012874604,2|0,0:3|0:0,0:0:0:0:
268,115,63605,5,2,0:0:0:0:
265,99,63788,5,2,0:0:0:0:
250,88,63971,5,2,0:0:0:0:
250,88,64337,6,0,B|201:69|172:115|192:122|154:169|109:148,1,161.999995056153,14|0,0:0|0:0,0:0:0:0:
271,94,64703,2,0,B|293:108|288:141|288:141|263:191,1,107.999996704102,8|0,0:1|0:0,0:0:0:0:
333,369,65069,6,0,P|327:317|320:252,1,107.999996704102,2|8,0:0|0:0,0:0:0:0:
392,44,65434,1,10,0:1:0:0:
499,99,65617,1,10,0:0:0:0:
315,251,65800,6,0,B|267:237|238:279|258:292|229:338|169:317,1,161.999995056153,10|0,0:0|0:0,0:0:0:0:
172,335,66166,2,0,P|136:325|123:302,1,53.9999983520508,8|0,0:1|0:0,0:0:0:0:
60,166,66349,1,10,0:0:0:0:
71,176,66440,2,0,P|100:157|180:235,1,161.999995056153,8|8,0:0|0:0,0:0:0:0:
464,211,66898,1,8,0:1:0:0:
399,141,67081,1,8,0:0:0:0:
504,0,67264,2,0,B|483:89|483:89|486:112|486:112|460:220,1,215.999993408203,10|8,0:0|0:1,0:0:0:0:
238,135,67812,5,8,0:0:0:0:
242,144,67904,1,8,0:0:0:0:
250,150,67995,2,0,P|293:134|321:185,1,107.999996704102,10|8,0:0|0:0,0:0:0:0:
133,256,68361,2,0,P|70:242|19:235,1,107.999996704102,10|8,0:1|0:0,0:0:0:0:
256,17,68727,6,0,B|277:56|240:102|228:85|202:120|216:163,1,161.999995056153,10|0,0:0|0:0,0:0:0:0:
249,236,69093,2,0,B|263:242|272:253|272:253|267:235|267:216,1,53.9999983520508,10|0,0:1|0:0,0:0:0:0:
368,117,69276,5,10,0:0:0:0:
373,129,69367,2,0,B|486:159|486:159|509:134|493:108,1,161.999995056153,8|8,0:0|0:0,0:0:0:0:
369,263,69825,1,10,0:1:0:0:
369,263,70008,1,10,0:0:0:0:
182,277,70190,6,0,B|144:285|144:285|133:294|133:294|89:303,1,90.4499957215121,10|0,0:0|0:0,0:0:0:0:
96,279,70556,6,0,B|157:274|191:329|171:351|234:399|292:346,1,215.999993408203,10|0,0:1|0:0,0:0:0:0:
392,220,71105,1,8,0:0:0:0:
340,150,71288,1,10,0:1:0:0:
96,301,71471,6,0,B|156:326|202:275|185:249|230:203|296:235,1,215.999993408203,10|0,0:0|0:0,0:0:0:0:
492,377,72020,1,10,0:1:0:0:
436,302,72203,5,10,0:0:0:0:
446,311,72294,2,0,P|454:253|463:129,1,161.999995056153,8|8,0:0|0:0,0:0:0:0:
358,6,72751,1,10,0:1:0:0:
256,129,72934,1,10,0:0:0:0:
182,78,73117,6,0,B|253:99|253:99|262:107|262:107|347:130,1,161.999995056153,10|0,0:0|0:0,0:0:0:0:
351,117,73483,1,8,0:1:0:0:
256,218,73666,1,8,0:1:0:0:
256,218,73758,1,8,0:1:0:0:
256,218,73849,1,8,0:1:0:0:
122,353,74032,1,8,0:3:0:0:
241,230,74215,1,10,0:1:0:0:
61,57,74398,6,0,P|-1:68|25:186,1,215.999993408203,12|8,0:0|0:0,0:0:0:0:
352,21,74947,1,8,0:1:0:0:
403,195,75129,1,10,0:0:0:0:
193,253,75312,1,10,0:0:0:0:
133,59,75495,5,8,0:1:0:0:
142,72,75587,1,8,0:1:0:0:
156,62,75678,1,8,0:1:0:0:
193,253,75861,5,8,0:1:0:0:
188,238,75953,1,8,0:1:0:0:
201,222,76044,2,0,B|230:226|230:226|238:231|238:231|260:233,1,59.4000018127442,10|0,0:0|0:0,0:0:0:0:
188,238,76410,6,0,P|144:183|240:120,1,215.999993408203,12|2,0:1|0:0,0:0:0:0:
394,306,76959,1,8,0:0:0:0:
468,195,77142,1,10,0:1:0:0:
364,64,77325,1,8,0:0:0:0:
197,248,77508,6,0,B|266:222|266:222|288:223|288:223|352:197,1,161.999995056153,10|0,0:0|0:0,0:0:0:0:
361,207,77873,2,0,P|363:241|338:253,1,53.9999983520508,8|0,0:1|0:0,0:0:0:0:
201,358,78056,1,10,0:0:0:0:
194,342,78148,2,0,B|144:356|116:322|129:315|99:269|48:287,1,161.999995056153,8|8,0:0|0:0,0:0:0:0:
97,97,78605,1,8,0:1:0:0:
190,195,78788,5,8,0:0:0:0:
193,184,78879,1,8,0:0:0:0:
201,176,78971,2,0,P|266:182|276:217,1,90.4499957215121,10|0,0:0|0:0,0:0:0:0:
263,218,79337,6,0,P|260:284|201:294,1,107.999996704102,8|2,0:1|0:0,0:0:0:0:
49,157,79703,1,2,0:0:0:0:
1,245,79886,1,8,0:0:0:0:
201,176,80069,1,10,0:1:0:0:
150,97,80251,1,8,0:0:0:0:
322,24,80434,6,0,B|429:52|429:52|449:84|419:110,1,161.999995056153,10|0,0:0|0:0,0:0:0:0:
476,153,80800,2,0,P|479:173|472:155,1,53.9999983520508,10|0,0:1|0:0,0:0:0:0:
367,305,80983,1,10,0:0:0:0:
373,290,81075,2,0,P|360:219|346:127,1,161.999995056153,8|8,0:0|0:0,0:0:0:0:
138,300,81532,6,0,B|178:290|188:241|188:241|179:291|209:317,1,161.999995056153,12|0,0:1|0:0,0:0:0:0:
206,315,81898,6,0,B|247:303|247:303|258:304|258:304|318:288,1,108,4|0,0:3|0:0,0:0:0:0:
320,301,82264,1,2,0:3:0:0:
443,126,82447,1,8,0:3:0:0:
412,192,82629,1,4,0:3:0:0:
402,264,82812,1,4,0:3:0:0:
190,96,82995,5,8,0:1:0:0:
202,173,83178,2,0,B|169:175|169:175|156:172|156:172|116:173,1,79.2000024169922
219,210,86836,5,8,0:0:0:0:
219,210,87019,1,8,0:0:0:0:
340,156,87202,1,8,0:1:0:0:
386,27,87384,1,8,0:1:0:0:
386,27,87750,6,0,P|280:54|207:71,1,175.499991966248,14|8,0:0|0:0,0:0:0:0:
64,31,88490,2,0,P|121:37|136:74,1,87.749995983124,8|0,0:1|0:0,0:0:0:0:
137,74,88861,1,8,0:0:0:0:
89,128,89046,1,8,0:0:0:0:
188,190,89231,5,2,0:0:0:0:
258,159,89416,1,8,0:0:0:0:
188,190,89601,1,10,0:0:0:0:
279,65,89787,1,2,0:0:0:0:
323,123,89972,6,0,P|390:135|439:145,1,116.999994644165,8|0,0:1|0:0,0:0:0:0:
486,93,90527,1,0,0:0:0:0:
345,281,90712,6,0,P|323:234|311:207,1,58.4999973220826,10|0,0:0|0:0,0:0:0:0:
383,154,91083,1,8,0:0:0:0:
416,221,91268,1,8,0:0:0:0:
325,358,91453,1,10,0:1:0:0:
325,358,91638,1,2,0:0:0:0:
325,358,91824,1,10,0:0:0:0:
474,282,92009,6,0,P|510:320|492:391,1,116.999994644165,2|8,0:0|0:0,0:0:0:0:
360,295,92564,2,0,P|333:325|333:344,1,58.4999973220826,8|0,0:0|0:0,0:0:0:0:
331,99,92935,5,10,0:1:0:0:
369,170,93120,1,2,0:0:0:0:
463,311,93305,6,0,L|466:292,6,14.6249993305207,2|0|0|0|0|0|0,0:0|0:0|0:0|0:0|0:0|0:0|0:0,0:0:0:0:
474,303,93675,6,0,P|466:252|405:246,1,116.999994644165,10|8,0:0|0:0,0:0:0:0:
318,349,94231,1,8,0:0:0:0:
228,223,94416,6,0,P|216:279|203:350,1,116.999994644165,10|8,0:1|0:0,0:0:0:0:
129,195,94972,1,0,0:0:0:0:
221,146,95157,2,0,P|213:186|209:204,2,58.4999973220826,2|10|10,0:0|0:0|0:0,0:0:0:0:
402,264,95712,6,0,P|457:232|448:183,1,116.999994644165,2|0,0:0|0:0,0:0:0:0:
322,230,96268,2,0,P|325:195|310:176,1,58.4999973220826
188,58,96638,5,10,0:0:0:0:
131,104,96824,1,0,0:0:0:0:
285,74,97009,2,0,L|347:63,1,58.4999973220826,2|8,0:0|0:0,0:0:0:0:
200,260,97379,5,10,0:1:0:0:
207,189,97564,1,2,0:0:0:0:
271,156,97750,1,10,0:0:0:0:
399,254,97935,6,0,P|391:212|386:194,1,58.4999973220826,2|0,0:0|0:0,0:0:0:0:
425,124,98305,1,8,0:0:0:0:
392,259,98490,2,0,P|384:217|379:199,1,58.4999973220826,8|0,0:0|0:0,0:0:0:0:
247,53,98861,5,10,0:1:0:0:
160,64,99046,1,2,0:0:0:0:
81,94,99231,1,2,0:0:0:0:
25,155,99416,1,2,0:0:0:0:
257,154,99601,6,0,P|351:172|378:262,1,198.000006042481,14|0,0:0|0:0,0:0:0:0:
251,167,100157,2,0,P|235:181|232:204,2,45,10|10|2,0:0|0:1|0:0,0:0:0:0:
124,352,100712,6,0,P|171:252|97:181,1,198.000006042481,10|0,0:0|0:0,0:0:0:0:
101,358,101268,2,0,P|78:327|81:310,2,45,10|10|2,0:0|0:0|0:0,0:0:0:0:
302,320,101824,5,8,0:1:0:0:
395,305,102009,1,0,0:0:0:0:
469,355,102194,1,0,0:0:0:0:
462,346,102379,6,0,L|473:321,1,22.5,2|0,0:0|0:0,0:0:0:0:
372,170,102564,6,0,L|385:246,1,58.4999973220826,8|0,0:0|0:0,0:0:0:0:
176,239,102935,1,0,0:0:0:0:
214,170,103120,1,8,0:0:0:0:
93,240,103305,5,10,0:1:0:0:
214,308,103490,1,2,0:0:0:0:
214,170,103675,1,10,0:0:0:0:
176,239,103861,6,0,P|156:150|145:122,1,116.999994644165,2|8,0:0|0:0,0:0:0:0:
255,373,104416,1,8,0:0:0:0:
255,373,104787,5,8,0:1:0:0:
289,286,104972,1,0,0:0:0:0:
367,242,105157,6,0,L|371:218,6,14.6249993305207
378,239,105527,6,0,B|399:202|361:161|344:179|312:145|332:101,1,148.50000453186,10|0,0:0|0:0,0:0:0:0:
348,42,105898,2,0,P|385:58|386:79,1,49.5000015106202,10|0,0:0|0:0,0:0:0:0:
328,112,106083,2,0,P|305:108|287:85,2,45,10|10|2,0:0|0:1|0:0,0:0:0:0:
187,182,106638,6,0,P|188:125|147:22,1,148.50000453186,10|0,0:0|0:0,0:0:0:0:
88,67,107009,2,0,P|102:94|106:114,1,49.5000015106202,10|0,0:0|0:0,0:0:0:0:
31,160,107194,2,0,P|36:137|31:116,2,45,10|10|2,0:0|0:0|0:0,0:0:0:0:
161,187,107750,5,8,0:1:0:0:
210,250,107935,1,0,0:0:0:0:
201,324,108120,1,0,0:0:0:0:
161,187,108490,5,8,0:0:0:0:
251,192,108675,1,0,0:0:0:0:
329,96,108861,1,0,0:0:0:0:
411,102,109046,1,8,0:0:0:0:
217,31,109231,5,10,0:1:0:0:
246,109,109416,1,10,0:0:0:0:
217,31,109601,1,10,0:0:0:0:
320,331,109787,6,0,P|337:243|358:160,1,155.250002961159,14|0,0:1|0:0,0:0:0:0:
411,102,110157,2,0,P|439:125|436:149,2,58.4999973220826,8|0|0,0:1|0:0|0:0,0:0:0:0:
113,140,110712,1,8,0:1:0:0:
124,153,110898,5,0,3:0:0:0:
138,149,110990,1,0,3:0:0:0:
169,152,111083,1,0,3:0:0:0:
191,165,111175,1,0,3:0:0:0:
211,189,111268,1,0,3:0:0:0:
217,232,111361,1,0,3:0:0:0:
179,286,111453,6,0,P|115:303|98:380,1,153.000002918243,14|8,0:0|0:1,0:0:0:0:
217,232,112001,1,0,0:0:0:0:
300,339,112184,6,0,P|295:291|270:279,1,76.5000014591217
207,81,112550,2,0,P|197:128|192:155,1,76.5000014591217,10|0,0:1|0:0,0:0:0:0:
20,246,112916,2,0,P|83:230|134:218,1,114.750002188683,2|0,0:0|0:0,0:0:0:0:
142,207,113282,5,8,0:1:0:0:
142,207,113465,1,0,0:0:0:0:
184,344,113648,1,0,0:0:0:0:
234,286,113831,1,0,0:0:0:0:
336,159,114013,6,0,P|325:203|314:250,1,87.749995983124,10|0,0:1|0:0,0:0:0:0:
315,244,114379,2,0,P|341:236|380:334,1,153.000002918243,2|8,0:0|0:1,0:0:0:0:
292,364,114928,5,2,0:0:0:0:
211,317,115111,1,2,0:0:0:0:
223,224,115294,1,2,0:0:0:0:
192,129,115477,1,10,0:1:0:0:
106,126,115660,1,2,0:0:0:0:
45,235,115843,6,0,P|35:178|22:119,1,114.750002188683,2|0,0:0|0:0,0:0:0:0:
18,117,116209,1,8,0:1:0:0:
18,117,116392,1,0,0:0:0:0:
117,269,116574,1,0,0:0:0:0:
124,274,116940,5,8,0:1:0:0:
124,274,117123,1,8,0:0:0:0:
305,171,117306,6,0,P|392:190|425:202,1,114.750002188683,14|8,0:0|0:0,0:0:0:0:
482,177,117672,2,0,P|474:154|447:141,1,38.2500007295609,8|0,0:1|0:0,0:0:0:0:
271,107,117855,2,0,L|289:186,2,76.5000014591217,2|10|2,0:0|0:0|0:0,0:0:0:0:
249,330,118404,6,0,P|162:349|122:359,1,114.750002188683,10|8,0:0|0:0,0:0:0:0:
68,341,118770,2,0,P|73:316|85:302,1,38.2500007295609,8|0,0:0|0:0,0:0:0:0:
278,265,118952,2,0,L|263:342,2,76.5000014591217,2|10|2,0:0|0:0|0:0,0:0:0:0:
343,384,119501,5,8,0:0:0:0:
343,384,119684,1,2,0:0:0:0:
301,192,119867,1,10,0:0:0:0:
189,263,120050,1,2,0:0:0:0:
397,304,120233,6,0,P|450:315|492:325,1,67.5000025749208,10|0,0:0|0:0,0:0:0:0:
189,263,120599,1,10,0:0:0:0:
296,282,120782,1,2,0:0:0:0:
228,104,120965,6,0,P|237:124|236:155,1,33.7500012874604,10|0,0:0|0:0,0:0:0:0:
155,125,121148,2,0,P|158:141|165:156,1,33.7500012874604,2|0,0:0|0:0,0:0:0:0:
307,156,121331,2,0,P|299:176|276:197,1,33.7500012874604,10|0,0:0|0:0,0:0:0:0:
100,70,121513,2,0,P|90:83|85:99,1,33.7500012874604,2|0,0:0|0:0,0:0:0:0:
189,263,121696,5,8,0:0:0:0:
372,123,121879,2,0,P|408:151|404:196,1,67.5000025749208,8|8,0:0|0:0,0:0:0:0:
155,125,122245,6,0,P|145:138|140:154,1,33.7500012874604,8|0,0:0|0:0,0:0:0:0:
189,263,122428,5,10,0:0:0:0:
220,262,122611,5,10,0:0:0:0:
247,282,122794,5,10,0:0:0:0:
247,281,122977,2,0,P|260:278|252:290,1,33.7500012874604,8|0,0:0|0:0,0:0:0:0:
350,333,123160,6,0,P|359:255|382:155,1,161.999995056153,14|0,0:0|0:0,0:0:0:0:
367,347,123526,2,0,P|413:344|423:288,1,107.999996704102,8|0,0:1|0:0,0:0:0:0:
225,71,123892,6,0,P|233:89|245:128,1,53.9999983520508,2|0,0:0|0:0,0:0:0:0:
275,195,124074,1,8,0:0:0:0:
99,191,124257,1,10,0:1:0:0:
366,97,124440,1,10,0:0:0:0:
200,333,124623,6,0,B|177:283|220:250|237:271|290:243|272:183,1,175.499991966248,10|0,0:0|0:0,0:0:0:0:
267,187,124989,1,10,0:1:0:0:
70,108,125172,1,10,0:0:0:0:
87,116,125263,1,8,0:0:0:0:
100,124,125538,6,0,P|106:97|115:72,1,53.9999983520508,8|0,0:0|0:0,0:0:0:0:
301,101,125721,1,8,0:1:0:0:
267,187,125904,1,8,0:0:0:0:
457,234,126087,6,0,P|426:234|405:269,1,74.2500022659302,8|0,0:0|0:0,0:0:0:0:
405,268,126452,6,0,P|389:229|355:155,1,107.999996704102,8|0,0:1|0:0,0:0:0:0:
197,29,126818,5,2,0:0:0:0:
162,106,127001,1,10,0:0:0:0:
270,267,127184,1,10,0:1:0:0:
246,156,127367,1,10,0:0:0:0:
465,53,127550,6,0,B|421:30|383:65|403:80|359:124|305:92,1,175.499991966248,10|0,0:0|0:0,0:0:0:0:
240,72,127916,2,0,P|235:43|256:19,1,58.4999973220826,10|0,0:1|0:0,0:0:0:0:
387,193,128099,5,10,0:0:0:0:
375,196,128190,2,0,P|365:239|338:360,1,161.999995056153,8|8,0:0|0:0,0:0:0:0:
273,237,128648,5,8,0:1:0:0:
378,288,128831,1,8,0:0:0:0:
438,368,129013,2,0,P|445:339|458:307,1,59.4000018127442,8|0,0:0|0:0,0:0:0:0:
459,371,129379,6,0,B|464:310|409:276|387:296|339:233|392:175,1,215.999993408203,10|0,0:1|0:0,0:0:0:0:
496,95,129928,1,8,0:0:0:0:
434,34,130111,1,10,0:1:0:0:
382,355,130294,6,0,B|357:295|408:249|434:266|480:221|448:155,1,215.999993408203,10|0,0:0|0:0,0:0:0:0:
231,36,130843,6,0,B|232:63|232:63|220:37,1,53.9999983520508,10|0,0:1|0:0,0:0:0:0:
116,264,131026,5,10,0:0:0:0:
109,256,131117,2,0,L|123:195,1,53.9999983520508,8|0,0:0|0:0,0:0:0:0:
203,357,131392,1,2,0:3:0:0:
8,164,131574,1,10,0:1:0:0:
116,264,131757,1,10,0:0:0:0:
289,147,131940,6,0,B|329:131|366:169|350:175|390:215|434:192,1,161.999995056153,10|0,0:0|0:0,0:0:0:0:
317,55,132306,6,0,L|292:132,1,58.4999973220826,8|0,0:1|0:0,0:0:0:0:
190,238,132489,1,8,0:0:0:0:
173,239,132581,1,8,0:0:0:0:
164,224,132672,1,8,0:1:0:0:
211,165,132855,1,4,0:3:0:0:
355,315,133038,2,0,L|344:253,1,58.4999973220826,8|0,0:1|0:0,0:0:0:0:
317,55,133221,6,0,B|294:105|337:138|354:117|407:145|389:205,1,175.499991966248,12|0,0:0|0:0,0:0:0:0:
406,203,133587,1,8,0:0:0:0:
213,49,133770,6,0,P|162:64|145:131,1,116.999994644165,12|8,0:1|0:0,0:0:0:0:
85,205,134044,5,8,0:0:0:0:
85,205,134135,2,0,P|70:164|59:138,1,58.4999973220826,8|0,0:0|0:0,0:0:0:0:
159,287,134318,5,8,0:0:0:0:
159,287,134410,1,8,0:0:0:0:
159,287,134501,2,0,P|174:246|185:220,1,58.4999973220826,8|0,0:1|0:0,0:0:0:0:
28,376,134684,5,8,0:1:0:0:
0,355,134776,1,8,0:1:0:0:
18,317,134867,2,0,P|33:315|20:321,1,28.8,8|0,0:1|0:0,0:0:0:0:
99,353,135050,2,0,P|114:355|101:349,1,28.8,8|0,0:0|0:0,0:0:0:0:
188,161,135233,6,0,B|232:138|270:173|250:188|294:232|348:200,1,175.499991966248,12|0,0:1|0:0,0:0:0:0:
413,167,135599,6,0,P|428:191|424:219,1,58.4999973220826,10|0,0:0|0:0,0:0:0:0:
349,210,135782,1,8,0:0:0:0:
382,15,135965,6,0,P|419:35|425:66,1,58.4999973220826,10|0,0:1|0:0,0:0:0:0:
360,86,136148,1,8,0:0:0:0:
236,266,136331,6,0,P|256:130|265:53,1,188.999994232178,10|0,0:0|0:0,0:0:0:0:
280,148,136696,1,10,0:1:0:0:
138,30,136879,1,10,0:0:0:0:
148,38,136971,1,8,0:0:0:0:
156,46,137245,6,0,P|151:77|147:108,1,62.9999980773926,8|0,0:0|0:0,0:0:0:0:
124,296,137428,1,8,0:1:0:0:
54,189,137611,1,8,0:0:0:0:
54,189,137702,1,8,0:0:0:0:
54,189,137794,2,0,B|83:183|83:183|64:209,1,53.9999983520508,8|0,0:0|0:0,0:0:0:0:
54,189,138160,6,0,P|151:205|256:223,1,188.999994232178,8|0,0:1|0:0,0:0:0:0:
310,192,138526,6,0,P|309:160|286:140,1,53.9999983520508,10|0,0:0|0:0,0:0:0:0:
248,233,138709,1,10,0:0:0:0:
451,301,138892,6,0,P|471:341|462:364,1,53.9999983520508,10|0,0:1|0:0,0:0:0:0:
383,280,139074,1,10,0:0:0:0:
473,39,139257,6,0,P|453:104|425:240,1,188.999994232178,10|0,0:0|0:0,0:0:0:0:
427,222,139623,2,0,P|416:182|408:160,1,62.9999980773926,10|0,0:1|0:0,0:0:0:0:
395,360,139806,1,10,0:0:0:0:
395,360,139898,1,8,0:0:0:0:
170,215,140172,6,0,P|161:193|167:216,1,62.9999980773926,8|0,0:0|0:0,0:0:0:0:
160,294,140355,2,0,P|225:277|232:153,1,188.999994232178,12|0,0:1|0:0,0:0:0:0:
244,168,140721,6,0,P|323:186|330:257,1,161.999995056153,8|0,0:3|0:0,0:0:0:0:
320,261,141087,1,4,0:3:0:0:
414,171,141270,2,0,P|472:180|478:236,2,107.999996704102,8|4|4,0:3|0:3|0:3,0:0:0:0:
320,261,141818,6,0,P|279:223|268:225,1,53.9999983520508,8|0,0:1|0:0,0:0:0:0:
214,164,142001,2,0,B|205:184|205:184|218:198|218:198|227:180|227:180|214:164,1,79.2000024169922
148,115,142550,2,0,P|126:124|123:132,1,29.7000009063721
124,128,142916,6,0,B|115:71|163:15|199:18|231:27|237:44|244:67|227:83|199:92|158:72|122:27|52:28|2:81|-2:128|41:200,1,440.999986541748,8|0,0:1|0:0,0:0:0:0:
37,169,143648,5,2,0:0:0:0:
50,180,143830,5,2,0:0:0:0:
56,196,144013,5,2,0:0:0:0:
24,384,144196,6,0,P|19:353|3:315,1,72,8|0,0:0|0:0,0:0:0:0:
71,270,144379,2,0,P|146:281|146:372,2,180,8|8|0,0:1|0:0|0:0,0:0:0:0:
3,206,145294,1,8,0:0:0:0:
3,206,145477,2,0,P|32:193|42:175,1,45,8|0,0:0|0:0,0:0:0:0:
167,57,145843,5,10,0:1:0:0:
184,126,146026,1,2,0:0:0:0:
199,196,146208,1,2,0:0:0:0:
269,125,146574,5,10,0:0:0:0:
103,116,146849,1,8,0:0:0:0:
179,275,147123,1,8,0:0:0:0:
203,207,147306,6,0,P|261:223|392:255,1,180,8|0,0:1|0:0,0:0:0:0:
424,200,147855,1,8,0:0:0:0:
424,200,148221,5,8,0:0:0:0:
355,66,148404,2,0,B|364:45|364:45|369:71,1,45,8|0,0:0|0:0,0:0:0:0:
134,218,148769,5,10,0:1:0:0:
153,133,148952,1,2,0:0:0:0:
243,129,149135,1,2,0:0:0:0:
134,218,149501,6,0,P|119:149|104:73,2,135,10|8|8,0:0|0:0|0:0,0:0:0:0:
329,317,150233,6,0,P|358:288|354:273,1,53.9999983520508,10|0,0:1|0:0,0:0:0:0:
364,283,150599,2,0,P|359:308|336:320,1,53.9999983520508,2|8,0:0|0:0,0:0:0:0:
289,101,150965,6,0,P|279:167|272:226,3,123.750001180172,0|10|10|2,0:0|0:0|0:0|0:0,0:0:0:0:
141,384,151696,1,10,0:1:0:0:
113,290,151879,1,2,0:0:0:0:
74,205,152062,1,2,0:0:0:0:
222,182,152428,5,8,0:0:0:0:
94,47,152702,1,8,0:0:0:0:
16,226,152977,6,0,L|85:200,1,61.875000590086,10|0,0:0|0:0,0:0:0:0:
278,21,153160,2,0,B|309:73|251:117|240:94|190:145|227:190,2,188.999994232178,10|2|10,0:1|0:0|0:0,0:0:0:0:
204,0,153800,5,8,0:0:0:0:
204,0,153891,2,0,P|171:19|169:40,1,59.4000018127442,12|0,0:1|0:0,0:0:0:0:
195,103,154257,2,0,B|211:115|211:115|204:92,1,39.6000012084961,8|8,0:0|0:1,0:0:0:0:
73,275,154623,5,10,0:1:0:0:
126,231,154806,1,8,0:3:0:0:
189,200,154989,1,8,0:3:0:0:
299,175,155172,5,4,0:3:0:0:
284,167,155263,1,4,0:3:0:0:
287,180,155355,2,0,P|327:183|366:320,1,202.500007724762,14|8,0:0|0:0,0:0:0:0:
284,167,156087,2,0,P|272:132|295:108,1,67.5000025749208,8|0,0:1|0:0,0:0:0:0:
375,124,156452,2,0,P|387:159|364:183,1,67.5000025749208,8|0,0:0|0:0,0:0:0:0:
227,263,156818,5,0,0:0:0:0:
157,234,157001,1,8,0:0:0:0:
86,216,157184,1,8,0:0:0:0:
86,216,157550,6,0,P|56:197|61:158,1,67.5000025749208,8|0,0:1|0:0,0:0:0:0:
182,74,157916,2,0,P|167:158|156:237,1,161.999995056153,2|0,0:0|0:0,0:0:0:0:
101,354,158282,6,0,B|183:330|251:306|251:306|236:324|225:343,1,202.500007724762,10|8,0:0|0:0,0:0:0:0:
64,291,159013,2,0,P|77:322|88:353,1,67.5000025749208,8|0,0:1|0:0,0:0:0:0:
24,384,159379,2,0,P|13:352|0:321,1,67.5000025749208,8|0,0:0|0:0,0:0:0:0:
106,162,159745,5,2,0:3:0:0:
104,90,159928,1,8,0:0:0:0:
38,58,160111,1,8,0:0:0:0:
38,58,160477,6,0,P|53:32|69:-4,1,67.5000025749208,8|0,0:1|0:0,0:0:0:0:
239,66,160843,2,0,P|169:39|100:100,1,164.699993214569,2|0,0:0|0:0,0:0:0:0:
106,162,161208,6,0,P|164:165|310:191,1,202.500007724762,10|8,0:0|0:0,0:0:0:0:
77,229,161940,2,0,P|73:189|92:173,1,67.5000025749208,8|0,0:1|0:0,0:0:0:0:
152,246,162306,2,0,P|173:221|166:190,1,67.5000025749208,8|0,0:0|0:0,0:0:0:0:
230,24,162672,6,0,L|208:65,1,33.7500012874604,6|0,0:3|0:0,0:0:0:0:
252,110,162855,1,8,0:0:0:0:
197,59,163038,1,8,0:0:0:0:
152,246,163221,6,0,L|130:205,1,33.7500012874604,10|0,0:3|0:0,0:0:0:0:
173,137,163404,1,8,0:1:0:0:
124,196,163587,1,8,0:0:0:0:
279,273,163769,6,0,B|286:288|273:302|273:302|266:286|278:273,1,59.4000018127442,8|0,0:1|0:0,0:0:0:0:
289,262,164135,6,0,B|319:228|281:171|261:193|219:158|257:101,1,175.499991966248,14|0,0:0|0:0,0:0:0:0:
301,61,164500,2,0,P|307:51|305:62,1,29.2499986610413,10|0,0:1|0:0,0:0:0:0:
214,241,164683,6,0,B|206:197|268:168|274:197|328:188|325:120,1,175.499991966248,14|0,0:0|0:0,0:0:0:0:
368,16,165049,2,0,P|378:10|372:20,1,29.2499986610413,10|0,0:3|0:0,0:0:0:0:
300,60,165232,2,0,P|302:49|305:60,1,29.2499986610413,10|0,0:1|0:0,0:0:0:0:
289,262,165415,6,0,P|254:147|198:5,1,259.200006328125,14|2,0:0|0:0,0:0:0:0:
110,216,165964,5,4,0:3:0:0:
127,140,166147,1,4,0:3:0:0:
203,17,166330,5,8,0:3:0:0:
290,167,166513,1,8,0:3:0:0:
377,329,166695,6,0,B|367:271|373:231|373:231|363:270|337:319,1,194.400004746094,12|0,0:1|0:0,0:0:0:0:
324,328,167061,6,0,P|219:306|189:302,1,135,12|0,0:0|0:0,0:0:0:0:
117,310,167427,6,0,B|66:281|45:222|85:165|129:137|192:200|172:236,1,251.999992309571,10|0,0:1|0:0,0:0:0:0:
247,291,167976,5,8,0:0:0:0:
300,136,168159,1,8,0:1:0:0:
247,291,168342,1,8,0:0:0:0:
339,246,168525,6,0,P|379:255|405:319,1,114.750002188683,8|8,0:0|0:0,0:0:0:0:
405,318,168891,2,0,P|426:177|442:112,1,188.999994232178,8|0,0:1|0:0,0:0:0:0:
448,116,169256,1,0,0:0:0:0:
308,138,169439,1,8,0:0:0:0:
491,51,169622,6,0,P|463:14|390:1,1,114.750002188683,10|0,0:1|0:0,0:0:0:0:
360,58,169988,2,0,B|337:50|337:50|170:87,1,188.999994232178,10|8,0:0|0:0,0:0:0:0:
86,121,170354,2,0,P|82:90|104:66,1,62.9999980773926,8|0,0:1|0:0,0:0:0:0:
161,140,170537,2,0,P|180:116|176:86,1,62.9999980773926
78,132,170720,1,0,0:0:0:0:
72,321,170903,5,8,0:0:0:0:
138,286,171086,1,8,0:1:0:0:
210,274,171269,1,8,0:0:0:0:
0,295,171452,6,0,P|-4:244|35:218,1,90,8|0,0:0|0:0,0:0:0:0:
94,246,171726,1,8,0:0:0:0:
94,246,171817,2,0,P|98:297|59:323,1,90,8|0,0:1|0:0,0:0:0:0:
53,149,172183,5,0,0:0:0:0:
100,94,172366,1,8,0:0:0:0:
260,201,172549,5,10,0:1:0:0:
216,74,172732,1,10,0:0:0:0:
416,230,172915,6,0,P|433:171|481:33,1,202.500007724762,10|8,0:0|0:0,0:0:0:0:
362,23,173281,5,10,0:1:0:0:
351,21,173372,1,2,0:0:0:0:
341,25,173464,1,2,0:0:0:0:
329,30,173555,1,2,0:0:0:0:
323,40,173647,1,2,0:0:0:0:
239,237,173830,5,8,0:0:0:0:
212,164,174013,1,8,0:1:0:0:
236,244,174195,1,8,0:0:0:0:
284,376,174378,5,10,0:0:0:0:
212,164,174653,1,8,0:0:0:0:
212,164,174744,1,8,0:1:0:0:
75,285,174927,5,8,0:0:0:0:
50,275,175019,1,8,0:0:0:0:
37,251,175110,1,8,0:0:0:0:
38,224,175202,1,8,0:0:0:0:
55,202,175293,2,0,P|72:198|59:208,1,45,8|8,0:0|0:0,0:0:0:0:
254,296,175476,6,0,B|412:254|412:254|330:306,1,236.250002253056,14|0,0:1|0:0,0:0:0:0:
260,277,175842,2,0,B|228:282|197:264|199:240|151:229|124:239,4,135.000005149842,12|0|0|0|0,0:0|0:0|0:0|0:0|0:0,0:0:0:0:
433,230,184622,6,0,P|441:173|445:155,1,67.5000025749208
489,276,185171,6,0,P|432:273|384:386,1,194.400004746094,2|0,0:0|0:0,0:0:0:0:
301,315,185903,6,0,P|285:282|195:284,1,135,2|0,0:0|0:0,0:0:0:0:
134,210,186634,6,0,P|99:219|78:269,1,89.1000027191163,2|0,0:0|0:0,0:0:0:0:
77,264,187549,6,0,P|54:152|14:-3,1,270,14|8,0:0|0:3,0:0:0:0:
114,38,187914,2,0,P|117:18|111:38,1,53.9999983520508,10|0,0:0|0:0,0:0:0:0:
0,239,188097,6,0,B|-19:205|-1:174|20:156|61:152|86:181|132:206|164:175|180:133|164:109|144:96,1,270,14|4,0:0|0:3,0:0:0:0:
104,34,188463,2,0,P|116:17|114:38,1,53.9999983520508,10|0,0:0|0:0,0:0:0:0:
234,197,188646,6,0,P|251:136|264:93,1,90,14|0,0:0|0:0,0:0:0:0:
364,50,188829,2,0,P|336:140|314:218,1,161.999995056153,4|0,0:3|0:0,0:0:0:0:
141,330,189195,6,0,B|135:353|135:353|152:368|152:368|157:347|157:347|141:331,1,90,12|0,0:0|0:0,0:0:0:0:
171,185,189378,1,4,0:3:0:0:
199,212,189469,1,4,0:3:0:0:
234,197,189561,1,4,0:3:0:0:
263,222,189652,1,4,0:3:0:0:
300,215,189744,6,0,B|326:207|338:232|338:232|316:243|298:224,1,90,12|0,0:1|0:0,0:0:0:0:
268,118,189927,1,8,0:1:0:0:
48,268,190109,5,10,0:1:0:0:
4,235,190201,1,10,0:1:0:0:
3,181,190292,1,10,0:1:0:0:
37,139,190384,1,10,0:1:0:0:
90,138,190475,2,0,P|96:157|87:140,1,59.4000018127442,8|0,0:0|0:0,0:0:0:0:
95,150,190841,6,0,P|79:85|242:28,1,270,12|0,0:0|0:0,0:0:0:0:
235,132,191207,6,0,P|236:105|257:87,1,56.25,10|0,0:0|0:0,0:0:0:0:
309,146,191390,1,10,0:0:0:0:
503,228,191573,6,0,P|495:191|468:176,1,56.25,10|0,0:1|0:0,0:0:0:0:
384,256,191756,1,10,0:0:0:0:
191,314,191939,6,0,B|141:332|103:287|130:281|96:225|42:245,1,182.250000695229,10|0,0:0|0:0,0:0:0:0:
200,307,192305,1,10,0:1:0:0:
57,358,192488,1,10,0:0:0:0:
41,365,192579,1,8,0:0:0:0:
27,370,192853,6,0,P|9:349|14:319,1,56.25,8|0,0:0|0:0,0:0:0:0:
117,226,193036,2,0,P|95:243|93:270,1,56.25,8|0,0:1|0:0,0:0:0:0:
167,358,193219,2,0,P|169:330|193:312,1,56.25,8|0,0:0|0:0,0:0:0:0:
291,241,193402,6,0,B|297:258|297:258|289:271|289:271|281:258|281:258|290:239,1,69.3000021148682,8|0,0:0|0:0,0:0:0:0:
295,233,193768,6,0,B|322:198|284:149|264:177|222:136|250:83,1,168.75,8|0,0:1|0:0,0:0:0:0:
234,154,194134,1,2,0:0:0:0:
326,102,194317,1,10,0:0:0:0:
92,58,194500,6,0,P|46:50|14:45,1,56.25,10|0,0:1|0:0,0:0:0:0:
104,48,194683,1,10,0:0:0:0:
192,240,194866,6,0,P|102:221|13:205,1,182.250000695229,10|0,0:0|0:0,0:0:0:0:
13,205,195231,2,0,P|54:180|81:189,1,60.7500002317429,10|0,0:1|0:0,0:0:0:0:
171,311,195414,1,10,0:0:0:0:
177,324,195506,1,8,0:0:0:0:
171,338,195597,1,8,0:0:0:0:
13,205,195780,5,8,0:0:0:0:
99,181,195963,1,8,0:1:0:0:
204,51,196146,5,8,0:0:0:0:
290,88,196329,2,0,P|357:77|391:71,1,101.250003862381,8|0,0:3|0:0,0:0:0:0:
389,71,196695,6,0,P|413:87|417:103,1,33.7500012874604,8|0,0:0|0:0,0:0:0:0:
368,164,196878,1,8,0:3:0:0:
352,178,197061,1,12,0:3:0:0:
350,201,197244,1,12,0:3:0:0:
469,330,197427,6,0,P|476:282|486:234,1,90,12|2,0:2|0:0,0:0:0:0:
320,93,197792,1,8,0:0:0:0:
305,96,197975,1,8,0:0:0:0:
278,365,198158,6,0,P|247:277|207:201,1,161.999995056153,12|0,0:1|0:0,0:0:0:0:
163,113,198524,5,4,0:3:0:0:
176,109,198616,5,4,0:3:0:0:
184,123,198707,5,4,0:3:0:0:
167,130,198799,5,4,0:3:0:0:
150,117,198890,5,10,0:1:0:0:
148,81,198981,5,10,0:1:0:0:
118,52,199073,5,10,0:1:0:0:
65,46,199164,5,10,0:1:0:0:
15,61,199256,6,0,B|22:78|22:92|22:92|23:78|33:65,1,59.4000018127442,12|0,0:0|0:0,0:0:0:0:
65,46,199622,6,0,P|214:43|273:35,1,182.250000695229,8|0,0:1|0:0,0:0:0:0:
331,46,199988,2,0,P|333:90|317:100,1,60.7500002317429,10|0,0:0|0:0,0:0:0:0:
252,112,200170,1,10,0:0:0:0:
478,191,200353,1,10,0:1:0:0:
252,112,200536,1,10,0:0:0:0:
171,308,200719,6,0,P|154:233|111:116,1,195.750005973816,10|0,0:0|0:0,0:0:0:0:
113,121,201085,2,0,P|93:146|102:170,1,56.25,10|0,0:1|0:0,0:0:0:0:
240,262,201268,1,10,0:0:0:0:
247,244,201359,1,8,0:0:0:0:
254,228,201634,6,0,P|243:193|237:166,1,56.25,8|0,0:0|0:0,0:0:0:0:
329,204,201817,2,0,P|320:177|314:150,1,56.25,8|0,0:1|0:0,0:0:0:0:
407,181,202000,2,0,P|396:146|390:119,1,56.25,8|0,0:0|0:0,0:0:0:0:
434,40,202183,6,0,B|446:46|449:71|449:71|434:55|419:52,1,59.4000018127442,8|0,0:0|0:0,0:0:0:0:
357,14,202548,2,0,P|288:27|218:36,1,121.500000463486,8|0,0:1|0:0,0:0:0:0:
64,221,202914,6,0,P|66:176|89:163,1,60.7500002317429,2|0,0:0|0:0,0:0:0:0:
152,189,203097,2,0,P|150:234|127:247,1,60.7500002317429,8|0,0:0|0:0,0:0:0:0:
221,364,203280,2,0,P|250:321|295:332,1,101.250003862381,10|0,0:1|0:0,0:0:0:0:
293,330,203646,6,0,B|239:293|230:208|293:167|293:167|345:182|343:225,1,261.000007965088,10|10,0:0|0:1,0:0:0:0:
170,284,204195,1,10,0:0:0:0:
138,274,204286,1,8,0:0:0:0:
131,241,204378,1,8,0:0:0:0:
207,208,204561,5,8,0:0:0:0:
56,361,204744,1,10,0:1:0:0:
0,158,204927,1,8,0:0:0:0:
131,241,205109,6,0,B|139:258|138:271|138:271|139:258|150:239,1,59.4000018127442,8|0,0:0|0:0,0:0:0:0:
207,208,205475,6,0,P|216:154|184:137,1,60.2999971476747,10|0,0:1|0:0,0:0:0:0:
68,199,205658,2,0,P|45:158|133:62,1,180.899991443024,2|0,0:0|0:0,0:0:0:0:
214,87,206024,1,8,0:0:0:0:
222,94,206207,6,0,P|217:132|214:168,1,60.2999971476747,10|0,0:1|0:0,0:0:0:0:
271,249,206390,1,10,0:0:0:0:
372,105,206573,2,0,P|361:190|353:290,1,180.899991443024,8|0,0:0|0:0,0:0:0:0:
365,32,206939,6,0,B|379:3|379:3|385:42,1,60.2999971476747,10|0,0:1|0:0,0:0:0:0:
443,207,207122,1,10,0:0:0:0:
450,193,207213,2,0,P|505:193|506:84,1,180.899991443024,8|8,0:0|0:0,0:0:0:0:
228,71,207670,5,8,0:1:0:0:
282,18,207853,1,8,0:0:0:0:
306,201,208036,6,0,P|206:183|106:171,1,180.899991443024,10|0,0:0|0:0,0:0:0:0:
127,173,208402,2,0,P|160:203|180:205,1,60.2999971476747,10|0,0:1|0:0,0:0:0:0:
243,158,208585,1,2,0:0:0:0:
380,268,208768,1,2,0:0:0:0:
432,207,208951,1,10,0:0:0:0:
424,189,209042,1,8,0:0:0:0:
401,186,209134,2,0,P|359:186|344:202,1,60.2999971476747,8|0,0:1|0:0,0:0:0:0:
263,346,209317,5,10,0:1:0:0:
271,299,209408,1,10,0:1:0:0:
280,251,209500,1,10,0:0:0:0:
116,128,209683,5,8,0:3:0:0:
122,150,209774,1,8,0:3:0:0:
127,173,209866,1,8,0:3:0:0:
30,384,210048,5,4,0:3:0:0:
36,348,210140,1,4,0:3:0:0:
44,312,210231,1,4,0:3:0:0:
52,276,210323,1,4,0:3:0:0:
61,241,210414,1,4,0:3:0:0:
365,115,210597,5,8,0:3:0:0:
317,103,210689,1,8,0:3:0:0:
269,109,210780,1,8,0:3:0:0:
239,147,210872,1,8,0:3:0:0:
238,191,210963,2,0,B|237:207|249:218|249:218|261:203|252:188,1,59.4000018127442,8|0,0:0|0:0,0:0:0:0:
253,190,211329,6,0,P|169:129|108:185,1,182.250000695229,12|0,0:1|0:0,0:0:0:0:
64,243,211695,6,0,P|67:286|88:299,1,60.7500002317429,10|0,0:0|0:0,0:0:0:0:
144,245,211878,1,10,0:0:0:0:
0,132,212061,1,10,0:1:0:0:
144,245,212244,1,10,0:0:0:0:
257,70,212427,6,0,B|267:52|267:52|292:18|350:46|326:96|326:96|289:168,1,195.750005973816,10|0,0:0|0:0,0:0:0:0:
298,150,212792,6,0,P|260:170|263:200,1,65.250001991272,10|0,0:1|0:0,0:0:0:0:
362,320,212975,1,10,0:0:0:0:
354,305,213067,1,8,0:0:0:0:
346,292,213341,6,0,P|312:285|287:310,1,65.250001991272,8|0,0:0|0:0,0:0:0:0:
273,373,213524,1,8,0:1:0:0:
162,159,213707,2,0,P|148:265|130:379,1,195.750005973816,14|0,0:0|0:0,0:0:0:0:
134,352,214073,2,0,P|111:327|115:291,1,65.250001991272,8|0,0:0|0:0,0:0:0:0:
235,195,214256,5,8,0:1:0:0:
328,223,214439,1,2,0:0:0:0:
440,57,214622,6,0,P|467:77|462:109,1,56.25,8|0,0:0|0:0,0:0:0:0:
394,134,214805,2,0,P|366:113|371:81,1,56.25,8|0,0:0|0:0,0:0:0:0:
457,338,214988,5,8,0:1:0:0:
505,212,215170,1,8,0:0:0:0:
299,55,215353,6,0,B|247:26|206:73|234:93|182:135|134:100,1,182.250000695229,10|0,0:0|0:0,0:0:0:0:
143,106,215719,2,0,P|166:120|192:138,1,51.7500009870529,10|0,0:1|0:0,0:0:0:0:
130,239,215902,1,8,0:0:0:0:
110,246,215994,1,8,0:0:0:0:
86,236,216085,2,0,P|57:205|71:147,1,103.500001974106,8|8,0:0|0:0,0:0:0:0:
289,148,216451,6,0,B|318:169|321:234|321:234|318:167|343:144,1,182.250000695229,12|0,0:1|0:0,0:0:0:0:
315,82,216817,1,8,0:3:0:0:
206,229,217183,6,0,P|189:205|161:198,1,33.7500012874604,8|0,0:0|0:0,0:0:0:0:
110,148,217366,1,8,0:3:0:0:
39,143,217548,1,4,0:3:0:0:
11,208,217731,1,4,0:3:0:0:
133,77,217914,5,8,0:1:0:0:
206,109,218097,2,0,B|234:114|257:105|253:101|277:89|306:91,1,99.0000030212403,2|0,0:0|0:0,0:0:0:0:
353,39,218646,6,0,B|389:35|421:55|403:69|436:97|491:86|491:86|405:74|355:124,1,270,8|0,0:1|0:0,0:0:0:0:
