osu file format v14

[General]
AudioFilename: audio.mp3
AudioLeadIn: 0
PreviewTime: 131768
Countdown: 0
SampleSet: Soft
StackLeniency: 0.9
Mode: 0
LetterboxInBreaks: 0
WidescreenStoryboard: 1

[Editor]
DistanceSpacing: 1.1
BeatDivisor: 4
GridSize: 32
TimelineZoom: 1

[Metadata]
Title:EVERBLUE
TitleUnicode:EVERBLUE
Artist:Omoinotake
ArtistUnicode:Omoinotake
Creator:Yudragen
Version:Collab Hard
Source:ブルーピリオド
Tags:blue period chaoticred pop nachmark japanese jazz anime ohm002
BeatmapID:3900093
BeatmapSetID:1754252

[Difficulty]
HPDrainRate:4
CircleSize:4
OverallDifficulty:6
ApproachRate:8
SliderMultiplier:1.4
SliderTickRate:1

[Events]
//Background and Video events
0,0,"ezgif.com-gif-maker(3).jpg",0,0
//Break Periods
2,189413,195574
//Storyboard Layer 0 (Background)
//Storyboard Layer 1 (Fail)
//Storyboard Layer 2 (Pass)
//Storyboard Layer 3 (Foreground)
//Storyboard Layer 4 (Overlay)
//Storyboard Sound Samples

[TimingPoints]
-1009,444.444444444444,4,2,1,20,1,0
768,-111.111111111111,4,2,1,40,0,0
7879,-100,4,2,1,50,0,0
10546,-100,4,2,1,60,0,0
12990,-100,4,2,1,75,0,0
13435,-100,4,2,1,90,0,0
14990,-111.111111111111,4,2,1,55,0,0
28768,-111.111111111111,4,2,1,45,0,0
28990,-111.111111111111,4,2,1,70,0,0
29213,-95.2380952380952,4,2,1,60,0,0
39879,-95.2380952380952,4,2,1,55,0,0
41657,-95.2380952380952,4,2,1,70,0,0
41990,-95.2380952380952,4,2,1,75,0,0
42324,-95.2380952380952,4,2,1,80,0,0
42990,-95.2380952380952,4,2,1,55,0,0
43435,-90.9090909090909,4,2,1,70,0,0
57435,-90.9090909090909,4,2,1,80,0,0
57657,-83.3333333333333,4,2,1,75,0,0
71879,-83.3333333333333,4,2,1,75,0,0
73657,-76.9230769230769,4,2,1,80,0,1
74102,-76.9230769230769,4,2,1,90,0,1
74546,-76.9230769230769,4,2,1,85,0,1
77657,-76.9230769230769,4,2,1,90,0,1
78101,-76.9230769230769,4,2,1,85,0,1
87879,-90.9090909090909,4,2,1,80,0,0
88324,-76.9230769230769,4,2,1,90,0,1
88768,-76.9230769230769,4,2,1,85,0,1
91879,-76.9230769230769,4,2,1,90,0,1
92323,-76.9230769230769,4,2,1,85,0,1
100435,-76.9230769230769,4,2,1,90,0,1
101102,-76.9230769230769,4,2,1,95,0,1
101213,-90.9090909090909,4,2,1,85,0,0
101324,-90.9090909090909,4,2,1,75,0,0
101435,-90.9090909090909,4,2,1,65,0,0
102102,-90.9090909090909,4,2,1,60,0,0
116324,-83.3333333333333,4,2,1,70,0,0
123435,-83.3333333333333,4,2,1,75,0,0
126990,-83.3333333333333,4,2,1,70,0,0
130546,-83.3333333333333,4,2,1,75,0,0
132324,-76.9230769230769,4,2,1,80,0,1
132768,-76.9230769230769,4,2,1,90,0,1
133213,-76.9230769230769,4,2,1,85,0,1
136324,-76.9230769230769,4,2,1,90,0,1
136768,-76.9230769230769,4,2,1,85,0,1
146546,-90.9090909090909,4,2,1,80,0,0
146990,-76.9230769230769,4,2,1,90,0,1
147435,-76.9230769230769,4,2,1,85,0,1
150546,-76.9230769230769,4,2,1,90,0,1
150990,-76.9230769230769,4,2,1,85,0,1
159324,-76.9230769230769,4,2,1,90,0,1
159657,-76.9230769230769,4,2,1,95,0,1
159990,-76.9230769230769,4,2,1,85,0,1
160768,-83.3333333333333,4,2,1,80,0,0
161213,-83.3333333333333,4,2,1,75,0,0
173657,-83.3333333333333,4,2,1,85,0,0
174768,-83.3333333333333,4,2,1,70,0,0
174990,-80,4,2,1,80,0,0
189213,-166.666666666667,4,2,1,40,0,0
192879,-166.666666666667,4,2,1,5,0,0
193435,-166.666666666667,4,2,1,40,0,0
194657,-166.666666666667,4,2,1,5,0,0
195213,-166.666666666667,4,2,1,40,0,0
195657,-166.666666666667,4,2,1,50,0,0
196213,-166.666666666667,4,2,1,5,0,0
196324,-83.3333333333333,4,2,1,55,0,0
199879,-83.3333333333333,4,2,1,60,0,0
203435,-62.5,4,2,1,80,0,0
205213,-62.5,4,2,1,5,0,0
206546,-62.5,4,2,1,50,0,0
206990,-76.9230769230769,4,2,1,80,0,1
207435,-76.9230769230769,4,2,1,90,0,1
207879,-76.9230769230769,4,2,1,85,0,1
210990,-76.9230769230769,4,2,1,90,0,1
211434,-76.9230769230769,4,2,1,85,0,1
221213,-90.9090909090909,4,2,1,80,0,0
221657,-76.9230769230769,4,2,1,90,0,1
222102,-76.9230769230769,4,2,1,85,0,1
225212,-76.9230769230769,4,2,1,90,0,1
225656,-76.9230769230769,4,2,1,85,0,1
233656,-76.9230769230769,4,2,1,90,0,1
234435,-76.9230769230769,4,2,1,95,0,1
235102,-62.5,4,2,1,100,0,0
235213,-62.5,4,2,2,85,0,0
235324,-62.5,4,2,1,70,0,0
235435,-62.5,4,2,2,55,0,0
235546,-62.5,4,2,1,40,0,0
235657,-62.5,4,2,2,25,0,0
235768,-62.5,4,2,1,10,0,0

[Colours]
Combo1 : 83,226,234
Combo2 : 245,239,107
Combo3 : 66,98,227
Combo4 : 241,208,158

[HitObjects]
120,73,768,5,10,1:3:0:0:
356,326,1879,5,2,0:0:0:0:
395,240,2213,1,2,0:0:0:0:
300,243,2546,2,0,P|225:263|162:289,1,125.999996154785,2|2,3:2|3:0,0:0:0:0:
66,335,3435,6,0,P|63:296|57:265,1,62.9999980773926,2|2,0:0|0:0,0:0:0:0:
97,222,3879,1,2,3:2:0:0:
45,185,4102,1,2,3:2:0:0:
81,133,4324,2,0,P|156:113|219:87,1,125.999996154785,2|0,1:2|3:0,0:0:0:0:
377,27,5435,6,0,P|415:45|430:72,1,62.9999980773926,2|0,0:0|0:0,0:0:0:0:
426,61,5768,1,2,0:0:0:0:
503,114,6102,2,0,P|469:164|390:192,1,125.999996154785,2|0,3:2|3:0,0:0:0:0:
311,267,6990,6,0,P|307:212|292:146,1,94.499997116089,2|0,0:0|0:0,0:0:0:0:
299,173,7435,2,0,P|239:191|191:191,1,94.499997116089,2|0,0:0|0:0,0:0:0:0:
207,192,7879,5,4,3:0:0:0:
187,266,8102,1,2,3:2:0:0:
132,211,8324,1,4,3:0:0:0:
113,285,8546,2,0,P|61:306|21:329,1,70,2|4,3:2|3:0,0:0:0:0:
12,250,8990,6,0,P|32:177|36:156,1,70,2|4,3:2|3:0,0:0:0:0:
31,183,9324,2,0,P|15:133|2:101,1,70,2|0,3:2|3:0,0:0:0:0:
8,116,9657,2,0,P|66:95|144:63,1,140,2|4,1:2|3:0,0:0:0:0:
246,174,10546,5,2,1:2:0:0:
312,135,10768,1,2,3:2:0:0:
356,72,10990,1,2,1:2:0:0:
412,124,11213,1,2,3:2:0:0:
482,155,11435,2,0,P|512:207|379:344,1,280,2|4,1:2|3:0,0:0:0:0:
334,290,12546,1,2,3:2:0:0:
262,308,12768,2,0,P|274:349|278:367,1,46.6666666666667,2|2,1:1|0:2,0:0:0:0:
276,353,12990,2,2,P|296:240|297:196,1,140,0|2,3:1|1:0,0:1:0:0:
245,157,13657,2,0,P|236:124|218:86,1,70,2|0,1:0|0:0,0:0:0:0:
57,348,14990,6,0,P|51:285|36:205,1,125.999996154785,4|0,1:2|1:0,0:0:0:0:
109,102,15879,2,0,P|77:67|31:60,2,94.499997116089,0|2|2,1:0|0:0|3:2,0:0:0:0:
179,134,16768,6,0,P|215:164|307:146,1,125.999996154785,0|0,1:0|1:0,0:0:0:0:
340,101,17435,1,2,0:0:0:0:
408,141,17657,1,2,1:2:0:0:
290,237,18102,1,0,1:0:0:0:
358,274,18324,1,2,3:2:0:0:
294,311,18546,6,0,P|247:323|154:347,1,125.999996154785,0|0,1:0|1:0,0:0:0:0:
51,274,19435,2,0,P|22:236|31:178,1,94.499997116089,2|0,1:2|0:0,0:0:0:0:
24,191,19879,1,0,1:0:0:0:
79,139,20102,2,0,P|119:151|150:162,1,62.9999980773926,2|0,3:2|1:0,0:0:0:0:
203,113,20546,5,2,3:2:0:0:
159,48,20768,2,0,P|205:34|291:6,1,125.999996154785,0|0,1:0|1:0,0:0:0:0:
408,60,21657,2,0,P|400:109|395:137,1,62.9999980773926,0|2,1:0|0:0,0:0:0:0:
325,144,22102,6,0,P|343:211|361:276,1,125.999996154785,0|0,1:0|1:0,0:0:0:0:
249,341,22990,2,0,P|198:334|120:328,1,125.999996154785,0|0,1:0|1:0,0:0:0:0:
70,273,23657,1,2,0:0:0:0:
124,219,23879,6,0,P|170:184|173:118,2,125.999996154785,0|0|2,1:0|1:0|1:2,0:0:0:0:
32,121,25213,1,0,1:0:0:0:
4,51,25435,1,2,3:2:0:0:
81,60,25657,6,0,P|133:43|206:30,1,125.999996154785,0|0,1:0|1:0,0:0:0:0:
247,95,26324,1,0,0:0:0:0:
309,45,26546,2,0,P|337:74|362:137,1,94.499997116089,2|0,1:2|0:0,0:0:0:0:
359,122,26990,1,0,1:0:0:0:
299,176,27213,2,0,P|286:223|272:248,1,62.9999980773926,2|0,3:2|1:0,0:0:0:0:
350,265,27657,5,2,3:2:0:0:
295,314,27879,2,0,B|218:328|258:336|174:364,1,125.999996154785,2|0,1:2|1:0,0:0:0:0:
143,300,28546,1,2,1:3:0:0:
80,345,28768,1,2,1:2:0:0:
38,284,28990,2,2,P|26:232|18:204,1,62.9999980773926,2|4,0:1|1:2,0:1:0:0:
82,166,29435,6,0,P|123:173|170:185,1,73.4999977569581,2|4,3:2|1:3,0:0:0:0:
158,99,29879,2,0,P|202:93|248:89,1,73.4999977569581,2|4,3:2|1:3,0:0:0:0:
296,42,30324,1,2,3:2:0:0:
337,111,30546,1,4,1:3:0:0:
405,68,30768,2,0,P|426:120|444:151,1,73.4999977569581,2|4,3:2|1:3,0:0:0:0:
303,230,31435,6,0,P|293:285|265:376,1,146.999995513916,2|4,1:3|1:3,0:0:0:0:
210,313,32102,1,0,0:0:0:0:
140,354,32324,1,4,1:3:0:0:
78,301,32546,2,0,P|43:282|2:273,1,73.4999977569581,2|4,3:1|1:3,0:0:0:0:
26,194,32990,5,2,3:2:0:0:
91,146,33213,1,4,1:3:0:0:
149,201,33435,2,0,P|207:173|308:160,1,146.999995513916,2|2,0:0|3:2,0:0:0:0:
347,104,34102,1,4,1:3:0:0:
406,158,34324,2,0,P|430:125|433:87,1,73.4999977569581,2|4,3:2|1:3,0:0:0:0:
508,63,34768,5,2,3:2:0:0:
446,10,34990,2,0,P|391:-1|287:40,2,146.999995513916,2|4|4,1:3|1:3|1:3,0:0:0:0:
490,77,36102,2,0,P|485:125|488:176,1,73.4999977569581,2|4,3:1|1:3,0:0:0:0:
414,188,36546,6,0,P|362:205|324:224,1,73.4999977569581,2|4,3:2|1:3,0:0:0:0:
318,289,36990,2,0,P|330:331|332:370,1,73.4999977569581,2|4,3:2|1:3,0:0:0:0:
252,345,37435,1,2,3:2:0:0:
175,370,37657,1,4,1:3:0:0:
110,321,37879,5,2,3:0:0:0:
110,321,37990,1,0,3:0:0:0:
110,321,38102,2,0,P|121:244|128:166,2,146.999995513916,4|4|4,1:3|1:3|1:3,0:0:0:0:
208,192,39435,1,4,1:3:0:0:
181,124,39657,5,2,3:1:0:0:
181,124,39768,1,2,3:0:0:0:
181,124,39879,2,0,P|234:107|276:101,1,73.4999977569581,4|0,1:3|0:0,0:0:0:0:
301,44,40324,1,4,1:3:0:0:
322,118,40546,2,0,P|356:129|389:145,1,73.4999977569581,2|4,3:2|1:3,0:0:0:0:
389,145,40879,1,0,0:0:0:0:
389,145,40990,1,2,3:2:0:0:
336,207,41213,1,2,3:0:0:0:
333,216,41324,1,2,3:0:0:0:
330,226,41435,1,2,1:0:0:0:
327,235,41546,1,2,1:2:0:0:
323,245,41657,6,2,P|340:310|351:349,1,73.4999977569581,2|0,1:1|0:0,0:1:0:0:
364,349,41990,2,0,P|317:369|281:388,1,73.4999977569581,2|0,1:0|0:0,0:0:0:0:
274,346,42324,2,0,P|219:326|208:323,1,36.749998878479,2|0,1:0|0:0,0:0:0:0:
55,249,42990,6,0,P|53:209|117:200,1,110.249996635437,10|2,1:3|0:0,0:0:0:0:
111,195,43435,6,0,P|100:264|87:335,1,115.50000352478,4|8,1:0|1:2,0:0:0:0:
91,309,43879,1,0,1:3:0:0:
192,172,44324,2,0,P|181:129|164:91,1,77.0000023498536,2|0,1:2|3:0,0:0:0:0:
239,48,44768,1,2,1:2:0:0:
239,48,44879,2,0,P|281:59|367:66,1,115.50000352478,8|0,1:2|1:0,0:0:0:0:
436,161,45546,5,8,1:2:0:0:
436,161,45657,2,0,P|394:172|355:201,1,77.0000023498536,0|0,1:0|0:0,0:0:0:0:
285,217,46102,1,2,1:2:0:0:
352,267,46324,1,2,1:3:0:0:
271,294,46546,1,0,1:0:0:0:
338,344,46768,1,2,1:3:0:0:
271,294,46990,6,0,P|218:305|157:365,1,115.50000352478,4|8,1:3|1:2,0:0:0:0:
170,342,47435,1,0,1:3:0:0:
45,227,47879,2,0,B|38:141|101:184|90:52,1,154.000004699707,2|0,1:2|1:2,0:0:0:0:
91,84,48435,2,0,P|122:45|193:59,1,115.50000352478,8|0,1:2|1:0,0:0:0:0:
230,136,48990,5,2,0:0:0:0:
230,136,49102,1,8,1:2:0:0:
230,136,49213,2,0,P|276:151|350:53,1,154.000004699707,0|0,1:0|1:0,0:0:0:0:
351,89,49768,2,0,P|405:87|443:146,1,115.50000352478,8|2,1:2|1:3,0:0:0:0:
390,199,50324,1,2,3:1:0:0:
465,237,50546,5,4,1:3:0:0:
387,337,50879,1,8,1:2:0:0:
387,337,50990,2,0,L|296:316,1,77.0000023498536,0|0,1:0|0:0,0:0:0:0:
255,256,51435,2,0,L|132:295,1,115.50000352478,0|2,1:0|3:2,0:0:0:0:
144,290,51879,2,0,L|155:224,2,38.5000011749268,0|8|2,1:0|1:2|3:2,0:0:0:0:
76,342,52324,6,0,P|38:300|54:221,1,115.50000352478,0|8,1:0|1:2,0:0:0:0:
39,243,52768,2,0,P|78:216|90:182,2,77.0000023498536,0|0|2,1:0|0:0|1:2,0:0:0:0:
16,161,53435,1,10,1:3:0:0:
83,110,53657,1,0,1:0:0:0:
3,82,53879,1,2,1:3:0:0:
67,26,54102,5,4,1:3:0:0:
180,83,54435,1,8,1:2:0:0:
180,83,54546,2,0,L|300:49,1,115.50000352478,0|0,1:0|0:0,0:0:0:0:
291,51,54990,2,0,P|271:105|278:130,1,77.0000023498536,2|0,1:2|0:0,0:0:0:0:
219,186,55435,1,0,1:0:0:0:
219,186,55546,2,0,P|251:225|323:232,1,115.50000352478,8|0,1:2|1:0,0:0:0:0:
381,185,56102,5,2,0:0:0:0:
381,185,56213,1,8,1:2:0:0:
381,185,56324,2,0,P|448:188|483:267,1,154.000004699707,0|0,1:0|1:0,0:0:0:0:
484,259,56879,2,0,L|410:289,1,77.0000023498536,10|0,1:2|0:2,0:0:0:0:
412,287,57213,1,2,1:2:0:0:
335,290,57435,2,2,L|351:355,2,38.5000011749268,2|0|4,1:1|0:0|1:2,0:1:0:0:
254,264,57879,5,2,3:2:0:0:
219,341,58102,1,2,1:2:0:0:
164,277,58324,2,0,P|150:217|139:179,1,83.9999974365235,2|0,3:2|1:0,0:0:0:0:
143,195,58657,1,8,1:2:0:0:
143,195,58768,1,2,3:0:0:0:
205,138,58990,1,2,1:2:0:0:
125,109,59213,2,0,P|74:137|15:146,1,83.9999974365235,2|0,3:2|1:3,0:0:0:0:
115,37,59768,5,8,1:2:0:0:
115,37,59879,2,0,P|155:76|272:82,1,167.999994873047,0|0,1:0|1:0,0:0:0:0:
262,87,60435,2,0,P|274:21|280:-15,1,83.9999974365235,8|2,1:2|3:0,0:0:0:0:
276,4,60768,1,2,1:2:0:0:
356,31,60990,2,2,P|363:86|388:116,1,83.9999974365235,2|0,3:1|1:3,0:1:0:0:
454,145,61435,5,2,3:2:0:0:
454,145,61546,1,8,1:2:0:0:
454,145,61657,1,0,1:0:0:0:
388,197,61879,2,0,P|381:239|364:298,1,83.9999974365235,2|0,3:2|1:0,0:0:0:0:
435,332,62324,1,2,3:2:0:0:
353,352,62546,1,0,1:0:0:0:
291,295,62768,1,6,3:0:0:0:
208,308,62990,6,0,P|138:324|60:357,1,125.999996154785,0|8,1:0|1:2,0:0:0:0:
87,343,63435,2,0,P|72:289|48:261,1,83.9999974365235,0|0,1:0|0:0,0:0:0:0:
103,199,63879,1,0,1:0:0:0:
103,199,63990,1,8,1:2:0:0:
103,199,64102,1,2,3:0:0:0:
42,141,64324,1,2,1:2:0:0:
120,112,64546,2,2,P|182:139|216:141,1,83.9999974365235,2|4,1:1|1:2,0:1:0:0:
267,187,64990,6,0,P|281:127|276:89,1,83.9999974365235,2|2,3:2|1:2,0:0:0:0:
355,68,65435,2,0,P|389:155|380:232,1,167.999994873047,2|2,3:2|3:2,0:0:0:0:
320,286,66102,1,0,1:0:0:0:
398,314,66324,1,2,3:2:0:0:
329,361,66546,6,0,P|268:364|227:371,1,83.9999974365235,2|0,1:2|0:0,0:0:0:0:
245,367,66879,1,8,1:2:0:0:
245,367,66990,1,0,1:0:0:0:
107,270,67435,1,0,1:0:0:0:
107,270,67546,1,8,1:2:0:0:
107,270,67657,1,2,3:0:0:0:
74,192,67879,1,2,1:2:0:0:
150,198,68102,2,2,P|143:162|137:85,1,83.9999974365235,2|4,1:1|1:2,0:1:0:0:
179,41,68546,5,2,3:2:0:0:
236,101,68768,1,2,1:2:0:0:
319,94,68990,2,0,P|373:76|401:49,1,83.9999974365235,2|0,3:2|1:0,0:0:0:0:
438,129,69435,2,0,P|465:179|494:206,2,83.9999974365235,2|2|2,0:0|1:2|3:2,0:0:0:0:
364,169,70102,6,0,P|339:224|334:335,2,167.999994873047,2|0|0,1:2|1:0|1:0,0:0:0:0:
310,117,71213,1,2,3:2:0:0:
310,117,71324,1,0,3:3:0:0:
310,117,71435,2,0,P|265:147|223:156,1,83.9999974365235,2|2,1:2|3:0,0:0:0:0:
163,195,71879,6,0,L|149:131,2,41.9999987182618,10|2|2,1:2|3:2|3:2,0:0:0:0:
163,195,72213,1,2,1:2:0:0:
119,268,72435,2,0,L|136:325,1,41.9999987182618,4|8,1:3|1:2,0:0:0:0:
131,308,72657,2,0,L|263:262,1,125.999996154785,10|8,1:3|1:2,0:0:0:0:
250,267,73102,1,2,1:3:0:0:
250,267,73213,2,0,L|271:331,2,41.9999987182618,2|0|0,1:2|1:0|0:0,0:0:0:0:
313,201,73657,5,6,1:2:0:0:
404,240,73879,1,2,0:0:0:0:
491,288,74102,2,2,B|472:186|410:248|394:123,1,181.999991668702,6|0,1:1|1:2,0:1:0:0:
374,50,74768,1,2,0:0:0:0:
374,50,74879,1,2,3:0:0:0:
374,50,74990,1,10,1:2:0:0:
302,106,75213,2,0,P|285:64|234:39,1,90.9999958343508,2|0,3:2|1:2,0:2:0:0:
214,125,75657,6,0,P|197:175|153:195,1,90.9999958343508,2|10,3:1|1:2,0:0:0:0:
101,143,76102,2,0,L|117:83,2,45.4999979171754,2|0|0,3:2|0:0|3:0,3:0:0:0:
29,199,76546,1,2,3:1:0:0:
29,199,76657,1,0,0:0:0:0:
91,264,76879,1,2,3:1:0:0:
91,264,76990,1,2,0:0:0:0:
28,330,77213,6,0,P|87:308|183:314,1,136.499993751526,0|0,1:0|3:0,0:0:0:0:
159,307,77657,2,2,P|210:328|288:221,1,181.999991668702,6|0,1:1|1:0,0:1:0:0:
359,187,78324,2,0,P|347:130|340:74,1,90.9999958343508,2|10,3:0|1:2,0:0:0:0:
269,72,78768,1,2,3:2:0:0:
269,72,78879,1,2,3:1:0:0:
269,72,78990,2,0,P|257:123|251:137,1,45.4999979171754,0|2,1:0|3:2,0:0:0:0:
259,116,79213,6,0,P|208:96|169:91,2,90.9999958343508,2|10|0,3:1|1:2|0:0,0:0:0:0:
344,86,79879,2,0,P|412:121|483:125,1,136.499993751526,2|2,1:2|3:2,0:0:0:0:
470,126,80324,1,8,1:2:0:0:
428,206,80546,2,2,P|410:267|424:325,1,90.9999958343508,0|0,3:1|1:0,0:1:0:0:
478,356,80990,1,2,3:2:0:0:
389,379,81213,6,0,P|326:343|266:333,1,90.9999958343508,10|2,1:2|3:2,0:0:0:0:
217,332,81657,2,0,P|239:247|216:163,1,136.499993751526,2|2,1:2|3:2,0:0:0:0:
231,199,82102,1,10,1:2:0:0:
251,111,82324,2,0,P|197:123|145:158,1,90.9999958343508,2|0,3:1|1:0,0:0:0:0:
85,171,82768,5,2,3:2:0:0:
85,171,82879,1,0,3:0:0:0:
85,171,82990,2,0,P|75:122|87:84,1,90.9999958343508,10|0,1:2|3:0,0:0:0:0:
155,23,83435,1,2,1:2:0:0:
294,37,83768,1,2,3:2:0:0:
294,37,83879,1,8,1:2:0:0:
359,101,84102,2,0,P|416:111|484:129,1,90.9999958343508,2|0,3:1|1:0,0:0:0:0:
392,190,84546,5,2,3:2:0:0:
459,251,84768,2,0,P|398:269|303:312,1,136.499993751526,10|0,1:2|0:0,0:0:0:0:
330,297,85213,1,0,1:2:0:0:
274,232,85435,1,0,1:0:0:0:
274,232,85546,1,0,1:0:0:0:
274,232,85657,2,0,P|215:259|208:260,1,45.4999979171754,10|0,1:2|1:0,0:0:0:0:
208,291,85879,5,2,1:2:0:0:
208,291,85990,1,2,1:3:0:0:
208,291,86102,2,2,P|174:175|155:142,1,136.499993751526,6|0,1:1|0:0,0:1:0:0:
166,161,86546,2,2,P|229:137|224:57,1,136.499993751526,6|0,1:1|0:0,0:1:0:0:
235,74,86990,2,2,B|155:57|213:23|106:0,1,136.499993751526,6|0,1:1|3:0,0:1:0:0:
123,4,87435,1,6,1:1:0:0:
67,76,87657,5,0,3:1:0:0:
67,76,87768,1,0,1:0:0:0:
67,76,87879,1,4,1:2:0:0:
134,132,88102,1,2,3:0:0:0:
47,160,88324,2,2,P|21:207|130:289,1,181.999991668702,6|0,1:1|1:0,0:1:0:0:
156,358,88990,1,2,3:2:0:0:
195,275,89213,1,10,1:2:0:0:
270,325,89435,2,0,P|320:334|378:368,1,90.9999958343508,2|0,3:2|1:0,0:0:0:0:
439,314,89879,5,2,3:1:0:0:
439,314,89990,1,2,3:2:0:0:
439,314,90102,1,10,1:2:0:0:
366,259,90324,2,0,B|379:219|379:219|358:137,1,90.9999958343508,2|0,3:1|1:0,0:0:0:0:
297,112,90768,1,2,3:1:0:0:
297,112,90879,1,0,3:0:0:0:
367,54,91102,1,0,0:0:0:0:
367,54,91213,2,0,P|407:78|483:98,2,90.9999958343508,2|0|2,3:1|1:0|3:0,0:0:0:0:
291,3,91879,6,0,P|235:27|96:40,1,181.999991668702,6|0,1:0|1:0,0:0:0:0:
41,95,92546,2,0,P|25:45|16:30,2,45.4999979171754,2|0|8,3:0|3:0|1:2,0:0:0:0:
112,150,92990,1,2,3:1:0:0:
112,150,93102,1,2,3:2:0:0:
112,150,93213,2,0,P|98:196|90:209,1,45.4999979171754,0|2,1:0|3:2,0:0:0:0:
99,193,93435,6,0,P|151:205|187:234,1,90.9999958343508,2|8,3:1|1:2,0:0:0:0:
179,318,93879,1,2,3:2:0:0:
259,274,94102,2,0,P|310:259|367:194,1,136.499993751526,2|2,1:2|3:2,0:0:0:0:
364,198,94546,1,8,1:2:0:0:
443,244,94768,2,0,P|457:195|442:134,1,90.9999958343508,2|0,3:1|1:0,0:0:0:0:
382,96,95213,5,2,3:2:0:0:
382,96,95324,1,0,3:0:0:0:
382,96,95435,1,8,1:2:0:0:
432,20,95657,1,2,3:2:0:0:
341,11,95879,2,0,P|272:26|206:63,1,136.499993751526,2|2,1:2|3:2,0:0:0:0:
214,56,96324,1,8,1:2:0:0:
207,147,96546,2,0,P|153:124|123:89,1,90.9999958343508,2|0,3:1|1:0,0:0:0:0:
54,52,96990,5,2,3:2:0:0:
54,52,97102,1,0,3:0:0:0:
54,52,97213,2,0,P|42:112|23:149,1,90.9999958343508,10|2,1:2|3:0,0:0:0:0:
93,203,97657,2,0,B|113:283|46:253|73:354,1,136.499993751526,2|2,1:2|3:2,0:0:0:0:
68,331,98102,1,8,1:2:0:0:
156,312,98324,2,0,P|216:294|279:286,1,90.9999958343508,2|0,3:2|1:0,0:0:0:0:
339,317,98768,5,2,3:1:0:0:
339,317,98879,1,2,3:2:0:0:
339,317,98990,2,0,P|323:282|342:228,1,90.9999958343508,10|0,1:2|0:0,0:0:0:0:
425,210,99435,1,2,1:2:0:0:
425,210,99546,2,0,P|418:173|420:119,1,90.9999958343508,2|2,3:2|1:2,0:0:0:0:
419,119,99879,1,8,1:2:0:0:
351,58,100102,5,2,1:2:0:0:
351,58,100213,1,2,1:1:0:0:
351,58,100324,1,0,1:0:0:0:
351,58,100435,2,0,L|232:88,1,90.9999958343508,6|0,1:0|1:0,0:0:0:0:
262,80,100768,1,2,1:2:0:0:
262,80,100879,2,0,L|283:156,1,45.4999979171754,2|0,1:0|0:0,0:0:0:0:
274,124,101102,2,2,B|196:98|241:58|133:38,1,136.499993751526,6|0,1:1|0:1,0:1:0:0:
82,261,102102,5,4,1:2:0:0:
176,345,102435,1,8,1:2:0:0:
176,345,102546,2,0,L|291:316,1,115.50000352478,0|0,1:0|0:0,0:0:0:0:
287,316,102990,2,0,L|270:240,1,77.0000023498536,0|0,1:0|0:0,0:0:0:0:
344,200,103435,1,0,1:0:0:0:
344,200,103546,1,8,1:2:0:0:
428,294,103879,5,0,1:0:0:0:
482,179,104213,1,8,1:2:0:0:
482,179,104324,2,0,L|460:93,1,77.0000023498536,0|2,1:0|0:0,0:0:0:0:
412,36,104768,1,2,1:2:0:0:
384,116,104990,1,10,1:3:0:0:
330,49,105213,1,0,1:0:0:0:
304,129,105435,2,0,P|256:105|213:98,1,77.0000023498536,2|0,1:3|1:0,0:0:0:0:
137,24,105990,5,8,1:2:0:0:
137,24,106102,2,0,P|152:76|136:146,1,115.50000352478,0|0,1:0|0:0,0:0:0:0:
141,135,106546,2,0,P|90:151|48:174,1,77.0000023498536,0|0,1:0|3:0,0:0:0:0:
36,239,106990,1,0,1:2:0:0:
36,239,107102,2,0,P|96:258|142:303,1,115.50000352478,8|0,1:2|1:0,0:0:0:0:
212,258,107657,5,2,3:2:0:0:
212,258,107768,1,8,1:2:0:0:
212,258,107879,2,0,P|240:308|276:310,1,77.0000023498536,2|0,1:2|0:0,0:0:0:0:
327,356,108324,1,0,1:0:0:0:
327,356,108435,1,8,1:2:0:0:
373,237,108768,1,0,1:0:0:0:
438,291,108990,1,2,1:3:0:0:
451,207,109213,6,0,P|436:146|428:39,1,154.000004699707,0|0,1:0|1:0,0:0:0:0:
265,4,110102,2,0,P|204:19|97:27,1,154.000004699707,0|0,1:0|1:0,0:0:0:0:
113,27,110657,2,0,P|126:84|127:127,1,77.0000023498536,8|0,1:2|0:0,0:0:0:0:
127,102,110990,5,0,1:0:0:0:
38,194,111324,1,8,1:2:0:0:
38,194,111435,1,0,1:0:0:0:
193,261,111879,1,2,1:2:0:0:
116,297,112102,1,2,1:3:0:0:
122,212,112324,1,0,1:0:0:0:
200,179,112546,2,0,P|271:191|307:197,1,77.0000023498536,2|0,1:3|1:0,0:0:0:0:
340,301,113102,5,8,1:2:0:0:
340,301,113213,2,0,P|397:285|480:269,1,115.50000352478,0|0,1:0|0:0,0:0:0:0:
452,273,113657,2,0,P|437:209|432:171,1,77.0000023498536,0|0,1:0|0:0,0:0:0:0:
484,129,114102,1,0,1:0:0:0:
484,129,114213,2,0,P|469:55|470:24,1,77.0000023498536,8|2,1:2|0:0,0:0:0:0:
468,53,114546,5,0,1:0:0:0:
402,30,114768,1,0,0:0:0:0:
402,30,114879,1,8,1:2:0:0:
402,30,114990,2,0,P|375:86|290:85,1,154.000004699707,0|0,1:0|1:0,0:0:0:0:
292,86,115546,2,0,L|276:-14,1,77.0000023498536,8|0,1:2|0:0,0:0:0:0:
280,9,115879,1,2,1:2:0:0:
213,63,116102,1,2,1:1:0:0:
139,17,116324,5,4,1:2:0:0:
78,86,116546,1,2,3:2:0:0:
78,86,116657,1,8,1:2:0:0:
78,86,116768,1,0,1:0:0:0:
159,128,116990,2,0,P|151:183|143:244,1,83.9999974365235,0|0,3:0|1:0,0:0:0:0:
147,211,117324,1,8,1:2:0:0:
147,211,117435,1,0,0:0:0:0:
77,272,117657,5,0,1:0:0:0:
126,350,117879,1,2,3:2:0:0:
214,321,118102,2,0,P|275:334|309:356,1,83.9999974365235,0|0,1:0|0:0,0:0:0:0:
293,344,118435,1,8,1:2:0:0:
293,344,118546,1,0,1:0:0:0:
422,294,118990,5,0,1:0:0:0:
422,294,119102,2,0,P|387:254|394:200,1,83.9999974365235,8|0,1:2|1:2,0:0:0:0:
384,225,119435,1,0,1:0:0:0:
461,175,119657,2,0,P|423:149|398:111,1,83.9999974365235,2|0,3:2|1:0,0:0:0:0:
324,113,120102,5,2,3:2:0:0:
324,113,120213,1,8,1:2:0:0:
324,113,120324,1,0,1:0:0:0:
264,183,120546,2,0,P|221:174|177:164,1,83.9999974365235,0|8,3:0|1:2,0:0:0:0:
98,204,120990,5,0,0:0:0:0:
52,126,121213,1,8,1:2:0:0:
122,66,121435,2,0,P|164:75|204:83,1,83.9999974365235,2|0,3:0|1:0,0:0:0:0:
292,56,121879,2,0,P|356:44|462:24,1,167.999994873047,0|0,3:0|3:0,0:0:0:0:
497,108,122546,6,0,P|465:148|468:192,1,83.9999974365235,0|0,1:0|3:0,0:0:0:0:
383,224,122990,2,0,P|401:271|441:291,1,83.9999974365235,0|2,1:0|3:1,0:0:0:0:
508,334,123435,6,0,P|450:312|361:377,1,167.999994873047,4|0,1:2|1:0,0:0:0:0:
287,315,124102,1,2,3:2:0:0:
207,361,124324,2,0,P|153:345|99:329,1,83.9999974365235,0|2,1:0|3:2,0:0:0:0:
126,337,124657,1,8,1:2:0:0:
126,337,124768,1,2,1:2:0:0:
37,361,124990,1,2,3:2:0:0:
62,271,125213,6,0,P|50:195|43:164,1,83.9999974365235,0|0,1:0|3:0,0:0:0:0:
48,188,125546,1,8,1:2:0:0:
48,188,125657,1,0,1:0:0:0:
13,15,126102,1,0,1:0:0:0:
13,15,126213,1,8,1:2:0:0:
13,15,126324,2,0,P|32:78|34:90,1,41.9999987182618,2|0,3:0|1:0,0:0:0:0:
82,76,126546,6,0,P|131:57|169:51,1,83.9999974365235,0|2,1:0|3:1,0:0:0:0:
240,3,126990,2,0,P|301:32|376:39,1,125.999996154785,4|8,1:2|1:2,0:0:0:0:
358,39,127435,1,2,1:2:0:0:
284,95,127657,2,0,P|265:142|285:190,1,83.9999974365235,2|0,3:2|1:0,0:0:0:0:
335,240,128102,1,2,3:0:0:0:
421,208,128324,5,10,1:2:0:0:
407,299,128546,1,2,3:2:0:0:
320,331,128768,2,0,P|232:312|128:301,1,167.999994873047,2|0,1:2|1:0,0:0:0:0:
67,270,129435,5,2,3:2:0:0:
96,353,129657,2,0,P|139:332|154:285,1,83.9999974365235,0|2,1:0|3:0,0:0:0:0:
153,302,129990,1,0,3:0:0:0:
153,302,130102,1,0,1:0:0:0:
133,211,130324,1,2,3:0:0:0:
218,176,130546,6,0,L|204:112,2,41.9999987182618,2|2|2,1:2|3:2|3:2,0:0:0:0:
218,176,130880,1,2,1:2:0:0:
301,241,131102,2,0,L|318:184,1,41.9999987182618,4|8,1:3|1:2,0:0:0:0:
313,201,131324,2,0,L|445:247,1,125.999996154785,10|8,1:3|1:2,0:0:0:0:
431,242,131769,1,8,1:2:0:0:
431,242,131880,2,0,L|412:308,2,41.9999987182618,0|4|0,1:0|3:0|1:0,0:0:0:0:
459,146,132324,5,4,1:2:0:0:
399,65,132546,1,2,0:0:0:0:
329,0,132768,2,2,P|297:56|366:149,1,181.999991668702,6|0,1:1|1:0,0:1:0:0:
420,68,133435,1,2,3:0:0:0:
420,68,133546,1,0,3:0:0:0:
420,68,133657,1,10,1:2:0:0:
354,146,133879,2,0,P|296:166|264:198,1,90.9999958343508,2|0,3:2|1:0,0:0:0:0:
221,268,134324,6,0,P|160:239|151:188,1,90.9999958343508,2|10,3:1|1:2,0:0:0:0:
130,123,134768,2,0,L|146:63,2,45.4999979171754,2|0|0,3:2|0:0|1:0,0:0:0:0:
68,208,135213,1,2,3:1:0:0:
68,208,135324,1,0,0:0:0:0:
123,296,135546,1,2,3:1:0:0:
123,296,135657,1,2,3:2:0:0:
19,312,135879,6,0,P|11:257|72:207,1,136.499993751526,0|2,1:0|3:2,0:0:0:0:
68,208,136324,2,2,P|155:188|245:152,1,181.999991668702,6|2,1:1|1:2,0:1:0:0:
312,223,136990,2,0,P|371:243|417:269,1,90.9999958343508,2|8,3:0|1:2,0:0:0:0:
488,216,137435,1,2,3:2:0:0:
488,216,137546,1,2,3:1:0:0:
488,216,137657,2,0,P|482:180|477:150,1,45.4999979171754,0|2,1:0|3:2,0:0:0:0:
480,171,137879,6,0,P|495:110|530:66,2,90.9999958343508,2|8|0,3:1|1:2|3:0,0:0:0:0:
384,142,138546,2,0,P|327:113|226:91,1,136.499993751526,2|2,1:2|3:2,0:0:0:0:
257,94,138991,1,8,1:2:0:0:
164,55,139213,2,0,P|148:108|173:143,1,90.9999958343508,2|0,3:1|1:0,0:0:0:0:
240,201,139657,1,2,3:2:0:0:
151,248,139879,6,0,P|94:233|49:225,1,90.9999958343508,10|2,1:2|3:0,0:0:0:0:
15,315,140324,2,0,P|82:326|147:346,1,136.499993751526,0|2,1:2|3:2,0:0:0:0:
147,346,140768,1,8,1:2:0:0:
243,318,140990,2,2,P|296:298|349:265,1,90.9999958343508,2|0,3:1|1:0,0:1:0:0:
430,314,141435,5,2,3:2:0:0:
430,314,141546,1,0,0:0:0:0:
430,314,141657,2,0,P|440:265|428:227,1,90.9999958343508,8|0,1:2|3:0,0:0:0:0:
360,166,142102,1,2,1:2:0:0:
448,45,142435,1,2,3:2:0:0:
448,45,142546,1,8,1:2:0:0:
354,80,142769,2,2,P|309:69|264:62,1,90.9999958343508,2|0,3:1|1:0,0:1:0:0:
174,18,143213,5,2,3:2:0:0:
106,91,143435,2,0,B|126:183|157:124|172:229,1,136.499993751526,10|0,1:2|0:0,0:1:0:0:
168,208,143879,1,0,1:0:0:0:
109,282,144102,1,4,3:0:0:0:
109,282,144213,1,0,1:0:0:0:
109,282,144324,2,0,P|44:275|37:273,1,45.4999979171754,10|0,1:2|1:0,0:0:0:0:
22,278,144546,5,0,1:0:0:0:
22,278,144657,1,0,1:0:0:0:
22,278,144768,2,2,P|91:305|108:379,1,136.499993751526,6|0,1:1|0:0,0:1:0:0:
111,358,145213,2,2,P|168:332|257:315,1,136.499993751526,6|0,1:1|0:0,0:1:0:0:
240,316,145657,2,2,P|312:317|327:237,1,136.499993751526,6|0,1:1|3:0,0:1:0:0:
336,265,146102,1,6,1:0:0:0:
280,194,146324,5,0,1:0:0:0:
280,194,146435,1,0,1:0:0:0:
280,194,146546,1,4,1:2:0:0:
337,131,146769,1,2,3:2:0:0:
248,86,146990,2,2,B|139:68|202:20|80:3,1,181.999991668702,6|0,1:0|1:0,0:1:0:0:
20,76,147657,1,2,3:2:0:0:
104,129,147880,1,10,1:2:0:0:
21,185,148102,2,0,P|35:257|41:300,1,90.9999958343508,2|0,3:2|1:0,0:0:0:0:
16,372,148546,5,2,3:2:0:0:
16,372,148657,1,2,3:1:0:0:
16,372,148768,1,10,1:2:0:0:
101,320,148990,2,0,P|172:303|200:288,1,90.9999958343508,2|0,3:2|1:0,0:0:0:0:
281,330,149435,1,2,3:1:0:0:
281,330,149546,1,0,0:0:0:0:
358,266,149768,1,0,0:0:0:0:
358,266,149879,2,2,P|415:291|484:309,2,90.9999958343508,2|0|2,3:1|1:1|3:2,0:1:0:0:
275,208,150546,6,2,B|256:106|194:168|178:43,1,181.999991668702,6|0,1:1|1:0,0:1:0:0:
271,17,151213,1,2,3:0:0:0:
271,17,151324,1,0,3:0:0:0:
271,17,151435,1,8,1:2:0:0:
180,60,151657,1,2,3:0:0:0:
180,60,151769,1,2,3:1:0:0:
180,60,151880,2,0,P|135:42|122:33,1,45.4999979171754,0|0,1:0|3:0,0:0:0:0:
91,26,152102,6,0,P|54:67|65:114,1,90.9999958343508,2|8,3:1|1:2,0:0:0:0:
40,198,152546,1,2,3:2:0:0:
137,219,152768,2,0,P|192:229|279:272,1,136.499993751526,2|2,1:2|3:2,0:0:0:0:
265,262,153213,1,8,1:2:0:0:
307,352,153435,2,2,P|347:310|387:308,1,90.9999958343508,2|0,3:1|1:0,0:1:0:0:
483,331,153880,5,2,0:0:0:0:
483,331,153991,1,0,3:0:0:0:
483,331,154102,1,8,1:2:0:0:
431,245,154324,1,2,0:0:0:0:
503,175,154546,2,0,P|445:155|376:92,1,136.499993751526,2|2,1:2|3:2,0:0:0:0:
387,107,154990,1,8,1:2:0:0:
301,159,155213,2,2,P|247:173|202:223,1,90.9999958343508,2|0,3:1|1:0,0:1:0:0:
145,259,155657,5,2,3:2:0:0:
145,259,155769,1,0,0:0:0:0:
145,259,155880,2,0,P|133:199|114:162,1,90.9999958343508,10|0,1:2|0:0,0:0:0:0:
37,116,156324,2,0,P|89:104|105:26,1,136.499993751526,2|2,1:2|3:2,0:0:0:0:
107,30,156768,1,8,1:2:0:0:
186,91,156991,2,0,P|246:73|309:65,1,90.9999958343508,2|0,3:2|1:0,0:0:0:0:
358,15,157435,5,2,3:1:0:0:
358,15,157546,1,2,3:2:0:0:
358,15,157657,2,0,B|390:52|390:52|370:115,1,90.9999958343508,8|0,1:2|0:0,0:0:0:0:
322,177,158102,1,0,1:0:0:0:
322,177,158213,2,0,P|285:185|236:209,1,90.9999958343508,2|2,3:1|3:1,0:0:0:0:
237,209,158546,1,8,1:2:0:0:
174,286,158768,1,0,1:0:0:0:
174,286,158879,1,0,1:0:0:0:
174,286,158990,2,2,P|111:274|63:264,1,90.9999958343508,6|4,1:1|1:3,0:1:0:0:
36,282,159324,6,2,P|20:227|78:205,1,90.9999958343508,6|0,1:1|1:0,0:1:0:0:
86,189,159657,2,2,B|164:163|119:123|227:103,1,136.499993751526,6|0,1:1|1:0,0:1:0:0:
194,110,160102,2,0,L|243:134,4,45.4999979171754,2|0|8|2|2,3:2|1:0|1:2|1:2|1:1,0:0:0:0:
305,180,160768,6,2,B|399:152|317:112|437:65,1,167.999994873047,6|8,1:0|1:2,0:1:0:0:
496,126,161435,1,2,3:2:0:0:
496,126,161546,1,2,3:1:0:0:
496,126,161657,2,0,P|483:189|475:232,1,83.9999974365235,0|2,1:0|3:1,0:0:0:0:
479,208,161990,1,0,0:0:0:0:
479,208,162102,1,8,1:2:0:0:
505,296,162324,6,2,P|457:321|421:344,1,83.9999974365235,2|0,3:1|1:1,0:1:0:0:
370,268,162768,2,2,P|318:253|268:230,1,83.9999974365235,2|8,3:1|1:2,0:1:0:0:
216,297,163213,2,0,P|146:324|51:375,2,167.999994873047,2|2|2,3:1|0:1|3:1,0:1:0:0:
308,306,164324,5,0,1:0:0:0:
342,220,164546,1,2,3:1:0:0:
249,227,164768,1,8,1:2:0:0:
378,359,165213,6,0,P|425:340|461:329,1,83.9999974365235,2|2,1:0|3:1,0:0:0:0:
456,330,165546,1,0,0:0:0:0:
456,330,165657,1,10,1:2:0:0:
498,248,165879,2,2,P|481:165|458:73,1,167.999994873047,2|2,3:1|3:2,0:1:0:0:
461,84,166435,1,2,3:1:0:0:
461,84,166546,2,0,L|399:77,2,41.9999987182618,8|2|0,1:2|3:1|0:0,0:0:0:0:
511,6,166990,1,2,1:2:0:0:
461,84,167213,5,2,3:1:0:0:
393,147,167435,1,8,1:2:0:0:
311,102,167657,1,2,3:1:0:0:
260,179,167879,2,0,P|191:169|154:162,1,83.9999974365235,2|2,1:1|3:1,0:0:0:0:
176,166,168213,1,0,3:0:0:0:
176,166,168324,1,6,1:0:0:0:
105,107,168546,6,0,P|55:139|80:251,1,167.999994873047,0|2,0:0|3:1,0:0:0:0:
62,237,169102,1,0,0:0:0:0:
62,237,169213,1,8,1:2:0:0:
118,311,169435,2,0,P|159:317|201:323,1,83.9999974365235,2|0,3:1|1:0,0:0:0:0:
272,265,169879,2,0,P|313:258|355:252,1,83.9999974365235,2|8,3:1|1:2,0:0:0:0:
443,279,170324,6,2,B|487:354|578:280|525:160|396:197,1,251.999992309571,2|8,3:1|1:2,0:1:0:0:
333,183,171213,2,0,P|283:144|285:61,1,125.999996154785,2|0,3:1|0:0,0:1:0:0:
274,85,171657,1,2,0:1:0:0:
274,85,171768,2,0,L|343:66,1,41.9999987182618,0|8,3:0|1:2,0:0:0:0:
386,14,172102,1,2,3:2:0:0:
467,57,172324,1,2,1:0:0:0:
467,57,172435,1,0,0:0:0:0:
467,57,172546,1,0,3:0:0:0:
398,118,172768,1,8,1:2:0:0:
467,178,172990,6,2,P|404:156|268:154,1,167.999994873047,2|2,3:1|3:1,0:1:0:0:
227,201,173657,2,0,P|220:140|211:84,1,83.9999974365235,6|0,1:0|0:0,0:0:0:0:
207,25,174102,1,10,1:2:0:0:
143,91,174324,1,0,0:0:0:0:
143,91,174435,1,2,3:1:0:0:
143,91,174546,2,0,L|95:82,1,41.9999987182618,0|0,1:0|1:0,0:0:0:0:
59,102,174768,2,0,L|11:93,1,41.9999987182618,2|0,1:3|0:0,0:0:0:0:
3,62,174990,6,0,P|51:103|45:226,1,175,6|8,1:2|1:2,0:0:0:0:
3,289,175657,1,2,3:2:0:0:
82,343,175879,2,0,B|176:307|101:255|222:220,1,175,0|8,1:0|1:2,0:0:0:0:
202,226,176435,1,0,0:0:0:0:
202,226,176546,1,0,0:0:0:0:
289,186,176768,2,0,P|251:157|248:103,1,87.5,0|0,1:0|3:0,0:0:0:0:
224,25,177213,6,0,P|294:60|371:82,1,131.25,8|0,1:2|0:0,0:0:0:0:
344,76,177657,1,2,1:1:0:0:
435,46,177879,1,0,0:0:0:0:
435,46,177990,1,2,3:1:0:0:
435,46,178102,2,0,P|431:98|456:135,1,87.5,8|2,1:2|3:2,0:0:0:0:
509,201,178546,2,0,P|464:178|388:224,1,131.25,0|0,1:0|0:0,0:0:0:0:
395,209,178990,1,8,3:2:0:0:
350,295,179213,5,2,3:2:0:0:
267,246,179435,2,0,P|250:322|305:350,1,131.25,0|0,1:0|0:0,0:0:0:0:
285,348,179879,2,0,P|218:333|162:326,1,87.5,8|2,1:2|0:1,0:0:0:0:
104,319,180324,2,0,P|119:251|126:195,1,87.5,0|2,1:0|3:0,0:0:0:0:
126,137,180768,6,0,P|93:96|1:117,1,131.25,10|0,1:2|0:0,0:0:0:0:
19,98,181213,2,0,P|35:169|41:212,1,87.5,0|0,1:0|0:0,0:0:0:0:
121,233,181657,2,0,P|105:303|99:346,1,87.5,8|2,1:2|3:2,0:0:0:0:
28,379,182102,1,2,1:2:0:0:
105,320,182324,1,2,3:0:0:0:
105,320,182435,1,0,1:0:0:0:
105,320,182546,1,8,1:2:0:0:
190,364,182768,5,2,3:2:0:0:
273,315,182990,2,0,P|224:279|217:237,1,87.5,2|0,1:2|0:0,0:0:0:0:
216,255,183324,1,2,3:1:0:0:
216,255,183435,1,8,1:2:0:0:
230,160,183657,1,2,3:1:0:0:
315,203,183879,6,0,P|366:182|462:167,1,131.25,2|0,1:0|3:0,0:0:0:0:
440,167,184324,2,0,P|428:112|421:64,1,87.5,8|2,1:2|3:0,0:0:0:0:
339,35,184768,2,0,P|283:47|235:54,1,87.5,2|2,1:2|3:0,0:0:0:0:
160,25,185213,1,8,1:2:0:0:
105,104,185435,1,2,3:2:0:0:
141,196,185657,6,0,P|188:168|170:85,1,131.25,2|2,1:2|3:2,0:0:0:0:
184,98,186102,1,8,1:2:0:0:
234,180,186324,2,0,P|289:202|325:196,1,87.5,2|0,3:2|1:0,0:0:0:0:
315,198,186657,1,0,3:0:0:0:
315,198,186768,1,2,3:0:0:0:
398,149,186990,6,0,P|438:187|416:268,1,131.25,8|0,1:2|3:0,0:0:0:0:
427,257,187435,1,4,1:3:0:0:
384,343,187657,1,4,1:2:0:0:
290,320,187879,2,0,P|216:302|144:294,1,131.25,4|0,1:2|0:0,0:0:0:0:
161,295,188324,5,12,3:0:0:0:
42,213,188657,1,4,3:0:0:0:
127,135,189213,5,4,1:2:0:0:
491,16,196324,6,0,P|455:58|532:102,3,167.999994873047,4|4|4|4,3:0|3:0|3:0|3:0,0:0:0:0:
361,181,198102,6,0,P|296:167|186:158,1,167.999994873047,6|4,3:3|3:0,0:0:0:0:
10,155,198990,1,4,3:0:0:0:
86,323,199435,2,0,P|103:278|112:237,1,83.9999974365235,2|0,1:2|0:0,0:0:0:0:
192,200,199879,6,0,P|191:138|158:34,3,167.999994873047,6|4|4|4,3:0|3:0|3:0|3:0,0:0:0:0:
287,171,201657,2,0,P|341:136|428:119,1,125.999996154785,2|0,1:2|0:0,0:0:0:0:
400,120,202102,1,2,1:2:0:0:
464,185,202324,1,2,3:2:0:0:
442,274,202546,1,2,1:2:0:0:
365,325,202768,1,2,3:2:0:0:
274,309,202990,1,2,1:2:0:0:
220,233,203213,1,0,0:0:0:0:
343,229,203435,5,8,1:2:0:0:
178,313,203768,5,2,1:2:0:0:
53,175,204102,5,2,3:2:0:0:
166,29,204435,5,2,3:1:0:0:
348,53,204768,5,6,1:1:0:0:
60,179,206546,5,12,1:3:0:0:
155,354,206990,5,6,1:2:0:0:
252,376,207213,1,0,0:0:0:0:
318,301,207435,2,2,P|281:222|178:226,1,181.999991668702,6|2,1:1|1:2,0:1:0:0:
196,323,208102,1,2,3:2:0:0:
196,323,208213,1,0,3:2:0:0:
196,323,208324,1,8,1:2:0:0:
278,379,208546,2,0,P|342:361|369:323,1,90.9999958343508,2|0,3:2|1:0,0:0:0:0:
447,301,208990,6,0,P|432:231|428:189,1,90.9999958343508,2|8,3:1|1:2,0:0:0:0:
471,120,209435,2,0,P|509:100|530:90,2,45.4999979171754,2|0|0,3:2|0:0|1:0,1:0:0:0:
377,97,209879,1,2,3:1:0:0:
377,97,209990,1,0,3:0:0:0:
302,164,210213,1,0,0:0:0:0:
302,164,210324,1,2,3:1:0:0:
220,106,210546,6,0,P|146:83|85:42,1,136.499993751526,0|0,1:1|0:0,0:0:0:0:
96,51,210990,2,2,P|42:94|78:191,1,181.999991668702,6|2,1:1|1:2,0:1:0:0:
118,279,211657,2,0,P|165:247|205:248,1,90.9999958343508,2|8,3:2|1:2,0:0:0:0:
300,296,212101,1,2,3:0:0:0:
300,296,212212,1,2,3:1:0:0:
300,296,212323,2,0,P|312:347|318:361,1,45.4999979171754,0|0,1:0|3:0,0:0:0:0:
310,340,212546,6,0,P|361:320|400:315,2,90.9999958343508,2|8|0,3:1|1:2|0:0,0:0:0:0:
209,346,213213,2,0,P|156:325|39:320,1,136.499993751526,2|2,1:2|3:2,0:0:0:0:
77,315,213657,1,8,1:2:0:0:
12,238,213879,2,0,P|37:182|47:126,1,90.9999958343508,2|0,3:1|1:0,0:1:0:0:
15,57,214323,1,2,3:2:0:0:
105,100,214546,6,0,P|163:96|209:73,1,90.9999958343508,10|2,1:2|3:2,0:0:0:0:
279,33,214990,2,0,P|364:47|421:91,1,136.499993751526,2|2,1:2|3:2,0:0:0:0:
404,74,215435,1,8,1:2:0:0:
446,164,215657,2,2,P|426:228|416:277,1,90.9999958343508,2|0,3:1|1:0,0:1:0:0:
471,348,216101,5,2,3:2:0:0:
471,348,216212,1,0,3:0:0:0:
471,348,216323,2,0,P|427:373|388:374,1,90.9999958343508,8|0,1:2|0:0,0:0:0:0:
303,320,216768,1,2,1:2:0:0:
167,379,217101,1,2,3:2:0:0:
167,379,217212,1,8,1:2:0:0:
83,322,217435,2,2,P|96:266|104:212,1,90.9999958343508,2|0,3:1|1:0,0:1:0:0:
50,146,217879,5,2,3:2:0:0:
133,90,218102,2,0,B|207:125|148:150|246:181,1,136.499993751526,8|0,1:2|0:0,0:0:0:0:
232,176,218546,1,0,1:0:0:0:
326,160,218768,1,2,3:0:0:0:
326,160,218879,1,4,3:0:0:0:
326,160,218990,2,0,P|355:136|379:102,1,45.4999979171754,8|0,1:2|1:0,0:0:0:0:
375,82,219213,5,2,1:1:0:0:
375,82,219324,1,0,1:0:0:0:
375,82,219435,2,2,P|380:165|391:248,1,136.499993751526,6|0,1:1|0:0,0:1:0:0:
386,217,219879,2,2,P|363:296|286:280,1,136.499993751526,6|0,1:1|0:0,0:1:0:0:
317,301,220323,2,2,B|237:284|295:250|188:227,1,136.499993751526,6|0,1:1|0:0,0:1:0:0:
204,231,220768,1,6,1:1:0:0:
116,281,220990,1,0,1:0:0:0:
116,281,221101,1,2,1:3:0:0:
116,281,221213,2,0,L|98:214,1,38.5000011749268,8|0,1:2|3:0,0:0:0:0:
139,212,221435,5,2,3:0:0:0:
139,212,221546,1,4,3:0:0:0:
139,212,221657,2,2,P|126:136|103:29,1,181.999991668702,6|2,1:1|1:2,0:1:0:0:
25,37,222323,1,2,3:2:0:0:
104,98,222546,1,10,1:2:0:0:
185,40,222768,2,0,P|235:49|293:83,1,90.9999958343508,2|0,3:2|1:0,0:0:0:0:
373,42,223212,5,2,3:1:0:0:
373,42,223323,1,2,3:2:0:0:
373,42,223435,1,8,1:2:0:0:
325,129,223657,2,0,P|339:195|346:247,1,90.9999958343508,2|0,3:2|1:0,0:0:0:0:
299,310,224101,1,2,3:1:0:0:
299,310,224212,1,2,3:2:0:0:
402,309,224435,1,0,3:0:0:0:
402,309,224546,2,2,P|442:333|518:353,2,90.9999958343508,2|0|2,3:1|1:1|3:0,0:1:0:0:
299,310,225212,6,2,P|228:310|113:383,1,181.999991668702,6|0,1:1|1:0,0:1:0:0:
51,319,225879,1,0,0:0:0:0:
51,319,225990,1,0,3:0:0:0:
51,319,226102,1,10,1:2:0:0:
115,245,226323,1,0,3:2:0:0:
115,245,226435,1,2,3:1:0:0:
115,245,226546,2,0,P|101:199|93:186,1,45.4999979171754,0|0,1:0|3:0,0:0:0:0:
102,202,226768,6,0,P|154:190|190:161,1,90.9999958343508,2|8,3:1|1:2,0:0:0:0:
219,74,227212,1,2,3:2:0:0:
317,95,227435,2,0,P|393:121|409:202,1,136.499993751526,2|2,1:2|3:2,0:0:0:0:
413,168,227879,1,8,1:2:0:0:
486,236,228102,2,2,P|418:262|384:285,1,90.9999958343508,2|0,3:1|1:0,0:1:0:0:
314,236,228546,5,2,3:2:0:0:
314,236,228657,1,0,0:0:0:0:
314,236,228768,1,10,1:2:0:0:
249,312,228990,1,2,0:0:0:0:
161,262,229213,2,0,B|177:172|204:235|223:119,1,136.499993751526,2|2,1:2|3:2,0:0:0:0:
218,141,229657,1,8,1:2:0:0:
141,76,229879,2,2,P|193:61|242:34,1,90.9999958343508,2|0,3:1|1:1,0:1:0:0:
319,0,230323,5,2,3:2:0:0:
319,0,230435,1,0,0:0:0:0:
319,0,230546,2,0,P|331:60|350:97,1,90.9999958343508,8|0,1:2|3:0,0:0:0:0:
441,67,230990,2,0,P|395:92|400:190,1,136.499993751526,2|2,1:2|3:2,0:0:0:0:
385,169,231435,1,8,1:2:0:0:
462,233,231657,2,2,P|398:259|361:277,1,90.9999958343508,2|0,3:1|1:0,0:1:0:0:
306,339,232102,5,2,3:2:0:0:
306,339,232213,1,2,3:1:0:0:
306,339,232324,2,0,P|264:320|222:303,1,90.9999958343508,8|0,1:2|0:0,0:0:0:0:
127,335,232768,1,0,1:0:0:0:
127,335,232879,2,0,P|96:282|122:238,1,90.9999958343508,2|2,3:1|0:0,0:0:0:0:
103,257,233213,1,8,1:2:0:0:
158,182,233435,5,2,1:2:0:0:
158,182,233546,1,2,1:0:0:0:
158,182,233657,1,0,1:0:0:0:
158,182,233768,2,2,L|277:212,1,90.9999958343508,6|0,1:1|0:1,0:1:0:0:
247,204,234101,1,8,1:2:0:0:
246,204,234213,2,2,L|262:132,1,45.4999979171754,2|0,3:1|0:0,0:0:0:0:
242,111,234435,6,0,P|288:72|327:84,1,90.9999958343508,6|0,1:0|1:0,0:0:0:0:
363,70,234768,6,0,P|420:104|427:148,1,90.9999958343508,10|0,1:2|0:0,0:0:0:0:
471,167,235102,6,2,P|463:237|296:329,1,224,6|0,1:1|0:0,0:1:0:0:
