osu file format v14

[General]
AudioFilename: audio.mp3
AudioLeadIn: 0
PreviewTime: 49717
Countdown: 0
SampleSet: Normal
StackLeniency: 0.7
Mode: 1
LetterboxInBreaks: 0
WidescreenStoryboard: 0

[Editor]
DistanceSpacing: 1
BeatDivisor: 4
GridSize: 4
TimelineZoom: 2.799999

[Metadata]
Title:Chiisana Koi no Uta (Synth Rock Cover)
TitleUnicode:小さな恋のうた (Synth Rock Cover)
Artist:Omoi feat. Hatsune Miku
ArtistUnicode:Omoi feat. 初音ミク
Creator:iloveyou4ever
Version:Inner Oni
Source:
Tags:Vocaloid Sakurai Kimura MONGOL800 Message song of a small love japanese pop j-pop jpop rock j-rock jrock Volta Kin
BeatmapID:1265257
BeatmapSetID:598573

[Difficulty]
HPDrainRate:5
CircleSize:2
OverallDifficulty:6.5
ApproachRate:5
SliderMultiplier:1.4
SliderTickRate:1

[Events]
//Background and Video events
0,0,"BG1.jpg",0,-40
//Break Periods
//Storyboard Layer 0 (Background)
//Storyboard Layer 1 (Fail)
//Storyboard Layer 2 (Pass)
//Storyboard Layer 3 (Foreground)
//Storyboard Layer 4 (Overlay)
//Storyboard Sound Samples

[TimingPoints]
1177,272.727272727273,4,1,0,90,1,0
1722,-125,4,1,0,90,0,0
2267,272.727272727273,4,1,0,90,1,0
2267,-125,4,1,0,90,0,0
10448,-120.481927710843,4,1,0,90,0,0
10721,-116.279069767442,4,1,0,90,0,0
10994,-111.111111111111,4,1,0,90,0,0
18494,-100,4,1,0,100,0,0
20813,-100,4,1,0,100,0,0
50267,-100,4,1,0,100,0,1
81903,-100,4,1,0,100,0,0
82994,260.869565217391,4,1,0,100,1,8
82995,260.869565217391,4,1,0,100,1,0
82995,-111.111111111111,4,1,0,100,0,0
90168,-100,4,1,0,100,0,0
107386,-102.040816326531,4,1,0,100,0,0
107516,-104.166666666667,4,1,0,100,0,0
107647,-106.382978723404,4,1,0,100,0,0
107777,-108.695652173913,4,1,0,100,0,0
108038,-111.111111111111,4,1,0,90,0,0
112081,-100,4,1,0,100,0,0
123690,-100,4,1,0,100,0,1
154994,-100,4,1,0,100,0,0
156038,-107.52688172043,4,1,0,90,0,0
157081,-117.647058823529,4,1,0,80,0,0
158647,-113.636363636364,4,1,0,80,0,0
158908,-109.89010989011,4,1,0,80,0,0
159168,250,4,1,0,90,1,0
159168,-111.111111111111,4,1,0,90,0,0
167168,-105.263157894737,4,1,0,100,0,0
175168,-100,4,1,0,100,0,1
221668,-100,4,1,0,100,0,0

[HitObjects]
496,180,1722,5,0,0:0:0:0:
356,172,1995,1,8,0:0:0:0:
496,180,2267,1,4,0:0:0:0:
344,164,3357,1,8,0:0:0:0:
380,204,4448,1,0,0:0:0:0:
372,160,5539,1,0,0:0:0:0:
480,160,6085,1,8,0:0:0:0:
288,360,6630,1,0,0:0:0:0:
496,180,7721,1,8,0:0:0:0:
440,384,8812,1,0,0:0:0:0:
472,204,9903,1,8,0:0:0:0:
472,204,10448,1,0,0:0:0:0:
72,72,10721,1,8,0:0:0:0:
424,228,10994,1,4,0:0:0:0:
448,232,11267,1,0,0:0:0:0:
476,184,11539,1,0,0:0:0:0:
448,232,11812,1,0,0:0:0:0:
381,124,12085,1,0,0:0:0:0:
448,232,12357,1,0,0:0:0:0:
400,160,12630,1,0,0:0:0:0:
400,160,12903,1,0,0:0:0:0:
432,108,13176,1,0,0:0:0:0:
392,100,13448,1,0,0:0:0:0:
416,200,13721,1,0,0:0:0:0:
416,200,13994,1,0,0:0:0:0:
428,180,14267,1,0,0:0:0:0:
504,220,14539,1,0,0:0:0:0:
444,176,14812,1,0,0:0:0:0:
444,176,15085,1,0,0:0:0:0:
428,180,15357,1,0,0:0:0:0:
492,192,15630,1,0,0:0:0:0:
368,216,15903,1,0,0:0:0:0:
428,180,16176,1,0,0:0:0:0:
416,280,16448,1,8,0:0:0:0:
428,252,16585,1,0,0:0:0:0:
480,204,16653,1,0,0:0:0:0:
448,192,16721,1,8,0:0:0:0:
448,192,16857,1,0,0:0:0:0:
428,180,16994,1,8,0:0:0:0:
428,180,17130,1,8,0:0:0:0:
492,152,17267,1,0,0:0:0:0:
428,180,17403,1,0,0:0:0:0:
360,172,17539,1,12,0:0:0:0:
460,200,18494,1,8,0:0:0:0:
460,200,18562,1,8,0:0:0:0:
428,188,18630,1,0,0:0:0:0:
396,176,18767,1,0,0:0:0:0:
460,200,18835,1,0,0:0:0:0:
428,188,18903,1,8,0:0:0:0:
396,176,18971,1,8,0:0:0:0:
484,172,19039,1,8,0:0:0:0:
484,172,19107,1,8,0:0:0:0:
510,163,19176,1,0,0:0:0:0:
510,163,19312,1,0,0:0:0:0:
432,144,19448,1,8,0:0:0:0:
404,208,19585,1,0,0:0:0:0:
432,160,19721,1,12,0:0:0:0:
356,180,20812,1,4,0:0:0:0:
496,184,21085,1,8,0:0:0:0:
356,180,21357,1,0,0:0:0:0:
428,184,21494,1,0,0:0:0:0:
360,172,21630,1,8,0:0:0:0:
500,176,21903,1,0,0:0:0:0:
359,181,22176,1,8,0:0:0:0:
360,172,22448,1,8,0:0:0:0:
424,152,22585,1,0,0:0:0:0:
416,172,22721,1,8,0:0:0:0:
416,172,22857,1,8,0:0:0:0:
392,144,22994,1,0,0:0:0:0:
496,176,23267,1,8,0:0:0:0:
496,176,23539,1,8,0:0:0:0:
428,164,23676,1,0,0:0:0:0:
496,176,23812,1,8,0:0:0:0:
356,152,24085,1,0,0:0:0:0:
496,164,24357,1,8,0:0:0:0:
428,164,24630,1,0,0:0:0:0:
496,176,24767,1,0,0:0:0:0:
484,244,24903,1,8,0:0:0:0:
456,180,25039,1,8,0:0:0:0:
496,176,25176,1,0,0:0:0:0:
356,164,25448,1,8,0:0:0:0:
496,176,25721,1,0,0:0:0:0:
496,176,25857,1,0,0:0:0:0:
424,172,25994,1,8,0:0:0:0:
400,176,26267,1,8,0:0:0:0:
416,152,26539,1,0,0:0:0:0:
470,238,26812,1,8,0:0:0:0:
428,164,26948,1,0,0:0:0:0:
496,176,27085,1,8,0:0:0:0:
496,176,27221,1,8,0:0:0:0:
428,160,27357,1,0,0:0:0:0:
456,176,27630,1,8,0:0:0:0:
456,176,27767,1,0,0:0:0:0:
456,176,28039,1,0,0:0:0:0:
456,176,28176,1,8,0:0:0:0:
456,176,28312,1,8,0:0:0:0:
472,168,28448,1,0,0:0:0:0:
492,160,28721,1,8,0:0:0:0:
452,240,28857,1,0,0:0:0:0:
332,192,28994,1,8,0:0:0:0:
320,176,29062,1,8,0:0:0:0:
456,176,29130,1,0,0:0:0:0:
456,176,29267,1,8,0:0:0:0:
432,240,29403,1,8,0:0:0:0:
332,112,29539,1,4,0:0:0:0:
324,252,29812,1,8,0:0:0:0:
416,148,30085,1,0,0:0:0:0:
368,200,30221,1,0,0:0:0:0:
428,160,30357,1,8,0:0:0:0:
288,153,30630,1,8,0:0:0:0:
368,200,30903,1,0,0:0:0:0:
328,184,31176,1,8,0:0:0:0:
396,176,31312,1,0,0:0:0:0:
428,160,31448,1,8,0:0:0:0:
428,160,31585,1,8,0:0:0:0:
428,160,31721,1,0,0:0:0:0:
399,187,31994,1,8,0:0:0:0:
428,160,32267,1,8,0:0:0:0:
372,196,32403,1,0,0:0:0:0:
424,152,32539,1,8,0:0:0:0:
472,160,32812,1,0,0:0:0:0:
332,168,33085,1,8,0:0:0:0:
424,152,33357,1,0,0:0:0:0:
408,192,33494,1,0,0:0:0:0:
472,160,33630,1,8,0:0:0:0:
472,160,33767,1,8,0:0:0:0:
408,192,33903,1,0,0:0:0:0:
492,160,34176,1,8,0:0:0:0:
396,260,34448,1,8,0:0:0:0:
492,160,34585,1,0,0:0:0:0:
472,160,34721,1,8,0:0:0:0:
492,160,34994,1,8,0:0:0:0:
444,174,35267,1,0,0:0:0:0:
472,160,35539,1,8,0:0:0:0:
424,212,35676,1,0,0:0:0:0:
456,216,35812,1,8,0:0:0:0:
376,192,35948,1,8,0:0:0:0:
444,174,36085,1,0,0:0:0:0:
284,152,36357,1,8,0:0:0:0:
356,156,36494,1,0,0:0:0:0:
496,164,36767,1,0,0:0:0:0:
496,164,36903,1,8,0:0:0:0:
424,148,37039,1,8,0:0:0:0:
492,168,37176,1,0,0:0:0:0:
356,136,37448,1,8,0:0:0:0:
392,144,37517,1,8,0:0:0:0:
424,152,37585,1,8,0:0:0:0:
460,160,37653,1,8,0:0:0:0:
424,148,37721,1,0,0:0:0:0:
424,148,37789,1,0,0:0:0:0:
424,148,37857,1,0,0:0:0:0:
424,148,37926,1,0,0:0:0:0:
460,160,37994,1,8,0:0:0:0:
452,196,38062,1,8,0:0:0:0:
452,196,38130,1,8,0:0:0:0:
424,152,38267,1,4,0:0:0:0:
392,144,38539,1,8,0:0:0:0:
453,270,38812,1,0,0:0:0:0:
397,227,38948,1,0,0:0:0:0:
388,152,39085,1,8,0:0:0:0:
320,196,39221,1,8,0:0:0:0:
456,168,39357,1,0,0:0:0:0:
320,196,39630,1,8,0:0:0:0:
453,270,39903,1,8,0:0:0:0:
388,152,40039,1,0,0:0:0:0:
440,200,40176,1,8,0:0:0:0:
508,180,40312,1,8,0:0:0:0:
440,176,40448,1,0,0:0:0:0:
440,176,40721,1,8,0:0:0:0:
440,176,40857,1,0,0:0:0:0:
440,176,41130,1,0,0:0:0:0:
369,179,41267,1,8,0:0:0:0:
369,179,41403,1,8,0:0:0:0:
365,248,41539,1,0,0:0:0:0:
332,168,41812,1,8,0:0:0:0:
369,179,41948,1,8,0:0:0:0:
332,168,42085,1,0,0:0:0:0:
424,196,42153,1,0,0:0:0:0:
380,166,42221,1,0,0:0:0:0:
444,192,42357,1,8,0:0:0:0:
388,160,42630,1,4,0:0:0:0:
435,194,42903,1,8,0:0:0:0:
444,192,43039,1,0,0:0:0:0:
460,52,43312,1,0,0:0:0:0:
388,160,43448,1,8,0:0:0:0:
388,160,43585,1,8,0:0:0:0:
435,194,43721,1,0,0:0:0:0:
454,177,43994,1,8,0:0:0:0:
384,189,44130,1,0,0:0:0:0:
372,189,44267,1,8,0:0:0:0:
435,180,44403,1,0,0:0:0:0:
365,179,44539,1,8,0:0:0:0:
472,268,44812,1,0,0:0:0:0:
366,166,45085,1,8,0:0:0:0:
416,216,45221,1,0,0:0:0:0:
366,166,45494,1,0,0:0:0:0:
408,180,45562,1,0,0:0:0:0:
366,166,45630,1,8,0:0:0:0:
366,166,45767,1,8,0:0:0:0:
435,171,45903,1,4,0:0:0:0:
424,176,46039,1,0,0:0:0:0:
400,232,46176,1,8,0:0:0:0:
396,164,46312,1,0,0:0:0:0:
396,164,46585,1,0,0:0:0:0:
471,166,46721,1,8,0:0:0:0:
335,129,46994,1,0,0:0:0:0:
452,204,47267,1,8,0:0:0:0:
428,212,47403,1,0,0:0:0:0:
364,184,47539,1,0,0:0:0:0:
463,165,47676,1,0,0:0:0:0:
463,165,47812,1,8,0:0:0:0:
402,158,47948,1,8,0:0:0:0:
402,146,48085,1,0,0:0:0:0:
467,164,48357,1,8,0:0:0:0:
463,165,48630,1,8,0:0:0:0:
402,158,48767,1,8,0:0:0:0:
412,216,48903,1,0,0:0:0:0:
312,208,49176,1,12,0:0:0:0:
304,188,49721,1,8,0:0:0:0:
422,274,50267,1,4,0:0:0:0:
475,145,50539,1,8,0:0:0:0:
498,211,50676,1,8,0:0:0:0:
473,186,50744,1,8,0:0:0:0:
444,165,50812,1,0,0:0:0:0:
444,165,50948,1,0,0:0:0:0:
481,166,51085,1,8,0:0:0:0:
444,165,51221,1,0,0:0:0:0:
444,165,51289,1,0,0:0:0:0:
411,178,51357,1,8,0:0:0:0:
444,165,51494,1,0,0:0:0:0:
386,125,51630,1,8,0:0:0:0:
411,178,51767,1,8,0:0:0:0:
444,165,51835,1,0,0:0:0:0:
444,165,51903,1,8,0:0:0:0:
444,165,51971,1,8,0:0:0:0:
478,165,52039,1,0,0:0:0:0:
444,165,52176,1,8,0:0:0:0:
374,171,52312,1,0,0:0:0:0:
374,171,52448,1,8,0:0:0:0:
391,275,52721,1,8,0:0:0:0:
411,208,52857,1,0,0:0:0:0:
421,174,52926,1,0,0:0:0:0:
389,158,52994,1,8,0:0:0:0:
421,174,53130,1,0,0:0:0:0:
358,142,53267,1,8,0:0:0:0:
391,203,53403,1,8,0:0:0:0:
406,171,53471,1,8,0:0:0:0:
421,174,53539,1,0,0:0:0:0:
424,159,53676,1,0,0:0:0:0:
424,159,53744,1,0,0:0:0:0:
436,106,53812,1,8,0:0:0:0:
455,172,53948,1,8,0:0:0:0:
478,165,54085,1,0,0:0:0:0:
455,172,54153,1,0,0:0:0:0:
406,171,54221,1,8,0:0:0:0:
421,174,54289,1,0,0:0:0:0:
421,174,54357,1,8,0:0:0:0:
455,172,54494,1,0,0:0:0:0:
406,171,54630,1,8,0:0:0:0:
455,172,54767,1,0,0:0:0:0:
422,186,54835,1,0,0:0:0:0:
457,173,54903,1,8,0:0:0:0:
455,172,55176,1,0,0:0:0:0:
457,173,55312,1,0,0:0:0:0:
457,173,55448,1,8,0:0:0:0:
406,171,55585,1,8,0:0:0:0:
406,171,55653,1,8,0:0:0:0:
435,188,55721,1,0,0:0:0:0:
368,127,55857,1,0,0:0:0:0:
352,171,55994,1,8,0:0:0:0:
455,172,56130,1,0,0:0:0:0:
422,172,56198,1,0,0:0:0:0:
422,172,56267,1,8,0:0:0:0:
457,173,56403,1,0,0:0:0:0:
457,173,56539,1,8,0:0:0:0:
352,171,56607,1,8,0:0:0:0:
435,188,56676,1,0,0:0:0:0:
435,188,56744,1,0,0:0:0:0:
408,188,56812,1,8,0:0:0:0:
471,221,56948,1,0,0:0:0:0:
457,173,57017,1,0,0:0:0:0:
408,188,57085,1,8,0:0:0:0:
464,232,57221,1,0,0:0:0:0:
435,188,57357,1,8,0:0:0:0:
408,188,57426,1,0,0:0:0:0:
471,221,57494,1,0,0:0:0:0:
471,221,57562,1,0,0:0:0:0:
422,172,57630,1,8,0:0:0:0:
484,204,57767,1,0,0:0:0:0:
420,180,57903,1,8,0:0:0:0:
480,168,58176,1,0,0:0:0:0:
480,168,58312,1,0,0:0:0:0:
412,152,58448,1,8,0:0:0:0:
412,152,58585,1,0,0:0:0:0:
412,152,58653,1,0,0:0:0:0:
480,168,58721,1,8,0:0:0:0:
480,168,58857,1,8,0:0:0:0:
500,100,58994,1,4,0:0:0:0:
456,232,59267,1,8,0:0:0:0:
476,164,59403,1,8,0:0:0:0:
441,164,59471,1,8,0:0:0:0:
480,168,59539,1,0,0:0:0:0:
480,168,59676,1,0,0:0:0:0:
488,176,59812,1,8,0:0:0:0:
420,158,59948,1,0,0:0:0:0:
404,200,60017,1,0,0:0:0:0:
376,180,60085,1,8,0:0:0:0:
438,198,60221,1,0,0:0:0:0:
480,168,60357,1,8,0:0:0:0:
305,177,60494,1,0,0:0:0:0:
376,180,60562,1,8,0:0:0:0:
372,195,60630,1,0,0:0:0:0:
392,164,60698,1,0,0:0:0:0:
334,169,60767,1,8,0:0:0:0:
368,159,60903,1,8,0:0:0:0:
438,198,61039,1,0,0:0:0:0:
368,159,61176,1,8,0:0:0:0:
376,180,61448,1,8,0:0:0:0:
308,199,61585,1,0,0:0:0:0:
334,169,61653,1,0,0:0:0:0:
308,199,61721,1,8,0:0:0:0:
368,159,61857,1,0,0:0:0:0:
368,164,61994,1,8,0:0:0:0:
308,199,62130,1,8,0:0:0:0:
308,199,62198,1,8,0:0:0:0:
368,159,62267,1,0,0:0:0:0:
322,105,62403,1,0,0:0:0:0:
333,218,62471,1,0,0:0:0:0:
368,159,62539,1,8,0:0:0:0:
368,217,62676,1,8,0:0:0:0:
368,159,62812,1,0,0:0:0:0:
381,191,62880,1,0,0:0:0:0:
368,164,62948,1,8,0:0:0:0:
403,217,63017,1,0,0:0:0:0:
348,208,63085,1,8,0:0:0:0:
375,166,63221,1,8,0:0:0:0:
399,191,63357,1,0,0:0:0:0:
352,60,63630,1,8,0:0:0:0:
396,116,63767,1,0,0:0:0:0:
444,168,63903,1,0,0:0:0:0:
375,166,64039,1,0,0:0:0:0:
388,200,64107,1,0,0:0:0:0:
375,166,64176,1,8,0:0:0:0:
352,176,64312,1,0,0:0:0:0:
375,166,64448,1,8,0:0:0:0:
385,188,64585,1,0,0:0:0:0:
420,192,64653,1,0,0:0:0:0:
352,176,64721,1,8,0:0:0:0:
352,176,64857,1,0,0:0:0:0:
444,168,64994,1,8,0:0:0:0:
408,172,65062,1,8,0:0:0:0:
408,164,65130,1,0,0:0:0:0:
408,172,65198,1,0,0:0:0:0:
352,176,65267,1,8,0:0:0:0:
424,172,65403,1,0,0:0:0:0:
444,168,65539,1,8,0:0:0:0:
408,164,65676,1,0,0:0:0:0:
408,164,65744,1,0,0:0:0:0:
424,172,65812,1,8,0:0:0:0:
416,196,65948,1,0,0:0:0:0:
410,163,66085,1,8,0:0:0:0:
416,196,66153,1,0,0:0:0:0:
388,136,66221,1,0,0:0:0:0:
388,136,66289,1,0,0:0:0:0:
408,164,66357,1,8,0:0:0:0:
352,164,66494,1,0,0:0:0:0:
368,96,66630,1,8,0:0:0:0:
472,192,66903,1,0,0:0:0:0:
484,176,67039,1,0,0:0:0:0:
484,176,67107,1,0,0:0:0:0:
504,168,67176,1,8,0:0:0:0:
484,176,67244,1,8,0:0:0:0:
352,164,67312,1,8,0:0:0:0:
352,164,67380,1,8,0:0:0:0:
432,184,67448,1,0,0:0:0:0:
372,152,67585,1,0,0:0:0:0:
432,116,67721,1,12,0:0:0:0:
376,244,67994,1,0,0:0:0:0:
432,184,68267,1,8,0:0:0:0:
444,160,68403,1,0,0:0:0:0:
444,160,68539,1,8,0:0:0:0:
408,160,68812,1,8,0:0:0:0:
440,296,69085,1,0,0:0:0:0:
444,266,69221,1,0,0:0:0:0:
408,160,69357,1,8,0:0:0:0:
372,196,69494,1,0,0:0:0:0:
372,196,69562,1,0,0:0:0:0:
441,198,69630,1,8,0:0:0:0:
380,168,69767,1,8,0:0:0:0:
312,180,69903,1,0,0:0:0:0:
476,172,70176,1,8,0:0:0:0:
372,196,70448,1,0,0:0:0:0:
276,168,70585,1,0,0:0:0:0:
476,172,70721,1,8,0:0:0:0:
372,196,70994,1,0,0:0:0:0:
476,168,71267,1,8,0:0:0:0:
451,218,71403,1,0,0:0:0:0:
496,192,71539,1,8,0:0:0:0:
472,160,71607,1,8,0:0:0:0:
336,168,71676,1,0,0:0:0:0:
368,160,71812,1,8,0:0:0:0:
396,184,71948,1,0,0:0:0:0:
396,184,72085,1,12,0:0:0:0:
460,308,72357,1,0,0:0:0:0:
436,168,72630,1,8,0:0:0:0:
456,116,72767,1,8,0:0:0:0:
464,184,72903,1,0,0:0:0:0:
324,208,73176,1,8,0:0:0:0:
408,168,73448,1,0,0:0:0:0:
464,304,73585,1,0,0:0:0:0:
488,284,73721,1,8,0:0:0:0:
408,168,73857,1,8,0:0:0:0:
368,179,73926,1,8,0:0:0:0:
408,168,73994,1,0,0:0:0:0:
408,168,74130,1,8,0:0:0:0:
476,184,74267,1,0,0:0:0:0:
336,176,74539,1,8,0:0:0:0:
368,179,74812,1,0,0:0:0:0:
426,227,74948,1,8,0:0:0:0:
368,179,75085,1,0,0:0:0:0:
496,232,75357,1,0,0:0:0:0:
496,232,75494,1,8,0:0:0:0:
458,164,75630,1,0,0:0:0:0:
408,212,75767,1,0,0:0:0:0:
416,176,75835,1,0,0:0:0:0:
396,289,75903,1,8,0:0:0:0:
448,224,76039,1,0,0:0:0:0:
480,176,76176,1,8,0:0:0:0:
448,200,76244,1,8,0:0:0:0:
480,160,76312,1,0,0:0:0:0:
389,152,76448,1,12,0:0:0:0:
458,164,76721,1,8,0:0:0:0:
388,169,76857,1,0,0:0:0:0:
356,172,76926,1,0,0:0:0:0:
392,164,76994,1,8,0:0:0:0:
458,164,77130,1,0,0:0:0:0:
389,152,77267,1,8,0:0:0:0:
456,180,77403,1,8,0:0:0:0:
387,195,77539,1,0,0:0:0:0:
458,164,77812,1,8,0:0:0:0:
473,232,77948,1,0,0:0:0:0:
458,164,78085,1,8,0:0:0:0:
494,173,78221,1,8,0:0:0:0:
494,173,78289,1,8,0:0:0:0:
458,164,78357,1,0,0:0:0:0:
458,164,78494,1,0,0:0:0:0:
458,164,78630,1,8,0:0:0:0:
416,168,78698,1,0,0:0:0:0:
444,180,78767,1,8,0:0:0:0:
444,180,78835,1,8,0:0:0:0:
456,168,78903,1,0,0:0:0:0:
440,168,79039,1,0,0:0:0:0:
448,168,79176,1,8,0:0:0:0:
428,184,79312,1,0,0:0:0:0:
424,168,79448,1,8,0:0:0:0:
440,180,79585,1,8,0:0:0:0:
476,164,79721,1,0,0:0:0:0:
494,173,79994,1,8,0:0:0:0:
480,240,80130,1,8,0:0:0:0:
446,232,80198,1,8,0:0:0:0:
354,173,80267,1,0,0:0:0:0:
388,216,80403,1,0,0:0:0:0:
492,176,80539,1,8,0:0:0:0:
424,168,80676,1,8,0:0:0:0:
353,152,80812,1,4,0:0:0:0:
484,200,81085,1,8,0:0:0:0:
420,76,81357,1,0,0:0:0:0:
452,140,81494,1,0,0:0:0:0:
484,152,81630,1,8,0:0:0:0:
356,208,81903,1,12,0:0:0:0:
402,197,82995,1,4,0:0:0:0:
396,266,83255,1,4,0:0:0:0:
474,184,83516,1,8,0:0:0:0:
375,166,83908,1,8,0:0:0:0:
416,144,84038,1,4,0:0:0:0:
445,165,84299,1,4,0:0:0:0:
456,181,84560,1,8,0:0:0:0:
416,144,84951,1,0,0:0:0:0:
375,166,85081,1,4,0:0:0:0:
475,171,85342,1,4,0:0:0:0:
445,165,85603,1,8,0:0:0:0:
331,13,85995,1,8,0:0:0:0:
475,171,86125,1,4,0:0:0:0:
475,171,86386,1,4,0:0:0:0:
475,171,86647,1,8,0:0:0:0:
287,150,87038,1,0,0:0:0:0:
335,150,87168,1,4,0:0:0:0:
473,172,87429,1,4,0:0:0:0:
332,175,87690,1,8,0:0:0:0:
464,203,88081,1,8,0:0:0:0:
357,154,88212,1,4,0:0:0:0:
357,154,88473,1,4,0:0:0:0:
425,173,88734,1,8,0:0:0:0:
452,153,89125,1,0,0:0:0:0:
425,173,89255,1,4,0:0:0:0:
472,175,89516,1,8,0:0:0:0:
425,173,89647,1,8,0:0:0:0:
470,216,89777,1,0,0:0:0:0:
472,175,89908,1,8,0:0:0:0:
376,288,90168,1,0,0:0:0:0:
425,173,90299,1,12,0:0:0:0:
336,140,90429,1,12,0:0:0:0:
336,140,90560,1,12,0:0:0:0:
308,128,90821,1,8,0:0:0:0:
336,140,90886,1,8,0:0:0:0:
368,160,90951,1,0,0:0:0:0:
368,160,91016,1,0,0:0:0:0:
400,164,91081,1,8,0:0:0:0:
432,288,91342,1,4,0:0:0:0:
368,160,91603,1,8,0:0:0:0:
368,160,91864,1,0,0:0:0:0:
368,160,91994,1,0,0:0:0:0:
368,160,92125,1,8,0:0:0:0:
300,148,92255,1,0,0:0:0:0:
368,156,92386,1,8,0:0:0:0:
504,120,92647,1,0,0:0:0:0:
368,160,92908,1,8,0:0:0:0:
372,92,93038,1,0,0:0:0:0:
420,144,93168,1,8,0:0:0:0:
464,200,93299,1,8,0:0:0:0:
480,184,93429,1,0,0:0:0:0:
488,164,93690,1,8,0:0:0:0:
488,164,93951,1,0,0:0:0:0:
488,164,94081,1,0,0:0:0:0:
480,184,94212,1,8,0:0:0:0:
410,181,94342,1,8,0:0:0:0:
426,128,94473,1,0,0:0:0:0:
288,156,94734,1,0,0:0:0:0:
380,212,94864,1,0,0:0:0:0:
424,128,94994,1,8,0:0:0:0:
384,184,95125,1,0,0:0:0:0:
320,105,95255,1,8,0:0:0:0:
337,172,95386,1,8,0:0:0:0:
412,200,95516,1,0,0:0:0:0:
440,154,95777,1,8,0:0:0:0:
440,154,96038,1,0,0:0:0:0:
440,154,96168,1,0,0:0:0:0:
369,159,96299,1,8,0:0:0:0:
456,216,96429,1,0,0:0:0:0:
336,184,96560,1,8,0:0:0:0:
500,188,96821,1,0,0:0:0:0:
504,312,97081,1,8,0:0:0:0:
504,240,97212,1,0,0:0:0:0:
472,177,97342,1,8,0:0:0:0:
472,177,97473,1,8,0:0:0:0:
440,154,97603,1,0,0:0:0:0:
403,160,97864,1,8,0:0:0:0:
452,208,97994,1,0,0:0:0:0:
440,154,98255,1,0,0:0:0:0:
440,154,98386,1,8,0:0:0:0:
369,153,98451,1,8,0:0:0:0:
440,176,98516,1,0,0:0:0:0:
403,160,98647,1,12,0:0:0:0:
438,168,98777,1,0,0:0:0:0:
369,153,98908,1,12,0:0:0:0:
438,168,99168,1,8,0:0:0:0:
403,176,99234,1,0,0:0:0:0:
438,168,99299,1,0,0:0:0:0:
438,168,99364,1,0,0:0:0:0:
403,169,99429,1,8,0:0:0:0:
438,168,99690,1,4,0:0:0:0:
438,168,99951,1,8,0:0:0:0:
298,160,100212,1,0,0:0:0:0:
367,162,100342,1,0,0:0:0:0:
438,168,100473,1,8,0:0:0:0:
438,168,100603,1,0,0:0:0:0:
438,168,100734,1,8,0:0:0:0:
438,168,100994,1,0,0:0:0:0:
365,162,101255,1,8,0:0:0:0:
427,193,101386,1,0,0:0:0:0:
360,170,101516,1,8,0:0:0:0:
429,178,101647,1,8,0:0:0:0:
359,180,101777,1,0,0:0:0:0:
498,173,102038,1,8,0:0:0:0:
358,178,102299,1,0,0:0:0:0:
427,175,102429,1,0,0:0:0:0:
429,178,102560,1,8,0:0:0:0:
427,175,102690,1,8,0:0:0:0:
497,171,102821,1,0,0:0:0:0:
440,188,103081,1,0,0:0:0:0:
427,175,103212,1,0,0:0:0:0:
418,142,103342,1,8,0:0:0:0:
390,206,103473,1,0,0:0:0:0:
427,175,103603,1,8,0:0:0:0:
443,177,103734,1,8,0:0:0:0:
459,151,103864,1,0,0:0:0:0:
411,202,104125,1,8,0:0:0:0:
469,206,104386,1,8,0:0:0:0:
428,192,104516,1,0,0:0:0:0:
360,192,104647,1,8,0:0:0:0:
428,188,104777,1,8,0:0:0:0:
496,176,104908,1,0,0:0:0:0:
428,192,105168,1,8,0:0:0:0:
472,60,105429,1,0,0:0:0:0:
448,128,105560,1,0,0:0:0:0:
388,164,105690,1,8,0:0:0:0:
424,224,105821,1,0,0:0:0:0:
268,236,105951,1,8,0:0:0:0:
380,152,106212,1,8,0:0:0:0:
445,160,106342,1,8,0:0:0:0:
445,160,106408,1,8,0:0:0:0:
410,155,106473,1,0,0:0:0:0:
392,200,106603,1,8,0:0:0:0:
332,168,106864,1,0,0:0:0:0:
445,160,106994,1,8,0:0:0:0:
396,176,107060,1,8,0:0:0:0:
445,160,107125,1,8,0:0:0:0:
424,180,107190,1,8,0:0:0:0:
452,212,107255,1,0,0:0:0:0:
380,168,107386,1,8,0:0:0:0:
375,163,107516,1,0,0:0:0:0:
376,157,107647,1,0,0:0:0:0:
445,160,107777,1,8,0:0:0:0:
246,210,108038,1,4,0:0:0:0:
384,192,108299,1,8,0:0:0:0:
455,210,108560,1,0,0:0:0:0:
394,83,108821,1,8,0:0:0:0:
406,221,109081,1,0,0:0:0:0:
406,221,109342,1,0,0:0:0:0:
472,196,109603,1,8,0:0:0:0:
376,96,109864,1,8,0:0:0:0:
412,232,110125,1,0,0:0:0:0:
504,128,110386,1,8,0:0:0:0:
369,168,110647,1,0,0:0:0:0:
504,131,110908,1,8,0:0:0:0:
457,262,111168,1,0,0:0:0:0:
452,182,111429,1,0,0:0:0:0:
452,182,111494,1,0,0:0:0:0:
452,182,111560,1,0,0:0:0:0:
452,182,111625,1,0,0:0:0:0:
474,188,111690,1,8,0:0:0:0:
452,182,112081,1,8,0:0:0:0:
452,182,112147,1,8,0:0:0:0:
418,173,112212,1,4,0:0:0:0:
452,182,112473,1,8,0:0:0:0:
452,182,112734,1,8,0:0:0:0:
452,182,112994,1,8,0:0:0:0:
452,182,113255,1,8,0:0:0:0:
452,182,113516,1,8,0:0:0:0:
368,296,113777,1,8,0:0:0:0:
452,184,114038,1,8,0:0:0:0:
479,185,114299,1,8,0:0:0:0:
452,182,114560,1,8,0:0:0:0:
452,182,114821,1,8,0:0:0:0:
340,100,115081,1,8,0:0:0:0:
468,152,115342,1,0,0:0:0:0:
404,128,115473,1,0,0:0:0:0:
368,188,115603,1,12,0:0:0:0:
504,152,115864,1,8,0:0:0:0:
436,168,115994,1,8,0:0:0:0:
368,188,116386,1,4,0:0:0:0:
312,195,116647,1,8,0:0:0:0:
452,180,116777,1,8,0:0:0:0:
452,180,116842,1,8,0:0:0:0:
417,187,116908,1,0,0:0:0:0:
417,187,117038,1,0,0:0:0:0:
312,195,117168,1,8,0:0:0:0:
312,195,117299,1,8,0:0:0:0:
417,187,117429,1,0,0:0:0:0:
417,187,117560,1,0,0:0:0:0:
384,184,117625,1,0,0:0:0:0:
382,179,117690,1,8,0:0:0:0:
448,160,117755,1,8,0:0:0:0:
452,180,117821,1,0,0:0:0:0:
480,167,117886,1,0,0:0:0:0:
448,160,117951,1,8,0:0:0:0:
448,160,118081,1,8,0:0:0:0:
389,199,118212,1,0,0:0:0:0:
380,152,118342,1,0,0:0:0:0:
448,176,118473,1,12,0:0:0:0:
451,148,119516,1,4,0:0:0:0:
412,156,119777,1,8,0:0:0:0:
412,156,119842,1,8,0:0:0:0:
426,162,119908,1,0,0:0:0:0:
426,162,119973,1,0,0:0:0:0:
394,143,120038,1,8,0:0:0:0:
420,162,120103,1,0,0:0:0:0:
420,162,120168,1,0,0:0:0:0:
420,162,120234,1,0,0:0:0:0:
443,168,120299,1,8,0:0:0:0:
442,168,120364,1,8,0:0:0:0:
496,193,120429,1,0,0:0:0:0:
496,193,120494,1,0,0:0:0:0:
442,168,120560,1,8,0:0:0:0:
496,193,120625,1,0,0:0:0:0:
496,193,120690,1,0,0:0:0:0:
496,193,120755,1,0,0:0:0:0:
442,168,120821,1,8,0:0:0:0:
442,168,120886,1,8,0:0:0:0:
496,193,120951,1,0,0:0:0:0:
496,193,121016,1,0,0:0:0:0:
442,168,121081,1,8,0:0:0:0:
496,193,121147,1,0,0:0:0:0:
496,193,121212,1,0,0:0:0:0:
496,193,121277,1,0,0:0:0:0:
442,168,121342,1,8,0:0:0:0:
442,168,121408,1,8,0:0:0:0:
496,193,121473,1,0,0:0:0:0:
496,193,121538,1,0,0:0:0:0:
442,168,121603,1,8,0:0:0:0:
442,168,121668,1,8,0:0:0:0:
442,168,121734,1,8,0:0:0:0:
442,168,121799,1,8,0:0:0:0:
464,173,121864,1,0,0:0:0:0:
496,193,121929,1,0,0:0:0:0:
490,179,121994,1,8,0:0:0:0:
490,179,122060,1,8,0:0:0:0:
490,179,122125,1,8,0:0:0:0:
490,179,122190,1,8,0:0:0:0:
496,193,122255,1,0,0:0:0:0:
496,193,122321,1,0,0:0:0:0:
490,179,122386,1,8,0:0:0:0:
490,179,122451,1,8,0:0:0:0:
469,167,122516,1,8,0:0:0:0:
468,196,122647,1,4,0:0:0:0:
486,163,123168,1,8,0:0:0:0:
225,60,123690,1,4,0:0:0:0:
350,122,123951,1,8,0:0:0:0:
413,93,124081,1,8,0:0:0:0:
381,108,124147,1,8,0:0:0:0:
404,133,124212,1,0,0:0:0:0:
404,133,124342,1,0,0:0:0:0:
446,189,124473,1,8,0:0:0:0:
412,172,124538,1,8,0:0:0:0:
379,168,124603,1,0,0:0:0:0:
379,168,124668,1,0,0:0:0:0:
347,151,124734,1,8,0:0:0:0:
282,125,124864,1,0,0:0:0:0:
352,164,124994,1,8,0:0:0:0:
379,168,125125,1,8,0:0:0:0:
412,172,125190,1,0,0:0:0:0:
412,172,125255,1,8,0:0:0:0:
347,151,125321,1,8,0:0:0:0:
347,151,125386,1,0,0:0:0:0:
347,151,125451,1,0,0:0:0:0:
412,172,125516,1,8,0:0:0:0:
480,180,125647,1,0,0:0:0:0:
412,172,125777,1,8,0:0:0:0:
379,168,126038,1,8,0:0:0:0:
448,168,126168,1,0,0:0:0:0:
448,168,126234,1,0,0:0:0:0:
448,168,126299,1,8,0:0:0:0:
440,200,126429,1,0,0:0:0:0:
412,172,126560,1,8,0:0:0:0:
448,168,126690,1,8,0:0:0:0:
448,168,126755,1,8,0:0:0:0:
416,184,126821,1,0,0:0:0:0:
424,220,126951,1,0,0:0:0:0:
379,180,127081,1,8,0:0:0:0:
448,160,127212,1,8,0:0:0:0:
341,172,127277,1,8,0:0:0:0:
448,168,127342,1,0,0:0:0:0:
379,180,127408,1,0,0:0:0:0:
448,168,127473,1,8,0:0:0:0:
448,160,127538,1,0,0:0:0:0:
412,156,127603,1,8,0:0:0:0:
379,168,127734,1,8,0:0:0:0:
379,168,127799,1,8,0:0:0:0:
379,168,127864,1,0,0:0:0:0:
448,212,127994,1,0,0:0:0:0:
412,168,128125,1,8,0:0:0:0:
464,188,128386,1,0,0:0:0:0:
464,188,128516,1,0,0:0:0:0:
392,184,128647,1,8,0:0:0:0:
460,188,128777,1,8,0:0:0:0:
412,168,128842,1,8,0:0:0:0:
399,157,128908,1,0,0:0:0:0:
459,192,129038,1,0,0:0:0:0:
427,176,129103,1,0,0:0:0:0:
407,144,129168,1,8,0:0:0:0:
427,176,129299,1,0,0:0:0:0:
460,188,129429,1,8,0:0:0:0:
444,156,129494,1,8,0:0:0:0:
427,176,129560,1,0,0:0:0:0:
427,176,129625,1,0,0:0:0:0:
461,176,129690,1,8,0:0:0:0:
390,172,129821,1,0,0:0:0:0:
459,180,129951,1,8,0:0:0:0:
455,249,130081,1,8,0:0:0:0:
460,188,130147,1,0,0:0:0:0:
318,171,130212,1,8,0:0:0:0:
460,188,130342,1,0,0:0:0:0:
427,176,130408,1,0,0:0:0:0:
390,172,130473,1,8,0:0:0:0:
392,192,130538,1,0,0:0:0:0:
410,149,130603,1,0,0:0:0:0:
461,176,130668,1,0,0:0:0:0:
427,176,130734,1,8,0:0:0:0:
459,180,130864,1,0,0:0:0:0:
478,162,130994,1,8,0:0:0:0:
487,194,131255,1,0,0:0:0:0:
478,162,131386,1,0,0:0:0:0:
390,172,131451,1,0,0:0:0:0:
355,168,131516,1,8,0:0:0:0:
390,172,131647,1,0,0:0:0:0:
455,147,131777,1,8,0:0:0:0:
430,212,131908,1,8,0:0:0:0:
352,176,132038,1,4,0:0:0:0:
492,171,132299,1,8,0:0:0:0:
457,172,132429,1,8,0:0:0:0:
390,172,132494,1,8,0:0:0:0:
355,164,132560,1,0,0:0:0:0:
355,164,132690,1,0,0:0:0:0:
416,130,132821,1,8,0:0:0:0:
390,172,132886,1,8,0:0:0:0:
390,172,132951,1,0,0:0:0:0:
390,172,133016,1,0,0:0:0:0:
424,169,133081,1,8,0:0:0:0:
390,172,133212,1,0,0:0:0:0:
326,143,133342,1,8,0:0:0:0:
379,188,133473,1,0,0:0:0:0:
416,130,133538,1,8,0:0:0:0:
435,159,133603,1,0,0:0:0:0:
424,169,133668,1,0,0:0:0:0:
390,172,133734,1,8,0:0:0:0:
395,153,133799,1,0,0:0:0:0:
428,161,133864,1,8,0:0:0:0:
424,169,133994,1,0,0:0:0:0:
395,153,134125,1,8,0:0:0:0:
471,168,134386,1,8,0:0:0:0:
471,168,134516,1,0,0:0:0:0:
471,168,134581,1,0,0:0:0:0:
471,168,134647,1,8,0:0:0:0:
424,169,134777,1,0,0:0:0:0:
492,156,134908,1,8,0:0:0:0:
471,168,135038,1,8,0:0:0:0:
471,168,135103,1,8,0:0:0:0:
471,168,135168,1,0,0:0:0:0:
471,168,135299,1,0,0:0:0:0:
471,168,135364,1,0,0:0:0:0:
471,168,135429,1,8,0:0:0:0:
471,168,135560,1,8,0:0:0:0:
400,165,135625,1,8,0:0:0:0:
471,168,135690,1,0,0:0:0:0:
424,169,135755,1,0,0:0:0:0:
492,156,135821,1,8,0:0:0:0:
420,196,135886,1,0,0:0:0:0:
428,188,135951,1,8,0:0:0:0:
456,152,136081,1,8,0:0:0:0:
470,181,136212,1,0,0:0:0:0:
400,165,136473,1,8,0:0:0:0:
372,228,136603,1,0,0:0:0:0:
424,184,136734,1,0,0:0:0:0:
392,156,136864,1,0,0:0:0:0:
404,188,136929,1,0,0:0:0:0:
440,208,136994,1,8,0:0:0:0:
426,162,137125,1,0,0:0:0:0:
392,168,137255,1,8,0:0:0:0:
400,165,137386,1,0,0:0:0:0:
424,184,137451,1,0,0:0:0:0:
332,184,137516,1,8,0:0:0:0:
372,228,137647,1,0,0:0:0:0:
360,144,137777,1,8,0:0:0:0:
360,144,137842,1,8,0:0:0:0:
340,176,137908,1,0,0:0:0:0:
424,184,137973,1,0,0:0:0:0:
340,176,138038,1,8,0:0:0:0:
412,208,138168,1,0,0:0:0:0:
400,165,138299,1,8,0:0:0:0:
412,208,138429,1,0,0:0:0:0:
376,176,138494,1,0,0:0:0:0:
412,176,138560,1,8,0:0:0:0:
431,234,138690,1,8,0:0:0:0:
348,152,138755,1,0,0:0:0:0:
400,165,138821,1,8,0:0:0:0:
407,188,138886,1,0,0:0:0:0:
424,184,138951,1,0,0:0:0:0:
412,176,139016,1,0,0:0:0:0:
416,140,139081,1,8,0:0:0:0:
425,165,139212,1,0,0:0:0:0:
431,234,139342,1,8,0:0:0:0:
497,110,139603,1,0,0:0:0:0:
464,171,139734,1,0,0:0:0:0:
464,171,139799,1,0,0:0:0:0:
429,165,139864,1,8,0:0:0:0:
394,161,139929,1,8,0:0:0:0:
394,161,139994,1,8,0:0:0:0:
394,161,140060,1,8,0:0:0:0:
464,171,140125,1,0,0:0:0:0:
464,171,140190,1,0,0:0:0:0:
464,171,140255,1,0,0:0:0:0:
333,221,140386,1,12,0:0:0:0:
461,226,140647,1,0,0:0:0:0:
380,112,140908,1,8,0:0:0:0:
461,226,141038,1,0,0:0:0:0:
403,186,141168,1,8,0:0:0:0:
403,186,141429,1,8,0:0:0:0:
403,186,141560,1,0,0:0:0:0:
403,186,141690,1,8,0:0:0:0:
403,186,141821,1,0,0:0:0:0:
403,186,141886,1,0,0:0:0:0:
429,165,141951,1,8,0:0:0:0:
364,192,142081,1,0,0:0:0:0:
403,186,142212,1,8,0:0:0:0:
429,165,142342,1,8,0:0:0:0:
464,172,142473,1,0,0:0:0:0:
403,186,142734,1,8,0:0:0:0:
392,180,142994,1,0,0:0:0:0:
392,180,143125,1,0,0:0:0:0:
340,108,143255,1,8,0:0:0:0:
449,195,143516,1,0,0:0:0:0:
449,195,143647,1,0,0:0:0:0:
392,180,143777,1,8,0:0:0:0:
449,195,143908,1,0,0:0:0:0:
441,160,143973,1,0,0:0:0:0:
449,195,144038,1,8,0:0:0:0:
449,195,144168,1,0,0:0:0:0:
449,195,144299,1,8,0:0:0:0:
392,180,144364,1,8,0:0:0:0:
420,180,144429,1,0,0:0:0:0:
420,180,144560,1,12,0:0:0:0:
280,172,144821,1,0,0:0:0:0:
488,204,145081,1,8,0:0:0:0:
348,176,145212,1,8,0:0:0:0:
420,187,145342,1,0,0:0:0:0:
438,48,145603,1,8,0:0:0:0:
420,180,145734,1,8,0:0:0:0:
420,180,145864,1,0,0:0:0:0:
420,187,145994,1,0,0:0:0:0:
392,165,146060,1,0,0:0:0:0:
400,176,146125,1,8,0:0:0:0:
437,174,146255,1,8,0:0:0:0:
457,190,146386,1,0,0:0:0:0:
448,120,146516,1,8,0:0:0:0:
460,188,146647,1,0,0:0:0:0:
400,176,146908,1,8,0:0:0:0:
300,108,147168,1,0,0:0:0:0:
484,180,147299,1,8,0:0:0:0:
484,180,147429,1,0,0:0:0:0:
400,176,147690,1,0,0:0:0:0:
468,180,147821,1,8,0:0:0:0:
408,140,147951,1,0,0:0:0:0:
420,224,148081,1,0,0:0:0:0:
420,224,148147,1,0,0:0:0:0:
403,311,148212,1,8,0:0:0:0:
387,279,148277,1,8,0:0:0:0:
400,176,148342,1,0,0:0:0:0:
412,172,148473,1,8,0:0:0:0:
468,180,148603,1,0,0:0:0:0:
412,140,148734,1,12,0:0:0:0:
492,252,148994,1,8,0:0:0:0:
468,180,149125,1,0,0:0:0:0:
436,168,149190,1,0,0:0:0:0:
436,196,149255,1,8,0:0:0:0:
376,160,149386,1,0,0:0:0:0:
376,160,149516,1,8,0:0:0:0:
376,160,149647,1,8,0:0:0:0:
412,164,149712,1,8,0:0:0:0:
376,160,149777,1,0,0:0:0:0:
412,164,149908,1,0,0:0:0:0:
412,164,150038,1,8,0:0:0:0:
412,164,150168,1,0,0:0:0:0:
480,168,150234,1,0,0:0:0:0:
436,168,150299,1,8,0:0:0:0:
436,168,150364,1,8,0:0:0:0:
468,180,150429,1,0,0:0:0:0:
400,188,150560,1,8,0:0:0:0:
332,184,150690,1,0,0:0:0:0:
296,184,150755,1,0,0:0:0:0:
332,184,150821,1,8,0:0:0:0:
440,200,150886,1,0,0:0:0:0:
436,168,150951,1,8,0:0:0:0:
436,216,151016,1,8,0:0:0:0:
484,192,151081,1,0,0:0:0:0:
408,224,151212,1,0,0:0:0:0:
372,164,151342,1,8,0:0:0:0:
440,176,151473,1,0,0:0:0:0:
436,168,151538,1,0,0:0:0:0:
412,164,151603,1,8,0:0:0:0:
468,216,151734,1,8,0:0:0:0:
480,172,151864,1,0,0:0:0:0:
424,20,152125,1,0,0:0:0:0:
456,84,152255,1,0,0:0:0:0:
464,152,152386,1,8,0:0:0:0:
500,168,152516,1,0,0:0:0:0:
484,192,152581,1,0,0:0:0:0:
464,184,152647,1,8,0:0:0:0:
416,132,152777,1,8,0:0:0:0:
468,180,152908,1,4,0:0:0:0:
500,168,153168,1,8,0:0:0:0:
432,172,153429,1,0,0:0:0:0:
432,172,153560,1,0,0:0:0:0:
432,172,153690,1,8,0:0:0:0:
368,296,153951,1,12,0:0:0:0:
452,184,154212,1,0,0:0:0:0:
432,172,154342,1,8,0:0:0:0:
432,172,154473,1,0,0:0:0:0:
432,172,154538,1,0,0:0:0:0:
432,172,154603,1,0,0:0:0:0:
432,172,154668,1,0,0:0:0:0:
432,172,154734,1,0,0:0:0:0:
452,184,154799,1,0,0:0:0:0:
452,184,154864,1,0,0:0:0:0:
500,152,154994,1,12,0:0:0:0:
256,192,155125,12,0,156560,0:0:0:0:
428,192,157081,5,8,0:0:0:0:
424,288,157864,1,8,0:0:0:0:
440,208,158647,1,0,0:0:0:0:
452,184,158908,1,8,0:0:0:0:
457,251,159168,1,4,0:0:0:0:
492,176,159668,1,8,0:0:0:0:
492,176,160168,1,0,0:0:0:0:
432,304,160418,1,0,0:0:0:0:
452,224,160668,1,8,0:0:0:0:
448,64,160918,1,8,0:0:0:0:
464,204,161168,1,0,0:0:0:0:
500,180,161668,1,8,0:0:0:0:
500,180,162168,1,0,0:0:0:0:
224,140,162668,1,0,0:0:0:0:
364,144,162918,1,8,0:0:0:0:
500,180,163168,1,0,0:0:0:0:
228,108,163668,1,8,0:0:0:0:
500,180,164168,1,0,0:0:0:0:
428,192,164418,1,8,0:0:0:0:
504,160,164668,1,8,0:0:0:0:
504,160,164918,1,8,0:0:0:0:
364,160,165168,1,0,0:0:0:0:
460,168,165668,1,8,0:0:0:0:
196,68,166168,1,0,0:0:0:0:
328,112,166418,1,0,0:0:0:0:
392,144,166543,1,0,0:0:0:0:
332,180,166668,1,8,0:0:0:0:
408,172,167168,1,4,0:0:0:0:
428,192,167418,1,4,0:0:0:0:
444,184,167668,1,8,0:0:0:0:
444,184,168043,1,8,0:0:0:0:
408,172,168168,1,4,0:0:0:0:
408,172,168418,1,4,0:0:0:0:
512,256,168668,1,8,0:0:0:0:
348,144,169043,1,0,0:0:0:0:
412,160,169168,1,4,0:0:0:0:
500,180,169418,1,4,0:0:0:0:
368,168,169668,1,8,0:0:0:0:
444,176,170043,1,8,0:0:0:0:
392,220,170168,1,4,0:0:0:0:
504,152,170418,1,4,0:0:0:0:
444,176,170668,1,8,0:0:0:0:
324,120,170918,1,8,0:0:0:0:
444,176,171043,1,8,0:0:0:0:
392,220,171168,1,4,0:0:0:0:
464,196,171418,1,0,0:0:0:0:
352,268,171668,1,8,0:0:0:0:
504,184,172168,1,0,0:0:0:0:
386,246,172418,1,0,0:0:0:0:
468,141,172668,1,8,0:0:0:0:
376,152,172918,1,8,0:0:0:0:
472,244,173168,1,0,0:0:0:0:
403,130,173418,1,0,0:0:0:0:
484,184,173668,1,8,0:0:0:0:
292,236,174043,1,0,0:0:0:0:
356,216,174168,1,8,0:0:0:0:
420,196,174293,1,8,0:0:0:0:
420,196,174418,1,4,0:0:0:0:
420,196,174668,1,8,0:0:0:0:
337,173,175168,1,4,0:0:0:0:
440,164,175418,1,8,0:0:0:0:
440,164,175543,1,8,0:0:0:0:
440,164,175605,1,8,0:0:0:0:
460,192,175668,1,0,0:0:0:0:
460,192,175793,1,0,0:0:0:0:
512,180,175918,1,8,0:0:0:0:
440,164,175980,1,8,0:0:0:0:
452,148,176043,1,0,0:0:0:0:
484,164,176105,1,0,0:0:0:0:
448,156,176168,1,8,0:0:0:0:
460,192,176293,1,0,0:0:0:0:
512,180,176418,1,8,0:0:0:0:
444,188,176543,1,8,0:0:0:0:
440,164,176605,1,0,0:0:0:0:
416,164,176668,1,8,0:0:0:0:
376,172,176730,1,8,0:0:0:0:
376,172,176793,1,0,0:0:0:0:
440,164,176855,1,0,0:0:0:0:
440,164,176918,1,8,0:0:0:0:
460,192,177043,1,0,0:0:0:0:
506,172,177168,1,8,0:0:0:0:
416,164,177418,1,8,0:0:0:0:
440,164,177543,1,0,0:0:0:0:
440,164,177605,1,0,0:0:0:0:
416,164,177668,1,8,0:0:0:0:
444,188,177793,1,0,0:0:0:0:
440,164,177918,1,8,0:0:0:0:
416,164,177980,1,8,0:0:0:0:
474,154,178043,1,0,0:0:0:0:
416,164,178105,1,0,0:0:0:0:
438,158,178168,1,8,0:0:0:0:
506,172,178293,1,8,0:0:0:0:
471,166,178355,1,8,0:0:0:0:
440,164,178418,1,0,0:0:0:0:
416,164,178543,1,8,0:0:0:0:
416,164,178605,1,8,0:0:0:0:
380,166,178668,1,0,0:0:0:0:
380,166,178730,1,0,0:0:0:0:
380,166,178793,1,8,0:0:0:0:
379,192,178855,1,0,0:0:0:0:
471,166,178918,1,8,0:0:0:0:
438,158,179043,1,0,0:0:0:0:
416,164,179168,1,8,0:0:0:0:
416,164,179293,1,0,0:0:0:0:
416,164,179355,1,0,0:0:0:0:
380,166,179418,1,8,0:0:0:0:
489,186,179668,1,0,0:0:0:0:
489,186,179793,1,0,0:0:0:0:
438,158,179918,1,8,0:0:0:0:
438,158,180043,1,8,0:0:0:0:
416,164,180105,1,8,0:0:0:0:
438,158,180168,1,0,0:0:0:0:
507,147,180293,1,0,0:0:0:0:
442,173,180418,1,8,0:0:0:0:
442,173,180543,1,0,0:0:0:0:
442,173,180605,1,0,0:0:0:0:
411,191,180668,1,8,0:0:0:0:
411,191,180730,1,8,0:0:0:0:
489,186,180793,1,0,0:0:0:0:
420,176,180918,1,8,0:0:0:0:
438,158,181043,1,0,0:0:0:0:
416,164,181105,1,0,0:0:0:0:
380,172,181168,1,8,0:0:0:0:
380,172,181293,1,8,0:0:0:0:
416,164,181355,1,0,0:0:0:0:
380,172,181418,1,8,0:0:0:0:
442,173,181543,1,0,0:0:0:0:
432,206,181605,1,0,0:0:0:0:
380,172,181668,1,8,0:0:0:0:
416,208,181730,1,0,0:0:0:0:
420,176,181793,1,0,0:0:0:0:
420,176,181855,1,0,0:0:0:0:
420,176,181918,1,8,0:0:0:0:
416,164,182043,1,0,0:0:0:0:
416,164,182168,1,8,0:0:0:0:
280,128,182418,1,0,0:0:0:0:
348,148,182543,1,0,0:0:0:0:
416,156,182668,1,8,0:0:0:0:
442,173,182793,1,0,0:0:0:0:
442,173,182855,1,0,0:0:0:0:
464,144,182918,1,8,0:0:0:0:
464,144,183043,1,8,0:0:0:0:
464,144,183168,1,4,0:0:0:0:
442,173,183418,1,8,0:0:0:0:
442,173,183543,1,8,0:0:0:0:
442,173,183605,1,8,0:0:0:0:
416,156,183668,1,0,0:0:0:0:
416,156,183793,1,0,0:0:0:0:
484,176,183918,1,8,0:0:0:0:
416,156,183980,1,8,0:0:0:0:
416,156,184043,1,0,0:0:0:0:
416,156,184105,1,0,0:0:0:0:
452,164,184168,1,8,0:0:0:0:
452,164,184293,1,0,0:0:0:0:
416,156,184418,1,8,0:0:0:0:
452,164,184543,1,0,0:0:0:0:
384,164,184605,1,8,0:0:0:0:
452,164,184668,1,0,0:0:0:0:
452,164,184730,1,0,0:0:0:0:
416,156,184793,1,8,0:0:0:0:
416,156,184855,1,0,0:0:0:0:
384,140,184918,1,8,0:0:0:0:
336,192,185043,1,0,0:0:0:0:
404,179,185168,1,8,0:0:0:0:
336,192,185418,1,8,0:0:0:0:
405,200,185543,1,0,0:0:0:0:
439,205,185605,1,0,0:0:0:0:
434,170,185668,1,8,0:0:0:0:
416,156,185793,1,0,0:0:0:0:
416,156,185918,1,8,0:0:0:0:
434,170,185980,1,8,0:0:0:0:
416,156,186043,1,0,0:0:0:0:
416,156,186105,1,0,0:0:0:0:
380,160,186168,1,8,0:0:0:0:
388,92,186293,1,0,0:0:0:0:
420,156,186418,1,8,0:0:0:0:
452,176,186543,1,8,0:0:0:0:
456,212,186605,1,0,0:0:0:0:
434,170,186668,1,8,0:0:0:0:
416,156,186730,1,8,0:0:0:0:
416,156,186793,1,0,0:0:0:0:
416,172,186855,1,0,0:0:0:0:
416,172,186918,1,8,0:0:0:0:
484,176,187043,1,8,0:0:0:0:
452,176,187105,1,8,0:0:0:0:
476,196,187168,1,0,0:0:0:0:
416,172,187418,1,8,0:0:0:0:
348,180,187543,1,0,0:0:0:0:
416,172,187668,1,0,0:0:0:0:
416,172,187793,1,0,0:0:0:0:
416,172,187855,1,0,0:0:0:0:
448,156,187918,1,8,0:0:0:0:
448,156,188043,1,0,0:0:0:0:
448,156,188168,1,8,0:0:0:0:
412,216,188293,1,0,0:0:0:0:
416,172,188355,1,0,0:0:0:0:
428,184,188418,1,8,0:0:0:0:
380,132,188543,1,0,0:0:0:0:
444,160,188668,1,8,0:0:0:0:
472,180,188730,1,8,0:0:0:0:
436,172,188793,1,0,0:0:0:0:
428,184,188855,1,0,0:0:0:0:
448,156,188918,1,8,0:0:0:0:
448,156,189043,1,0,0:0:0:0:
380,164,189168,1,8,0:0:0:0:
448,164,189293,1,0,0:0:0:0:
484,160,189355,1,0,0:0:0:0:
472,180,189418,1,8,0:0:0:0:
404,172,189543,1,8,0:0:0:0:
404,172,189605,1,0,0:0:0:0:
436,172,189668,1,8,0:0:0:0:
436,172,189730,1,0,0:0:0:0:
448,156,189793,1,0,0:0:0:0:
380,164,189855,1,0,0:0:0:0:
439,167,189918,1,8,0:0:0:0:
448,156,190043,1,0,0:0:0:0:
383,182,190168,1,8,0:0:0:0:
468,200,190418,1,0,0:0:0:0:
468,200,190480,1,0,0:0:0:0:
436,172,190543,1,0,0:0:0:0:
436,172,190605,1,0,0:0:0:0:
404,180,190668,1,8,0:0:0:0:
380,164,190730,1,0,0:0:0:0:
380,164,190793,1,8,0:0:0:0:
380,164,190855,1,8,0:0:0:0:
404,180,190918,1,0,0:0:0:0:
404,180,190980,1,0,0:0:0:0:
404,180,191043,1,8,0:0:0:0:
340,152,191168,1,4,0:0:0:0:
404,180,191355,1,0,0:0:0:0:
436,172,191418,1,8,0:0:0:0:
436,172,191543,1,0,0:0:0:0:
436,172,191605,1,0,0:0:0:0:
380,164,191668,1,8,0:0:0:0:
404,180,191793,1,0,0:0:0:0:
404,180,191918,1,8,0:0:0:0:
376,160,191980,1,8,0:0:0:0:
376,160,192043,1,0,0:0:0:0:
376,160,192105,1,0,0:0:0:0:
436,172,192168,1,8,0:0:0:0:
436,172,192293,1,8,0:0:0:0:
472,176,192355,1,8,0:0:0:0:
440,168,192418,1,0,0:0:0:0:
372,172,192543,1,8,0:0:0:0:
401,189,192605,1,0,0:0:0:0:
436,172,192668,1,8,0:0:0:0:
436,172,192730,1,8,0:0:0:0:
436,172,192793,1,0,0:0:0:0:
468,184,192855,1,0,0:0:0:0:
404,180,192918,1,8,0:0:0:0:
436,172,193043,1,0,0:0:0:0:
384,208,193168,1,8,0:0:0:0:
472,176,193293,1,0,0:0:0:0:
472,176,193355,1,0,0:0:0:0:
440,168,193418,1,8,0:0:0:0:
401,189,193543,1,8,0:0:0:0:
401,189,193605,1,8,0:0:0:0:
416,136,193668,1,0,0:0:0:0:
436,172,193793,1,0,0:0:0:0:
396,164,193918,1,8,0:0:0:0:
425,181,193980,1,0,0:0:0:0:
324,176,194043,1,0,0:0:0:0:
288,180,194105,1,0,0:0:0:0:
316,200,194168,1,8,0:0:0:0:
362,183,194293,1,8,0:0:0:0:
328,173,194355,1,8,0:0:0:0:
440,168,194418,1,0,0:0:0:0:
374,191,194543,1,8,0:0:0:0:
396,164,194605,1,8,0:0:0:0:
396,164,194668,1,0,0:0:0:0:
396,164,194730,1,0,0:0:0:0:
396,164,194793,1,8,0:0:0:0:
425,181,194855,1,0,0:0:0:0:
440,168,194918,1,8,0:0:0:0:
440,168,194980,1,8,0:0:0:0:
396,164,195043,1,0,0:0:0:0:
396,164,195105,1,0,0:0:0:0:
440,168,195168,1,8,0:0:0:0:
508,164,195293,1,0,0:0:0:0:
472,164,195355,1,0,0:0:0:0:
500,188,195418,1,8,0:0:0:0:
433,211,195543,1,0,0:0:0:0:
392,176,195668,1,0,0:0:0:0:
356,176,195730,1,0,0:0:0:0:
396,164,195793,1,0,0:0:0:0:
356,176,195855,1,0,0:0:0:0:
472,164,195918,1,8,0:0:0:0:
392,176,196043,1,8,0:0:0:0:
396,164,196105,1,8,0:0:0:0:
356,176,196168,1,0,0:0:0:0:
416,208,196293,1,0,0:0:0:0:
372,148,196418,1,8,0:0:0:0:
392,176,196543,1,8,0:0:0:0:
472,164,196605,1,0,0:0:0:0:
472,164,196668,1,8,0:0:0:0:
404,160,196730,1,8,0:0:0:0:
416,208,196793,1,0,0:0:0:0:
448,196,196855,1,0,0:0:0:0:
472,168,196918,1,8,0:0:0:0:
404,160,197043,1,0,0:0:0:0:
404,160,197168,1,8,0:0:0:0:
440,168,197230,1,8,0:0:0:0:
372,148,197293,1,0,0:0:0:0:
372,148,197355,1,0,0:0:0:0:
440,168,197418,1,8,0:0:0:0:
354,163,197543,1,8,0:0:0:0:
354,163,197605,1,0,0:0:0:0:
404,160,197668,1,8,0:0:0:0:
404,160,197730,1,0,0:0:0:0:
472,168,197793,1,0,0:0:0:0:
472,168,197855,1,0,0:0:0:0:
436,167,197918,1,8,0:0:0:0:
367,154,198043,1,0,0:0:0:0:
404,160,198168,1,8,0:0:0:0:
416,300,198418,1,0,0:0:0:0:
412,264,198480,1,0,0:0:0:0:
448,196,198543,1,0,0:0:0:0:
354,163,198605,1,0,0:0:0:0:
468,181,198668,1,8,0:0:0:0:
460,217,198793,1,0,0:0:0:0:
367,154,198855,1,0,0:0:0:0:
397,177,198918,1,8,0:0:0:0:
428,244,199043,1,8,0:0:0:0:
360,208,199168,1,4,0:0:0:0:
400,264,199355,1,0,0:0:0:0:
404,160,199418,1,8,0:0:0:0:
354,163,199543,1,8,0:0:0:0:
354,163,199605,1,8,0:0:0:0:
397,177,199668,1,0,0:0:0:0:
404,160,199793,1,0,0:0:0:0:
348,116,199918,1,8,0:0:0:0:
376,136,199980,1,8,0:0:0:0:
354,163,200043,1,0,0:0:0:0:
354,163,200105,1,0,0:0:0:0:
354,163,200168,1,8,0:0:0:0:
424,176,200293,1,0,0:0:0:0:
387,153,200355,1,0,0:0:0:0:
376,136,200418,1,8,0:0:0:0:
405,182,200543,1,0,0:0:0:0:
404,160,200605,1,8,0:0:0:0:
405,182,200668,1,0,0:0:0:0:
376,136,200730,1,0,0:0:0:0:
404,160,200793,1,8,0:0:0:0:
399,161,200855,1,0,0:0:0:0:
387,153,200918,1,8,0:0:0:0:
365,219,201043,1,0,0:0:0:0:
440,168,201168,1,8,0:0:0:0:
405,182,201293,1,0,0:0:0:0:
405,182,201355,1,0,0:0:0:0:
405,182,201418,1,8,0:0:0:0:
470,185,201543,1,8,0:0:0:0:
470,185,201605,1,8,0:0:0:0:
440,168,201668,1,0,0:0:0:0:
440,168,201793,1,0,0:0:0:0:
404,160,201918,1,8,0:0:0:0:
405,182,201980,1,8,0:0:0:0:
470,185,202043,1,0,0:0:0:0:
368,160,202105,1,0,0:0:0:0:
470,185,202168,1,8,0:0:0:0:
470,185,202293,1,8,0:0:0:0:
454,153,202355,1,8,0:0:0:0:
440,168,202418,1,0,0:0:0:0:
440,168,202543,1,8,0:0:0:0:
364,190,202605,1,8,0:0:0:0:
331,177,202668,1,0,0:0:0:0:
440,168,202730,1,0,0:0:0:0:
368,160,202793,1,8,0:0:0:0:
399,161,202855,1,0,0:0:0:0:
440,168,202918,1,8,0:0:0:0:
440,168,202980,1,8,0:0:0:0:
440,168,203043,1,0,0:0:0:0:
438,223,203105,1,8,0:0:0:0:
423,190,203168,1,0,0:0:0:0:
438,223,203293,1,0,0:0:0:0:
438,223,203355,1,0,0:0:0:0:
440,168,203418,1,8,0:0:0:0:
440,168,203543,1,0,0:0:0:0:
399,161,203668,1,0,0:0:0:0:
392,198,203730,1,0,0:0:0:0:
472,184,203793,1,0,0:0:0:0:
392,198,203855,1,0,0:0:0:0:
399,161,203918,1,8,0:0:0:0:
472,184,204043,1,8,0:0:0:0:
472,184,204105,1,8,0:0:0:0:
392,198,204168,1,0,0:0:0:0:
364,176,204293,1,0,0:0:0:0:
364,176,204355,1,0,0:0:0:0:
364,176,204418,1,8,0:0:0:0:
439,174,204543,1,8,0:0:0:0:
416,172,204605,1,0,0:0:0:0:
404,172,204668,1,8,0:0:0:0:
373,168,204730,1,8,0:0:0:0:
436,172,204793,1,0,0:0:0:0:
373,168,204855,1,0,0:0:0:0:
448,156,204918,1,8,0:0:0:0:
435,137,205043,1,0,0:0:0:0:
383,182,205105,1,0,0:0:0:0:
392,198,205168,1,8,0:0:0:0:
416,172,205293,1,8,0:0:0:0:
439,174,205355,1,0,0:0:0:0:
373,168,205418,1,8,0:0:0:0:
373,168,205543,1,0,0:0:0:0:
404,172,205605,1,0,0:0:0:0:
436,172,205668,1,8,0:0:0:0:
436,172,205730,1,0,0:0:0:0:
448,156,205793,1,0,0:0:0:0:
380,164,205855,1,0,0:0:0:0:
439,167,205918,1,8,0:0:0:0:
448,156,206043,1,0,0:0:0:0:
383,182,206168,1,8,0:0:0:0:
441,237,206418,1,0,0:0:0:0:
404,172,206480,1,0,0:0:0:0:
428,108,206543,1,0,0:0:0:0:
416,140,206605,1,0,0:0:0:0:
436,172,206668,1,8,0:0:0:0:
436,172,206730,1,8,0:0:0:0:
436,172,206793,1,8,0:0:0:0:
436,172,206855,1,8,0:0:0:0:
404,172,206918,1,0,0:0:0:0:
404,172,206980,1,0,0:0:0:0:
404,172,207043,1,0,0:0:0:0:
336,192,207168,1,12,0:0:0:0:
328,164,207418,1,0,0:0:0:0:
400,172,207668,1,8,0:0:0:0:
364,160,207793,1,0,0:0:0:0:
436,188,207918,1,8,0:0:0:0:
400,172,208168,1,8,0:0:0:0:
328,164,208293,1,0,0:0:0:0:
396,208,208418,1,8,0:0:0:0:
400,172,208543,1,0,0:0:0:0:
468,172,208605,1,0,0:0:0:0:
400,172,208668,1,8,0:0:0:0:
468,172,208793,1,0,0:0:0:0:
400,172,208918,1,8,0:0:0:0:
436,188,209043,1,8,0:0:0:0:
400,172,209105,1,8,0:0:0:0:
412,124,209168,1,0,0:0:0:0:
436,188,209293,1,0,0:0:0:0:
468,172,209418,1,8,0:0:0:0:
352,92,209668,1,0,0:0:0:0:
408,132,209793,1,0,0:0:0:0:
468,168,209918,1,8,0:0:0:0:
344,236,210168,1,0,0:0:0:0:
404,204,210293,1,0,0:0:0:0:
408,164,210418,1,8,0:0:0:0:
436,188,210543,1,0,0:0:0:0:
401,194,210605,1,0,0:0:0:0:
368,180,210668,1,8,0:0:0:0:
448,316,210730,1,8,0:0:0:0:
436,188,210793,1,0,0:0:0:0:
408,164,210918,1,8,0:0:0:0:
476,172,211043,1,0,0:0:0:0:
408,172,211168,1,12,0:0:0:0:
368,180,211418,1,0,0:0:0:0:
428,172,211668,1,8,0:0:0:0:
436,188,211793,1,8,0:0:0:0:
400,192,211918,1,0,0:0:0:0:
358,176,212168,1,8,0:0:0:0:
400,192,212293,1,8,0:0:0:0:
404,156,212418,1,0,0:0:0:0:
407,225,212543,1,0,0:0:0:0:
388,196,212605,1,0,0:0:0:0:
400,192,212668,1,8,0:0:0:0:
436,188,212793,1,0,0:0:0:0:
428,172,212918,1,8,0:0:0:0:
428,172,213043,1,8,0:0:0:0:
428,172,213105,1,8,0:0:0:0:
456,176,213168,1,0,0:0:0:0:
436,188,213293,1,8,0:0:0:0:
436,188,213418,1,0,0:0:0:0:
428,172,213668,1,0,0:0:0:0:
476,184,213793,1,8,0:0:0:0:
428,200,213918,1,0,0:0:0:0:
288,220,214168,1,0,0:0:0:0:
384,176,214293,1,8,0:0:0:0:
420,172,214418,1,0,0:0:0:0:
420,172,214543,1,0,0:0:0:0:
428,200,214605,1,0,0:0:0:0:
420,172,214668,1,8,0:0:0:0:
384,176,214730,1,8,0:0:0:0:
418,171,214793,1,0,0:0:0:0:
384,176,214918,1,8,0:0:0:0:
420,172,215043,1,0,0:0:0:0:
440,240,215168,1,12,0:0:0:0:
360,124,215418,1,0,0:0:0:0:
420,172,215543,1,0,0:0:0:0:
408,204,215605,1,0,0:0:0:0:
400,180,215668,1,8,0:0:0:0:
384,176,215730,1,8,0:0:0:0:
384,176,215793,1,8,0:0:0:0:
400,180,215855,1,8,0:0:0:0:
420,172,215918,1,0,0:0:0:0:
420,172,215980,1,0,0:0:0:0:
420,172,216043,1,0,0:0:0:0:
420,172,216105,1,0,0:0:0:0:
384,168,216168,1,8,0:0:0:0:
456,176,216293,1,12,0:0:0:0:
456,176,216543,1,12,0:0:0:0:
456,176,216793,1,12,0:0:0:0:
384,168,216918,1,4,0:0:0:0:
416,180,217168,1,8,0:0:0:0:
445,198,217230,1,0,0:0:0:0:
416,180,217293,1,0,0:0:0:0:
416,180,217355,1,0,0:0:0:0:
489,164,217418,1,8,0:0:0:0:
384,168,217480,1,8,0:0:0:0:
456,176,217543,1,0,0:0:0:0:
456,176,217605,1,0,0:0:0:0:
384,168,217668,1,0,0:0:0:0:
384,168,217730,1,0,0:0:0:0:
456,176,217793,1,8,0:0:0:0:
420,176,217855,1,8,0:0:0:0:
416,180,217918,1,0,0:0:0:0:
416,180,217980,1,0,0:0:0:0:
489,164,218043,1,0,0:0:0:0:
456,164,218105,1,0,0:0:0:0:
420,166,218168,1,8,0:0:0:0:
480,200,218418,1,0,0:0:0:0:
480,200,218543,1,0,0:0:0:0:
456,184,218668,1,8,0:0:0:0:
456,184,218918,1,8,0:0:0:0:
452,180,219168,1,4,0:0:0:0:
316,140,219418,1,8,0:0:0:0:
348,148,219480,1,8,0:0:0:0:
380,160,219543,1,8,0:0:0:0:
412,168,219605,1,8,0:0:0:0:
412,168,219668,1,0,0:0:0:0:
412,168,219730,1,0,0:0:0:0:
376,164,219793,1,0,0:0:0:0:
377,164,219855,1,0,0:0:0:0:
412,168,219918,1,8,0:0:0:0:
344,168,220043,1,0,0:0:0:0:
412,188,220168,1,12,0:0:0:0:
420,220,220668,1,4,0:0:0:0:
420,220,221168,1,12,0:0:0:0:
256,192,221293,12,0,221668,0:0:0:0:
