osu file format v14

[General]
AudioFilename: audio.mp3
AudioLeadIn: 0
PreviewTime: 237581
Countdown: 0
SampleSet: Drum
StackLeniency: 0.6
Mode: 0
LetterboxInBreaks: 0
WidescreenStoryboard: 1

[Editor]
DistanceSpacing: 1
BeatDivisor: 4
GridSize: 16
TimelineZoom: 3.299999

[Metadata]
Title:Zen Zen Zense (Synth Rock Cover)
TitleUnicode:前前前世 (Synth Rock Cover)
Artist:Omoi
ArtistUnicode:Omoi
Creator:Ixcors
Version:Expert [2019]
Source:君の名は。
Tags:your name taki mitsuha kimi no na wa Hatsune Miku 初音ミク kagamine rin 鏡音リン
BeatmapID:1890354
BeatmapSetID:905302

[Difficulty]
HPDrainRate:6.7
CircleSize:3.8
OverallDifficulty:7.7
ApproachRate:9.1
SliderMultiplier:1.5
SliderTickRate:1

[Events]
//Background and Video events
0,0,"m.jpg",0,0
//Break Periods
2,181887,200508
//Storyboard Layer 0 (Background)
//Storyboard Layer 1 (Fail)
//Storyboard Layer 2 (Pass)
//Storyboard Layer 3 (Foreground)
//Storyboard Layer 4 (Overlay)
//Storyboard Sound Samples

[TimingPoints]
2318,315.789473684211,4,3,1,55,1,0
4845,-125,4,3,1,55,0,0
14950,-100,4,3,1,75,0,0
25055,-125,4,2,1,55,0,0
50239,-125,4,2,1,5,0,0
50318,-100,4,2,1,75,0,0
60423,-133.333333333333,4,2,1,65,0,0
68002,-125,4,2,1,75,0,0
72581,-125,4,2,1,45,0,0
72976,-125,4,2,1,5,0,0
73055,-100,4,2,1,85,0,1
73292,-100,4,2,1,5,0,1
73371,-100,4,2,1,85,0,1
73608,-100,4,2,1,5,0,1
73687,-100,4,2,1,85,0,1
73923,-100,4,2,1,5,0,1
74002,-100,4,2,1,85,0,1
83397,-100,4,2,1,5,0,1
83476,-100,4,2,1,85,0,1
83713,-100,4,2,1,5,0,1
83792,-100,4,2,1,85,0,1
84029,-100,4,2,1,5,0,1
84108,-100,4,2,1,85,0,1
93266,-125,4,2,1,65,0,1
95792,-125,4,2,1,55,0,0
96029,-125,4,2,1,5,0,0
96108,-125,4,2,1,55,0,0
96897,-133.333333333333,4,2,1,55,0,0
97055,-133.333333333333,4,2,1,75,0,0
98318,-125,4,3,1,65,0,0
108423,-125,4,2,1,55,0,0
133371,-125,4,2,1,65,0,0
133608,-125,4,2,1,5,0,0
133687,-100,4,2,1,75,0,0
143792,-133.333333333333,4,2,1,55,0,0
151371,-125,4,2,1,75,0,0
155950,-125,4,2,1,45,0,0
156345,-125,4,2,1,5,0,0
156423,-100,4,2,1,85,0,1
156660,-100,4,2,1,5,0,1
156739,-100,4,2,1,85,0,1
156976,-100,4,2,1,5,0,1
157055,-100,4,2,1,85,0,1
157292,-100,4,2,1,5,0,1
157371,-100,4,2,1,85,0,1
166766,-100,4,2,1,5,0,1
166845,-100,4,2,1,85,0,1
167081,-100,4,2,1,5,0,1
167160,-100,4,2,1,85,0,1
167397,-100,4,2,1,5,0,1
167476,-100,4,2,1,85,0,1
176634,-125,4,2,1,65,0,1
180423,-125,4,2,1,55,0,1
181687,-125,4,2,1,45,0,0
201108,-125,4,2,1,65,0,0
201502,-125,4,2,1,5,0,0
201581,-125,4,2,1,65,0,0
222108,-125,4,2,1,75,0,0
233555,-125,4,2,1,5,0,0
233634,-125,4,2,1,75,0,0
237897,315.789473684211,4,3,1,75,1,1
237897,-80,4,3,1,75,0,1
238133,-80,4,2,1,5,0,1
238212,-80,4,2,1,85,0,1
238449,-80,4,2,1,5,0,1
238528,-80,4,2,1,85,0,1
238765,-80,4,2,1,5,0,1
238844,-80,4,2,1,85,0,1
248239,-80,4,2,1,5,0,1
248318,-80,4,2,1,85,0,1
248554,-80,4,2,1,5,0,1
248633,-80,4,2,1,85,0,1
248870,-80,4,2,1,5,0,1
248949,-80,4,2,1,85,0,1
257476,-80,4,2,1,75,0,1
258107,-125,4,2,1,65,0,1
260633,-125,4,2,1,55,0,0
260949,-125,4,2,1,60,0,0
261265,-125,4,2,1,63,0,0
261581,-125,4,2,1,65,0,0
261897,-125,4,2,1,70,0,0
262212,-125,4,2,1,75,0,0
262370,-125,4,2,1,5,0,0
262528,-125,4,2,1,75,0,0
263160,-100,4,3,1,75,0,0
272002,-100,4,3,1,65,0,0
273265,-133.333333333333,4,3,1,55,0,0
275475,-133.333333333333,4,3,1,85,0,0
275633,-340.831629175187,4,2,1,75,0,0
275712,-340.831629175187,4,2,0,25,0,0
276107,-340.831629175187,4,2,0,15,0,0
282107,-340.831629175187,4,2,1,10,0,0

[Colours]
Combo1 : 177,100,255
Combo2 : 111,182,255
Combo3 : 212,212,212
Combo4 : 255,159,255

[HitObjects]
256,192,2950,12,8,4529,0:0:0:0:
188,142,4845,6,0,L|191:226,1,60,0|0,0:0|0:0,0:0:0:0:
248,260,5160,2,0,P|282:254|323:260,1,60,2|0,0:0|0:0,0:0:0:0:
383,181,5476,2,0,P|323:165|316:114,1,120,0|2,0:0|0:0,0:0:0:0:
395,68,5950,1,0,0:0:0:0:
457,125,6108,6,0,L|462:199,1,60,0|0,0:0|0:0,0:0:0:0:
361,229,6423,2,0,P|366:181|372:158,1,60,2|0,0:0|0:0,0:0:0:0:
442,235,6739,2,0,P|443:273|435:317,2,60,0|0|2,0:0|0:0|0:0,0:0:0:0:
371,181,7213,1,0,0:0:0:0:
314,284,7371,6,0,P|281:283|245:286,1,60,0|0,0:0|0:0,0:0:0:0:
170,216,7687,2,0,P|203:217|239:214,1,60,2|0,0:0|0:0,0:0:0:0:
185,138,8002,2,0,P|128:145|95:197,1,120,0|2,0:0|0:0,0:0:0:0:
151,259,8476,1,0,0:0:0:0:
231,285,8634,6,0,L|236:351,1,60,0|0,0:0|0:0,0:0:0:0:
313,303,8950,2,0,L|316:235,1,60,2|0,0:0|0:0,0:0:0:0:
261,176,9266,2,0,P|222:176|182:184,2,60,0|0|2,0:0|0:0|0:0,0:0:0:0:
327,234,9739,1,0,0:0:0:0:
385,136,9897,6,0,P|382:106|381:72,1,60,0|0,0:0|0:0,0:0:0:0:
466,161,10213,2,0,P|465:207|460:248,1,60,2|0,0:0|0:0,0:0:0:0:
375,262,10529,2,0,B|353:241|353:241|246:245,1,120,0|2,0:0|0:0,0:0:0:0:
180,211,11002,1,0,0:0:0:0:
129,283,11160,6,0,L|134:360,1,60,0|0,0:0|0:0,0:0:0:0:
53,256,11476,2,0,P|54:220|61:191,1,60,2|0,0:0|0:0,0:0:0:0:
138,136,11792,2,0,P|148:176|144:217,2,60,0|0|2,0:0|0:0|0:0,0:0:0:0:
58,92,12266,1,0,0:0:0:0:
183,46,12423,6,0,L|256:52,1,60
325,115,12739,2,0,L|257:122,1,60,2|0,0:0|0:0,0:0:0:0:
214,195,13055,1,0,0:0:0:0:
302,226,13213,1,0,0:0:0:0:
236,283,13371,2,0,P|231:329|231:368,1,60,2|0,0:0|0:0,0:0:0:0:
336,271,13687,6,0,L|332:236,1,30,2|0,0:0|0:0,0:0:0:0:
346,91,13897,2,0,L|337:142,1,30,2|0,0:0|0:0,0:0:0:0:
356,283,14108,6,0,L|352:248,1,30,2|0,0:0|0:0,0:0:0:0:
366,103,14318,2,0,L|357:154,1,30,2|0,0:0|0:0,0:0:0:0:
375,291,14529,6,0,L|371:256,1,30,2|0,0:0|0:0,0:0:0:0:
385,111,14739,2,0,L|376:162,1,30,0|0,0:0|0:0,0:0:0:0:
296,298,14950,6,0,P|248:287|194:307,1,75,12|0,0:0|0:0,0:0:0:0:
309,219,15266,2,0,P|359:228|406:209,1,75,8|0,0:0|0:0,0:0:0:0:
351,125,15581,1,8,0:0:0:0:
255,154,15739,1,0,0:0:0:0:
166,88,15897,2,0,L|158:183,1,75,8|0,0:0|0:0,0:0:0:0:
241,257,16213,6,0,P|242:211|232:177,1,75,8|0,0:0|0:0,0:0:0:0:
155,265,16529,2,0,P|164:311|195:345,1,75,8|0,0:0|0:0,0:0:0:0:
315,327,16845,1,8,0:0:0:0:
232,278,17002,1,0,0:0:0:0:
329,235,17160,2,0,L|423:238,1,75,8|0,0:0|0:0,0:0:0:0:
453,149,17476,6,0,P|410:135|365:138,1,75,8|0,0:0|0:0,0:0:0:0:
293,171,17792,2,0,L|289:95,1,75,8|0,0:0|0:0,0:0:0:0:
209,44,18108,1,8,0:0:0:0:
152,120,18266,1,0,0:0:0:0:
221,179,18423,2,0,P|226:219|224:283,1,75,8|0,0:0|0:0,0:0:0:0:
117,186,18739,6,0,P|109:142|111:95,1,75,8|0,0:0|0:0,0:0:0:0:
195,61,19055,2,0,P|231:89|263:143,1,75,8|0,0:0|0:0,0:0:0:0:
195,230,19371,1,8,0:0:0:0:
172,133,19529,1,0,0:0:0:0:
110,227,19687,2,0,L|116:317,1,75,8|0,0:0|0:0,0:0:0:0:
200,201,20002,6,0,P|203:148|190:122,1,75,8|0,0:0|0:0,0:0:0:0:
47,95,20318,2,0,L|122:90,1,75,8|0,0:0|0:0,0:0:0:0:
224,129,20634,1,8,0:0:0:0:
123,167,20792,1,0,0:0:0:0:
209,215,20950,2,0,P|219:273|220:317,1,75,8|0,0:0|0:0,0:0:0:0:
285,180,21266,6,0,P|287:131|299:91,1,75,8|0,0:0|0:0,0:0:0:0:
352,227,21581,1,8,0:0:0:0:
380,117,21739,1,0,0:0:0:0:
430,213,21897,2,0,L|434:296,1,75,8|0,0:0|0:0,0:0:0:0:
338,207,22213,2,0,L|344:131,1,75,8|0,0:0|0:0,0:0:0:0:
384,49,22529,6,0,L|429:47,2,37.5,8|0|0,0:0|0:0|0:0,0:0:0:0:
293,69,22845,2,0,L|199:69,1,75,8|0,0:0|0:0,0:0:0:0:
132,116,23160,2,0,P|91:117|52:137,2,75,8|0|8,0:0|0:0|0:0,0:0:0:0:
201,187,23634,1,0,0:0:0:0:
293,135,23792,6,0,L|304:224,1,75,8|0,0:0|0:0,0:0:0:0:
374,129,24108,2,0,L|383:52,1,75,8|0,0:0|0:0,0:0:0:0:
415,211,24423,1,8,0:0:0:0:
462,108,24581,2,0,L|477:162,1,37.5,8|8,3:0|3:0,0:0:0:0:
495,226,24739,1,8,3:0:0:0:
489,262,24818,1,8,3:0:0:0:
468,293,24897,1,8,3:0:0:0:
436,312,24975,1,8,3:0:0:0:
399,316,25055,6,0,L|266:316,1,120,4|0,0:0|0:0,0:0:0:0:
207,267,25529,1,0,0:0:0:0:
286,221,25687,2,0,P|291:174|290:140,1,60,0|0,0:0|0:0,0:0:0:0:
373,113,26002,2,0,P|373:159|378:195,1,60,0|0,0:0|0:0,0:0:0:0:
430,246,26318,5,0,0:0:0:0:
327,258,26476,2,0,L|257:258,1,60,0|0,0:0|0:0,0:0:0:0:
190,208,26792,1,0,0:0:0:0:
267,140,26950,2,0,B|321:132|322:149|381:133,2,90,0|0|0,0:0|0:0|0:0,0:0:0:0:
242,157,27502,1,0,0:0:0:0:
224,181,27581,6,0,L|226:267,1,60,2|0,0:0|0:0,0:0:0:0:
301,297,27897,2,0,L|301:225,1,60,0|0,0:0|0:0,0:0:0:0:
334,159,28213,1,0,0:0:0:0:
387,222,28371,1,0,0:0:0:0:
351,311,28529,2,0,P|307:310|271:314,1,60,0|0,0:0|0:0,0:0:0:0:
203,311,28845,6,0,P|156:315|118:314,1,60,0|0,0:0|0:0,0:0:0:0:
71,264,29160,1,0,0:0:0:0:
129,205,29318,1,0,0:0:0:0:
50,172,29476,2,0,P|47:138|50:94,1,60,0|0,0:0|0:0,0:0:0:0:
137,177,29792,2,0,P|128:218|103:251,1,60,0|0,0:0|0:0,0:0:0:0:
198,116,30108,6,0,L|281:119,2,60,2|0|0,0:0|0:0|0:0,0:0:0:0:
119,153,30581,1,0,0:0:0:0:
169,225,30739,2,0,P|169:268|165:308,1,60,0|0,0:0|0:0,0:0:0:0:
246,206,31055,2,0,L|247:141,1,60,0|0,0:0|0:0,0:0:0:0:
309,89,31371,6,0,P|352:84|384:88,2,60,0|0|0,0:0|0:0|0:0,0:0:0:0:
256,154,31845,1,0,0:0:0:0:
331,201,32002,2,0,P|376:206|418:205,1,60,0|0,0:0|0:0,0:0:0:0:
463,163,32318,1,0,0:0:0:0:
485,250,32476,1,0,0:0:0:0:
371,326,32634,6,0,P|322:319|289:321,1,60,2|0,0:0|0:0,0:0:0:0:
255,252,32950,2,0,P|304:243|329:234,1,60,0|0,0:0|0:0,0:0:0:0:
272,166,33266,1,0,0:0:0:0:
195,205,33423,1,0,0:0:0:0:
231,284,33581,2,0,L|227:362,1,60,0|0,0:0|0:0,0:0:0:0:
142,263,33897,6,0,L|136:197,1,60,0|0,0:0|0:0,0:0:0:0:
133,173,34134,1,0,0:0:0:0:
130,143,34213,2,0,P|131:103|150:64,1,60,0|0,0:0|0:0,0:0:0:0:
219,148,34529,2,0,P|227:188|217:227,1,60,0|0,0:0|0:0,0:0:0:0:
300,124,34845,1,0,0:0:0:0:
337,201,35002,1,0,0:0:0:0:
227,266,35160,6,0,P|183:266|120:318,1,120,6|0,0:0|0:0,0:0:0:0:
200,350,35634,1,0,0:0:0:0:
287,339,35792,2,0,P|297:308|297:278,1,60,0|0,0:0|0:0,0:0:0:0:
359,212,36108,2,0,P|371:258|387:286,1,60,0|0,0:0|0:0,0:0:0:0:
438,192,36423,6,0,L|439:127,1,60,0|0,0:0|0:0,0:0:0:0:
371,77,36739,1,0,0:0:0:0:
321,143,36897,1,0,0:0:0:0:
391,207,37055,2,0,P|394:257|389:298,2,90,0|0|0,0:0|0:0|0:0,0:0:0:0:
381,178,37608,1,0,0:0:0:0:
364,153,37687,6,0,L|278:158,1,60,2|0,0:0|0:0,0:0:0:0:
235,232,38002,2,0,L|305:239,1,60,0|0,0:0|0:0,0:0:0:0:
372,196,38318,1,0,0:0:0:0:
391,285,38476,1,0,0:0:0:0:
463,230,38634,2,0,P|468:188|466:158,1,60,0|0,0:0|0:0,0:0:0:0:
406,107,38950,6,0,P|366:116|331:118,1,60,0|0,0:0|0:0,0:0:0:0:
316,114,39187,1,0,0:0:0:0:
286,108,39266,2,0,P|249:110|208:123,1,60,0|0,0:0|0:0,0:0:0:0:
168,179,39581,1,0,0:0:0:0:
250,200,39739,1,0,0:0:0:0:
188,255,39897,2,0,L|186:314,1,60,0|0,0:0|0:0,0:0:0:0:
315,229,40213,6,0,P|317:189|307:163,2,60,2|0|0,0:0|0:0|0:0,0:0:0:0:
251,288,40687,1,0,0:0:0:0:
291,356,40845,2,0,L|364:354,1,60,0|0,0:0|0:0,0:0:0:0:
424,290,41160,2,0,L|360:283,1,60,0|0,0:0|0:0,0:0:0:0:
301,219,41476,6,0,P|333:199|375:193,1,60,0|0,0:0|0:0,0:0:0:0:
266,147,41792,2,0,P|217:157|182:151,1,60,0|0,0:0|0:0,0:0:0:0:
122,133,42108,2,0,P|116:198|124:260,1,120,0|0,0:0|0:0,0:0:0:0:
207,260,42581,1,0,0:0:0:0:
257,190,42739,6,0,L|254:121,1,60,2|0,0:0|0:0,0:0:0:0:
337,193,43055,2,0,L|326:276,1,60,0|0,0:0|0:0,0:0:0:0:
243,283,43371,1,0,0:0:0:0:
202,209,43529,1,0,0:0:0:0:
118,247,43687,2,0,P|110:200|112:165,1,60,0|0,0:0|0:0,0:0:0:0:
201,138,44002,6,0,P|199:186|188:218,1,60,0|0,0:0|0:0,0:0:0:0:
234,274,44318,1,0,0:0:0:0:
298,214,44476,1,0,0:0:0:0:
242,144,44634,2,0,P|240:101|243:61,1,60,0|0,0:0|0:0,0:0:0:0:
324,134,44950,2,0,L|326:215,1,60,0|0,0:0|0:0,0:0:0:0:
215,241,45266,6,0,L|139:250,1,60,2|0,0:0|0:0,0:0:0:0:
92,315,45581,1,0,0:0:0:0:
182,346,45739,2,0,P|219:344|260:347,2,60,0|0|0,0:0|0:0|0:0,0:0:0:0:
112,301,46213,2,0,P|107:256|108:231,1,60,0|0,0:0|0:0,0:0:0:0:
186,183,46529,6,0,L|191:251,1,60,2|0,0:0|0:0,0:0:0:0:
248,302,46845,1,0,0:0:0:0:
306,235,47002,1,0,0:0:0:0:
232,183,47160,2,0,P|231:144|233:105,1,60,0|0,0:0|0:0,0:0:0:0:
311,99,47476,2,0,P|314:141|311:177,1,60
302,276,47792,6,0,P|355:266|387:273,1,60,2|0,0:0|0:0,0:0:0:0:
422,353,48108,2,0,P|389:352|359:338,1,60,0|0,0:0|0:0,0:0:0:0:
307,278,48423,1,0,0:0:0:0:
246,345,48581,1,0,0:0:0:0:
197,268,48739,6,0,L|193:187,1,60,0|8,0:0|0:0,0:0:0:0:
256,146,49055,1,0,0:0:0:0:
300,228,49213,2,0,L|300:270,1,30,0|0,0:0|0:0,0:0:0:0:
336,141,49371,2,0,L|339:108,1,30,0|0,0:0|0:0,0:0:0:0:
283,238,49529,2,0,L|283:280,1,30,0|0,0:0|0:0,0:0:0:0:
319,151,49687,2,0,L|322:118,1,30,0|0,0:0|0:0,0:0:0:0:
269,248,49845,2,0,L|269:290,1,30,0|0,0:0|0:0,0:0:0:0:
396,166,50002,1,8,0:0:0:0:
396,166,50318,6,0,P|405:226|389:265,1,75,8|0,0:0|0:0,0:0:0:0:
216,261,50634,1,8,0:0:0:0:
286,126,50792,1,0,0:0:0:0:
314,287,50950,1,8,0:0:0:0:
198,171,51108,1,0,0:0:0:0:
361,206,51266,6,0,L|444:202,1,75,8|0,0:0|0:0,0:0:0:0:
278,209,51581,1,8,0:0:0:0:
343,93,51739,1,0,0:0:0:0:
398,245,51897,1,8,0:0:0:0:
273,138,52055,1,0,0:0:0:0:
235,264,52213,2,0,P|233:312|236:354,1,75,8|0,0:0|0:0,0:0:0:0:
178,192,52529,2,0,P|181:142|177:101,1,75,8|0,0:0|0:0,0:0:0:0:
298,169,52845,6,0,L|386:162,1,75,8|0,0:0|0:0,0:0:0:0:
322,34,53160,1,8,0:0:0:0:
219,125,53318,1,0,0:0:0:0:
383,119,53476,1,8,0:0:0:0:
224,46,53634,1,0,0:0:0:0:
198,185,53792,2,0,L|199:279,1,75,8|0,0:0|0:0,0:0:0:0:
196,88,54108,5,8,0:0:0:0:
113,225,54266,1,0,0:0:0:0:
274,154,54423,1,8,0:0:0:0:
111,132,54581,1,0,0:0:0:0:
237,245,54739,1,8,0:0:0:0:
106,317,54897,1,0,0:0:0:0:
184,153,55055,2,0,P|185:99|181:61,1,75,8|0,0:0|0:0,0:0:0:0:
257,239,55371,5,8,0:0:0:0:
285,111,55529,1,0,0:0:0:0:
369,232,55687,1,8,0:0:0:0:
211,171,55845,1,0,0:0:0:0:
182,301,56002,2,0,P|245:298|286:302,1,75,8|0,0:0|0:0,0:0:0:0:
399,351,56318,1,8,0:0:0:0:
311,228,56476,1,0,0:0:0:0:
291,355,56634,6,0,L|304:266,1,75,8|0,0:0|0:0,0:0:0:0:
330,156,56950,1,8,0:0:0:0:
386,291,57108,1,0,0:0:0:0:
255,219,57266,1,8,0:0:0:0:
403,209,57423,1,0,0:0:0:0:
234,288,57581,2,0,P|221:243|220:198,1,75,8|0,0:0|0:0,0:0:0:0:
295,106,57897,6,0,L|291:194,1,75,8|0,0:0|0:0,0:0:0:0:
286,310,58213,1,8,0:0:0:0:
213,188,58371,1,0,0:0:0:0:
374,212,58529,1,8,0:0:0:0:
219,268,58687,1,0,0:0:0:0:
182,121,58845,2,0,L|184:47,1,75,8|0,0:0|0:0,0:0:0:0:
320,44,59160,5,8,0:0:0:0:
271,151,59318,2,0,P|268:200|270:244,1,75,0|8,0:0|0:0,0:0:0:0:
385,255,59634,2,0,L|342:262,1,37.5,0|0,0:0|0:0,0:0:0:0:
166,272,59792,2,0,L|213:276,1,37.5,8|0,0:0|0:0,0:0:0:0:
395,282,59950,2,0,L|352:289,1,37.5,8|0,0:0|0:0,0:0:0:0:
176,299,60108,2,0,L|223:303,1,37.5,8|0,0:0|0:0,0:0:0:0:
404,306,60266,2,0,L|361:313,1,37.5,8|0,0:0|0:0,0:0:0:0:
170,335,60423,6,0,P|167:264|172:200,1,112.500004291535,6|0,0:0|0:0,0:0:0:0:
253,172,60897,2,0,L|258:250,1,56.2500021457673,0|8,0:0|0:0,0:0:0:0:
319,286,61213,1,0,0:0:0:0:
381,203,61371,6,0,P|384:160|317:119,1,112.500004291535,0|0,0:0|0:0,0:0:0:0:
282,192,61845,1,2,0:0:0:0:
204,131,62002,2,0,L|133:137,1,56.2500021457673,8|0,0:0|0:0,0:0:0:0:
248,199,62318,2,0,P|286:194|369:218,1,112.500004291535,8|0,0:0|0:0,0:0:0:0:
385,293,62792,1,0,0:0:0:0:
286,294,62950,6,0,L|221:296,1,56.2500021457673,10|0,0:0|0:0,0:0:0:0:
151,251,63266,1,0,0:0:0:0:
207,177,63423,2,0,P|206:134|197:103,1,56.2500021457673,2|8,0:0|0:0,0:0:0:0:
258,57,63739,1,0,0:0:0:0:
312,137,63897,2,0,L|312:216,1,56.2500021457673,2|0,0:0|0:0,0:0:0:0:
411,249,64213,6,0,P|411:208|402:181,1,56.2500021457673,2|8,0:0|0:0,0:0:0:0:
327,167,64529,1,0,0:0:0:0:
273,233,64687,1,2,0:0:0:0:
245,226,64766,1,0,0:0:0:0:
217,220,64845,2,0,P|163:216|138:217,1,56.2500021457673,8|0,0:0|0:0,0:0:0:0:
105,157,65160,1,0,0:0:0:0:
174,103,65318,1,0,0:0:0:0:
235,173,65476,6,0,P|238:238|236:301,1,112.500004291535,2|0,0:0|0:0,0:0:0:0:
321,212,65950,2,0,P|355:207|396:208,1,56.2500021457673,0|8,0:0|0:0,0:0:0:0:
450,270,66266,1,0,0:0:0:0:
362,318,66423,6,0,P|321:325|256:277,1,112.500004291535,0|0,0:0|0:0,0:0:0:0:
256,197,66897,1,2,0:0:0:0:
205,132,67055,2,0,L|127:137,1,56.2500021457673,8|0,0:0|0:0,0:0:0:0:
256,197,67371,2,0,L|337:199,1,56.2500021457673,8|0,0:0|0:0,0:0:0:0:
389,259,67687,1,8,0:0:0:0:
309,304,67845,1,8,0:0:0:0:
406,134,68002,6,0,L|402:53,1,60,10|0,0:0|0:0,0:0:0:0:
322,158,68318,2,0,L|314:235,1,60,8|0,0:0|0:0,0:0:0:0:
408,290,68634,1,0,0:0:0:0:
266,272,68792,2,0,P|212:273|180:277,1,60,0|0,0:0|0:0,0:0:0:0:
90,327,69108,1,2,0:0:0:0:
107,200,69266,6,0,L|108:122,1,60,10|0,0:0|0:0,0:0:0:0:
196,220,69581,2,0,L|188:283,1,60,8|0,0:0|0:0,0:0:0:0:
293,346,69897,1,0,0:0:0:0:
281,209,70055,1,0,0:0:0:0:
395,322,70213,2,0,P|399:279|396:248,1,60,8|2,0:0|0:0,0:0:0:0:
332,102,70529,6,0,L|333:186,1,60,8|8,0:0|0:0,0:0:0:0:
188,309,70845,2,0,L|189:234,1,60,8|8,0:0|0:0,0:0:0:0:
396,161,71160,1,8,0:0:0:0:
236,129,71318,1,8,0:0:0:0:
322,245,71476,2,0,P|323:292|319:328,1,60,8|8,0:0|0:0,0:0:0:0:
187,197,71792,5,8,0:0:0:0:
354,157,71950,1,8,3:0:0:0:
367,130,72028,1,8,3:0:0:0:
369,100,72107,1,8,3:0:0:0:
359,73,72186,1,8,3:0:0:0:
338,51,72265,1,8,3:0:0:0:
310,41,72344,1,8,3:0:0:0:
281,42,72423,1,8,3:0:0:0:
132,218,73055,6,0,L|137:322,1,75,4|0,0:0|0:0,0:0:0:0:
286,175,73371,2,0,L|294:87,1,75,8|0,0:0|0:0,0:0:0:0:
430,223,73687,2,0,L|435:327,1,75,0|0,0:0|0:0,0:0:0:0:
323,126,74002,1,8,0:0:0:0:
269,289,74160,5,0,0:0:0:0:
420,189,74318,1,0,0:0:0:0:
216,182,74476,2,0,L|124:188,1,75,0|8,0:0|0:0,0:0:0:0:
304,250,74792,2,0,P|312:298|304:348,1,75,0|0,0:0|0:0,0:0:0:0:
253,135,75108,1,0,0:0:0:0:
188,295,75266,1,8,0:0:0:0:
351,224,75423,1,0,0:0:0:0:
154,177,75581,5,0,0:0:0:0:
352,119,75739,2,0,P|405:115|443:116,1,75,0|8,0:0|0:0,0:0:0:0:
265,196,76055,1,0,0:0:0:0:
454,228,76213,1,0,0:0:0:0:
287,306,76371,1,0,0:0:0:0:
365,139,76529,1,8,0:0:0:0:
393,332,76687,6,0,L|396:248,1,75,0|0,0:0|0:0,0:0:0:0:
344,122,77002,1,0,0:0:0:0:
305,291,77160,1,8,0:0:0:0:
414,204,77318,1,0,0:0:0:0:
456,343,77476,1,0,0:0:0:0:
325,195,77634,1,0,0:0:0:0:
251,340,77792,1,8,0:0:0:0:
202,188,77950,6,0,L|200:91,1,75,0|0,0:0|0:0,0:0:0:0:
120,245,78266,1,0,0:0:0:0:
293,205,78423,1,8,0:0:0:0:
112,149,78581,1,0,0:0:0:0:
247,285,78739,2,0,P|248:327|232:365,1,75,0|0,0:0|0:0,0:0:0:0:
184,206,79055,1,8,0:0:0:0:
330,156,79213,6,0,L|432:162,1,75,0|0,0:0|0:0,0:0:0:0:
466,277,79529,1,0,0:0:0:0:
456,101,79687,1,8,0:0:0:0:
349,238,79845,1,0,0:0:0:0:
500,168,80002,1,0,0:0:0:0:
386,65,80160,1,0,0:0:0:0:
410,222,80318,2,0,L|412:306,1,75,8|0,0:0|0:0,0:0:0:0:
308,132,80634,6,0,P|263:127|221:138,1,75,0|0,0:0|0:0,0:0:0:0:
220,297,80950,1,8,0:0:0:0:
360,202,81108,2,0,L|363:122,1,75,0|0,0:0|0:0,0:0:0:0:
436,235,81423,2,0,L|436:325,1,75,0|8,0:0|0:0,0:0:0:0:
289,242,81739,5,0,0:0:0:0:
143,318,81897,2,0,P|138:276|139:230,1,75,0|0,0:0|0:0,0:0:0:0:
273,148,82213,1,8,0:0:0:0:
100,161,82371,2,0,L|16:161,1,75,0|0,0:0|0:0,0:0:0:0:
233,223,82687,1,0,0:0:0:0:
147,93,82845,1,8,0:0:0:0:
84,254,83002,1,0,0:0:0:0:
250,126,83160,6,0,L|348:116,1,75,4|0,0:0|0:0,0:0:0:0:
250,343,83476,2,0,L|147:337,1,75,8|0,0:0|0:0,0:0:0:0:
351,237,83792,2,0,L|456:233,1,75,0|0,0:0|0:0,0:0:0:0:
247,187,84108,1,8,0:0:0:0:
362,306,84266,6,0,P|366:353|364:392,1,75,0|0,0:0|0:0,0:0:0:0:
318,182,84581,2,0,P|318:127|328:81,1,75,0|8,0:0|0:0,0:0:0:0:
225,240,84897,2,0,L|130:252,1,75,0|0,0:0|0:0,0:0:0:0:
348,228,85213,1,0,0:0:0:0:
216,142,85371,1,8,0:0:0:0:
255,313,85529,1,0,0:0:0:0:
312,135,85687,6,0,L|315:53,1,75,0|0,0:0|0:0,0:0:0:0:
421,183,86002,1,8,0:0:0:0:
230,103,86160,2,0,P|179:100|127:110,1,75,0|0,0:0|0:0,0:0:0:0:
272,226,86476,2,0,P|321:231|362:225,1,75,0|8,0:0|0:0,0:0:0:0:
181,174,86792,6,0,L|79:182,1,75,0|0,0:0|0:0,0:0:0:0:
301,161,87108,1,0,0:0:0:0:
163,273,87266,1,8,0:0:0:0:
207,92,87423,2,0,P|255:88|306:87,1,75,0|0,0:0|0:0,0:0:0:0:
349,215,87739,1,0,0:0:0:0:
404,73,87897,1,8,0:0:0:0:
456,185,88055,6,0,L|461:266,1,75,0|0,0:0|0:0,0:0:0:0:
285,281,88371,1,0,0:0:0:0:
407,175,88529,1,8,0:0:0:0:
257,199,88687,1,0,0:0:0:0:
411,294,88845,1,0,0:0:0:0:
330,144,89002,1,0,0:0:0:0:
267,303,89160,1,8,0:0:0:0:
187,157,89318,6,0,P|181:113|182:76,1,75,0|0,0:0|0:0,0:0:0:0:
315,235,89634,1,0,0:0:0:0:
261,62,89792,1,8,0:0:0:0:
192,224,89950,1,0,0:0:0:0:
336,133,90108,1,0,0:0:0:0:
174,133,90266,1,0,0:0:0:0:
251,289,90423,1,8,0:0:0:0:
251,128,90581,6,0,L|246:37,1,75,0|0,0:0|0:0,0:0:0:0:
319,190,90897,1,0,0:0:0:0:
423,51,91055,2,0,P|427:94|423:145,1,75,8|0,0:0|0:0,0:0:0:0:
396,298,91371,2,0,P|384:248|384:218,1,75,0|0,0:0|0:0,0:0:0:0:
311,97,91687,1,8,0:0:0:0:
246,239,91845,6,0,L|234:325,1,75,0|0,0:0|0:0,0:0:0:0:
338,217,92160,1,0,0:0:0:0:
181,177,92318,2,0,P|125:176|91:178,1,75,8|0,0:0|0:0,0:0:0:0:
284,113,92634,1,0,0:0:0:0:
356,227,92792,2,0,L|355:277,1,37.5,8|8,3:0|3:0,0:0:0:0:
268,155,92950,2,0,L|218:156,1,37.5,8|8,3:0|3:0,0:0:0:0:
331,248,93108,2,0,L|330:298,1,37.5,8|8,3:0|3:0,0:0:0:0:
222,186,93266,6,0,P|178:173|108:193,1,120,12|0,0:0|0:0,0:0:0:0:
77,273,93739,1,0,0:0:0:0:
164,302,93897,2,0,L|249:302,1,60,8|0,0:0|0:0,0:0:0:0:
291,235,94213,1,0,0:0:0:0:
384,161,94371,6,0,P|390:215|387:293,1,120,8|0,0:0|0:0,0:0:0:0:
301,323,94845,1,0,0:0:0:0:
256,241,95002,2,0,L|256:167,1,60,0|8,0:0|0:0,0:0:0:0:
187,124,95318,1,0,0:0:0:0:
119,182,95476,1,0,0:0:0:0:
184,243,95634,1,0,0:0:0:0:
117,300,95792,5,4,0:0:0:0:
256,192,95871,12,0,96739,0:0:0:0:
300,245,96897,5,8,3:0:0:0:
324,258,96976,1,8,3:0:0:0:
350,268,97055,2,0,L|424:270,1,56.2500021457673,8|0,0:0|0:0,0:0:0:0:
221,160,97529,1,0,3:0:0:0:
197,173,97608,1,0,3:0:0:0:
171,183,97687,2,0,P|137:183|97:185,1,56.2500021457673,0|0,3:0|3:0,0:0:0:0:
228,244,98002,2,0,L|229:320,1,56.2500021457673,0|0,3:0|0:0,0:0:0:0:
332,123,98318,6,0,L|370:122,2,30,0|0|0,0:0|0:0|0:0,0:0:0:0:
264,180,98634,2,0,P|261:218|263:252,1,60,2|0,0:0|0:0,0:0:0:0:
336,156,98950,2,0,P|307:114|243:107,1,120,0|2,0:0|0:0,0:0:0:0:
182,178,99423,1,0,0:0:0:0:
251,238,99581,6,0,L|253:307,1,60,0|0,0:0|0:0,0:0:0:0:
322,199,99897,2,0,L|330:129,1,60,2|0,0:0|0:0,0:0:0:0:
398,96,100213,1,0,0:0:0:0:
428,172,100371,1,0,0:0:0:0:
383,243,100529,2,0,P|377:293|378:323,1,60,2|0,0:0|0:0,0:0:0:0:
380,332,100766,1,0,0:0:0:0:
389,360,100845,6,0,L|472:362,1,60,0|0,0:0|0:0,0:0:0:0:
489,273,101160,2,0,L|426:278,1,60,2|0,0:0|0:0,0:0:0:0:
332,246,101476,2,0,P|327:185|332:110,1,120,0|2,0:0|0:0,0:0:0:0:
400,73,101950,1,0,0:0:0:0:
297,38,102108,5,0,0:0:0:0:
236,113,102266,2,0,L|183:114,2,30,0|0|2,0:0|0:0|0:0,0:0:0:0:
318,157,102581,2,0,L|369:161,2,30,0|0|0,0:0|0:0|0:0,0:0:0:0:
227,201,102897,1,0,0:0:0:0:
199,211,102976,1,0,0:0:0:0:
170,221,103055,2,0,L|99:222,1,60,2|0,0:0|0:0,0:0:0:0:
67,139,103371,6,0,P|108:130|146:132,1,60,0|0,0:0|0:0,0:0:0:0:
193,219,103687,2,0,P|157:213|128:200,1,60,2|0,0:0|0:0,0:0:0:0:
221,149,104002,2,0,P|256:178|260:253,1,120,0|2,0:0|0:0,0:0:0:0:
183,295,104476,1,0,0:0:0:0:
271,334,104634,6,0,L|334:330,1,60,0|0,0:0|0:0,0:0:0:0:
394,258,104950,2,0,L|313:251,1,60,2|0,0:0|0:0,0:0:0:0:
279,191,105266,1,0,0:0:0:0:
346,136,105423,1,0,0:0:0:0:
416,207,105581,2,0,P|420:259|420:276,1,60,2|0,0:0|0:0,0:0:0:0:
335,309,105897,6,0,L|295:310,2,30,0|0|0,0:0|0:0|0:0,0:0:0:0:
355,217,106213,1,10,0:0:0:0:
327,206,106291,1,8,0:0:0:0:
297,206,106370,1,8,0:0:0:0:
269,216,106449,1,0,0:0:0:0:
246,235,106528,1,0,0:0:0:0:
231,261,106607,1,0,0:0:0:0:
225,290,106687,2,0,L|229:340,1,30,0|0,0:0|0:0,0:0:0:0:
167,201,106845,2,0,L|166:147,1,30,2|0,0:0|0:0,0:0:0:0:
144,312,107002,1,0,0:0:0:0:
287,151,107160,5,8,0:0:0:0:
287,151,107239,1,8,0:0:0:0:
287,151,107318,2,0,L|286:188,1,30,8|0,0:0|0:0,0:0:0:0:
286,293,107476,2,0,L|285:250,1,30,2|0,0:0|0:0,0:0:0:0:
312,170,107634,2,0,L|311:207,1,30,8|8,0:0|0:0,0:0:0:0:
311,312,107792,2,0,L|310:269,1,30,8|0,0:0|0:0,0:0:0:0:
342,188,107950,2,0,L|341:225,1,30,0|0,0:0|0:0,0:0:0:0:
341,330,108108,1,2,0:0:0:0:
364,311,108186,1,0,0:0:0:0:
393,304,108265,1,0,0:0:0:0:
422,308,108344,1,0,0:0:0:0:
448,323,108423,6,0,P|455:253|452:191,1,120,6|0,0:0|0:0,0:0:0:0:
391,145,108897,1,0,0:0:0:0:
321,191,109055,2,0,L|316:266,1,60,0|0,0:0|0:0,0:0:0:0:
239,172,109371,2,0,L|233:106,1,60,0|0,0:0|0:0,0:0:0:0:
229,82,109608,1,0,0:0:0:0:
226,52,109687,6,0,P|281:39|301:39,1,60,0|0,0:0|0:0,0:0:0:0:
355,113,110002,2,0,P|308:115|282:110,1,60,0|0,0:0|0:0,0:0:0:0:
224,168,110318,2,0,P|221:217|221:262,2,90,0|0|0,0:0|0:0|0:0,0:0:0:0:
229,138,110871,1,0,0:0:0:0:
236,108,110950,6,0,L|299:106,1,60,0|0,0:0|0:0,0:0:0:0:
374,183,111266,2,0,L|306:181,1,60,0|0,0:0|0:0,0:0:0:0:
234,222,111581,2,0,P|226:267|226:300,1,60,0|0,0:0|0:0,0:0:0:0:
143,305,111897,1,0,0:0:0:0:
95,237,112055,1,2,0:0:0:0:
156,180,112213,6,0,L|153:112,1,60,0|0,0:0|0:0,0:0:0:0:
222,68,112529,1,0,0:0:0:0:
266,142,112687,1,0,0:0:0:0:
229,217,112845,2,0,P|230:264|236:303,1,60,0|0,0:0|0:0,0:0:0:0:
308,216,113160,2,0,P|311:174|307:132,1,60,0|0,0:0|0:0,0:0:0:0:
241,107,113476,6,0,L|181:109,1,60,2|0,0:0|0:0,0:0:0:0:
113,168,113792,2,0,P|76:172|35:182,2,60,0|0|0,0:0|0:0|0:0,0:0:0:0:
184,214,114266,1,0,0:0:0:0:
115,275,114423,2,0,L|115:347,1,60,0|0,0:0|0:0,0:0:0:0:
196,294,114739,6,0,L|204:214,1,60,0|0,0:0|0:0,0:0:0:0:
160,165,115055,1,0,0:0:0:0:
227,109,115213,1,0,0:0:0:0:
273,183,115371,2,0,P|317:176|340:177,1,60,0|0,0:0|0:0,0:0:0:0:
403,225,115687,1,0,0:0:0:0:
326,276,115845,6,0,P|290:274|221:204,1,120,0|0,0:0|0:0,0:0:0:0:
283,149,116318,2,0,L|278:78,1,60,0|0,0:0|0:0,0:0:0:0:
357,130,116634,2,0,L|356:199,1,60,0|0,0:0|0:0,0:0:0:0:
357,220,116871,1,0,0:0:0:0:
356,250,116950,1,0,0:0:0:0:
294,309,117108,1,2,0:0:0:0:
238,245,117266,6,0,P|197:242|158:247,1,60,0|0,0:0|0:0,0:0:0:0:
266,175,117581,2,0,P|300:180|340:176,1,60,0|0,0:0|0:0,0:0:0:0:
397,133,117897,1,0,0:0:0:0:
431,208,118055,1,0,0:0:0:0:
348,247,118213,2,0,L|351:329,1,60,0|0,0:0|0:0,0:0:0:0:
253,217,118529,6,0,P|211:213|153:280,1,120,2|0,0:0|0:0,0:0:0:0:
210,330,119002,1,0,0:0:0:0:
288,291,119160,2,0,P|340:288|373:291,1,60,0|0,0:0|0:0,0:0:0:0:
425,222,119476,2,0,P|389:221|356:210,1,60,0|0,0:0|0:0,0:0:0:0:
337,203,119713,1,0,0:0:0:0:
310,188,119792,5,0,0:0:0:0:
242,250,119950,1,0,0:0:0:0:
176,198,120108,2,0,L|170:117,1,60,0|0,0:0|0:0,0:0:0:0:
249,197,120423,2,0,P|250:250|247:308,2,90,0|0|0,0:0|0:0|0:0,0:0:0:0:
246,166,120976,1,0,0:0:0:0:
240,136,121055,6,0,L|158:138,1,60,0|0,0:0|0:0,0:0:0:0:
116,216,121371,2,0,L|190:221,1,60,0|0,0:0|0:0,0:0:0:0:
246,268,121687,1,0,0:0:0:0:
179,319,121845,1,0,0:0:0:0:
153,334,121923,1,0,0:0:0:0:
127,349,122002,2,0,P|81:356|57:355,1,60,0|2,0:0|0:0,0:0:0:0:
50,273,122318,6,0,L|51:204,1,60,0|0,0:0|0:0,0:0:0:0:
105,150,122634,1,2,0:0:0:0:
134,148,122713,1,0,0:0:0:0:
164,146,122792,1,0,0:0:0:0:
248,177,122950,2,0,P|246:229|242:260,1,60,0|2,0:0|0:0,0:0:0:0:
322,157,123266,2,0,P|322:119|328:77,1,60,0|0,0:0|0:0,0:0:0:0:
409,171,123581,6,0,L|417:248,2,60,2|0|0,0:0|0:0|0:0,0:0:0:0:
345,114,124055,1,0,0:0:0:0:
281,181,124213,2,0,P|275:226|278:265,1,60,0|0,0:0|0:0,0:0:0:0:
360,198,124529,2,0,P|359:164|350:132,1,60,0|0,0:0|0:0,0:0:0:0:
263,103,124845,6,0,L|195:105,2,60,0|0|0,0:0|0:0|0:0,0:0:0:0:
338,145,125318,1,0,0:0:0:0:
266,201,125476,2,0,P|265:235|273:275,1,60,0|0,0:0|0:0,0:0:0:0:
355,278,125792,1,0,0:0:0:0:
415,220,125950,6,0,P|391:168|316:167,1,120,0|0,0:0|0:0,0:0:0:0:
271,215,126423,2,0,L|276:283,1,60,0|0,0:0|0:0,0:0:0:0:
211,332,126739,1,0,0:0:0:0:
145,270,126897,1,0,0:0:0:0:
147,240,126976,1,0,0:0:0:0:
149,210,127055,2,0,P|154:159|161:133,1,60,0|2,0:0|0:0,0:0:0:0:
241,185,127371,6,0,L|247:256,1,60,0|0,0:0|0:0,0:0:0:0:
323,280,127687,1,0,0:0:0:0:
360,204,127845,1,0,0:0:0:0:
303,143,128002,2,0,P|304:108|309:75,1,60,0|0,0:0|0:0,0:0:0:0:
389,172,128318,2,0,P|390:207|387:255,1,60,0|0,0:0|0:0,0:0:0:0:
302,268,128634,6,0,L|231:266,2,60,2|0|0,0:0|0:0|0:0,0:0:0:0:
373,313,129108,1,0,0:0:0:0:
292,353,129266,2,0,P|254:347|219:347,1,60,0|0,0:0|0:0,0:0:0:0:
181,275,129581,2,0,P|224:273|260:267,1,60,0|0,0:0|0:0,0:0:0:0:
290,201,129897,6,0,P|252:190|211:191,2,60,0|0|0,0:0|0:0|0:0,0:0:0:0:
332,273,130371,1,0,0:0:0:0:
378,195,130529,2,0,P|379:137|375:88,2,90,0|0|0,0:0|0:0|0:0,0:0:0:0:
374,224,131081,1,0,0:0:0:0:
369,253,131160,5,0,0:0:0:0:
293,308,131318,1,8,0:0:0:0:
263,311,131397,1,8,0:0:0:0:
233,313,131476,1,8,0:0:0:0:
169,258,131634,2,0,P|167:216|171:177,1,60,0|0,0:0|0:0,0:0:0:0:
236,140,131950,1,0,0:0:0:0:
277,223,132108,2,0,L|279:304,1,60,8|0,0:0|0:0,0:0:0:0:
348,334,132423,5,0,0:0:0:0:
407,273,132581,2,0,L|404:217,1,30,8|8,0:0|0:3,0:0:0:0:
303,152,132739,2,0,L|355:151,1,30,8|8,0:3|0:3,0:0:0:0:
390,299,132897,2,0,L|387:243,1,30,8|8,0:3|0:3,0:0:0:0:
286,178,133055,2,0,L|338:177,1,30,8|8,0:3|0:3,0:0:0:0:
375,328,133213,2,0,L|372:272,1,30,8|8,0:3|0:3,0:0:0:0:
271,207,133371,1,8,0:0:0:0:
271,207,133687,6,0,P|270:259|276:312,1,75,12|0,0:0|0:0,0:0:0:0:
387,341,134002,1,8,0:0:0:0:
224,346,134160,1,0,0:0:0:0:
343,256,134318,1,8,0:0:0:0:
199,238,134476,1,0,0:0:0:0:
307,343,134634,6,0,P|306:292|303:254,1,75,8|0,0:0|0:0,0:0:0:0:
267,146,134950,1,8,0:0:0:0:
219,287,135108,1,0,0:0:0:0:
350,204,135266,1,8,0:0:0:0:
193,170,135423,1,0,0:0:0:0:
324,94,135581,2,0,L|420:99,1,75,8|0,0:0|0:0,0:0:0:0:
239,162,135897,2,0,P|198:157|149:164,1,75,8|0,0:0|0:0,0:0:0:0:
392,242,136213,6,0,P|396:196|390:160,1,75,8|0,0:0|0:0,0:0:0:0:
312,68,136529,1,8,0:0:0:0:
293,212,136687,1,0,0:0:0:0:
394,100,136845,1,8,0:0:0:0:
246,125,137002,1,0,0:0:0:0:
399,193,137160,1,8,0:0:0:0:
268,280,137318,6,0,L|161:279,1,75,0|8,0:0|0:0,0:0:0:0:
56,227,137634,1,0,0:0:0:0:
178,148,137792,1,8,0:0:0:0:
114,292,137950,1,0,0:0:0:0:
84,146,138108,1,8,0:0:0:0:
22,288,138266,1,0,0:0:0:0:
167,210,138423,2,0,L|274:218,1,75,8|0,0:0|0:0,0:0:0:0:
375,290,138739,6,0,P|323:287|286:298,1,75,8|0,0:0|0:0,0:0:0:0:
174,360,139055,1,8,0:0:0:0:
185,210,139213,1,0,0:0:0:0:
286,344,139371,1,8,0:0:0:0:
119,296,139529,1,0,0:0:0:0:
279,237,139687,6,0,L|279:151,1,75,8|0,0:0|0:0,0:0:0:0:
241,22,140002,1,8,0:0:0:0:
172,154,140160,1,0,0:0:0:0:
317,87,140318,1,8,0:0:0:0:
155,61,140476,1,0,0:0:0:0:
248,177,140634,2,0,P|248:228|239:278,1,75,8|0,0:0|0:0,0:0:0:0:
323,101,140950,2,0,P|322:46|326:-5,1,75,8|0,0:0|0:0,0:0:0:0:
415,219,141266,6,0,P|371:203|320:216,1,75,8|0,0:0|0:0,0:0:0:0:
236,332,141581,1,8,0:0:0:0:
374,273,141739,1,0,0:0:0:0:
235,221,141897,1,8,0:0:0:0:
317,356,142055,1,0,0:0:0:0:
160,283,142213,2,0,L|159:201,1,75,8|0,0:0|0:0,0:0:0:0:
217,99,142529,5,8,3:3:0:0:
253,98,142608,1,8,3:3:0:0:
284,118,142687,1,8,3:3:0:0:
298,152,142766,1,8,3:3:0:0:
290,188,142845,2,0,L|235:192,1,37.5,8|8,3:3|3:3,0:0:0:0:
166,84,143002,2,0,L|168:132,1,37.5,8|8,3:3|3:3,0:0:0:0:
265,210,143160,2,0,L|209:213,1,37.5,8|8,3:3|3:3,0:0:0:0:
141,106,143318,2,0,L|143:154,1,37.5,8|8,3:3|3:3,0:0:0:0:
240,233,143476,2,0,L|184:236,1,37.5,8|8,3:3|3:3,0:0:0:0:
116,129,143634,2,0,L|118:177,1,37.5,8|8,3:3|3:3,0:0:0:0:
212,252,143792,6,0,P|261:229|318:263,1,112.500004291535,12|0,0:0|0:0,0:0:0:0:
368,318,144266,2,0,P|405:318|446:310,1,56.2500021457673,0|8,0:0|0:0,0:0:0:0:
451,238,144581,1,0,0:0:0:0:
366,201,144739,6,0,P|361:152|366:75,1,112.500004291535,0|0,0:0|0:0,0:0:0:0:
440,41,145213,1,2,0:0:0:0:
475,121,145371,2,0,L|479:199,1,56.2500021457673,8|0,0:0|0:0,0:0:0:0:
394,223,145687,2,0,P|347:218|288:265,1,112.500004291535,8|0,0:0|0:0,0:0:0:0:
217,209,146160,1,0,0:0:0:0:
286,155,146318,6,0,L|287:81,2,56.2500021457673,0|8|0,0:0|0:0|0:0,0:0:0:0:
316,232,146792,2,0,P|363:230|389:235,1,56.2500021457673,0|8,0:0|0:0,0:0:0:0:
413,301,147108,1,0,0:0:0:0:
337,340,147266,2,0,P|310:329|283:310,1,56.2500021457673,8|0,0:0|0:0,0:0:0:0:
242,237,147581,6,0,L|242:161,1,56.2500021457673,0|8,0:0|0:0,0:0:0:0:
289,113,147897,1,0,0:0:0:0:
363,162,148055,1,0,0:0:0:0:
380,184,148134,1,0,0:0:0:0:
397,205,148213,2,0,L|397:279,1,56.2500021457673,8|0,0:0|0:0,0:0:0:0:
304,220,148529,2,0,P|303:185|307:155,1,56.2500021457673,8|0,0:0|0:0,0:0:0:0:
381,241,148845,6,0,P|345:285|269:284,1,112.500004291535,8|0,0:0|0:0,0:0:0:0:
223,248,149318,1,2,0:0:0:0:
276,180,149476,2,0,P|278:148|276:116,1,56.2500021457673,8|0,0:0|0:0,0:0:0:0:
200,80,149792,6,0,B|175:100|175:100|168:196,1,112.500004291535,0|0,0:0|0:0,0:0:0:0:
229,242,150266,1,2,0:0:0:0:
298,188,150423,2,0,L|293:123,1,56.2500021457673,2|0,0:0|0:0,0:0:0:0:
377,78,150739,2,0,L|372:156,1,56.2500021457673,2|0,0:0|0:0,0:0:0:0:
369,210,151055,1,8,0:0:0:0:
441,175,151213,1,8,0:0:0:0:
241,289,151371,6,0,P|204:283|164:289,1,60,8|0,0:0|0:0,0:0:0:0:
77,331,151687,1,8,0:0:0:0:
122,221,151845,2,0,L|122:143,1,60,0|0,0:0|0:0,0:0:0:0:
207,100,152160,1,0,0:0:0:0:
280,194,152318,2,0,P|285:242|284:279,1,60,8|0,0:0|0:0,0:0:0:0:
344,106,152634,6,0,P|344:62|348:27,1,60,8|0,0:0|0:0,0:0:0:0:
473,115,152950,1,8,0:0:0:0:
355,209,153108,2,0,L|279:217,1,60,0|0,0:0|0:0,0:0:0:0:
170,140,153423,1,0,0:0:0:0:
199,289,153581,1,8,0:0:0:0:
288,136,153739,1,0,0:0:0:0:
127,227,153897,6,0,P|87:222|49:204,1,60,8|8,0:0|0:0,0:0:0:0:
330,237,154213,2,0,P|350:276|353:316,1,60,8|8,0:0|0:0,0:0:0:0:
176,122,154529,1,8,0:0:0:0:
223,267,154687,1,8,0:0:0:0:
300,107,154845,2,0,L|306:25,1,60,8|8,0:0|0:0,0:0:0:0:
397,217,155160,5,8,0:0:0:0:
216,238,155318,1,8,3:0:0:0:
190,223,155396,1,8,3:0:0:0:
172,199,155475,1,8,3:0:0:0:
166,169,155554,1,8,3:0:0:0:
173,141,155633,1,8,3:0:0:0:
192,117,155712,1,8,3:0:0:0:
218,104,155791,1,8,3:0:0:0:
426,223,156423,6,0,L|431:312,1,75,4|0,0:0|0:0,0:0:0:0:
258,194,156739,2,0,L|262:109,1,75,8|0,0:0|0:0,0:0:0:0:
95,237,157055,2,0,L|101:318,1,75,0|0,0:0|0:0,0:0:0:0:
178,173,157371,1,8,0:0:0:0:
235,346,157529,1,0,0:0:0:0:
63,243,157687,5,0,0:0:0:0:
245,242,157845,2,0,P|298:224|314:211,1,75,0|8,0:0|0:0,0:0:0:0:
183,132,158160,2,0,P|138:128|97:140,1,75,0|0,0:0|0:0,0:0:0:0:
181,308,158476,1,0,0:0:0:0:
256,154,158634,1,8,0:0:0:0:
292,339,158792,1,0,0:0:0:0:
163,173,158950,5,0,0:0:0:0:
65,329,159108,2,0,P|119:316|157:322,1,75,0|8,0:0|0:0,0:0:0:0:
307,367,159423,1,0,0:0:0:0:
227,197,159581,1,0,0:0:0:0:
145,361,159739,1,0,0:0:0:0:
313,260,159897,1,8,0:0:0:0:
131,252,160055,6,0,L|131:160,1,75,0|0,0:0|0:0,0:0:0:0:
211,46,160371,1,0,0:0:0:0:
224,230,160529,1,8,0:0:0:0:
107,85,160687,1,0,0:0:0:0:
297,149,160845,1,0,0:0:0:0:
92,203,161002,1,0,0:0:0:0:
219,41,161160,1,8,0:0:0:0:
305,192,161318,6,0,L|311:286,1,75,0|0,0:0|0:0,0:0:0:0:
150,349,161634,1,0,0:0:0:0:
165,169,161792,1,8,0:0:0:0:
267,343,161950,1,0,0:0:0:0:
84,260,162108,1,0,0:0:0:0:
277,220,162266,1,0,0:0:0:0:
90,142,162423,1,8,0:0:0:0:
223,321,162581,6,0,L|297:321,1,75,0|0,0:0|0:0,0:0:0:0:
479,248,162897,1,0,0:0:0:0:
278,207,163055,1,8,0:0:0:0:
394,359,163213,1,0,0:0:0:0:
385,151,163371,1,0,0:0:0:0:
271,336,163529,1,0,0:0:0:0:
251,168,163687,2,0,P|255:117|274:83,1,75,8|0,0:0|0:0,0:0:0:0:
419,208,164002,6,0,P|424:259|410:300,1,75,0|0,0:0|0:0,0:0:0:0:
228,245,164318,1,8,0:0:0:0:
359,147,164476,2,0,L|361:61,1,75,0|0,0:0|0:0,0:0:0:0:
345,255,164792,2,0,L|351:349,1,75,8|2,0:0|0:0,0:0:0:0:
271,157,165108,6,0,P|208:151|184:157,1,75,2|2,0:0|0:0,0:0:0:0:
116,238,165423,2,0,L|118:297,1,37.5,8|8,3:0|3:0,0:0:0:0:
123,116,165581,2,0,L|135:71,1,37.5,8|8,3:0|3:0,0:0:0:0:
141,255,165739,2,0,L|143:314,1,37.5,8|8,3:0|3:0,0:0:0:0:
148,133,165897,2,0,L|160:88,1,37.5,8|8,3:0|3:0,0:0:0:0:
170,267,166055,2,0,L|172:326,1,37.5,8|8,3:0|3:0,0:0:0:0:
177,145,166213,2,0,L|189:100,1,37.5,8|8,3:0|3:0,0:0:0:0:
199,275,166371,2,0,L|201:334,1,37.5,8|8,3:0|3:0,0:0:0:0:
257,73,166529,6,0,L|349:60,1,75,4|0,0:0|0:0,0:0:0:0:
189,203,166845,2,0,L|94:202,1,75,8|0,0:0|0:0,0:0:0:0:
279,319,167160,2,0,L|375:334,1,75,0|0,0:0|0:0,0:0:0:0:
510,240,167476,1,8,0:0:0:0:
331,186,167634,6,0,P|279:183|236:194,1,75,0|0,0:0|0:0,0:0:0:0:
387,310,167950,2,0,P|440:298|476:265,1,75,0|8,0:0|0:0,0:0:0:0:
414,97,168266,2,0,L|410:185,1,75,0|0,0:0|0:0,0:0:0:0:
328,322,168581,1,0,0:0:0:0:
321,126,168739,1,8,0:0:0:0:
446,292,168897,1,0,0:0:0:0:
239,227,169055,5,0,0:0:0:0:
451,162,169213,1,0,0:0:0:0:
295,83,169371,1,8,0:0:0:0:
346,271,169529,1,0,0:0:0:0:
416,96,169687,1,0,0:0:0:0:
241,196,169845,1,0,0:0:0:0:
451,204,170002,2,0,P|460:255|461:304,1,75,8|0,0:0|0:0,0:0:0:0:
259,302,170318,5,0,0:0:0:0:
350,136,170476,1,0,0:0:0:0:
380,327,170634,1,8,0:0:0:0:
243,212,170792,2,0,L|238:132,1,75,0|0,0:0|0:0,0:0:0:0:
315,19,171108,1,0,0:0:0:0:
364,163,171266,1,8,0:0:0:0:
212,67,171423,6,0,P|157:59|117:74,1,75,0|0,0:0|0:0,0:0:0:0:
104,241,171739,1,0,0:0:0:0:
48,78,171897,1,8,0:0:0:0:
192,184,172055,1,0,0:0:0:0:
18,170,172213,1,0,0:0:0:0:
167,85,172371,1,0,0:0:0:0:
208,254,172529,1,8,0:0:0:0:
262,87,172687,6,0,L|261:7,1,75,0|0,0:0|0:0,0:0:0:0:
331,181,173002,1,0,0:0:0:0:
369,27,173160,1,8,0:0:0:0:
444,182,173318,1,0,0:0:0:0:
290,93,173476,1,0,0:0:0:0:
296,258,173634,1,0,0:0:0:0:
378,103,173792,1,8,0:0:0:0:
245,193,173950,6,0,P|196:188|161:192,1,75,0|0,0:0|0:0,0:0:0:0:
81,305,174266,1,0,0:0:0:0:
107,145,174423,2,0,L|113:55,1,75,8|0,0:0|0:0,0:0:0:0:
246,112,174739,2,0,P|248:149|248:186,1,75,0|0,0:0|0:0,0:0:0:0:
106,261,175055,1,8,0:0:0:0:
309,242,175213,6,0,L|403:249,1,75,8|0,0:0|0:0,0:0:0:0:
219,278,175529,1,0,0:0:0:0:
296,145,175687,2,0,P|297:112|295:70,1,75,8|0,0:0|0:0,0:0:0:0:
402,144,176002,2,0,L|404:191,1,37.5,8|8,3:0|3:0,0:0:0:0:
292,268,176160,2,0,L|336:268,1,37.5,8|8,3:0|3:0,0:0:0:0:
388,175,176318,2,0,L|390:222,1,37.5,8|8,3:0|3:0,0:0:0:0:
278,299,176476,2,0,L|322:299,1,37.5,8|8,3:0|3:0,0:0:0:0:
349,183,176634,6,0,P|313:156|248:184,1,120,12|0,0:0|0:0,0:0:0:0:
205,259,177108,1,0,0:0:0:0:
158,181,177266,2,0,L|159:114,1,60,8|0,0:0|0:0,0:0:0:0:
239,74,177581,1,0,0:0:0:0:
281,164,177739,6,0,P|286:226|282:291,1,120,0|8,0:0|0:0,0:0:0:0:
345,343,178213,1,8,0:0:0:0:
400,270,178371,1,0,0:0:0:0:
361,193,178529,2,0,P|361:157|372:113,1,60,8|0,0:0|0:0,0:0:0:0:
311,65,178845,1,0,0:0:0:0:
244,135,179002,6,0,P|238:187|276:250,1,120,8|2,0:0|0:0,0:0:0:0:
359,245,179476,2,0,P|364:194|364:169,1,60,8|0,0:0|0:0,0:0:0:0:
281,112,179792,2,0,P|281:161|285:195,1,60,8|0,0:0|0:0,0:0:0:0:
356,227,180108,1,0,0:0:0:0:
285,284,180266,1,8,0:0:0:0:
206,227,180423,6,0,L|154:230,2,40,8|8|8,3:0|3:0|3:0,0:0:0:0:
289,190,180739,2,0,L|341:194,2,40,8|8|8,3:0|3:0|3:0,0:0:0:0:
201,141,181055,2,0,L|144:146,2,40,8|8|8,3:0|3:0|3:0,0:0:0:0:
292,101,181371,2,0,L|346:103,2,40,8|8|8,3:0|3:0|3:0,0:0:0:0:
191,56,181687,5,4,0:0:0:0:
177,110,201108,5,8,0:3:0:0:
177,110,201187,1,8,0:3:0:0:
177,110,201266,2,0,L|180:173,1,60,2|0,0:0|0:0,0:0:0:0:
304,127,201581,2,0,L|309:62,1,60,2|0,0:0|0:0,0:0:0:0:
246,230,201897,5,0,0:0:0:0:
221,108,202055,1,0,0:0:0:0:
145,233,202213,2,0,P|144:293|150:362,1,120,0|8,0:0|0:0,0:0:0:0:
311,360,202687,1,0,0:0:0:0:
218,264,202845,1,0,0:0:0:0:
338,205,203002,1,0,0:0:0:0:
221,134,203160,6,0,L|218:61,1,60,0|0,0:0|0:0,0:0:0:0:
341,143,203476,2,0,L|335:227,1,60,0|0,0:0|0:0,0:0:0:0:
309,45,203792,1,8,0:0:0:0:
309,45,204108,1,0,0:0:0:0:
346,142,204266,1,0,0:0:0:0:
216,208,204423,6,0,P|172:208|147:213,1,60,2|0,0:0|0:0,0:0:0:0:
262,271,204739,2,0,P|288:244|282:162,1,120,0|8,0:0|0:0,0:0:0:0:
182,123,205213,1,0,0:0:0:0:
125,219,205371,1,8,0:0:0:0:
175,319,205529,1,0,0:0:0:0:
246,233,205687,6,0,P|252:186|252:161,1,60,0|2,0:0|0:0,0:0:0:0:
316,304,206002,2,0,P|318:353|325:381,1,60,8|0,0:0|0:0,0:0:0:0:
373,240,206318,2,0,P|333:211|267:237,1,120,0|2,0:0|0:0,0:0:0:0:
215,344,206792,1,2,0:0:0:0:
195,199,206950,6,0,L|196:128,1,60,0|0,0:0|0:0,0:0:0:0:
304,88,207266,2,0,P|307:161|304:232,1,120,0|8,0:0|0:0,0:0:0:0:
193,292,207739,1,0,0:0:0:0:
150,181,207897,1,0,0:0:0:0:
243,76,208055,1,0,0:0:0:0:
306,204,208213,6,0,L|305:289,1,60,0|0,0:0|0:0,0:0:0:0:
189,160,208529,2,0,L|191:93,1,60,0|0,0:0|0:0,0:0:0:0:
209,279,208845,1,8,0:0:0:0:
209,279,209160,1,0,0:0:0:0:
266,178,209318,1,0,0:0:0:0:
146,104,209476,6,0,P|81:144|83:201,1,120,10|0,0:0|0:0,0:0:0:0:
153,267,209950,1,0,0:0:0:0:
213,168,210108,1,0,0:0:0:0:
277,283,210266,1,0,0:0:0:0:
324,162,210423,2,0,P|327:119|325:79,1,60,0|0,0:0|0:0,0:0:0:0:
386,241,210739,6,0,P|385:284|389:327,1,60,8|0,0:0|0:0,0:0:0:0:
475,132,211055,2,0,P|445:119|417:117,1,60,0|0,0:0|0:0,0:0:0:0:
285,174,211371,2,0,P|279:250|287:314,1,120,0|2,0:0|0:0,0:0:0:0:
403,267,211845,1,2,0:0:0:0:
196,226,212002,6,0,L|194:152,1,60,0|0,0:0|0:0,0:0:0:0:
277,97,212318,2,0,P|313:142|288:208,1,120,0|8,0:0|0:0,0:0:0:0:
177,154,212792,1,0,0:0:0:0:
110,260,212950,1,0,0:0:0:0:
204,351,213108,1,0,0:0:0:0:
260,217,213266,6,0,L|256:150,1,60,0|0,0:0|0:0,0:0:0:0:
358,262,213581,2,0,L|353:331,1,60,0|0,0:0|0:0,0:0:0:0:
434,187,213897,1,8,0:0:0:0:
282,272,214055,1,0,0:0:0:0:
346,122,214213,1,0,0:0:0:0:
421,277,214371,1,0,0:0:0:0:
270,183,214529,6,0,P|222:178|198:181,1,60,0|0,0:0|0:0,0:0:0:0:
313,244,214845,2,0,P|352:197|335:143,1,120,0|8,0:0|0:0,0:0:0:0:
196,82,215318,1,0,0:0:0:0:
220,209,215476,1,0,0:0:0:0:
101,146,215634,1,0,0:0:0:0:
72,275,215792,6,0,L|79:352,1,60,0|8,0:0|0:0,0:0:0:0:
169,238,216108,2,0,L|172:169,1,60,0|0,0:0|0:0,0:0:0:0:
269,276,216423,2,0,P|267:319|258:356,1,60,8|0,0:0|0:0,0:0:0:0:
385,158,216739,1,8,0:0:0:0:
385,158,217055,6,0,L|386:229,1,60,2|0,0:0|0:0,0:0:0:0:
303,73,217371,2,0,P|237:65|183:113,1,120,0|8,0:0|0:0,0:0:0:0:
202,218,217845,1,0,0:0:0:0:
331,252,218002,1,0,0:0:0:0:
386,113,218160,1,0,0:0:0:0:
249,79,218318,6,0,L|167:84,1,60,0|0,0:0|0:0,0:0:0:0:
301,188,218634,2,0,L|362:193,1,60,0|0,0:0|0:0,0:0:0:0:
318,49,218950,1,8,0:0:0:0:
220,188,219108,1,0,0:0:0:0:
392,132,219266,1,0,0:0:0:0:
219,90,219423,1,0,0:0:0:0:
299,232,219581,6,0,P|270:267|186:254,1,120,0|0,0:0|0:0,0:0:0:0:
140,174,220055,1,0,0:0:0:0:
214,95,220213,1,8,0:0:0:0:
141,15,220371,1,0,0:0:0:0:
80,121,220529,2,0,L|81:192,1,60,0|0,0:0|0:0,0:0:0:0:
215,110,220845,6,0,L|208:45,1,60,0|0,0:0|0:0,0:0:0:0:
296,167,221160,2,0,P|296:217|287:243,1,60,0|0,0:0|0:0,0:0:0:0:
364,94,221476,2,0,P|406:91|446:99,1,60,8|0,0:0|0:0,0:0:0:0:
481,209,221792,1,0,0:0:0:0:
414,319,221950,1,0,0:0:0:0:
284,179,222108,6,0,P|278:132|279:103,1,60,2|0,0:0|0:0,0:0:0:0:
263,329,222423,2,0,B|241:308|241:308|148:314,1,120,0|8,0:0|0:0,0:0:0:0:
24,357,222897,1,0,0:0:0:0:
87,248,223055,1,0,0:0:0:0:
27,149,223213,1,0,0:0:0:0:
139,71,223371,6,0,L|200:74,1,60,0|0,0:0|0:0,0:0:0:0:
165,222,223687,2,0,L|93:232,1,60,0|0,0:0|0:0,0:0:0:0:
196,108,224002,1,8,0:0:0:0:
207,300,224160,1,8,0:0:0:0:
86,153,224318,1,8,0:0:0:0:
274,210,224476,1,8,0:0:0:0:
103,261,224634,6,0,L|36:267,1,60,2|0,0:0|0:0,0:0:0:0:
119,135,224950,2,0,P|169:124|246:147,1,120,0|8,0:0|0:0,0:0:0:0:
273,265,225423,1,8,0:0:0:0:
366,171,225581,1,8,0:0:0:0:
291,58,225739,1,8,0:0:0:0:
187,169,225897,6,0,L|185:251,1,60,0|0,0:0|0:0,0:0:0:0:
58,112,226213,2,0,L|55:37,1,60,0|0,0:0|0:0,0:0:0:0:
98,232,226529,1,8,0:0:0:0:
142,84,226687,1,2,0:0:0:0:
172,84,226766,1,2,0:0:0:0:
201,85,226845,1,10,0:0:0:0:
273,250,227002,1,8,0:0:0:0:
320,71,227160,6,0,P|334:117|335:155,1,60,8|0,0:0|0:0,0:0:0:0:
430,219,227476,2,0,P|422:164|422:137,1,60,0|0,0:0|0:0,0:0:0:0:
427,129,227713,1,0,0:0:0:0:
431,99,227792,1,8,0:0:0:0:
325,208,227950,1,0,0:0:0:0:
244,98,228108,2,0,P|203:94|170:99,1,60,0|0,0:0|0:0,0:0:0:0:
207,247,228423,6,0,P|217:210|216:182,1,60,8|0,0:0|0:0,0:0:0:0:
291,269,228739,2,0,P|295:309|307:342,1,60,0|0,0:0|0:0,0:0:0:0:
370,212,229055,1,8,0:0:0:0:
281,122,229213,1,0,0:0:0:0:
159,212,229371,1,8,3:0:0:0:
159,241,229449,1,8,3:0:0:0:
174,267,229528,1,8,3:0:0:0:
199,283,229607,1,8,3:0:0:0:
229,285,229686,5,8,0:0:0:0:
277,100,229845,2,0,L|276:51,1,30,8|2,0:0|0:0,0:0:0:0:
358,280,230081,2,0,L|355:330,1,30,10|2,0:0|0:0,0:0:0:0:
416,136,230318,2,0,L|419:86,2,30,10|2|10,0:0|0:0|0:0,0:0:0:0:
358,280,230634,1,8,0:0:0:0:
281,122,230792,1,0,0:0:0:0:
167,253,230950,6,0,P|162:305|163:334,1,60,8|0,0:0|0:0,0:0:0:0:
111,172,231266,2,0,P|111:120|107:99,1,60,8|0,0:0|0:0,0:0:0:0:
64,273,231581,1,8,0:0:0:0:
109,112,231739,1,0,0:0:0:0:
207,291,231897,1,8,0:0:0:0:
223,265,231976,1,8,3:0:0:0:
247,248,232055,1,8,3:0:0:0:
275,240,232134,1,8,3:0:0:0:
305,242,232212,5,8,0:0:0:0:
342,363,232371,1,8,0:0:0:0:
211,134,232687,5,8,0:0:0:0:
173,253,232845,1,8,0:0:0:0:
299,47,233160,5,8,0:0:0:0:
329,169,233318,2,0,L|331:273,1,90,8|0,0:0|0:0,0:0:0:0:
327,289,233634,1,8,3:0:0:0:
309,312,233713,1,8,3:0:0:0:
283,327,233792,1,8,3:0:0:0:
253,330,233871,1,8,3:0:0:0:
225,321,233950,1,8,3:0:0:0:
202,302,234029,1,8,3:0:0:0:
190,275,234108,6,0,L|192:222,1,30,8|8,3:0|3:0,0:0:0:0:
205,103,234266,2,0,L|207:155,1,30,8|8,3:0|3:0,0:0:0:0:
222,260,234423,2,0,L|224:207,1,30,8|8,3:0|3:0,0:0:0:0:
237,88,234581,2,0,L|239:140,1,30,8|8,3:0|3:0,0:0:0:0:
262,243,234739,5,8,3:0:0:0:
289,232,234818,1,8,3:0:0:0:
310,211,234897,1,8,3:0:0:0:
320,183,234976,1,8,3:0:0:0:
317,153,235055,1,8,3:0:0:0:
301,128,235134,1,8,3:0:0:0:
276,112,235213,2,0,L|234:112,1,30,8|8,3:0|3:0,0:0:0:0:
100,136,235371,6,0,L|155:137,1,30,8|8,3:0|3:0,0:0:0:0:
291,143,235529,2,0,L|248:142,1,30,8|8,3:0|3:0,0:0:0:0:
140,213,235687,1,8,3:0:0:0:
140,213,236002,6,0,L|136:118,2,80,8|8|8,0:0|0:0|0:0,0:0:0:0:
238,281,236634,2,0,L|233:375,2,80,8|8|8,0:0|0:0|0:0,0:0:0:0:
438,180,237897,6,0,L|441:279,1,93.75,4|0,0:0|0:0,0:0:0:0:
247,143,238212,2,0,L|247:27,1,93.75,8|0,0:0|0:0,0:0:0:0:
75,206,238528,2,0,L|72:305,1,93.75,0|0,0:0|0:0,0:0:0:0:
297,239,238844,1,8,0:0:0:0:
123,146,239002,1,0,0:0:0:0:
194,330,239160,5,0,0:0:0:0:
221,130,239318,2,0,L|222:33,1,93.75,0|8,0:0|0:0,0:0:0:0:
318,210,239633,2,0,P|325:266|314:315,1,93.75,0|0,0:0|0:0,0:0:0:0:
190,105,239949,1,0,0:0:0:0:
150,318,240107,1,8,0:0:0:0:
314,175,240265,1,0,0:0:0:0:
73,170,240423,5,0,0:0:0:0:
278,304,240581,2,0,P|331:302|378:305,1,93.75,0|8,0:0|0:0,0:0:0:0:
425,107,240897,1,0,0:0:0:0:
245,224,241054,1,0,0:0:0:0:
465,270,241212,1,0,0:0:0:0:
305,102,241370,1,8,0:0:0:0:
364,300,241528,6,0,P|338:342|281:343,1,93.75,0|0,0:0|0:0,0:0:0:0:
158,187,241844,1,0,0:0:0:0:
158,384,242002,1,8,0:0:0:0:
283,220,242160,1,0,0:0:0:0:
61,289,242318,1,0,0:0:0:0:
293,360,242475,1,0,0:0:0:0:
243,154,242633,1,8,0:0:0:0:
48,271,242791,6,0,L|45:167,1,93.75,0|0,0:0|0:0,0:0:0:0:
112,20,243107,1,0,0:0:0:0:
170,229,243265,1,8,0:0:0:0:
0,93,243423,1,0,0:0:0:0:
213,89,243581,1,2,0:0:0:0:
36,227,243739,1,0,0:0:0:0:
249,177,243897,1,8,0:0:0:0:
121,289,244054,6,0,L|123:391,1,93.75,0|0,0:0|0:0,0:0:0:0:
191,207,244370,1,0,0:0:0:0:
299,370,244528,1,8,0:0:0:0:
329,175,244686,1,0,0:0:0:0:
150,338,244844,1,0,0:0:0:0:
374,273,245002,1,0,0:0:0:0:
182,191,245160,2,0,P|179:136|185:95,1,93.75,8|0,0:0|0:0,0:0:0:0:
273,246,245475,6,0,P|279:317|268:366,1,93.75,0|0,0:0|0:0,0:0:0:0:
146,150,245791,1,8,0:0:0:0:
99,327,245949,2,0,P|40:335|3:324,1,93.75,0|0,0:0|0:0,0:0:0:0:
220,235,246265,2,0,P|273:232|325:258,1,93.75,0|8,0:0|0:0,0:0:0:0:
125,127,246581,6,0,L|126:26,1,93.75,0|0,0:0|0:0,0:0:0:0:
201,232,246897,1,0,0:0:0:0:
262,40,247054,1,8,0:0:0:0:
316,213,247212,2,0,P|321:284|320:325,1,93.75,0|0,0:0|0:0,0:0:0:0:
410,136,247528,1,0,0:0:0:0:
205,234,247686,1,8,0:0:0:0:
440,295,247844,1,0,0:0:0:0:
265,94,248002,6,0,L|165:90,1,93.75,4|0,0:0|0:0,0:0:0:0:
307,220,248318,2,0,L|420:219,1,93.75,8|0,0:0|0:0,0:0:0:0:
233,333,248633,2,0,L|126:344,1,93.75,0|0,0:0|0:0,0:0:0:0:
318,191,248949,1,8,0:0:0:0:
92,171,249107,6,0,P|89:107|101:55,1,93.75,0|0,0:0|0:0,0:0:0:0:
182,244,249423,2,0,P|180:292|151:330,1,93.75,0|8,0:0|0:0,0:0:0:0:
278,139,249739,2,0,L|386:143,1,93.75,0|0,0:0|0:0,0:0:0:0:
194,243,250054,1,0,0:0:0:0:
414,310,250212,1,8,0:0:0:0:
330,110,250370,1,0,0:0:0:0:
282,323,250528,6,0,P|233:336|177:340,1,93.75,0|0,0:0|0:0,0:0:0:0:
412,220,250844,1,8,0:0:0:0:
224,166,251002,2,0,L|112:177,1,93.75,0|0,0:0|0:0,0:0:0:0:
358,119,251318,2,0,L|478:128,1,93.75,0|8,0:0|0:0,0:0:0:0:
246,246,251633,6,0,P|287:293|350:278,1,93.75,0|0,0:0|0:0,0:0:0:0:
413,131,251949,1,0,0:0:0:0:
220,183,252107,1,8,0:0:0:0:
444,272,252265,1,0,0:0:0:0:
313,91,252423,1,0,0:0:0:0:
306,293,252581,1,0,0:0:0:0:
434,101,252739,1,8,0:0:0:0:
228,182,252897,6,0,P|169:180|110:189,1,93.75,0|0,0:0|0:0,0:0:0:0:
105,355,253212,1,0,0:0:0:0:
26,159,253370,1,8,0:0:0:0:
225,270,253528,1,0,0:0:0:0:
0,290,253686,1,0,0:0:0:0:
183,169,253844,1,0,0:0:0:0:
4,91,254002,1,8,0:0:0:0:
182,52,254160,6,0,L|307:61,1,93.75,0|0,0:0|0:0,0:0:0:0:
358,259,254475,1,0,0:0:0:0:
382,58,254633,1,8,0:0:0:0:
236,193,254791,1,0,0:0:0:0:
470,140,254949,1,0,0:0:0:0:
238,67,255107,1,0,0:0:0:0:
287,273,255265,1,8,0:0:0:0:
378,101,255423,6,0,L|388:3,1,93.75,0|0,0:0|0:0,0:0:0:0:
468,211,255739,1,0,0:0:0:0:
271,159,255897,2,0,P|190:161|164:168,1,93.75,8|0,0:0|0:0,0:0:0:0:
309,281,256212,2,0,P|349:256|385:217,1,93.75,8|0,0:0|0:0,0:0:0:0:
294,78,256528,1,0,0:0:0:0:
213,207,256686,6,0,L|215:332,1,93.75,8|0,0:0|0:0,0:0:0:0:
288,108,257002,1,8,3:0:0:0:
334,111,257080,1,8,3:0:0:0:
369,141,257159,1,8,3:0:0:0:
382,185,257238,1,8,3:0:0:0:
367,229,257317,1,8,3:0:0:0:
330,256,257396,1,8,3:0:0:0:
284,258,257475,6,0,L|225:246,1,46.875,8|8,3:0|3:0,0:0:0:0:
91,204,257633,2,0,L|153:197,1,46.875,8|8,3:0|3:0,0:0:0:0:
258,233,257791,2,0,L|198:220,1,46.875,8|8,3:0|3:0,0:0:0:0:
65,179,257949,2,0,L|127:172,1,46.875,8|8,3:0|3:0,0:0:0:0:
285,161,258107,6,0,P|369:163|421:172,1,120,12|0,0:0|0:0,0:0:0:0:
456,243,258581,1,0,0:0:0:0:
371,280,258739,2,0,L|311:280,1,60,8|0,0:0|0:0,0:0:0:0:
236,233,259054,1,0,0:0:0:0:
276,146,259212,6,0,P|319:138|369:202,1,120,8|0,0:0|0:0,0:0:0:0:
327,263,259686,1,8,0:0:0:0:
249,217,259844,1,0,0:0:0:0:
196,286,260002,2,0,P|156:285|120:289,1,60,0|0,0:0|0:0,0:0:0:0:
53,323,260318,1,0,0:0:0:0:
75,236,260475,1,0,0:0:0:0:
32,168,260633,5,8,0:0:0:0:
256,192,260712,12,0,262370,0:0:0:0:
139,139,262528,5,8,0:0:0:0:
388,233,262686,1,8,0:0:0:0:
388,233,263160,6,0,L|443:228,2,37.5,8|0|0,0:0|0:0|0:0,0:0:0:0:
272,190,263475,2,0,P|268:143|273:95,1,75,8|0,0:0|0:0,0:0:0:0:
350,237,263791,2,0,P|351:285|336:337,1,75,8|0,0:0|0:0,0:0:0:0:
252,178,264107,1,8,0:0:0:0:
178,279,264265,6,0,L|82:285,1,75,0|8,0:0|0:0,0:0:0:0:
45,197,264581,1,0,0:0:0:0:
171,147,264739,2,0,P|204:186|221:230,1,75,8|0,0:0|0:0,0:0:0:0:
201,68,265054,2,0,P|261:67|297:83,1,75,8|0,0:0|0:0,0:0:0:0:
323,174,265370,2,0,L|318:278,1,75,8|0,0:0|0:0,0:0:0:0:
409,122,265686,6,0,L|407:74,2,37.5,8|0|0,0:0|0:0|0:0,0:0:0:0:
397,219,266002,2,0,L|402:328,1,75,8|0,0:0|0:0,0:0:0:0:
315,161,266318,2,0,P|277:149|235:155,1,75,8|0,0:0|0:0,0:0:0:0:
317,283,266633,2,0,P|359:277|388:254,1,75,8|0,0:0|0:0,0:0:0:0:
286,153,266949,5,8,0:0:0:0:
193,268,267107,2,0,L|147:265,2,37.5,0|0|8,0:0|0:0|0:0,0:0:0:0:
300,310,267423,2,0,L|359:307,2,37.5,0|0|8,0:0|0:0|0:0,0:0:0:0:
166,351,267739,1,0,0:0:0:0:
166,351,267818,1,0,0:0:0:0:
166,351,267897,2,0,L|165:244,1,75,8|0,0:0|0:0,0:0:0:0:
142,139,268212,6,0,L|127:95,2,37.5,8|0|0,0:0|0:0|0:0,0:0:0:0:
241,201,268528,2,0,P|249:142|241:100,1,75,8|0,0:0|0:0,0:0:0:0:
326,217,268844,2,0,P|335:273|362:308,1,75,8|0,0:0|0:0,0:0:0:0:
426,152,269160,1,8,0:0:0:0:
255,136,269318,6,0,L|175:141,1,75,0|8,0:0|0:0,0:0:0:0:
82,253,269633,1,0,0:0:0:0:
255,219,269791,2,0,P|266:276|261:324,1,75,8|0,0:0|0:0,0:0:0:0:
339,133,270107,2,0,P|338:85|347:45,1,75,8|0,0:0|0:0,0:0:0:0:
436,202,270423,2,0,L|436:289,1,75,8|0,0:0|0:0,0:0:0:0:
353,119,270739,6,0,L|358:69,2,37.5,8|0|0,0:0|0:0|0:0,0:0:0:0:
304,221,271054,2,0,P|249:213|213:220,1,75,8|0,0:0|0:0,0:0:0:0:
142,287,271370,1,8,0:0:0:0:
86,213,271528,1,0,0:0:0:0:
146,145,271686,1,8,0:0:0:0:
238,177,271844,1,0,0:0:0:0:
221,268,272002,6,0,L|225:336,2,50,8|8|8,0:0|0:0|0:0,0:0:0:0:
281,198,272318,2,0,L|282:138,2,50,8|8|8,0:0|0:0|0:0,0:0:0:0:
342,265,272633,2,0,L|349:334,2,50,0|0|0,0:0|0:0|0:0,0:0:0:0:
414,202,272949,2,0,L|418:145,2,50,0|0|0,0:0|0:0|0:0,0:0:0:0:
460,289,273265,5,8,0:0:0:0:
389,235,273423,2,0,P|353:233|310:240,1,56.2500021457673,0|0,0:0|0:0,0:0:0:0:
263,283,273739,1,0,0:0:0:0:
246,194,273897,2,0,L|246:124,1,56.2500021457673,8|0,0:0|0:0,0:0:0:0:
183,79,274212,1,0,0:0:0:0:
122,153,274370,6,0,P|121:195|126:234,1,56.2500021457673,0|8,0:0|0:0,0:0:0:0:
198,245,274686,1,0,0:0:0:0:
276,285,274844,2,0,P|274:336|266:363,1,56.2500021457673,0|0,0:0|0:0,0:0:0:0:
198,245,275160,2,0,P|193:196|198:170,1,56.2500021457673,8|8,0:0|0:0,0:0:0:0:
291,149,275475,1,0,0:0:0:0:
191,313,275633,6,0,B|190:218|231:152|231:152|156:185|54:143|106:-2|225:65|253:123|253:123|328:63|421:121|409:187|337:222|258:164|258:164|294:229|269:277,1,902,6|0,0:0|0:0,0:0:0:0:
