osu file format v14

[General]
AudioFilename: audio.mp3
AudioLeadIn: 0
PreviewTime: 237581
Countdown: 0
SampleSet: None
StackLeniency: 0.3
Mode: 0
LetterboxInBreaks: 0
WidescreenStoryboard: 1

[Editor]
DistanceSpacing: 1
BeatDivisor: 4
GridSize: 16
TimelineZoom: 2.5

[Metadata]
Title:Zen Zen Zense (Synth Rock Cover)
TitleUnicode:前前前世 (Synth Rock Cover)
Artist:Omoi
ArtistUnicode:Omoi
Creator:Ixcors
Version:Comet [2021]
Source:君の名は。
Tags:your name taki mitsuha kimi no na wa Hatsune Miku 初音ミク kagamine rin 鏡音リン
BeatmapID:2773170
BeatmapSetID:905302

[Difficulty]
HPDrainRate:5
CircleSize:4.3
OverallDifficulty:8.5
ApproachRate:9.3
SliderMultiplier:1.96
SliderTickRate:1

[Events]
//Background and Video events
0,0,"m.jpg",0,0
//Break Periods
2,181886,200553
//Storyboard Layer 0 (Background)
//Storyboard Layer 1 (Fail)
//Storyboard Layer 2 (Pass)
//Storyboard Layer 3 (Foreground)
//Storyboard Layer 4 (Overlay)
//Storyboard Sound Samples

[TimingPoints]
2318,315.789473684211,4,2,2,70,1,0
2949,-100,4,2,2,10,0,0
3265,-100,4,2,2,30,0,0
3581,-100,4,2,2,40,0,0
3896,-100,4,2,2,50,0,0
4212,-100,4,2,2,60,0,0
4528,-100,4,2,2,85,0,0
4845,-166.666666666667,4,2,2,70,0,0
9581,-117.647058823529,4,2,2,70,0,0
9818,-117.647058823529,4,2,2,5,0,0
9897,-166.666666666667,4,2,2,70,0,0
13686,-200,4,2,2,50,0,0
14318,-133.333333333333,4,2,2,50,0,0
14950,-111.111111111111,4,2,2,80,0,0
25054,-153.846153846154,4,2,2,65,0,0
46528,-125,4,2,2,65,0,0
46844,-153.846153846154,4,2,2,65,0,0
47791,-125,4,2,2,65,0,0
50318,-111.111111111111,4,2,2,75,0,0
60107,-142.857142857143,4,2,2,75,0,0
60423,-153.846153846154,4,2,2,65,0,0
64844,-111.111111111111,4,2,2,65,0,0
65002,-153.846153846154,4,2,2,65,0,0
68002,-125,4,2,2,75,0,0
70528,-333.333333333333,4,2,2,80,0,0
70765,-333.333333333333,4,2,2,5,0,0
70844,-125,4,2,2,80,0,0
71791,-125,4,2,2,85,0,0
72581,-666.666666666667,4,2,2,85,0,0
72975,-666.666666666667,4,2,2,5,0,0
73054,-83.3333333333333,4,2,2,90,0,1
92949,-100,4,2,2,90,0,1
93265,-117.647058823529,4,2,2,80,0,0
94844,-142.857142857143,4,2,2,80,0,0
95791,-222.222222222222,4,2,2,70,0,0
96818,-222.222222222222,4,2,2,5,0,0
96896,-222.222222222222,4,2,2,70,0,0
97054,-142.857142857143,4,2,2,70,0,0
97845,-222.222222222222,4,2,2,70,0,0
98318,-142.857142857143,4,2,2,80,0,0
100528,-111.111111111111,4,2,2,80,0,0
100765,-111.111111111111,4,2,2,5,0,0
100845,-142.857142857143,4,2,2,80,0,0
107160,-111.111111111111,4,2,2,80,0,0
108423,-166.666666666667,4,2,2,65,0,0
131160,-125,4,2,2,65,0,0
133687,-111.111111111111,4,2,2,75,0,0
143475,-142.857142857143,4,2,2,75,0,0
143791,-153.846153846154,4,2,2,65,0,0
148212,-111.111111111111,4,2,2,65,0,0
148370,-153.846153846154,4,2,2,65,0,0
151054,-111.111111111111,4,2,2,65,0,0
151291,-111.111111111111,4,2,2,5,0,0
151370,-125,4,2,2,70,0,0
153896,-111.111111111111,4,2,2,80,0,0
155160,-111.111111111111,4,2,2,85,0,0
155949,-666.666666666667,4,2,2,85,0,0
156344,-666.666666666667,4,2,2,5,0,0
156423,-83.3333333333333,4,2,2,90,0,1
176318,-100,4,2,2,90,0,1
176633,-117.647058823529,4,2,2,70,0,0
181054,-142.857142857143,4,2,2,60,0,0
181686,-133.333333333333,4,2,2,50,0,0
201108,-200,4,2,2,70,0,0
201265,-105.263157894737,4,2,2,70,0,0
201581,-100,4,2,2,70,0,0
201896,-133.333333333333,4,2,2,70,0,0
222107,-133.333333333333,4,2,2,75,0,0
229686,-133.333333333333,4,2,2,80,0,0
232212,-133.333333333333,4,2,2,85,0,0
233318,-111.111111111111,4,2,2,85,0,0
234266,-100,4,2,2,85,0,0
234660,-86.9565217391304,4,2,2,85,0,0
234976,-71.4285714285714,4,2,2,85,0,0
235371,-58.8235294117647,4,2,2,85,0,0
235686,-166.666666666667,4,2,2,85,0,0
236002,-76.9230769230769,4,2,2,90,0,0
236633,-50,4,2,2,90,0,0
237581,-333.333333333333,4,2,2,40,0,0
237660,-333.333333333333,4,2,2,5,0,0
237897,315.789473684211,4,2,2,95,1,0
237897,-71.4285714285714,4,2,2,95,0,1
257791,-100,4,2,2,95,0,0
258107,-100,4,2,2,80,0,0
259686,-125,4,2,2,80,0,0
260633,-166.666666666667,4,2,2,70,0,0
262291,-166.666666666667,4,2,2,5,0,0
262370,-166.666666666667,4,2,2,50,0,0
262528,-166.666666666667,4,2,2,95,0,0
262844,-100,4,2,2,95,0,0
263160,-100,4,2,2,85,0,0
273265,-133.333333333333,4,2,2,70,0,0
274528,-133.333333333333,4,2,2,60,0,0
275475,-133.333333333333,4,2,2,100,0,0
275633,-445.43429844098,4,2,2,100,0,0
282107,-445.43429844098,4,2,2,5,0,0

[Colours]
Combo1 : 255,128,128
Combo2 : 111,183,255
Combo3 : 212,212,212
Combo4 : 255,159,255

[HitObjects]
256,192,2949,12,8,4528,0:0:0:0:
87,57,4844,5,6,3:2:0:0:
85,71,4923,1,2,0:0:0:0:
83,86,5002,1,2,0:0:0:0:
173,107,5160,2,0,L|158:30,1,58.7999982055665,2|2,3:2|3:2,0:0:0:0:
242,30,5475,2,0,P|311:10|344:53,1,117.599996411133,2|2,3:2|3:2,0:0:0:0:
408,97,5949,6,0,B|456:133|456:133|512:109,1,117.599996411133,2|2,0:0|0:0,0:0:0:0:
511,197,6423,2,0,P|517:226|510:258,1,58.7999982055665,2|2,3:2|0:0,0:0:0:0:
440,300,6739,1,2,3:2:0:0:
374,252,6896,1,2,0:0:0:0:
449,298,7054,2,0,L|432:363,1,58.7999982055665,2|0,3:2|0:0,0:0:0:0:
350,358,7370,5,6,3:2:0:0:
335,354,7449,1,2,0:0:0:0:
321,351,7528,1,2,0:0:0:0:
258,283,7686,2,0,L|324:269,1,58.7999982055665,2|2,3:2|0:0,0:0:0:0:
394,246,8002,2,0,P|375:207|302:196,1,117.599996411133,2|2,3:2|3:2,0:0:0:0:
228,204,8475,6,0,B|178:210|178:210|166:229|166:229|106:236,1,117.599996411133,2|2,0:0|0:0,0:0:0:0:
106,235,8870,1,0,0:0:0:0:
91,236,8949,2,0,P|72:271|75:306,1,58.7999982055665,2|2,3:2|0:0,0:0:0:0:
155,313,9265,2,0,P|174:278|171:243,1,58.7999982055665,2|2,3:2|0:0,0:0:0:0:
89,364,9581,6,0,L|235:348,1,124.950002383232,2|0,3:2|0:0,0:0:0:0:
242,347,9896,5,6,3:2:0:0:
256,345,9975,1,2,0:0:0:0:
271,343,10054,1,2,0:0:0:0:
330,274,10212,2,0,L|265:263,1,58.7999982055665,2|2,3:2|0:0,0:0:0:0:
356,353,10528,2,0,P|406:324|398:245,1,117.599996411133,2|2,3:2|3:2,0:0:0:0:
371,192,11002,6,0,B|341:138|341:138|378:67,1,117.599996411133,2|2,0:0|0:0,0:0:0:0:
453,158,11475,2,0,P|463:207|451:235,1,58.7999982055665,2|2,3:2|0:0,0:0:0:0:
392,272,11791,1,2,3:2:0:0:
319,230,11949,1,2,0:0:0:0:
397,279,12107,2,0,L|392:343,1,58.7999982055665,2|0,3:2|0:0,0:0:0:0:
310,353,12423,5,6,3:2:0:0:
295,349,12502,1,2,0:0:0:0:
281,345,12581,1,2,0:0:0:0:
209,287,12739,1,2,3:2:0:0:
203,369,12896,1,2,0:0:0:0:
291,262,13054,2,0,L|277:195,1,58.7999982055665,2|2,3:2|0:0,0:0:0:0:
274,189,13291,1,0,0:0:0:0:
271,175,13370,1,2,3:2:0:0:
183,142,13528,1,2,0:0:0:0:
145,227,13686,6,0,P|158:272|167:321,2,65.3333333333333,2|0|0,2:2|0:0|0:0,0:0:0:0:
165,105,14318,6,0,P|148:171|135:244,2,98.0000037384035,2|0|0,2:2|0:0|0:0,0:0:0:0:
442,50,14949,5,10,0:0:0:0:
420,43,15028,1,2,0:0:0:0:
399,36,15107,1,2,3:2:0:0:
387,184,15265,2,0,P|430:180|465:136,1,88.1999973083497,10|2,0:0|3:2,0:0:0:0:
340,96,15581,2,0,L|375:287,1,176.399994616699,10|10,0:0|0:0,0:0:0:0:
316,351,16054,5,0,3:2:0:0:
267,249,16212,2,0,P|287:295|308:349,1,88.1999973083497,10|0,0:0|3:2,0:0:0:0:
429,188,16528,2,0,P|409:234|388:288,1,88.1999973083497,10|0,0:0|3:2,0:0:0:0:
233,145,16844,2,0,P|291:141|326:176,1,88.1999973083497,10|0,0:0|3:2,0:0:0:0:
301,330,17160,1,10,0:0:0:0:
159,228,17318,1,0,3:2:0:0:
160,249,17396,1,0,0:0:0:0:
167,270,17475,6,0,L|219:290,2,44.0999986541748,10|2|2,0:0|0:0|3:2,0:0:0:0:
52,242,17791,2,0,P|75:290|88:343,1,88.1999973083497,10|2,0:0|3:2,0:0:0:0:
240,204,18107,2,0,P|217:252|204:305,1,88.1999973083497,10|0,0:0|3:2,0:0:0:0:
192,116,18423,2,0,P|258:99|299:127,1,88.1999973083497,10|0,0:0|3:2,0:0:0:0:
126,196,18739,6,0,L|33:173,1,88.1999973083497,10|0,0:0|3:2,0:0:0:0:
261,266,19054,2,0,L|175:286,1,88.1999973083497,10|0,0:0|3:2,0:0:0:0:
335,214,19370,2,0,P|353:272|338:310,1,88.1999973083497,10|0,0:0|3:2,0:0:0:0:
244,157,19686,1,10,0:0:0:0:
433,182,19844,1,2,3:2:0:0:
233,164,20002,5,10,0:0:0:0:
226,185,20081,1,2,0:0:0:0:
219,206,20160,1,2,3:2:0:0:
316,152,20318,2,0,L|296:44,1,88.1999973083497,10|2,0:0|3:2,0:0:0:0:
298,246,20633,2,0,P|355:254|405:158,1,176.399994616699,10|10,0:0|0:0,0:0:0:0:
316,152,21107,1,0,3:2:0:0:
366,270,21265,6,0,P|345:325|313:373,1,88.1999973083497,10|0,0:0|3:2,0:0:0:0:
432,180,21581,2,0,P|453:235|485:283,1,88.1999973083497,10|0,0:0|3:2,0:0:0:0:
498,105,21896,2,0,P|450:73|401:80,1,88.1999973083497,10|0,0:0|3:2,0:0:0:0:
355,212,22212,2,0,P|398:207|431:179,1,88.1999973083497,10|0,0:0|3:2,0:0:0:0:
327,37,22528,5,10,0:0:0:0:
331,58,22607,1,2,0:0:0:0:
335,79,22686,1,2,3:2:0:0:
340,100,22765,1,2,0:0:0:0:
345,121,22844,2,0,P|333:175|317:226,1,88.1999973083497,10|2,0:0|3:2,0:0:0:0:
224,36,23160,2,0,P|236:90|252:141,1,88.1999973083497,10|2,0:0|3:2,0:0:0:0:
327,37,23475,1,10,0:0:0:0:
150,132,23633,1,2,3:2:0:0:
341,32,23791,6,0,P|414:38|441:107,1,132.299995962525,8|0,0:0|0:0,0:0:0:0:
438,128,24107,1,8,0:0:0:0:
223,35,24265,1,0,3:2:0:0:
193,208,24423,1,8,0:0:0:0:
306,153,24581,1,8,0:0:0:0:
334,147,24660,1,8,0:0:0:0:
363,152,24739,1,10,0:0:0:0:
388,167,24818,1,8,0:0:0:0:
405,190,24896,2,0,L|397:248,1,44.0999986541748,8|8,0:0|0:0,0:0:0:0:
236,333,25054,6,0,L|95:313,1,127.399994168091,14|0,0:0|3:2,0:0:0:0:
44,257,25528,1,2,0:0:0:0:
99,193,25686,2,0,P|145:185|195:246,1,127.399994168091,2|0,3:2|3:2,0:0:0:0:
268,181,26160,1,0,0:0:0:0:
331,241,26318,6,0,L|402:226,1,63.6999970840455,0|0,3:2|0:0,0:0:0:0:
410,144,26633,2,0,L|347:157,1,63.6999970840455,0|2,3:2|0:0,0:0:0:0:
481,200,26949,2,0,P|498:153|471:95,2,95.5499956260683,2|2|2,3:2|0:0|0:0,0:0:0:0:
467,208,27502,1,0,0:0:0:0:
454,216,27581,6,0,L|474:285,1,63.6999970840455,2|0,3:2|0:0,0:0:0:0:
387,266,27896,2,0,L|407:335,1,63.6999970840455,0|0,3:2|0:0,0:0:0:0:
311,310,28212,2,0,L|291:379,1,63.6999970840455,0|0,3:2|0:0,0:0:0:0:
242,263,28528,2,0,L|222:332,1,63.6999970840455,0|0,3:2|0:0,0:0:0:0:
308,205,28844,6,0,P|270:178|227:179,1,63.6999970840455,0|0,3:2|0:0,0:0:0:0:
242,263,29160,2,0,P|280:290|323:289,1,63.6999970840455,0|0,3:2|0:0,0:0:0:0:
379,237,29475,2,0,P|417:210|460:211,1,63.6999970840455,2|2,3:2|3:3,0:0:0:0:
445,295,29791,2,0,P|407:322|364:321,1,63.6999970840455,2|2,3:2|3:3,0:0:0:0:
432,207,30107,5,6,3:2:0:0:
508,240,30265,1,2,0:0:0:0:
421,200,30423,2,0,L|408:121,1,63.6999970840455,2|2,3:2|0:0,0:0:0:0:
347,64,30739,1,2,3:2:0:0:
423,31,30896,1,2,0:0:0:0:
338,75,31054,2,0,L|323:150,1,63.6999970840455,2|2,3:2|0:0,0:0:0:0:
254,187,31370,6,0,P|236:222|239:261,1,63.6999970840455,2|2,3:2|0:0,0:0:0:0:
317,309,31686,2,0,P|335:274|332:235,1,63.6999970840455,2|2,3:2|0:0,0:0:0:0:
191,342,32002,1,2,3:2:0:0:
278,331,32160,2,0,L|422:314,1,127.399994168091,2|2,0:0|0:0,0:0:0:0:
404,122,32633,6,0,P|375:155|369:198,1,63.6999970840455,4|0,3:2|0:0,0:0:0:0:
492,122,32949,2,0,P|477:80|443:53,1,63.6999970840455,0|0,3:2|0:0,0:0:0:0:
451,193,33265,2,0,P|494:201|534:185,1,63.6999970840455,0|0,3:2|0:0,0:0:0:0:
464,66,33581,2,0,L|387:54,1,63.6999970840455,0|0,3:2|0:0,0:0:0:0:
335,100,33896,5,0,3:2:0:0:
269,45,34054,1,2,3:3:0:0:
253,43,34133,1,2,3:3:0:0:
237,41,34212,2,0,L|159:51,1,63.6999970840455,0|0,3:2|0:0,0:0:0:0:
187,138,34528,2,0,L|250:129,1,63.6999970840455,0|0,3:2|0:0,0:0:0:0:
107,104,34844,1,0,3:2:0:0:
139,214,35002,1,2,0:0:0:0:
268,3,35160,6,0,P|257:85|247:148,1,127.399994168091,6|0,3:2|3:2,0:0:0:0:
173,187,35633,1,2,0:0:0:0:
173,187,35791,2,0,P|153:229|155:264,1,63.6999970840455,2|0,3:2|0:0,0:0:0:0:
230,318,36107,2,0,P|250:276|248:241,1,63.6999970840455,0|0,3:2|0:0,0:0:0:0:
86,311,36423,6,0,L|161:331,1,63.6999970840455,0|0,3:2|0:0,0:0:0:0:
152,245,36739,2,0,L|90:228,1,63.6999970840455,0|2,3:2|0:0,0:0:0:0:
20,159,37054,2,0,P|-8:113|14:54,2,95.5499956260683,2|2|2,3:2|0:0|0:0,0:0:0:0:
35,161,37607,1,0,0:0:0:0:
51,163,37686,6,0,L|129:146,1,63.6999970840455,2|0,3:2|0:0,0:0:0:0:
80,75,38002,2,0,L|158:58,1,63.6999970840455,0|0,3:2|0:0,0:0:0:0:
196,0,38318,2,0,L|258:13,1,63.6999970840455,0|0,3:2|0:0,0:0:0:0:
225,87,38633,2,0,L|287:100,1,63.6999970840455,0|0,3:2|0:0,0:0:0:0:
354,45,38949,6,0,P|377:84|376:122,1,63.6999970840455,0|2,3:2|3:3,0:0:0:0:
375,116,39186,1,2,3:3:0:0:
372,132,39265,2,0,L|387:203,1,63.6999970840455,0|0,3:2|0:0,0:0:0:0:
470,236,39581,2,0,P|446:272|405:281,1,63.6999970840455,2|2,3:2|3:3,0:0:0:0:
412,279,39818,1,2,3:3:0:0:
396,280,39896,2,0,L|304:272,1,63.6999970840455,2|2,3:2|3:3,0:0:0:0:
115,97,40212,5,6,3:2:0:0:
210,137,40370,1,2,0:0:0:0:
105,93,40528,2,0,L|116:164,1,63.6999970840455,2|2,3:2|0:0,0:0:0:0:
185,278,40844,1,2,3:2:0:0:
70,237,41002,1,2,0:0:0:0:
175,282,41160,2,0,L|186:211,1,63.6999970840455,2|2,3:2|0:0,0:0:0:0:
257,151,41475,6,0,P|294:148|332:172,1,63.6999970840455,2|0,3:2|0:0,0:0:0:0:
163,114,41791,2,0,P|126:117|88:93,1,63.6999970840455,2|2,3:2|0:0,0:0:0:0:
244,25,42107,2,0,L|259:161,1,127.399994168091,2|2,3:2|3:2,0:0:0:0:
356,115,42581,1,2,0:0:0:0:
158,123,42739,6,0,P|204:133|238:144,1,63.6999970840455,4|0,3:2|0:0,0:0:0:0:
259,67,43054,2,0,P|293:98|317:125,1,63.6999970840455,0|0,3:2|0:0,0:0:0:0:
382,70,43370,2,0,P|396:114|403:149,1,63.6999970840455,0|0,3:2|0:0,0:0:0:0:
480,129,43686,2,0,P|470:174|459:209,1,63.6999970840455,0|2,3:2|3:3,0:0:0:0:
393,237,44002,6,0,L|407:307,1,63.6999970840455,0|2,3:2|3:3,0:0:0:0:
317,294,44318,2,0,L|331:364,1,63.6999970840455,0|0,3:2|0:0,0:0:0:0:
234,243,44633,2,0,L|221:305,1,63.6999970840455,2|0,3:2|0:0,0:0:0:0:
158,186,44949,2,0,L|145:248,1,63.6999970840455,2|0,3:2|0:0,0:0:0:0:
255,50,45265,5,6,3:2:0:0:
98,74,45423,1,2,0:0:0:0:
271,50,45581,2,0,P|286:87|283:124,1,63.6999970840455,2|2,3:2|0:0,0:0:0:0:
224,217,45896,1,2,3:2:0:0:
357,192,46054,1,2,0:0:0:0:
210,218,46212,2,0,P|195:181|198:144,1,63.6999970840455,2|2,3:2|0:0,0:0:0:0:
469,109,46528,6,0,L|454:237,1,117.6,6|0,3:2|0:0,0:0:0:0:
451,257,46844,2,0,P|407:274|376:267,1,63.6999970840455,2|2,3:2|0:0,0:0:0:0:
202,179,47160,2,0,P|271:176|302:217,1,95.5499956260683,2|0,3:2|0:0,0:0:0:0:
301,220,47475,2,0,P|272:254|237:261,1,63.6999970840455,2|2,3:2|0:0,0:0:0:0:
47,184,47791,6,0,L|33:104,1,78.4,4|0,3:2|0:0,0:0:0:0:
70,193,48107,2,0,L|56:270,1,78.4,0|0,3:2|0:0,0:0:0:0:
122,93,48423,2,0,P|172:77|220:100,1,78.4,0|0,3:2|0:0,0:0:0:0:
258,160,48739,1,0,3:2:0:0:
167,270,48896,6,0,P|159:212|249:159,1,156.8,8|0,0:0|3:2,0:0:0:0:
277,253,49370,1,0,3:2:0:0:
277,253,49528,1,0,3:2:0:0:
236,343,49686,1,0,3:2:0:0:
236,343,49844,1,0,3:2:0:0:
75,327,50002,2,0,L|220:342,1,117.6,8|0,0:0|0:0,0:0:0:0:
236,343,50318,6,0,P|262:302|254:250,1,88.1999973083497,10|2,0:0|0:0,0:0:0:0:
157,148,50633,2,0,P|131:189|139:241,1,88.1999973083497,10|2,0:0|0:0,0:0:0:0:
302,124,50949,1,10,0:0:0:0:
181,48,51107,1,2,0:0:0:0:
316,130,51265,6,0,L|405:110,1,88.1999973083497,10|2,0:0|0:0,0:0:0:0:
309,238,51581,2,0,L|211:210,1,88.1999973083497,10|2,0:0|0:0,0:0:0:0:
409,207,51896,2,0,P|425:269|388:314,1,88.1999973083497,10|2,0:0|0:0,0:0:0:0:
233,263,52212,1,10,0:0:0:0:
334,136,52370,1,2,0:0:0:0:
396,294,52528,2,0,L|374:380,1,88.1999973083497,10|2,0:0|0:0,0:0:0:0:
422,175,52844,6,0,L|381:-6,2,176.399994616699,10|8|8,0:0|0:0|0:0,0:0:0:0:
316,146,53633,1,0,0:0:0:0:
262,224,53791,2,0,P|215:250|162:239,1,88.1999973083497,10|2,0:0|0:0,0:0:0:0:
15,112,54107,6,0,L|213:133,2,176.399994616699,8|8|8,0:0|0:0|0:0,0:0:0:0:
37,207,54896,1,0,0:0:0:0:
102,31,55054,2,0,P|167:9|208:22,1,88.1999973083497,8|0,0:0|0:0,0:0:0:0:
247,260,55370,6,0,L|145:246,1,88.1999973083497,10|2,0:0|0:0,0:0:0:0:
256,134,55686,2,0,L|343:145,1,88.1999973083497,10|2,0:0|0:0,0:0:0:0:
161,163,56002,2,0,P|152:109|176:69,1,88.1999973083497,10|2,0:0|0:0,0:0:0:0:
332,239,56318,6,0,L|225:265,1,88.1999973083497,10|2,0:0|0:0,0:0:0:0:
382,163,56633,2,0,P|420:213|416:272,1,88.1999973083497,10|2,0:0|0:0,0:0:0:0:
303,116,56949,2,0,P|353:78|412:82,1,88.1999973083497,10|2,0:0|0:0,0:0:0:0:
490,186,57265,1,10,0:0:0:0:
353,287,57423,1,2,0:0:0:0:
290,102,57581,2,0,L|305:5,1,88.1999973083497,10|2,0:0|0:0,0:0:0:0:
202,177,57896,6,0,L|226:355,2,176.399994616699,10|8|8,0:0|0:0|0:0,0:0:0:0:
113,145,58686,1,0,0:0:0:0:
305,254,58844,2,0,P|359:256|394:222,1,88.1999973083497,10|2,0:0|0:0,0:0:0:0:
188,35,59160,5,8,0:0:0:0:
209,37,59239,1,0,0:0:0:0:
230,45,59318,2,0,L|224:98,1,44.0999986541748,8|0,0:0|0:0,0:0:0:0:
97,208,59475,1,8,0:0:0:0:
85,189,59554,1,0,0:0:0:0:
78,168,59633,1,8,0:0:0:0:
105,178,59712,1,8,0:0:0:0:
126,198,59791,1,8,0:0:0:0:
137,225,59870,1,0,0:0:0:0:
138,254,59949,1,8,0:0:0:0:
127,281,60028,1,0,0:0:0:0:
106,302,60107,2,0,L|62:296,3,34.2999989532471,10|0|2|0,0:0|0:0|3:2|0:0,0:0:0:0:
197,355,60423,6,0,L|413:332,1,191.099991252137,14|2,0:0|3:2,0:0:0:0:
471,328,61054,1,8,0:0:0:0:
428,113,61370,6,0,L|467:321,1,191.099991252137,2|8,3:2|0:0,0:0:0:0:
398,367,62002,2,0,P|355:345|352:262,2,127.399994168091,2|10|0,0:0|0:0|3:2,0:0:0:0:
432,277,62791,1,2,0:0:0:0:
266,355,62949,6,0,L|176:337,1,63.6999970840455,2|8,3:2|0:0,0:0:0:0:
115,318,63265,1,2,0:0:0:0:
219,207,63423,2,0,L|158:275,1,63.6999970840455,2|8,3:2|0:0,0:0:0:0:
115,318,63739,1,2,0:0:0:0:
56,174,63896,2,0,L|85:260,1,63.6999970840455,10|0,0:0|0:0,0:0:0:0:
109,108,64212,6,0,P|52:81|-11:130,1,127.399994168091,2|0,3:2|0:0,0:0:0:0:
56,174,64686,2,0,L|71:221,1,31.8499985420228,8|8,0:0|0:0,0:0:0:0:
265,129,64844,2,0,L|281:49,1,44.0999986541748,8|0,0:0|0:0,0:0:0:0:
243,147,65002,2,0,L|268:301,1,127.399994168091,8|2,0:0|0:0,0:0:0:0:
345,338,65475,6,0,P|366:305|360:260,1,63.6999970840455,14|0,0:0|0:0,0:0:0:0:
285,216,65791,1,2,0:0:0:0:
285,216,65949,2,0,P|264:249|270:294,1,63.6999970840455,2|8,3:2|0:0,0:0:0:0:
377,182,66265,1,2,0:0:0:0:
288,123,66423,6,0,L|148:106,1,127.399994168091,2|0,3:2|0:0,0:0:0:0:
77,76,66896,1,8,0:0:0:0:
28,153,67054,2,0,L|41:216,1,63.6999970840455,2|0,0:0|3:2,0:0:0:0:
138,249,67370,2,0,L|125:186,1,63.6999970840455,10|0,0:0|0:0,0:0:0:0:
57,357,67686,5,8,0:0:0:0:
57,357,68002,6,0,L|79:272,2,78.4,6|0|8,3:2|3:2|0:0,0:0:0:0:
100,202,68475,1,0,0:0:0:0:
221,312,68633,2,0,L|158:250,2,78.4,0|0|0,3:2|3:2|3:2,0:0:0:0:
100,202,69107,1,10,0:0:0:0:
238,125,69265,2,0,P|200:119|163:131,2,78.4,2|0|8,3:2|3:2|0:0,0:0:0:0:
100,202,69739,1,0,0:0:0:0:
101,46,69896,2,0,P|77:77|69:115,2,78.4,0|0|8,3:2|3:2|0:0,0:0:0:0:
100,202,70370,1,2,3:2:0:0:
29,18,70528,6,0,L|85:31,1,44.0999986541748,2|0,3:2|0:0,0:0:0:0:
94,35,70844,6,0,P|113:72|104:132,1,78.4,8|0,0:0|3:2,0:0:0:0:
254,24,71160,2,0,P|231:58|174:81,1,78.4,8|0,0:0|3:2,0:0:0:0:
399,102,71475,2,0,P|357:99|309:62,1,78.4,8|2,0:0|3:2,0:0:0:0:
444,190,71791,5,2,3:2:0:0:
341,227,71949,1,8,0:0:0:0:
319,259,72028,1,8,0:0:0:0:
316,297,72107,1,8,0:0:0:0:
333,332,72186,1,8,0:0:0:0:
366,353,72265,1,8,0:0:0:0:
405,355,72344,1,8,0:0:0:0:
439,337,72423,2,0,L|442:281,1,39.2,8|0,0:0|0:0,0:0:0:0:
350,29,72581,6,0,L|312:19,1,36.749998878479
283,13,73054,6,0,P|322:64|316:118,1,117.599996411133,6|0,3:2|0:0,0:0:0:0:
116,70,73370,6,0,P|179:61|223:93,1,117.599996411133,10|0,0:0|0:0,0:0:0:0:
77,242,73686,6,0,P|101:182|151:160,1,117.599996411133,2|0,3:2|3:2,0:0:0:0:
173,256,74002,1,10,0:0:0:0:
0,168,74160,1,2,0:0:0:0:
15,353,74318,5,2,3:2:0:0:
187,242,74475,2,0,L|213:123,1,117.599996411133,2|8,3:2|0:0,0:0:0:0:
170,258,74791,2,0,L|195:372,1,117.599996411133,2|0,0:0|3:2,0:0:0:0:
400,330,75107,1,2,3:2:0:0:
174,375,75265,2,0,L|148:260,1,117.599996411133,10|2,0:0|0:0,0:0:0:0:
287,55,75581,5,2,3:2:0:0:
452,117,75739,2,0,L|426:231,1,117.599996411133,2|10,0:0|0:0,0:0:0:0:
456,98,76054,1,2,0:0:0:0:
285,144,76212,1,2,3:2:0:0:
422,257,76370,1,2,3:2:0:0:
460,80,76528,1,10,0:0:0:0:
329,221,76686,6,0,P|422:222|462:97,1,235.199992822266,2|0,0:0|3:2,0:0:0:0:
303,206,77160,2,0,L|324:331,1,117.599996411133,8|2,0:0|0:0,0:0:0:0:
379,123,77475,1,2,3:2:0:0:
173,186,77633,1,2,3:2:0:0:
317,336,77791,1,10,0:0:0:0:
367,105,77949,6,0,B|311:61|237:90|266:116|217:138|142:105,1,235.199992822266,2|2,0:0|0:0,0:0:0:0:
376,127,78423,2,0,L|385:248,1,117.599996411133,10|2,0:0|0:0,0:0:0:0:
190,207,78739,1,2,3:2:0:0:
371,95,78896,1,2,3:2:0:0:
389,334,79054,1,10,0:0:0:0:
175,198,79212,6,0,B|-10:173|-10:173|19:186|41:209,1,235.199992822266,2|2,0:0|3:2,0:0:0:0:
203,286,79686,2,0,P|264:255|272:201,1,117.599996411133,10|2,0:0|0:0,0:0:0:0:
113,73,80002,2,0,P|109:141|152:175,1,117.599996411133,2|2,3:2|3:2,0:0:0:0:
348,109,80318,2,0,P|290:71|239:91,1,117.599996411133,10|0,0:0|0:0,0:0:0:0:
310,314,80633,6,0,L|345:130,1,176.399994616699,2|0,3:2|0:0,0:0:0:0:
348,109,80949,1,10,0:0:0:0:
412,318,81107,2,0,P|377:349|294:320,1,117.599996411133,2|0,0:0|3:2,0:0:0:0:
146,104,81423,2,0,P|181:73|264:102,1,117.599996411133,2|8,3:2|0:0,0:0:0:0:
216,180,81739,1,2,0:0:0:0:
92,28,81896,6,0,L|117:239,1,176.399994616699,2|0,3:2|0:0,0:0:0:0:
119,235,82212,1,10,0:0:0:0:
257,70,82370,2,0,P|333:56|417:174,1,235.199992822266,6|2,0:0|3:2,0:0:0:0:
243,78,82844,2,0,P|208:135|221:194,1,117.599996411133,10|10,0:0|0:0,0:0:0:0:
450,21,83160,6,0,L|492:130,1,117.599996411133,6|0,3:2|0:0,0:0:0:0:
243,78,83475,6,0,L|359:95,1,117.599996411133,10|0,0:0|0:0,0:0:0:0:
202,279,83791,6,0,L|275:187,1,117.599996411133,2|0,3:2|3:2,0:0:0:0:
326,332,84107,1,10,0:0:0:0:
105,179,84265,6,0,P|45:208|40:277,1,117.599996411133,2|0,0:0|3:2,0:0:0:0:
192,101,84581,6,0,P|136:63|74:93,1,117.599996411133,2|8,3:2|0:0,0:0:0:0:
286,40,84896,6,0,P|323:83|315:140,1,117.599996411133,2|0,0:0|3:2,0:0:0:0:
271,31,85212,1,2,3:2:0:0:
215,211,85370,1,10,0:0:0:0:
403,179,85528,1,2,0:0:0:0:
259,24,85686,6,0,L|22:3,1,235.199992822266,2|10,3:2|0:0,0:0:0:0:
65,216,86160,2,0,L|193:199,1,117.599996411133,2|0,0:0|3:2,0:0:0:0:
219,106,86475,2,0,L|102:121,1,117.599996411133,2|8,3:2|0:0,0:0:0:0:
198,324,86791,6,0,P|304:303|318:152,1,235.199992822266,2|2,0:0|3:2,0:0:0:0:
233,221,87265,1,8,0:0:0:0:
461,264,87423,2,0,L|430:150,1,117.599996411133,2|0,0:0|3:2,0:0:0:0:
472,296,87739,1,2,3:2:0:0:
406,73,87896,1,10,0:0:0:0:
474,307,88054,6,0,P|420:358|278:305,1,235.199992822266,2|2,0:0|0:0,0:0:0:0:
336,161,88528,2,0,P|376:221|364:291,1,117.599996411133,10|2,0:0|0:0,0:0:0:0:
196,159,88844,1,2,3:2:0:0:
386,57,89002,1,2,3:2:0:0:
377,277,89160,1,10,0:0:0:0:
179,149,89318,6,0,B|135:132|135:132|24:222|24:222|51:206|88:211,1,235.199992822266,2|2,0:0|3:2,0:0:0:0:
147,249,89791,2,0,P|124:304|48:307,1,117.599996411133,10|2,0:0|0:0,0:0:0:0:
190,154,90107,1,2,3:2:0:0:
262,344,90265,1,2,3:2:0:0:
47,310,90423,1,10,0:0:0:0:
203,126,90581,6,0,B|248:103|295:132|275:145|324:172|364:140|364:140|347:80,1,235.199992822266,2|2,0:0|0:0,0:0:0:0:
102,130,91054,2,0,P|118:191|171:215,1,117.599996411133,10|0,0:0|0:0,0:0:0:0:
362,138,91370,2,0,P|346:77|293:53,1,117.599996411133,0|0,3:2|3:2,0:0:0:0:
341,264,91686,1,8,0:0:0:0:
446,32,91844,6,0,P|376:153|343:251,1,235.199992822266,2|0,0:0|3:2,0:0:0:0:
241,19,92318,2,0,P|276:79|292:128,1,117.599996411133,10|2,0:0|0:0,0:0:0:0:
134,235,92633,2,0,L|162:132,2,78.399997607422,10|0|0,0:0|0:0|0:0,0:0:0:0:
222,267,92949,2,0,L|246:348,2,65.3333333333333,10|0|0,0:0|0:0|0:0,0:0:0:0:
286,201,93265,6,0,P|354:192|411:284,1,166.600003177643,12|2,0:0|0:0,0:0:0:0:
328,285,93739,1,2,3:2:0:0:
419,128,93896,2,0,L|399:39,1,83.3000015888214,10|0,0:0|0:0,0:0:0:0:
426,155,94212,1,2,3:2:0:0:
216,104,94370,6,0,L|197:185,1,83.3000015888214,10|0,0:0|0:0,0:0:0:0:
320,112,94686,1,2,0:0:0:0:
264,21,94844,2,0,P|216:8|181:25,1,68.5999979064942,2|2,3:2|3:2,0:0:0:0:
150,95,95160,2,0,P|198:108|233:94,1,68.5999979064942,2|2,3:2|3:2,0:0:0:0:
85,24,95475,1,2,3:2:0:0:
85,24,95633,1,2,3:2:0:0:
234,229,95791,6,0,B|251:237|251:282|212:280|212:280|173:277|176:222|196:194|213:222|245:191|249:136|215:103,1,286.649991252136,12|0,0:0|0:0,0:0:0:0:
192,89,96896,1,8,0:0:0:0:
181,86,96975,1,8,0:0:0:0:
170,84,97054,6,0,P|145:93|125:106,1,34.2999989532471,8|0,0:0|0:0,0:0:0:0:
99,214,97212,1,8,0:0:0:0:
99,214,97528,1,0,3:2:0:0:
82,209,97607,1,0,3:2:0:0:
65,205,97686,1,0,3:2:0:0:
147,283,97844,1,2,3:3:0:0:
157,281,97923,1,0,0:0:0:0:
168,279,98002,1,0,3:2:0:0:
168,279,98318,6,0,L|178:325,2,34.2999989532471,6|2|2,3:2|0:0|0:0,0:0:0:0:
205,188,98633,2,0,P|241:207|256:260,1,68.5999979064942,2|2,3:2|3:2,0:0:0:0:
335,196,98949,2,0,P|376:189|433:278,1,137.199995812988,2|2,3:2|3:2,0:0:0:0:
347,283,99423,6,0,B|287:319|287:319|214:311,1,137.199995812988,2|2,0:0|0:0,0:0:0:0:
146,252,99896,2,0,P|121:301|127:338,1,68.5999979064942,2|2,3:2|0:0,0:0:0:0:
220,311,100212,2,0,P|245:262|239:225,1,68.5999979064942,2|2,3:2|0:0,0:0:0:0:
169,380,100528,6,0,P|237:348|309:374,1,132.299995962525,2|0,3:2|0:0,0:0:0:0:
314,378,100844,5,6,3:2:0:0:
330,372,100923,1,2,0:0:0:0:
346,366,101002,1,2,0:0:0:0:
420,301,101160,2,0,P|382:276|333:285,1,68.5999979064942,2|2,3:2|0:0,0:0:0:0:
425,382,101475,2,0,L|446:308,1,68.5999979064942,2|0,3:2|0:0,0:0:0:0:
341,209,101791,2,0,L|359:274,1,68.5999979064942,2|0,3:2|0:0,0:0:0:0:
437,219,102107,6,0,P|454:176|447:137,1,68.5999979064942,2|2,3:2|0:0,0:0:0:0:
444,138,102344,1,2,0:0:0:0:
437,122,102423,2,0,L|360:106,1,68.5999979064942,2|2,3:2|0:0,0:0:0:0:
352,104,102660,1,2,0:0:0:0:
335,100,102739,2,0,L|255:115,1,68.5999979064942,2|2,3:2|0:0,0:0:0:0:
250,115,102975,1,2,0:0:0:0:
233,119,103054,1,2,3:2:0:0:
165,192,103212,1,2,0:0:0:0:
99,132,103370,5,6,3:2:0:0:
94,115,103449,1,2,0:0:0:0:
90,98,103528,1,2,0:0:0:0:
29,183,103686,2,0,P|60:214|105:217,1,68.5999979064942,2|2,3:2|0:0,0:0:0:0:
235,142,104002,2,0,L|89:131,1,137.199995812988,2|2,3:2|3:2,0:0:0:0:
23,76,104475,6,0,B|77:30|77:30|144:50,1,137.199995812988,2|2,0:0|0:0,0:0:0:0:
235,73,104949,2,0,P|233:27|218:2,1,68.5999979064942,2|2,3:2|0:0,0:0:0:0:
168,132,105265,1,2,3:2:0:0:
265,153,105423,1,2,0:0:0:0:
155,126,105581,2,0,L|167:209,1,68.5999979064942,2|0,3:2|0:0,0:0:0:0:
241,274,105896,6,0,L|256:217,2,34.2999989532471,6|2|2,3:2|0:0|0:0,0:0:0:0:
231,307,106133,1,8,0:0:0:0:
223,340,106212,2,0,P|271:363|315:353,1,68.5999979064942,10|2,3:2|0:0,0:0:0:0:
336,237,106528,2,0,P|291:266|277:309,1,68.5999979064942,2|2,3:2|0:0,0:0:0:0:
366,320,106844,1,2,3:2:0:0:
427,253,107002,1,2,0:0:0:0:
433,237,107081,1,8,0:0:0:0:
440,221,107160,6,0,L|417:160,2,44.0999986541748,8|0|0,2:2|0:0|3:2,0:0:0:0:
391,105,107475,1,0,0:0:0:0:
305,200,107633,2,0,L|346:149,2,44.0999986541748,8|0|0,2:2|0:0|3:2,0:0:0:0:
391,105,107949,1,8,2:2:0:0:
373,81,108028,1,8,2:2:0:0:
348,66,108107,1,8,2:2:0:0:
319,64,108186,1,0,0:0:0:0:
291,73,108265,2,0,L|232:62,1,44.0999986541748
158,217,108423,6,0,L|278:207,1,117.599996411133,6|0,3:2|3:2,0:0:0:0:
354,255,108896,1,2,0:0:0:0:
354,255,109054,2,0,P|330:318|274:323,1,117.599996411133,2|0,3:2|3:2,0:0:0:0:
194,317,109528,1,2,0:0:0:0:
181,323,109607,1,2,0:0:0:0:
168,330,109686,6,0,P|94:315|34:309,1,117.599996411133,2|0,3:2|3:2,0:0:0:0:
0,242,110160,1,2,0:0:0:0:
74,208,110318,2,0,P|118:202|171:184,2,88.1999973083497,2|2|2,3:2|0:0|0:0,0:0:0:0:
59,208,110870,1,0,0:0:0:0:
44,209,110949,6,0,P|38:175|29:145,1,58.7999982055665,2|0,3:2|0:0,0:0:0:0:
123,64,111265,2,0,P|118:92|110:121,1,58.7999982055665,2|0,3:3|0:0,0:0:0:0:
215,62,111581,1,8,3:3:0:0:
281,122,111739,1,2,3:3:0:0:
283,136,111818,1,2,3:3:0:0:
285,151,111896,1,2,3:3:0:0:
215,62,112054,1,8,3:3:0:0:
91,112,112212,6,0,L|114:177,1,58.7999982055665,0|0,3:3|0:0,0:0:0:0:
215,62,112528,2,0,L|170:114,1,58.7999982055665,0|0,3:3|0:0,0:0:0:0:
324,142,112844,2,0,P|295:128|262:125,1,58.7999982055665,2|2,3:2|3:3,0:0:0:0:
287,264,113160,2,0,P|284:231|270:201,1,58.7999982055665,2|2,3:2|3:3,0:0:0:0:
117,228,113475,5,6,3:2:0:0:
206,255,113633,1,2,0:0:0:0:
107,226,113791,2,0,L|115:301,1,58.7999982055665,2|2,3:2|0:0,0:0:0:0:
42,167,114107,1,2,3:2:0:0:
155,154,114265,1,2,0:0:0:0:
30,168,114423,2,0,L|36:109,1,58.7999982055665,2|0,3:2|0:0,0:0:0:0:
97,37,114739,6,0,P|136:17|170:20,1,58.7999982055665,2|2,3:2|0:0,0:0:0:0:
212,91,115054,2,0,P|173:111|139:108,1,58.7999982055665,2|2,3:2|0:0,0:0:0:0:
246,4,115370,2,0,L|363:25,1,117.599996411133,2|2,3:2|3:2,0:0:0:0:
449,10,115844,1,2,0:0:0:0:
419,105,116002,6,0,L|412:214,1,88.1999973083497,0|0,3:2|0:0,0:0:0:0:
411,222,116318,2,0,P|370:249|344:249,1,58.7999982055665,2|0,3:3|0:0,0:0:0:0:
281,193,116633,1,8,3:3:0:0:
226,271,116791,1,2,3:3:0:0:
227,285,116870,1,2,3:3:0:0:
229,300,116949,1,0,3:3:0:0:
281,193,117107,1,8,3:3:0:0:
221,129,117265,6,0,P|187:117|151:125,1,58.7999982055665,0|0,3:2|0:0,0:0:0:0:
116,201,117581,2,0,P|150:213|186:205,1,58.7999982055665,8|0,3:3|0:0,0:0:0:0:
85,118,117896,2,0,L|100:192,1,58.7999982055665,8|0,3:3|0:0,0:0:0:0:
160,268,118212,2,0,L|171:210,1,58.7999982055665,0|2,3:2|0:0,0:0:0:0:
83,301,118528,6,0,P|116:348|192:348,1,117.599996411133,6|0,3:2|3:2,0:0:0:0:
241,295,119002,1,2,0:0:0:0:
307,358,119160,2,0,P|361:348|389:350,1,58.7999982055665,2|0,3:2|0:0,0:0:0:0:
450,358,119475,2,0,L|463:305,2,39.199998803711,8|8|8,3:3|3:3|3:3,0:0:0:0:
482,343,119791,6,0,L|461:265,1,58.7999982055665,0|0,3:2|0:0,0:0:0:0:
462,272,120028,1,0,0:0:0:0:
458,257,120107,2,0,P|469:212|472:187,1,58.7999982055665,0|2,3:2|0:0,0:0:0:0:
444,122,120423,2,0,L|396:102,2,39.199998803711,2|2|2,3:2|3:3|3:3,0:0:0:0:
462,98,120739,2,0,P|480:70|482:22,1,58.7999982055665,0|2,3:2|0:0,0:0:0:0:
392,21,121054,6,0,L|325:2,1,58.7999982055665,2|0,3:2|0:0,0:0:0:0:
328,85,121370,2,0,L|261:66,1,58.7999982055665,0|0,3:2|0:0,0:0:0:0:
203,122,121686,2,0,L|217:190,2,39.199998803711,0|0|8,3:2|3:2|3:3,0:0:0:0:
172,135,122002,2,0,L|160:189,2,39.199998803711,0|0|8,3:2|0:0|3:3,0:0:0:0:
143,149,122318,2,0,P|102:144|64:185,1,78.399997607422,0|8,3:2|3:3,0:0:0:0:
59,201,122633,2,0,L|76:282,1,78.399997607422,0|8,3:2|3:3,0:0:0:0:
87,315,122949,2,0,L|76:371,2,39.199998803711,2|0|8,3:2|0:0|3:3,0:0:0:0:
114,296,123265,2,0,L|200:284,1,78.399997607422,2|0,3:2|0:0,0:0:0:0:
230,283,123581,6,0,L|247:204,1,58.7999982055665,6|2,3:2|0:0,0:0:0:0:
304,330,123896,2,0,L|321:251,1,58.7999982055665,2|2,3:2|0:0,0:0:0:0:
330,189,124212,2,0,P|372:197|395:227,1,58.7999982055665,2|2,3:2|0:0,0:0:0:0:
369,290,124528,2,0,P|326:281|303:251,1,58.7999982055665,2|2,3:2|0:0,0:0:0:0:
237,212,124844,5,2,3:2:0:0:
152,181,125002,1,2,0:0:0:0:
232,235,125160,1,2,3:2:0:0:
159,166,125318,1,2,0:0:0:0:
225,249,125475,2,0,P|216:282|202:318,1,58.7999982055665,2|0,3:2|0:0,0:0:0:0:
37,305,125791,1,2,3:2:0:0:
125,329,125949,1,2,0:0:0:0:
22,297,126107,6,0,P|11:269|4:240,1,58.7999982055665,4|0,3:2|0:0,0:0:0:0:
56,176,126423,2,0,P|66:148|73:119,1,58.7999982055665,0|0,3:2|0:0,0:0:0:0:
34,40,126739,1,0,3:2:0:0:
115,10,126896,1,0,0:0:0:0:
129,11,126975,1,8,3:3:0:0:
144,12,127054,1,0,3:2:0:0:
34,40,127212,1,8,3:3:0:0:
99,96,127370,6,0,L|84:167,1,58.7999982055665,0|8,3:2|3:3,0:0:0:0:
34,40,127686,1,0,3:2:0:0:
1,118,127844,1,0,0:0:0:0:
4,132,127923,1,0,0:0:0:0:
8,146,128002,2,0,P|1:185|12:222,1,58.7999982055665,2|0,3:2|0:0,0:0:0:0:
85,248,128318,2,0,P|92:209|81:172,1,58.7999982055665,2|0,3:2|0:0,0:0:0:0:
14,300,128633,5,6,3:2:0:0:
120,325,128791,1,2,0:0:0:0:
3,300,128949,2,0,L|17:366,1,58.7999982055665,2|2,3:2|0:0,0:0:0:0:
191,261,129265,1,2,3:2:0:0:
85,236,129423,1,2,0:0:0:0:
201,262,129581,2,0,L|215:196,1,58.7999982055665,2|2,3:2|0:0,0:0:0:0:
163,48,129896,6,0,P|203:35|241:47,1,58.7999982055665,6|2,3:2|0:0,0:0:0:0:
253,112,130212,2,0,P|213:125|175:113,1,58.7999982055665,2|2,3:2|0:0,0:0:0:0:
318,47,130528,2,0,P|344:100|333:146,2,88.1999973083497,2|2|2,3:2|0:0|0:0,0:0:0:0:
251,180,131160,6,0,L|373:162,1,117.6,4|8,3:2|0:0,0:0:0:0:
406,158,131475,1,0,3:2:0:0:
213,264,131633,2,0,P|168:230|179:124,1,156.8,0|0,3:2|3:2,0:0:0:0:
238,267,132107,2,0,L|219:369,1,78.4,8|0,0:0|0:0,0:0:0:0:
242,247,132423,5,0,3:2:0:0:
389,332,132581,2,0,L|480:315,1,78.4,8|0,0:0|0:0,0:0:0:0:
367,337,132896,1,0,3:2:0:0:
242,247,133054,1,8,0:0:0:0:
368,345,133212,1,0,3:2:0:0:
336,153,133370,1,8,0:0:0:0:
371,354,133528,1,0,3:2:0:0:
456,73,133686,6,0,P|408:32|350:37,1,88.1999973083497,10|0,0:0|0:0,0:0:0:0:
316,169,134002,2,0,P|375:147|400:95,1,88.1999973083497,10|2,0:0|0:0,0:0:0:0:
309,0,134318,2,0,P|297:62|330:109,1,88.1999973083497,10|2,0:0|0:0,0:0:0:0:
473,250,134633,6,0,L|494:147,1,88.1999973083497,10|2,0:0|0:0,0:0:0:0:
355,239,134949,1,10,0:0:0:0:
409,357,135107,1,2,0:0:0:0:
349,226,135265,2,0,L|245:209,1,88.1999973083497,10|2,0:0|0:0,0:0:0:0:
382,234,135581,1,10,0:0:0:0:
238,133,135739,1,2,0:0:0:0:
228,325,135896,1,10,0:0:0:0:
382,234,136054,1,2,0:0:0:0:
228,125,136212,6,0,L|40:146,2,176.399994616699,10|8|8,0:0|0:0|0:0,0:0:0:0:
301,53,137002,1,0,0:0:0:0:
326,151,137160,2,0,P|303:200|246:224,1,88.1999973083497,10|2,0:0|0:0,0:0:0:0:
228,125,137475,5,8,0:0:0:0:
14,151,137633,2,0,L|29:242,1,88.1999973083497,0|8,0:0|0:0,0:0:0:0:
228,125,137949,1,0,0:0:0:0:
0,153,138107,2,0,L|15:244,1,88.1999973083497,8|0,0:0|0:0,0:0:0:0:
238,121,138423,2,0,L|223:33,1,88.1999973083497,8|0,0:0|0:0,0:0:0:0:
162,231,138739,6,0,P|210:264|265:255,1,88.1999973083497,10|2,0:0|0:0,0:0:0:0:
310,133,139054,2,0,P|266:138|233:166,1,88.1999973083497,10|2,0:0|0:0,0:0:0:0:
363,303,139370,1,10,0:0:0:0:
320,216,139528,1,2,0:0:0:0:
373,319,139686,6,0,L|486:298,1,88.1999973083497,10|2,0:0|0:0,0:0:0:0:
313,205,140002,2,0,L|200:184,1,88.1999973083497,10|2,0:0|0:0,0:0:0:0:
131,118,140318,1,10,0:0:0:0:
174,268,140475,1,2,0:0:0:0:
124,95,140633,2,0,L|143:-2,1,88.1999973083497,10|2,0:0|0:0,0:0:0:0:
12,137,140949,2,0,L|28:223,1,88.1999973083497,10|2,0:0|0:0,0:0:0:0:
265,149,141265,6,0,P|214:88|100:117,2,176.399994616699,10|8|8,0:0|0:0|0:0,0:0:0:0:
173,168,142054,1,0,0:0:0:0:
266,22,142212,2,0,P|305:9|352:19,1,88.1999973083497,10|2,0:0|0:0,0:0:0:0:
438,221,142528,5,10,0:0:0:0:
329,144,142686,1,8,0:0:0:0:
301,133,142765,1,8,0:0:0:0:
272,133,142844,1,8,0:0:0:0:
245,144,142923,1,8,0:0:0:0:
225,165,143002,2,0,L|177:159,1,44.0999986541748,8|8,0:0|0:0,0:0:0:0:
48,281,143160,1,8,0:0:0:0:
71,298,143239,1,8,0:0:0:0:
99,305,143318,1,8,0:0:0:0:
127,298,143396,1,8,0:0:0:0:
150,280,143475,2,0,L|194:289,3,34.2999989532471,10|8|2|0,0:0|0:0|3:2|0:0,0:0:0:0:
251,346,143791,6,0,B|380:335|380:335|439:301,1,191.099991252137,14|2,0:0|3:2,0:0:0:0:
449,220,144423,1,8,0:0:0:0:
449,220,144739,2,0,P|397:189|311:282,1,191.099991252137,2|8,3:2|0:0,0:0:0:0:
244,327,145370,2,0,L|118:303,2,127.399994168091,2|10|0,0:0|0:0|3:2,0:0:0:0:
309,262,146160,1,2,0:0:0:0:
262,183,146318,5,2,3:2:0:0:
338,356,146475,2,0,L|415:347,1,63.6999970840455,8|2,0:0|0:0,0:0:0:0:
309,262,146791,1,2,3:2:0:0:
148,341,146949,2,0,L|66:328,1,63.6999970840455,8|2,0:0|0:0,0:0:0:0:
37,171,147265,2,0,L|99:180,1,63.6999970840455,10|0,0:0|0:0,0:0:0:0:
162,249,147581,5,2,3:2:0:0:
0,138,147739,2,0,L|82:149,1,63.6999970840455,8|0,0:0|0:0,0:0:0:0:
141,111,148054,2,0,L|133:65,1,31.8499985420228,8|8,0:0|0:0,0:0:0:0:
155,272,148212,2,0,L|146:319,1,44.0999986541748,8|0,0:0|0:0,0:0:0:0:
127,273,148370,2,0,L|-5:292,1,127.399994168091,8|2,0:0|0:0,0:0:0:0:
224,213,148844,6,0,P|237:258|258:298,1,63.6999970840455,14|0,0:0|0:0,0:0:0:0:
338,140,149160,1,2,0:0:0:0:
338,140,149318,2,0,P|325:185|304:225,1,63.6999970840455,2|8,3:2|0:0,0:0:0:0:
239,92,149633,1,2,0:0:0:0:
313,41,149791,6,0,P|366:35|424:104,1,127.399994168091,2|0,3:2|0:0,0:0:0:0:
344,123,150265,1,8,0:0:0:0:
479,157,150423,2,0,L|492:226,1,63.6999970840455,2|0,0:0|3:2,0:0:0:0:
492,234,150660,1,0,3:2:0:0:
495,250,150739,1,10,0:0:0:0:
460,326,150896,1,0,3:2:0:0:
212,112,151054,2,0,L|357:124,1,132.299995962525,8|0,0:0|0:0,0:0:0:0:
388,125,151370,6,0,P|418:165|422:209,2,78.4,6|0|8,3:2|3:2|0:0,0:0:0:0:
404,271,151844,1,0,0:0:0:0:
260,212,152002,2,0,P|309:206|349:224,2,78.4,0|0|0,3:2|3:2|3:2,0:0:0:0:
404,271,152475,1,10,0:0:0:0:
163,325,152633,6,0,L|64:295,2,78.4,2|0|8,3:2|3:2|0:0,0:0:0:0:
6,283,153107,1,0,0:0:0:0:
122,158,153265,2,0,L|46:228,2,78.4,0|0|8,3:2|3:2|0:0,0:0:0:0:
6,283,153739,1,2,3:2:0:0:
21,38,153896,6,0,P|68:17|116:33,1,88.1999973083497,2|0,3:2|0:0,0:0:0:0:
203,141,154212,2,0,P|152:163|104:147,1,88.1999973083497,8|0,0:0|3:2,0:0:0:0:
193,13,154528,1,8,0:0:0:0:
122,158,154686,1,0,3:2:0:0:
208,14,154844,2,0,L|299:20,1,88.1999973083497,8|2,0:0|3:2,0:0:0:0:
355,79,155160,5,2,3:2:0:0:
136,148,155318,1,8,0:0:0:0:
104,178,155396,1,8,0:0:0:0:
91,220,155475,1,8,0:0:0:0:
100,262,155554,1,8,0:0:0:0:
129,295,155633,1,8,0:0:0:0:
170,311,155712,1,8,0:0:0:0:
213,305,155791,2,0,L|228:242,1,44.0999986541748,8|0,0:0|0:0,0:0:0:0:
91,29,155949,6,0,L|49:35,1,36.749998878479
26,42,156423,6,0,P|71:78|65:160,1,117.599996411133,6|0,3:2|0:0,0:0:0:0:
216,0,156739,6,0,P|207:56|133:92,1,117.599996411133,10|0,0:0|0:0,0:0:0:0:
383,93,157054,6,0,P|329:113|261:67,1,117.599996411133,2|0,3:2|3:2,0:0:0:0:
333,13,157370,1,10,0:0:0:0:
512,223,157528,1,2,0:0:0:0:
229,231,157686,1,2,3:2:0:0:
346,9,157844,2,0,L|374:136,1,117.599996411133,2|8,3:2|0:0,0:0:0:0:
243,262,158160,2,0,L|268:147,1,117.599996411133,2|0,0:0|3:2,0:0:0:0:
238,284,158475,1,2,3:2:0:0:
141,114,158633,1,10,0:0:0:0:
355,114,158791,1,2,0:0:0:0:
238,284,158949,5,2,3:2:0:0:
144,107,159107,2,0,P|89:78|33:86,1,117.599996411133,2|10,0:0|0:0,0:0:0:0:
75,179,159423,1,2,0:0:0:0:
265,23,159581,1,2,3:2:0:0:
234,265,159739,1,2,3:2:0:0:
32,94,159896,1,10,0:0:0:0:
278,26,160054,6,0,L|511:60,1,235.199992822266,2|0,0:0|3:2,0:0:0:0:
251,21,160528,2,0,P|208:72|221:134,1,117.599996411133,8|2,0:0|0:0,0:0:0:0:
425,226,160844,1,2,3:2:0:0:
393,33,161002,1,2,3:2:0:0:
227,144,161160,1,10,0:0:0:0:
438,231,161318,6,0,P|436:308|285:309,1,235.199992822266,2|2,0:0|0:0,0:0:0:0:
360,260,161791,1,10,0:0:0:0:
448,352,161949,1,2,0:0:0:0:
204,304,162107,1,2,3:2:0:0:
360,122,162265,1,2,3:2:0:0:
453,364,162423,1,10,0:0:0:0:
184,297,162581,6,0,L|134:54,1,235.199992822266,2|2,0:0|3:2,0:0:0:0:
54,186,163054,2,0,P|122:182|164:219,1,117.599996411133,10|2,0:0|0:0,0:0:0:0:
255,36,163370,2,0,P|224:96|171:114,1,117.599996411133,2|2,3:2|3:2,0:0:0:0:
279,283,163686,2,0,P|241:226|252:171,1,117.599996411133,10|0,0:0|0:0,0:0:0:0:
509,228,164002,6,0,L|317:208,1,176.399994616699,2|0,3:2|0:0,0:0:0:0:
310,207,164318,1,10,0:0:0:0:
450,24,164475,2,0,L|469:142,1,117.599996411133,2|0,0:0|3:2,0:0:0:0:
291,323,164791,1,2,3:2:0:0:
297,284,164870,1,0,0:0:0:0:
303,245,164949,1,8,0:0:0:0:
404,319,165107,1,2,0:0:0:0:
82,261,165265,5,2,3:2:0:0:
181,189,165423,1,8,0:0:0:0:
187,228,165502,1,8,0:0:0:0:
193,267,165581,1,10,0:0:0:0:
169,102,165739,1,6,0:0:0:0:
193,267,165896,1,8,3:2:0:0:
215,286,165975,1,8,0:0:0:0:
242,297,166054,1,2,3:2:0:0:
271,299,166133,1,0,0:0:0:0:
299,292,166212,1,10,0:0:0:0:
328,266,166291,1,8,0:0:0:0:
365,255,166370,1,10,0:0:0:0:
404,259,166449,1,8,0:0:0:0:
438,277,166528,6,0,P|397:204|420:138,1,117.599996411133,6|0,3:2|0:0,0:0:0:0:
257,350,166844,6,0,P|299:277|368:264,1,117.599996411133,10|0,0:0|0:0,0:0:0:0:
84,247,167160,6,0,P|167:247|213:300,1,117.599996411133,2|0,3:2|3:2,0:0:0:0:
121,339,167475,1,10,0:0:0:0:
23,41,167633,6,0,L|61:167,1,117.599996411133,2|0,0:0|3:2,0:0:0:0:
213,0,167949,6,0,L|122:95,1,117.599996411133,2|8,3:2|0:0,0:0:0:0:
249,100,168265,6,0,L|364:127,1,117.599996411133,2|0,0:0|3:2,0:0:0:0:
340,26,168581,1,2,3:2:0:0:
209,302,168739,1,10,0:0:0:0:
512,276,168896,1,2,0:0:0:0:
318,14,169054,6,0,P|251:24|221:80,1,117.599996411133,2|2,3:2|0:0,0:0:0:0:
380,136,169370,2,0,P|447:126|477:70,1,117.599996411133,10|2,0:0|0:0,0:0:0:0:
251,154,169686,2,0,B|216:191|216:191|251:331,1,176.399994616699,0|0,3:2|0:0,0:0:0:0:
254,337,170002,1,8,0:0:0:0:
59,308,170160,6,0,P|134:251|253:361,1,235.199992822266,2|2,0:0|3:2,0:0:0:0:
37,311,170633,1,8,0:0:0:0:
127,67,170791,2,0,P|90:150|40:304,1,235.199992822266,2|2,0:0|3:2,0:0:0:0:
10,82,171265,1,10,0:0:0:0:
234,175,171423,6,0,L|475:150,1,235.199992822266,2|2,0:0|0:0,0:0:0:0:
246,94,171896,1,10,0:0:0:0:
429,294,172054,1,2,0:0:0:0:
507,36,172212,1,2,3:2:0:0:
165,202,172370,1,2,3:2:0:0:
442,303,172528,1,10,0:0:0:0:
349,21,172686,6,0,B|315:13|269:24|269:24|229:10|229:10|193:25|193:25|154:14|121:28,1,235.199992822266,2|2,0:0|3:2,0:0:0:0:
99,226,173160,2,0,P|172:227|206:181,1,117.599996411133,10|2,0:0|0:0,0:0:0:0:
98,114,173475,1,2,3:2:0:0:
198,361,173633,1,2,3:2:0:0:
367,132,173791,1,10,0:0:0:0:
72,109,173949,6,0,P|3:193|59:330,1,235.199992822266,2|2,0:0|0:0,0:0:0:0:
93,106,174423,2,0,L|226:97,1,117.599996411133,10|0,0:0|0:0,0:0:0:0:
160,187,174739,1,0,3:2:0:0:
354,0,174896,1,0,3:2:0:0:
429,278,175054,1,8,0:0:0:0:
180,179,175212,6,0,B|221:157|221:157|27:143,1,235.199992822266,2|0,0:0|3:2,0:0:0:0:
261,235,175686,2,0,P|314:188|309:138,1,117.599996411133,10|2,0:0|0:0,0:0:0:0:
63,245,176002,2,0,L|79:324,2,78.399997607422,10|8|8,0:0|0:0|0:0,0:0:0:0:
169,277,176318,2,0,L|165:361,2,65.3333333333333,10|8|8,0:0|0:0|0:0,0:0:0:0:
252,332,176633,6,0,L|435:307,1,166.600003177643,12|2,0:0|0:0,0:0:0:0:
484,364,177107,1,2,3:2:0:0:
495,169,177265,2,0,L|490:263,1,83.3000015888214,10|2,0:0|3:2,0:0:0:0:
497,139,177581,1,2,3:2:0:0:
315,158,177739,6,0,L|320:252,1,83.3000015888214,10|0,0:0|0:0,0:0:0:0:
388,55,178054,1,8,0:0:0:0:
318,8,178212,2,0,P|266:3|218:34,1,83.3000015888214,2|2,3:2|3:2,0:0:0:0:
197,95,178528,2,0,P|249:100|297:69,1,83.3000015888214,10|2,0:0|3:2,0:0:0:0:
125,27,178844,1,2,3:2:0:0:
105,113,179002,1,10,0:0:0:0:
187,180,179160,5,12,0:0:0:0:
118,13,179318,1,0,3:2:0:0:
193,193,179475,2,0,P|180:257|165:306,1,83.3000015888214,0|0,0:0|3:2,0:0:0:0:
361,181,179791,2,0,L|170:161,1,166.600003177643,8|0,2:2|0:0,0:0:0:0:
100,124,180265,1,8,2:2:0:0:
90,142,180344,1,8,2:2:0:0:
80,160,180423,6,0,P|98:221|117:236,2,55.5333343925476,8|8|8,2:2|2:2|2:2,0:0:0:0:
205,124,180739,2,0,P|161:170|157:194,2,55.5333343925476,8|8|8,2:2|2:2|2:2,0:0:0:0:
254,205,181054,6,0,L|324:188,2,45.7333319376628,8|8|8,2:2|2:2|2:2,0:0:0:0:
208,272,181370,2,0,L|138:255,2,45.7333319376628,8|8|8,2:2|2:2|2:2,0:0:0:0:
267,329,181686,5,12,2:2:0:0:
91,67,201107,5,0,3:2:0:0:
102,70,201186,1,0,3:2:0:0:
114,74,201265,2,0,P|136:123|149:164,1,93.0999975139619,8|0,0:0|0:0,0:0:0:0:
248,0,201581,2,0,P|226:49|212:90,1,98,8|0,0:0|3:2,0:0:0:0:
306,217,201896,6,4,P|345:168|292:88,2,147.000005607605,4|0|8,3:2|3:2|0:0,0:0:0:0:
223,261,202686,1,0,0:0:0:0:
295,312,202844,2,0,L|374:324,1,73.5000028038026,0|0,3:2|0:0,0:0:0:0:
449,372,203160,6,0,P|467:320|456:275,1,73.5000028038026,0|0,3:2|3:2,0:0:0:0:
418,175,203475,2,0,P|400:227|411:272,1,73.5000028038026,0|0,3:2|0:0,0:0:0:0:
495,100,203791,2,0,L|333:58,1,147.000005607605,8|0,0:0|3:2,0:0:0:0:
275,109,204265,1,0,0:0:0:0:
158,20,204423,6,0,P|111:10|84:22,1,73.5000028038026,4|0,3:2|0:0,0:0:0:0:
145,108,204739,2,0,P|229:99|244:30,1,147.000005607605,0|8,3:2|0:0,0:0:0:0:
158,20,205212,1,0,0:0:0:0:
120,215,205370,2,0,L|135:143,1,73.5000028038026,8|0,0:0|0:0,0:0:0:0:
116,237,205686,5,0,3:2:0:0:
47,157,205844,1,8,0:0:0:0:
208,255,206002,2,0,P|185:301|148:310,1,73.5000028038026,0|0,3:2|3:2,0:0:0:0:
186,177,206318,2,0,P|237:173|263:201,1,73.5000028038026,0|0,3:2|0:0,0:0:0:0:
120,234,206633,1,8,0:0:0:0:
107,220,206712,1,0,3:2:0:0:
95,206,206791,1,0,3:2:0:0:
306,275,206949,6,0,L|460:260,1,147.000005607605,4|0,3:2|3:2,0:0:0:0:
488,179,207423,1,0,0:0:0:0:
381,85,207581,2,0,P|336:71|295:74,1,73.5000028038026,8|0,0:0|0:0,0:0:0:0:
266,142,207896,2,0,P|311:156|352:153,1,73.5000028038026,0|0,3:2|0:0,0:0:0:0:
207,3,208212,6,0,P|221:43|231:75,1,73.5000028038026,0|0,3:2|3:2,0:0:0:0:
124,152,208528,2,0,P|136:117|147:82,1,73.5000028038026,0|0,3:2|0:0,0:0:0:0:
43,205,208844,2,0,P|97:180|173:236,1,147.000005607605,8|0,0:0|3:2,0:0:0:0:
98,266,209318,1,0,0:0:0:0:
201,25,209475,6,0,L|350:14,1,147.000005607605,4|0,3:2|3:2,0:0:0:0:
409,62,209949,1,0,0:0:0:0:
324,194,210107,2,0,P|286:211|243:205,1,73.5000028038026,8|0,0:0|0:0,0:0:0:0:
409,62,210423,2,0,P|447:45|490:51,1,73.5000028038026,8|0,0:0|0:0,0:0:0:0:
457,135,210739,5,0,3:2:0:0:
171,82,210896,2,0,L|269:100,1,73.5000028038026,8|0,0:0|3:2,0:0:0:0:
325,67,211212,1,0,3:2:0:0:
318,152,211370,2,0,P|273:180|239:178,1,73.5000028038026,0|0,3:2|0:0,0:0:0:0:
413,17,211686,2,0,P|448:23|477:45,1,73.5000028038026,8|0,0:0|3:2,0:0:0:0:
406,222,212002,6,0,L|419:136,1,73.5000028038026,4|0,3:2|0:0,0:0:0:0:
482,273,212318,2,0,L|309:251,1,147.000005607605,0|8,3:2|0:0,0:0:0:0:
269,209,212791,1,0,0:0:0:0:
208,265,212949,2,0,P|158:284|116:281,1,73.5000028038026,0|0,3:2|0:0,0:0:0:0:
45,230,213265,6,0,P|60:280|67:328,1,73.5000028038026,2|0,3:2|3:2,0:0:0:0:
158,95,213581,2,0,P|131:157|117:223,1,110.250004205704,2|0,3:2|0:0,0:0:0:0:
118,235,213896,1,10,0:0:0:0:
26,116,214054,1,2,0:0:0:0:
168,86,214212,1,2,3:2:0:0:
118,235,214370,1,2,0:0:0:0:
14,107,214528,6,0,L|-4:194,1,73.5000028038026,4|0,3:2|0:0,0:0:0:0:
152,92,214844,2,0,L|-26:76,1,147.000005607605,0|8,3:2|0:0,0:0:0:0:
55,7,215318,1,0,0:0:0:0:
219,142,215475,2,0,P|180:170|141:166,1,73.5000028038026,8|0,0:0|0:0,0:0:0:0:
152,92,215791,5,0,3:2:0:0:
375,117,215949,2,0,L|296:107,1,73.5000028038026,8|0,0:0|3:2,0:0:0:0:
405,122,216265,1,0,3:2:0:0:
335,194,216423,1,0,3:2:0:0:
335,194,216581,1,0,0:0:0:0:
467,277,216739,2,0,P|485:321|468:364,1,73.5000028038026,8|0,0:0|3:2,0:0:0:0:
265,363,217054,6,0,P|247:319|264:276,1,73.5000028038026,4|0,3:2|0:0,0:0:0:0:
363,171,217370,2,0,L|328:349,1,147.000005607605,0|8,3:2|0:0,0:0:0:0:
424,273,217844,1,0,0:0:0:0:
286,169,218002,2,0,L|201:155,1,73.5000028038026,0|0,3:2|0:0,0:0:0:0:
111,247,218318,6,0,P|161:248|192:222,1,73.5000028038026,2|2,3:2|3:2,0:0:0:0:
119,143,218633,2,0,P|69:142|38:168,1,73.5000028038026,2|2,3:2|0:0,0:0:0:0:
111,247,218949,1,10,0:0:0:0:
213,157,219107,2,0,L|372:131,1,147.000005607605,2|0,0:0|0:0,0:0:0:0:
360,47,219581,6,0,P|429:78|431:172,1,147.000005607605,4|0,3:2|3:2,0:0:0:0:
326,43,220054,1,0,0:0:0:0:
223,137,220212,2,0,P|241:185|263:218,1,73.5000028038026,8|0,0:0|0:0,0:0:0:0:
335,65,220528,2,0,P|317:113|295:146,1,73.5000028038026,8|0,0:0|0:0,0:0:0:0:
248,53,220844,5,0,3:2:0:0:
413,172,221002,2,0,L|498:158,1,73.5000028038026,8|0,0:0|3:2,0:0:0:0:
381,177,221318,1,0,3:2:0:0:
466,246,221475,2,0,P|480:289|472:332,1,73.5000028038026,0|0,3:2|0:0,0:0:0:0:
257,226,221791,2,0,P|243:183|251:140,1,73.5000028038026,8|0,0:0|3:2,0:0:0:0:
355,276,222107,6,0,P|280:258|197:294,1,147.000005607605,4|0,3:2|3:2,0:0:0:0:
131,246,222581,1,0,0:0:0:0:
10,336,222739,2,0,P|46:333|76:313,1,73.5000028038026,8|0,0:0|0:0,0:0:0:0:
94,223,223054,2,0,P|57:225|28:246,1,73.5000028038026,0|0,3:2|0:0,0:0:0:0:
170,203,223370,6,0,L|136:55,2,147.000005607605,2|2|8,3:2|3:2|0:0,0:0:0:0:
130,31,224160,1,8,0:0:0:0:
179,229,224318,1,8,0:0:0:0:
126,16,224475,1,8,0:0:0:0:
184,244,224633,6,0,P|161:280|112:300,1,73.5000028038026,4|0,3:2|0:0,0:0:0:0:
153,162,224949,2,0,P|222:151|270:196,1,110.250004205704,0|0,3:2|0:0,0:0:0:0:
276,200,225265,1,8,0:0:0:0:
67,116,225423,1,8,0:0:0:0:
280,60,225581,1,8,0:0:0:0:
144,246,225739,1,8,0:0:0:0:
151,6,225896,6,0,L|71:-5,1,73.5000028038026,0|8,3:2|0:0,0:0:0:0:
177,23,226212,2,0,L|257:12,1,73.5000028038026,0|0,3:2|3:2,0:0:0:0:
14,55,226528,1,8,0:2:0:0:
285,5,226686,2,0,L|235:15,1,36.7500014019013,8|8,3:2|0:0,0:0:0:0:
0,55,226844,1,8,0:0:0:0:
306,2,227002,1,8,3:2:0:0:
116,106,227160,6,0,P|108:144|125:192,1,73.5000028038026,4|0,3:2|0:0,0:0:0:0:
337,150,227475,2,0,L|206:137,1,110.250004205704,8|8,0:0|0:0,0:0:0:0:
190,135,227791,2,0,L|212:63,1,73.5000028038026,8|8,0:0|0:0,0:0:0:0:
112,58,228107,1,0,3:2:0:0:
255,211,228265,1,8,0:0:0:0:
78,232,228423,6,0,P|66:267|69:307,1,73.5000028038026,8|0,0:0|3:2,0:0:0:0:
152,351,228739,2,0,P|164:316|161:276,1,73.5000028038026,8|0,0:0|0:0,0:0:0:0:
68,303,229054,1,8,0:0:0:0:
152,198,229212,1,0,3:2:0:0:
170,194,229291,1,0,3:2:0:0:
188,191,229370,1,8,0:0:0:0:
0,230,229528,1,8,0:0:0:0:
290,172,229686,6,0,L|370:186,1,73.5000028038026,12|8,3:2|0:0,0:0:0:0:
398,193,229923,2,0,P|429:152|431:113,1,73.5000028038026,8|8,0:0|0:0,0:0:0:0:
424,94,230160,1,8,0:0:0:0:
256,167,230318,2,0,L|267:254,1,73.5000028038026,8|8,0:0|0:0,0:0:0:0:
438,86,230633,2,0,L|447:13,1,73.5000028038026,8|8,0:0|0:0,0:0:0:0:
235,169,230949,5,8,0:0:0:0:
457,88,231107,2,0,L|466:15,1,73.5000028038026,8|8,0:0|0:0,0:0:0:0:
213,172,231423,1,8,0:0:0:0:
194,173,231502,1,0,0:0:0:0:
176,175,231581,1,8,0:0:0:0:
294,249,231739,1,8,0:0:0:0:
312,250,231818,1,8,0:0:0:0:
330,252,231896,1,8,0:0:0:0:
348,254,231975,1,0,0:0:0:0:
367,256,232054,2,0,L|385:218,1,36.7500014019013,8|8,0:0|0:0,0:0:0:0:
380,59,232212,5,10,0:0:0:0:
432,341,232370,1,10,0:0:0:0:
124,11,232686,5,10,0:0:0:0:
58,364,232844,1,10,0:0:0:0:
454,14,233160,5,10,0:0:0:0:
508,325,233318,2,0,P|463:361|392:354,1,132.299995962525,10|0,0:0|0:0,0:0:0:0:
354,330,233633,1,8,0:0:0:0:
314,311,233712,1,8,0:0:0:0:
271,317,233791,1,8,0:0:0:0:
237,344,233870,1,8,0:0:0:0:
202,370,233949,1,8,0:0:0:0:
158,376,234028,1,8,0:0:0:0:
117,361,234107,1,8,0:0:0:0:
88,328,234186,1,8,0:0:0:0:
83,280,234265,1,8,0:0:0:0:
97,234,234344,1,8,0:0:0:0:
131,199,234423,1,8,0:0:0:0:
176,181,234502,1,8,0:0:0:0:
224,185,234581,1,8,0:0:0:0:
266,209,234660,1,8,0:0:0:0:
302,253,234739,5,8,0:0:0:0:
352,277,234818,1,8,0:0:0:0:
408,277,234896,1,8,0:0:0:0:
459,254,234975,1,8,0:0:0:0:
473,188,235054,1,8,0:0:0:0:
443,127,235133,1,8,0:0:0:0:
382,99,235212,1,8,0:0:0:0:
316,114,235291,1,8,0:0:0:0:
264,180,235370,1,8,0:0:0:0:
200,230,235449,1,8,0:0:0:0:
120,218,235528,1,8,0:0:0:0:
76,150,235607,1,8,0:0:0:0:
95,72,235686,6,0,L|108:50,4,14.6999995513916,8|0|0|0|0,0:0|0:0|0:0|0:0|0:0,0:0:0:0:
97,320,236002,6,0,P|154:300|181:226,1,84.9333294453941,8|0,0:0|0:0,0:0:0:0:
208,32,236212,6,0,P|196:91|247:151,1,84.9333294453941,8|0,0:0|0:0,0:0:0:0:
403,284,236423,6,0,P|357:244|279:258,1,84.9333294453941,8|0,0:0|0:0,0:0:0:0:
175,377,236633,6,0,P|213:330|196:253,1,130.666666666667,8|0,0:0|0:0,0:0:0:0:
116,74,236844,6,0,P|138:130|213:154,1,130.666666666667,8|0,0:0|0:0,0:0:0:0:
415,184,237054,6,0,P|356:175|297:228,1,130.666666666667,8|0,0:0|0:0,0:0:0:0:
489,370,237581,2,0,L|512:377,1,14.6999995513916,2|0,0:0|0:0,0:0:0:0:
11,39,237897,6,0,P|76:33|111:88,1,137.199995812988,6|0,3:2|0:0,0:0:0:0:
253,1,238212,6,0,P|290:54|261:112,1,137.199995812988,10|0,0:0|0:0,0:0:0:0:
474,151,238528,6,0,P|446:210|381:213,1,137.199995812988,2|0,3:2|3:2,0:0:0:0:
393,130,238844,1,10,0:0:0:0:
472,369,239002,1,2,0:0:0:0:
67,250,239160,5,2,3:2:0:0:
319,6,239318,2,0,L|470:-2,1,137.199995812988,2|8,3:2|0:0,0:0:0:0:
302,31,239633,2,0,L|145:15,1,137.199995812988,2|0,0:0|3:2,0:0:0:0:
327,37,239949,1,2,3:2:0:0:
41,162,240107,1,10,0:0:0:0:
283,345,240265,1,2,0:0:0:0:
160,93,240423,5,2,3:2:0:0:
0,323,240581,2,0,P|26:363|115:367,1,137.199995812988,2|10,0:0|0:0,0:0:0:0:
82,283,240897,1,2,0:0:0:0:
263,370,241054,1,2,3:2:0:0:
286,32,241212,1,2,3:2:0:0:
6,150,241370,1,10,0:0:0:0:
276,382,241528,6,0,B|406:344|406:344|444:377|486:385|550:348,1,274.399991625977,2|0,0:0|3:2,0:0:0:0:
492,154,242002,2,0,L|469:296,1,137.199995812988,8|2,0:0|0:0,0:0:0:0:
501,114,242318,1,2,3:2:0:0:
161,0,242475,1,2,3:2:0:0:
230,353,242633,1,10,0:0:0:0:
512,114,242791,6,0,B|450:71|371:110|402:134|327:168|241:116,1,274.399991625977,2|2,0:0|0:0,0:0:0:0:
461,184,243265,2,0,L|443:320,1,137.199995812988,10|2,0:0|0:0,0:0:0:0:
125,217,243581,1,2,3:2:0:0:
374,0,243739,1,2,3:2:0:0:
452,343,243897,1,10,0:0:0:0:
109,212,244054,6,0,P|12:224|67:389,1,274.399991625977,2|2,0:0|3:2,0:0:0:0:
130,227,244528,2,0,P|106:141|79:83,1,137.199995812988,10|2,0:0|0:0,0:0:0:0:
406,99,244844,1,2,3:2:0:0:
60,68,245002,1,2,3:2:0:0:
420,105,245160,2,0,P|393:168|376:234,1,137.199995812988,10|0,0:0|0:0,0:0:0:0:
438,71,245475,6,0,B|337:37|337:37|217:66|217:66|268:56|290:74,1,274.399991625977,2|10,3:2|0:0,0:0:0:0:
168,152,245949,2,0,P|110:98|111:29,1,137.199995812988,2|0,0:0|3:2,0:0:0:0:
277,148,246265,2,0,P|259:225|198:258,1,137.199995812988,2|8,3:2|0:0,0:0:0:0:
218,66,246581,1,2,0:0:0:0:
387,293,246739,6,0,L|530:269,1,137.199995812988,2|0,3:2|3:2,0:0:0:0:
363,298,247054,1,10,0:0:0:0:
198,63,247212,2,0,P|137:57|139:236,1,274.399991625977,6|2,0:0|3:2,0:0:0:0:
322,275,247686,1,10,0:0:0:0:
365,262,247765,1,0,0:0:0:0:
396,230,247844,1,10,0:0:0:0:
406,186,247923,1,8,0:0:0:0:
393,143,248002,6,0,P|322:191|341:249,1,137.199995812988,6|0,3:2|0:0,0:0:0:0:
191,52,248318,6,0,P|197:137|256:150,1,137.199995812988,10|0,0:0|0:0,0:0:0:0:
9,172,248633,6,0,P|86:209|126:164,1,137.199995812988,2|0,3:2|3:2,0:0:0:0:
67,88,248949,1,10,0:0:0:0:
321,342,249107,6,0,L|465:307,1,137.199995812988,2|0,0:0|3:2,0:0:0:0:
276,131,249423,6,0,L|378:238,1,137.199995812988,2|8,3:2|0:0,0:0:0:0:
410,131,249739,6,0,L|449:0,1,137.199995812988,2|0,0:0|3:2,0:0:0:0:
322,28,250054,1,2,3:2:0:0:
186,360,250212,1,10,0:0:0:0:
512,311,250370,1,2,0:0:0:0:
305,26,250528,6,0,L|79:14,1,205.799993719483,2|0,3:2|0:0,0:0:0:0:
67,16,250844,1,10,0:0:0:0:
200,277,251002,2,0,P|276:300|321:253,1,137.199995812988,2|0,0:0|3:2,0:0:0:0:
376,150,251318,2,0,P|300:127|255:174,1,137.199995812988,2|8,3:2|0:0,0:0:0:0:
416,357,251633,2,0,P|429:287|513:87,1,274.399991625977,2|2,0:0|3:2,0:0:0:0:
423,381,252107,1,8,0:0:0:0:
222,270,252265,2,0,P|331:240|414:367,1,274.399991625977,2|2,0:0|3:2,0:0:0:0:
310,345,252739,1,10,0:0:0:0:
284,63,252897,6,0,B|228:36|165:66|165:66|134:43|134:43|85:72|21:55,1,274.399991625977,2|2,0:0|0:0,0:0:0:0:
242,179,253370,2,0,P|309:126|285:70,1,137.199995812988,10|2,0:0|0:0,0:0:0:0:
196,103,253686,1,2,3:2:0:0:
512,0,253844,1,2,3:2:0:0:
453,354,254002,1,10,0:0:0:0:
179,95,254160,6,0,B|114:76|114:76|371:78,1,274.399991625977,2|2,0:0|3:2,0:0:0:0:
43,138,254633,2,0,P|12:79|43:15,1,137.199995812988,10|2,0:0|0:0,0:0:0:0:
411,152,254949,1,2,3:2:0:0:
157,384,255107,1,2,3:2:0:0:
70,48,255265,1,10,0:0:0:0:
422,156,255423,6,0,B|498:206|478:314|384:344|384:344|401:307|395:268,1,274.399991625977,2|2,0:0|0:0,0:0:0:0:
236,201,255897,2,0,L|411:246,1,137.199995812988,10|0,0:0|0:0,0:0:0:0:
230,101,256212,2,0,P|142:167|155:225,1,137.199995812988,8|8,0:0|0:0,0:0:0:0:
261,112,256528,1,0,3:2:0:0:
15,40,256686,6,0,P|45:113|78:279,1,205.799993719483,10|0,0:0|0:0,0:0:0:0:
77,267,257002,2,0,P|90:235|115:201,1,68.5999979064942,8|8,0:0|0:0,0:0:0:0:
165,42,257160,2,0,P|96:17|21:24,1,137.199995812988,10|10,0:0|0:0,0:0:0:0:
207,169,257475,1,10,0:0:0:0:
242,197,257554,1,8,0:0:0:0:
287,202,257633,1,8,0:0:0:0:
327,181,257712,1,8,0:0:0:0:
350,143,257791,2,0,L|398:130,3,49,10|8|10|8,0:0|0:0|0:0|0:0,0:0:0:0:
470,260,258107,6,0,L|245:219,1,196,12|2,0:0|0:0,0:0:0:0:
178,197,258581,1,2,3:2:0:0:
270,348,258739,2,0,P|326:368|375:339,1,98,10|0,0:0|0:0,0:0:0:0:
245,327,259054,1,2,3:2:0:0:
166,181,259212,6,0,P|110:161|61:190,1,98,10|0,0:0|0:0,0:0:0:0:
124,255,259528,1,2,0:0:0:0:
250,132,259686,2,0,L|230:27,1,78.4,2|2,3:2|3:2,0:0:0:0:
138,18,260002,2,0,L|152:95,1,78.4,2|2,3:2|3:2,0:0:0:0:
48,58,260318,1,2,3:2:0:0:
48,58,260475,1,2,3:2:0:0:
256,192,260633,5,12,0:0:0:0:
256,192,260712,12,0,262291,0:0:0:0:
15,21,262370,6,0,L|53:49,1,29.3999991027832,8|8,0:0|0:0,0:0:0:0:
512,376,262528,5,8,0:0:0:0:
0,13,262686,5,8,0:0:0:0:
0,13,263160,5,10,0:0:0:0:
7,36,263239,1,2,0:0:0:0:
15,60,263318,1,2,3:2:0:0:
104,114,263475,2,0,P|117:69|94:13,1,98,10|2,0:0|3:2,0:0:0:0:
20,155,263791,2,0,L|222:131,1,196,10|10,0:0|0:0,0:0:0:0:
181,65,264265,6,0,P|143:120|247:204,1,196,2|2,3:2|3:2,0:0:0:0:
271,146,264739,2,0,P|293:198|305:254,1,98,10|2,0:0|3:2,0:0:0:0:
380,266,265054,2,0,P|358:318|346:374,1,98,10|2,0:0|3:2,0:0:0:0:
462,269,265370,2,0,P|428:197|395:191,1,98,10|0,0:0|3:2,0:0:0:0:
255,251,265686,5,10,0:0:0:0:
278,244,265765,1,2,0:0:0:0:
302,237,265844,1,2,3:2:0:0:
174,234,266002,2,0,P|171:292|206:322,1,98,10|2,0:0|3:2,0:0:0:0:
234,163,266318,2,0,P|187:147|128:131,1,98,10|0,0:0|3:2,0:0:0:0:
14,233,266633,2,0,P|60:217|120:201,1,98,10|0,0:0|3:2,0:0:0:0:
13,44,266949,6,0,L|43:158,1,98,10|2,0:0|3:2,0:0:0:0:
173,12,267265,2,0,L|89:94,1,98,10|2,0:0|3:2,0:0:0:0:
299,126,267581,2,0,L|185:94,1,98,10|2,0:0|3:2,0:0:0:0:
326,132,267897,1,10,0:0:0:0:
195,227,268054,1,2,3:2:0:0:
348,136,268212,5,10,0:0:0:0:
372,133,268291,1,2,0:0:0:0:
396,130,268370,1,2,3:2:0:0:
299,196,268528,2,0,P|264:153|276:105,1,98,10|2,0:0|3:2,0:0:0:0:
389,244,268844,2,0,P|319:226|202:282,1,196,10|10,0:0|0:0,0:0:0:0:
415,267,269318,6,0,L|447:73,1,196,2|2,3:2|3:2,0:0:0:0:
325,24,269791,2,0,P|348:70|373:155,1,98,10|2,0:0|3:2,0:0:0:0:
178,89,270107,2,0,P|229:92|315:112,1,98,10|2,0:0|3:2,0:0:0:0:
153,244,270423,2,0,P|181:201|242:136,1,98,10|0,0:0|3:2,0:0:0:0:
300,321,270739,5,10,0:0:0:0:
276,327,270818,1,2,0:0:0:0:
252,332,270897,1,2,3:2:0:0:
228,334,270975,1,2,0:0:0:0:
203,334,271054,2,0,L|98:323,1,98,10|2,0:0|3:2,0:0:0:0:
55,254,271370,2,0,L|160:243,1,98,10|2,0:0|3:2,0:0:0:0:
25,257,271686,1,10,0:0:0:0:
64,120,271844,6,0,P|160:78|195:129,1,147,2|0,3:2|0:0,0:0:0:0:
190,119,272160,2,0,P|167:136|134:137,1,49,8|8,0:0|0:0,0:0:0:0:
261,75,272318,1,8,0:0:0:0:
283,97,272397,1,8,0:0:0:0:
314,109,272475,1,8,0:0:0:0:
346,108,272554,1,8,0:0:0:0:
375,93,272633,1,8,0:0:0:0:
401,74,272712,1,8,0:0:0:0:
433,68,272791,1,8,0:0:0:0:
464,78,272870,1,8,0:0:0:0:
487,100,272949,1,10,0:0:0:0:
496,122,273028,1,8,0:0:0:0:
497,146,273107,1,8,0:0:0:0:
490,170,273186,1,8,0:0:0:0:
475,189,273265,6,0,L|485:230,2,36.7500014019013,14|0|2,0:0|0:0|0:0,0:0:0:0:
406,232,273581,2,0,P|397:284|387:327,1,73.5000028038026,2|2,0:0|3:2,0:0:0:0:
509,207,273897,2,0,P|426:212|363:163,1,147.000005607605,10|2,0:0|0:0,0:0:0:0:
341,104,274370,1,2,3:2:0:0:
233,218,274528,6,0,P|270:207|322:200,1,73.5000028038026,8|2,0:0|0:0,0:0:0:0:
208,301,274844,2,0,P|170:290|119:283,1,73.5000028038026,2|2,3:2|3:2,0:0:0:0:
117,281,275081,1,0,3:2:0:0:
99,279,275160,1,10,0:0:0:0:
288,288,275318,1,2,0:0:0:0:
446,40,275475,5,14,0:0:0:0:
191,313,275633,6,0,B|190:218|231:152|231:152|156:185|54:143|106:-2|225:65|253:123|253:123|328:63|421:121|409:187|337:222|258:164|258:164|294:229|269:277,1,902,14|0,0:0|0:0,0:0:0:0:
