osu file format v14

[General]
AudioFilename: audio.mp3
AudioLeadIn: 0
PreviewTime: 72480
Countdown: 1
SampleSet: Soft
StackLeniency: 0.7
Mode: 0
LetterboxInBreaks: 0
WidescreenStoryboard: 1

[Editor]
Bookmarks: 217112
DistanceSpacing: 1
BeatDivisor: 4
GridSize: 8
TimelineZoom: 1

[Metadata]
Title:Zen Zen Zense (Synth Rock Cover)
TitleUnicode:Zen Zen Zense (Synth Rock Cover)
Artist:Omoi
ArtistUnicode:Omoi
Creator:Gaciej
Version:Normal I think
Source:
Tags:
BeatmapID:1629308
BeatmapSetID:772458

[Difficulty]
HPDrainRate:4
CircleSize:3
OverallDifficulty:3
ApproachRate:4
SliderMultiplier:1.00000000596047
SliderTickRate:1

[Events]
//Background and Video events
0,0,"bg.jpg",0,0
//Break Periods
//Storyboard Layer 0 (Background)
//Storyboard Layer 1 (Fail)
//Storyboard Layer 2 (Pass)
//Storyboard Layer 3 (Foreground)
//Storyboard Sound Samples

[TimingPoints]
4902,315.789473684211,4,2,0,100,1,0
25112,-133.333333333333,4,2,0,100,0,0
35217,-100,4,2,0,100,0,0
44059,-133.333333333333,4,2,0,100,0,0
50375,-100,4,2,0,100,0,0
72480,-100,4,2,0,100,0,0
73112,-100,4,2,0,100,0,1
92375,-100,4,2,0,100,0,0
156480,-100,4,2,0,100,0,1
170375,-100,4,2,0,100,0,0
181428,-100,4,2,0,100,0,0
217744,-100,4,2,0,100,0,1
237007,-100,4,2,0,100,0,0

[HitObjects]
152,80,15007,6,0,P|224:64|352:96,1,200.000001192094
400,176,15954,1,0,0:0:0:0:
352,264,16270,2,0,P|288:280|240:256,1,100.000000596047
184,208,16902,2,0,P|160:144|168:96,1,100.000000596047
264,104,17533,6,0,L|312:56,2,50.0000002980235
176,152,18165,2,0,P|144:192|248:272,1,200.000001192094
328,288,19112,1,0,0:0:0:0:
408,224,19428,2,0,P|424:160|400:120,1,100.000000596047
312,128,20059,6,0,P|232:184|232:112,1,200.000001192094
144,64,21007,1,0,0:0:0:0:
88,144,21323,2,0,P|80:184|120:248,1,100.000000596047
192,280,21954,2,0,P|248:288|288:264,1,100.000000596047
336,184,22586,6,0,L|368:136,2,50.0000002980235
288,168,23059,1,0,0:0:0:0:
240,160,23217,2,0,L|136:184,1,100.000000596047
256,192,23849,12,0,24796,0:0:0:0:
144,80,25112,6,0,P|192:56|280:96,1,150.000006616117
208,128,26059,1,0,0:0:0:0:
136,144,26375,2,0,P|184:184|272:160,1,150.000006616117
336,136,27323,5,0,0:0:0:0:
408,160,27638,2,0,P|440:184|384:264,1,150.000006616117
328,288,28586,1,0,0:0:0:0:
256,296,28902,1,0,0:0:0:0:
184,304,29217,1,0,0:0:0:0:
120,264,29533,6,0,P|88:232|88:200,1,75.0000033080583
80,120,30165,2,0,P|104:80|208:96,1,150.000006616117
272,88,31112,1,0,0:0:0:0:
232,152,31428,2,0,P|280:192|360:160,1,150.000006616117
280,88,32375,2,0,P|320:56|352:56,1,75.0000033080583
416,56,33007,5,0,0:0:0:0:
384,112,33323,2,0,P|432:136|336:288,1,300.000013232233
272,264,34902,5,0,0:0:0:0:
176,280,35217,2,0,P|64:224|88:184,1,200.000001192094
72,96,36165,2,0,P|128:32|152:32,1,100.000000596047
232,48,36796,5,0,0:0:0:0:
264,88,37112,2,0,P|296:128|440:136,1,200.000001192094
360,200,38059,1,0,0:0:0:0:
432,272,38375,2,0,P|376:296|256:232,1,200.000001192094
160,240,39323,1,0,0:0:0:0:
72,192,39638,6,0,P|56:128|64:80,1,100.000000596047
152,56,40270,2,0,P|224:32|344:64,1,200.000001192094
416,128,41217,2,0,P|424:176|376:224,1,100.000000596047
312,272,41849,1,0,0:0:0:0:
216,304,42165,1,0,0:0:0:0:
120,272,42480,1,0,0:0:0:0:
40,208,42796,2,0,B|56:56|80:16|344:56,1,400.000002384188
376,112,44375,5,0,0:0:0:0:
400,184,44691,2,0,P|432:248|376:288,1,150.000006616117
312,248,45638,1,0,0:0:0:0:
240,272,45954,1,0,0:0:0:0:
168,288,46270,2,0,P|80:272|64:208,1,150.000006616117
56,144,47217,1,0,0:0:0:0:
120,112,47533,1,0,0:0:0:0:
120,112,47691,1,0,0:0:0:0:
176,96,47849,2,0,P|192:64|280:96,1,150.000006616117
312,168,48796,1,0,0:0:0:0:
344,240,49112,1,0,0:0:0:0:
176,168,50375,6,0,P|160:120|104:96,1,100.000000596047
64,176,51007,2,0,P|56:232|104:256,1,100.000000596047
184,272,51638,1,0,0:0:0:0:
288,272,51954,2,0,P|336:256|376:208,1,100.000000596047
448,136,52586,1,0,0:0:0:0:
352,112,52902,2,0,P|280:64|152:56,1,200.000001192094
72,72,53849,2,0,P|24:120|24:120,1,50.0000002980235
88,312,55428,6,0,P|96:288|48:240,2,100.000000596047
192,312,56375,2,0,P|192:264|160:224,1,100.000000596047
88,160,57007,1,0,0:0:0:0:
160,88,57323,2,0,P|200:64|272:80,1,100.000000596047
264,168,57954,2,0,P|224:192|304:272,1,200.000001192094
360,200,58902,2,0,L|400:152,1,50.0000002980235
160,312,60165,6,0,P|128:272|112:272,2,50.0000002980235
264,312,60796,2,0,L|336:296,1,50.0000002980235
392,240,61270,1,0,0:0:0:0:
392,240,61428,2,0,P|392:176|272:136,1,200.000001192094
216,104,62375,1,0,0:0:0:0:
296,40,63007,6,0,P|328:32|416:160,1,200.000001192094
448,240,63954,1,0,0:0:0:0:
352,328,64270,2,0,P|272:336|160:296,1,200.000001192094
80,120,65533,2,0,P|208:72|272:80,1,200.000001192094
360,120,66480,1,0,0:0:0:0:
424,208,66796,2,0,P|400:272|272:272,1,200.000001192094
256,192,68059,12,0,72480,0:0:0:0:
72,120,73112,6,0,P|112:88|272:72,1,200.000001192094
200,152,74059,1,0,0:0:0:0:
200,152,74217,2,0,L|136:184,2,50.0000002980235
248,144,74691,2,0,P|288:136|320:136,1,50.0000002980235
392,152,75165,6,0,L|432:200,2,50.0000002980235
352,120,75638,2,0,P|320:96|144:88,1,200.000001192094
96,152,76586,2,0,L|72:216,1,50.0000002980235
128,336,77217,6,0,L|248:336,2,100.000000596047
176,248,78165,1,0,0:0:0:0:
104,176,78480,2,0,L|216:176,2,100.000000596047
88,80,79428,2,0,P|152:48|272:88,1,200.000001192094
360,120,80375,1,0,0:0:0:0:
384,216,80691,2,0,P|384:272|328:296,1,100.000000596047
351,295,81165,1,0,0:0:0:0:
256,312,81480,2,0,P|176:328|136:328,1,100.000000596047
432,112,82744,6,0,P|416:80|432:56,2,50.0000002980235
432,160,83217,2,0,P|448:224|328:264,1,200.000001192094
248,264,84165,2,0,L|184:288,1,50.0000002980235
104,304,84638,1,0,0:0:0:0:
40,224,84954,1,0,0:0:0:0:
80,136,85270,6,0,P|96:96|80:80,2,50.0000002980235
128,128,85744,1,0,0:0:0:0:
200,56,86059,1,0,0:0:0:0:
200,56,86217,2,0,P|256:32|304:48,1,100.000000596047
392,48,86849,1,0,0:0:0:0:
432,240,87480,6,0,P|432:272|296:352,1,200.000001192094
216,312,88428,1,0,0:0:0:0:
96,216,88902,2,0,P|16:184|32:80,1,200.000001192094
120,56,89849,1,0,0:0:0:0:
216,48,90165,1,0,0:0:0:0:
312,48,90480,2,0,P|376:32|408:144,2,200.000001192094
200,72,92059,1,0,0:0:0:0:
104,112,92375,2,0,P|48:176|48:200,1,100.000000596047
144,216,93007,1,0,0:0:0:0:
144,216,93165,6,0,L|208:224,1,50.0000002980235
288,184,93638,2,0,L|320:144,2,50.0000002980235
392,224,94270,2,0,P|440:240|368:320,1,200.000001192094
312,248,95217,2,0,P|280:224|216:240,1,100.000000596047
152,296,95849,2,0,P|56:256|208:128,1,400.000002384188
416,48,98375,6,0,P|448:88|448:240,1,200.000001192094
328,312,99323,2,0,P|280:336|216:320,1,100.000000596047
144,288,99954,2,0,P|104:248|88:192,1,100.000000596047
88,104,100586,1,0,0:0:0:0:
184,80,100902,6,0,P|240:48|368:80,1,200.000001192094
416,160,101849,2,0,P|408:224|360:240,1,100.000000596047
288,192,102480,2,0,P|264:152|224:192,1,100.000000596047
128,160,103112,2,0,P|88:192|80:256,1,100.000000596047
136,320,103744,6,0,P|200:336|408:240,1,300.000001788141
360,160,105007,1,0,0:0:0:0:
280,104,105323,2,0,P|192:128|176:144,1,100.000000596047
120,56,105954,1,0,0:0:0:0:
48,128,106270,2,0,P|32:200|56:240,1,100.000000596047
136,192,106902,1,0,0:0:0:0:
256,192,107217,12,0,108007,0:0:0:0:
72,104,108480,6,0,P|144:72|184:72,1,100.000000596047
264,96,109112,1,0,0:0:0:0:
336,160,109428,2,0,P|408:176|424:208,1,100.000000596047
344,264,110059,1,0,0:0:0:0:
240,264,110375,6,0,P|160:304|40:272,1,200.000001192094
48,184,111323,2,0,P|56:128|112:104,1,100.000000596047
184,112,111954,2,0,P|256:88|280:96,1,100.000000596047
360,152,112586,1,0,0:0:0:0:
440,216,112902,2,0,P|448:296|336:296,1,200.000001192094
256,296,113849,6,0,L|136:304,1,100.000000596047
112,216,114480,1,0,0:0:0:0:
72,128,114796,2,0,P|104:80|160:72,1,100.000000596047
240,96,115428,2,0,L|352:104,1,100.000000596047
424,152,116059,1,0,0:0:0:0:
280,200,116375,1,0,0:0:0:0:
416,256,116691,1,0,0:0:0:0:
280,312,117007,1,0,0:0:0:0:
128,304,117323,2,0,P|64:264|40:224,1,100.000000596047
64,96,117954,2,0,P|120:64|176:64,1,100.000000596047
304,80,118586,5,0,0:0:0:0:
432,160,118902,2,0,P|456:208|440:256,1,100.000000596047
304,296,119533,1,0,0:0:0:0:
152,280,119849,1,0,0:0:0:0:
48,176,120165,2,0,P|56:112|104:96,1,100.000000596047
224,56,120796,1,0,0:0:0:0:
376,56,121112,2,0,P|456:64|464:80,1,100.000000596047
480,224,121744,2,0,P|464:296|432:320,1,100.000000596047
288,320,122375,1,0,0:0:0:0:
144,272,122691,1,0,0:0:0:0:
80,136,123007,6,0,P|120:64|240:80,1,200.000001192094
376,56,123954,2,0,P|424:56|456:192,1,200.000001192094
320,216,124902,2,0,P|280:272|240:296,1,100.000000596047
128,208,125533,1,0,0:0:0:0:
88,64,125849,2,0,L|200:72,1,100.000000596047
336,96,126480,1,0,0:0:0:0:
400,232,126796,1,0,0:0:0:0:
256,280,127112,2,0,P|176:288|152:272,1,100.000000596047
88,152,127744,1,0,0:0:0:0:
208,56,128059,2,0,P|296:64|320:80,1,100.000000596047
456,120,128691,6,0,P|456:160|352:288,1,200.000001192094
208,288,129638,1,0,0:0:0:0:
64,248,129954,2,0,P|32:136|96:88,1,200.000001192094
232,48,130902,1,0,0:0:0:0:
256,192,131217,12,0,133428,0:0:0:0:
368,120,133744,6,0,L|416:88,2,50.0000002980235
408,264,134375,2,0,P|328:296|192:296,1,200.000001192094
96,208,135323,2,0,P|80:160|200:88,1,200.000001192094
344,56,136270,2,0,L|456:248,1,200.000001192094
320,312,137217,2,0,L|208:320,1,100.000000596047
64,64,138165,1,0,0:0:0:0:
360,40,138796,6,0,P|440:56|480:256,1,300.000001788141
328,272,140059,1,0,0:0:0:0:
176,304,140375,2,0,P|104:288|88:256,1,100.000000596047
120,120,141007,1,0,0:0:0:0:
248,40,141323,2,0,P|368:56|432:112,1,200.000001192094
400,256,142270,2,0,P|352:288|288:288,1,100.000000596047
56,56,143849,6,0,P|128:32|168:48,1,100.000000596047
224,168,144480,1,0,0:0:0:0:
336,72,144796,2,0,P|424:96|504:176,1,200.000001192094
408,288,145744,1,0,0:0:0:0:
208,312,146375,2,0,P|144:328|96:320,1,100.000000596047
104,224,147007,2,0,P|112:160|144:128,1,100.000000596047
224,176,147638,1,0,0:0:0:0:
304,80,148744,2,0,P|344:96|360:120,1,50.0000002980235
440,144,149217,2,0,L|408:192,1,50.0000002980235
376,280,149691,2,0,L|312:256,1,50.0000002980235
128,280,150480,2,0,L|16:256,1,100.000000596047
80,64,151428,2,0,P|144:48|280:72,1,200.000001192094
200,200,152533,2,0,L|264:224,1,50.0000002980235
152,40,153323,1,0,0:0:0:0:
296,72,153796,2,0,L|352:112,1,50.0000002980235
336,304,154586,1,0,0:0:0:0:
184,296,155059,2,0,L|144:264,1,50.0000002980235
40,80,156480,6,0,P|88:48|136:56,1,100.000000596047
112,152,157112,1,0,0:0:0:0:
208,144,157428,2,0,P|224:120|232:88,1,50.0000002980235
256,56,157744,2,0,P|288:40|320:48,1,50.0000002980235
360,128,158217,1,0,0:0:0:0:
288,296,158533,2,0,L|232:336,2,50.0000002980235
232,248,159007,2,0,P|176:280|64:208,1,200.000001192094
16,128,159954,2,0,L|80:104,1,50.0000002980235
320,192,160586,6,0,P|352:192|376:168,2,50.0000002980235
304,264,161059,2,0,L|240:296,2,50.0000002980235
112,264,161691,1,0,0:0:0:0:
176,184,162007,2,0,L|240:184,2,50.0000002980235
184,136,162480,2,0,P|120:168|96:208,1,100.000000596047
48,272,163112,2,0,P|112:296|152:288,1,100.000000596047
232,256,163744,1,0,0:0:0:0:
288,336,164059,2,0,L|368:272,1,100.000000596047
376,224,164533,2,0,P|376:144|360:112,1,100.000000596047
248,96,165165,1,0,0:0:0:0:
48,96,165954,6,0,P|32:160|72:288,1,200.000001192094
176,296,166902,2,0,P|256:312|288:312,1,100.000000596047
352,256,167533,2,0,L|416:240,1,50.0000002980235
440,152,168007,1,0,0:0:0:0:
344,120,168323,1,0,0:0:0:0:
240,128,168638,2,0,L|224:72,2,50.0000002980235
192,136,169112,2,0,P|152:136|88:272,1,200.000001192094
168,312,170059,2,0,L|232:328,1,50.0000002980235
352,264,170691,6,0,P|432:200|312:80,1,300.000001788141
232,64,171954,2,0,P|168:56|120:64,1,100.000000596047
56,120,172586,2,0,L|64:224,1,100.000000596047
144,280,173217,1,0,0:0:0:0:
240,256,173533,1,0,0:0:0:0:
336,264,173849,2,0,P|392:232|360:104,1,200.000001192094
280,112,174796,1,0,0:0:0:0:
184,120,175112,1,0,0:0:0:0:
104,56,175428,1,0,0:0:0:0:
112,152,175744,6,0,P|96:184|80:184,2,50.0000002980235
208,184,176375,2,0,P|208:248|256:272,1,100.000000596047
328,248,177007,2,0,P|352:272|352:296,2,50.0000002980235
344,152,177638,2,0,P|336:112|384:72,1,100.000000596047
432,152,178270,2,0,P|440:224|416:256,1,100.000000596047
336,280,178902,2,0,L|120:304,1,200.000001192094
88,208,179849,1,0,0:0:0:0:
256,192,180165,12,0,181428,0:0:0:0:
72,128,182059,6,0,P|208:168|128:112,1,500.000002980235
336,72,184586,6,0,P|408:72|448:192,1,200.000001192094
472,272,185533,2,0,P|424:312|368:320,1,100.000000596047
288,320,186165,1,0,0:0:0:0:
88,280,187112,6,0,B|144:184|24:144|24:144|256:144,1,400.000002384188
80,112,189323,6,0,P|184:64|264:80,1,200.000001192094
360,112,190270,2,0,P|432:144|432:176,1,100.000000596047
392,248,190902,2,0,L|288:296,1,100.000000596047
48,128,192165,6,0,B|224:352|504:104|312:32,1,500.000002980235
160,144,194691,6,0,P|120:192|192:304,1,200.000001192094
272,296,195638,2,0,L|384:288,1,100.000000596047
408,192,196270,1,0,0:0:0:0:
432,80,197217,6,0,P|360:64|120:96,1,300.000001788141
80,168,198480,1,0,0:0:0:0:
48,264,199428,6,0,P|144:296|432:224,1,400.000002384188
424,128,201007,2,0,P|360:80|328:80,1,100.000000596047
144,48,202270,6,0,P|104:88|240:352,1,400.000002384188
472,200,204796,6,0,P|440:128|152:80,1,400.000002384188
48,184,207323,6,0,L|136:256,1,100.000000596047
216,296,207954,2,0,L|256:248,1,50.0000002980235
288,288,208270,2,0,P|316:304|384:296,1,100.000000596047
496,24,209849,6,0,P|416:40|336:136,1,200.000001192094
296,144,210638,2,0,L|224:160,1,50.0000002980235
144,152,211112,1,0,0:0:0:0:
256,192,211744,12,0,215533,0:0:0:0:
64,96,217744,6,0,P|112:64|160:72,1,100.000000596047
256,64,218375,1,0,0:0:0:0:
328,136,218691,2,0,L|368:104,2,50.0000002980235
336,184,219165,2,0,L|392:288,1,100.000000596047
280,280,219796,6,0,L|280:344,2,50.0000002980235
232,280,220270,2,0,P|168:280|88:160,1,200.000001192094
96,80,221217,2,0,L|168:72,1,50.0000002980235
296,80,221849,6,0,P|360:104|408:224,1,200.000001192094
328,272,222796,1,0,0:0:0:0:
232,304,223112,2,0,P|128:312|88:232,1,200.000001192094
136,152,224059,1,0,0:0:0:0:
144,56,224375,2,0,L|256:64,1,100.000000596047
336,96,225007,1,0,0:0:0:0:
360,192,225323,6,0,P|376:248|352:296,1,100.000000596047
296,280,225796,2,0,L|176:296,1,100.000000596047
112,248,226428,1,0,0:0:0:0:
160,160,227375,6,0,L|160:232,2,50.0000002980235
176,112,227849,2,0,P|232:56|344:96,1,200.000001192094
400,168,228796,2,0,L|400:240,1,50.0000002980235
368,312,229270,1,0,0:0:0:0:
264,312,229586,1,0,0:0:0:0:
168,296,229902,6,0,P|144:264|120:256,2,50.0000002980235
216,304,230375,2,0,P|264:304|320:264,1,100.000000596047
336,240,230849,2,0,P|320:200|256:184,1,100.000000596047
144,120,231480,1,0,0:0:0:0:
88,72,232112,6,0,P|168:56|336:80,1,250.000001490117
376,168,233217,2,0,P|328:208|144:208,1,250.000001490117
48,224,234323,2,0,L|104:272,1,50.0000002980235
80,304,234638,2,0,P|120:328|144:328,1,50.0000002980235
264,312,235112,2,0,P|352:312|408:216,1,200.000001192094
40,56,237007,6,0,L|160:56,1,100.000000596047
168,152,237638,1,0,0:0:0:0:
240,80,237954,2,0,L|352:80,1,100.000000596047
416,144,238586,2,0,P|448:200|432:240,1,100.000000596047
352,264,239217,1,0,0:0:0:0:
248,264,239533,2,0,L|192:304,2,50.0000002980235
216,224,240007,2,0,L|152:216,1,50.0000002980235
120,216,240323,1,0,0:0:0:0:
104,120,240638,2,0,L|144:72,1,50.0000002980235
256,192,241112,12,0,242375,0:0:0:0:
