osu file format v14

[General]
AudioFilename: audio.mp3
AudioLeadIn: 0
PreviewTime: 128594
Countdown: 0
SampleSet: Soft
StackLeniency: 0.7
Mode: 3
LetterboxInBreaks: 0
SpecialStyle: 0
WidescreenStoryboard: 0

[Editor]
Bookmarks: 1657,3157,5407,5594,6157,7657,9157,16657,18157,20407,21157,27157,32219,33157,39157,43657,45157,49657,51157,52657,54157,54907,55657,57157,58657,59407,60157,72157,84157,86407,87157,89407,90157,95407,96157,100657,101032,101969,102157,108157,112657,114157,119407,120157,123157,124844,125407,125969,126157,127657,128407,128782,129157,141157,153157,165157,177157,179407,180157,182407,183157,184657,186157,187657,188407,189157
DistanceSpacing: 1.6
BeatDivisor: 4
GridSize: 32
TimelineZoom: 1.3

[Metadata]
Title:WAA!!!!
TitleUnicode:WAA!!!!
Artist:Omoi
ArtistUnicode:Omoi
Creator:Kofja
Version:Exhaust
Source:
Tags:
BeatmapID:1704720
BeatmapSetID:812778

[Difficulty]
HPDrainRate:8
CircleSize:4
OverallDifficulty:8
ApproachRate:5
SliderMultiplier:2
SliderTickRate:1

[Events]
//Background and Video events
0,0,"bg.jpg",0,0
//Break Periods
//Storyboard Layer 0 (Background)
//Storyboard Layer 1 (Fail)
//Storyboard Layer 2 (Pass)
//Storyboard Layer 3 (Foreground)
//Storyboard Sound Samples

[TimingPoints]
157,375,4,2,0,30,1,0
1657,-100,4,2,0,20,0,0
3157,-100,4,2,0,50,0,0
5594,-100,4,1,0,30,0,0
5782,-100,4,1,0,40,0,0
8782,-100,4,2,0,40,0,0
8875,-100,4,1,0,40,0,0
9157,-100,4,1,0,50,0,0
18157,-100,4,1,0,45,0,0
21157,-100,4,1,0,40,0,0
32407,-100,4,1,0,30,0,0
33157,-100,4,1,0,45,0,0
45157,-100,4,1,0,50,0,0
51157,-100,4,2,0,40,0,0
52657,-100,4,2,0,50,0,0
57157,-100,4,1,0,40,0,0
58657,-100,4,1,0,30,0,0
59782,-100,4,2,0,40,0,0
60157,-100,4,1,0,60,0,1
84157,-100,4,1,0,50,0,0
86782,-100,4,2,0,50,0,0
87157,-100,4,1,0,40,0,0
89407,-100,4,1,0,30,0,0
89782,-100,4,2,0,40,0,0
89969,-100,4,1,0,30,0,0
90157,-100,4,1,0,40,0,0
95407,-100,4,1,0,30,0,0
96157,-100,4,1,0,40,0,0
100657,-100,4,1,0,30,0,0
101032,-100,4,2,0,30,0,0
101969,-100,4,1,0,30,0,0
102157,-100,4,1,0,40,0,0
112657,-100,4,1,0,30,0,0
114157,-100,4,1,0,40,0,0
119407,-100,4,1,0,30,0,0
120157,-100,4,1,0,40,0,0
123157,-100,4,1,0,45,0,0
126157,-100,4,1,0,50,0,0
127657,-100,4,1,0,40,0,0
128782,-100,4,2,0,40,0,0
129157,-100,4,1,0,60,0,1
153157,-100,4,1,0,50,0,0
165157,-100,4,1,0,40,0,0
177157,-100,4,1,0,50,0,0
179782,-100,4,2,0,50,0,0
180157,-100,4,1,0,40,0,0
182407,-100,4,1,0,30,0,0
182782,-100,4,2,0,40,0,0
183157,-100,4,1,0,30,0,0
184657,-100,4,1,0,35,0,0
186157,-100,4,1,0,40,0,0
187657,-100,4,1,0,45,0,0
188407,-100,4,2,0,40,0,1
189157,-100,4,1,0,30,0,0

[HitObjects]
192,192,1657,128,2,3063:0:0:0:0:
320,192,3157,128,2,3344:0:0:0:0:
448,192,3344,1,2,0:0:0:0:
320,192,3438,1,0,0:0:0:0:
448,192,3625,1,2,0:0:0:0:
320,192,3719,1,0,0:0:0:0:
192,192,3907,128,2,4094:0:0:0:0:
448,192,4094,1,2,0:0:0:0:
192,192,4188,1,0,0:0:0:0:
448,192,4375,1,2,0:0:0:0:
192,192,4469,1,0,0:0:0:0:
64,192,4657,128,2,4844:0:0:0:0:
448,192,4844,1,2,0:0:0:0:
64,192,4938,1,0,0:0:0:0:
448,192,5125,1,2,0:0:0:0:
64,192,5219,1,0,0:0:0:0:
192,192,5407,128,0,5594:0:0:0:0:
320,192,5594,1,0,0:0:0:0:
448,192,5688,1,0,0:0:0:0:
320,192,5782,128,10,6063:0:0:0:0:
64,192,5782,128,0,6063:0:0:0:0:
192,192,6157,128,4,6344:0:0:0:0:
448,192,6157,1,0,0:0:0:0:
448,192,6344,1,2,0:0:0:0:
64,192,6344,1,8,0:0:0:0:
192,192,6438,1,0,0:0:0:0:
64,192,6625,1,2,0:0:0:0:
320,192,6625,1,0,0:0:0:0:
192,192,6719,1,8,0:0:0:0:
320,192,6907,128,0,7094:0:0:0:0:
448,192,6907,1,0,0:0:0:0:
64,192,7094,1,10,0:0:0:0:
320,192,7188,1,0,0:0:0:0:
64,192,7375,1,2,0:0:0:0:
192,192,7375,1,0,0:0:0:0:
320,192,7469,1,8,0:0:0:0:
448,192,7657,128,10,7844:0:0:0:0:
320,192,7844,1,2,0:0:0:0:
64,192,7844,128,10,8032:0:0:0:0:
192,192,8032,1,2,0:0:0:0:
448,192,8032,128,10,8219:0:0:0:0:
320,192,8219,1,2,0:0:0:0:
64,192,8219,128,10,8407:0:0:0:0:
192,192,8219,1,0,0:0:0:0:
192,192,8407,1,2,0:0:0:0:
448,192,8407,1,0,0:0:0:0:
320,192,8407,1,4,0:0:0:0:
192,192,8594,1,8,0:0:0:0:
320,192,8688,1,0,0:0:0:0:
448,192,8782,1,8,0:0:0:0:
192,192,8782,128,2,9063:0:0:0:0:
64,192,8782,128,2,9063:0:0:0:0:
320,192,8875,1,0,0:0:0:0:
448,192,8969,1,8,0:0:0:0:
320,192,9063,1,0,0:0:0:0:
448,192,9157,128,6,9438:0:0:0:0:
192,192,9157,1,0,0:0:0:0:
192,192,9344,1,8,0:0:0:0:
320,192,9438,128,2,9719:0:0:0:0:
448,192,9625,1,0,0:0:0:0:
192,192,9719,1,8,0:0:0:0:
448,192,9813,1,0,0:0:0:0:
320,192,9907,128,2,10188:0:0:0:0:
64,192,10094,1,8,0:0:0:0:
192,192,10188,128,2,10469:0:0:0:0:
320,192,10375,1,0,0:0:0:0:
64,192,10469,1,8,0:0:0:0:
320,192,10563,1,0,0:0:0:0:
192,192,10657,128,2,10938:0:0:0:0:
320,192,10844,1,8,0:0:0:0:
64,192,10938,128,2,11219:0:0:0:0:
192,192,11125,1,0,0:0:0:0:
320,192,11219,1,8,0:0:0:0:
192,192,11313,1,0,0:0:0:0:
64,192,11407,128,2,11688:0:0:0:0:
192,192,11594,1,8,0:0:0:0:
320,192,11688,128,2,11969:0:0:0:0:
64,192,11875,1,0,0:0:0:0:
192,192,11969,1,8,0:0:0:0:
320,192,12063,1,0,0:0:0:0:
448,192,12157,128,2,12438:0:0:0:0:
64,192,12344,1,8,0:0:0:0:
192,192,12438,128,2,12719:0:0:0:0:
448,192,12625,1,0,0:0:0:0:
320,192,12719,1,8,0:0:0:0:
192,192,12813,1,0,0:0:0:0:
320,192,12907,128,2,13188:0:0:0:0:
192,192,13094,1,8,0:0:0:0:
64,192,13188,128,2,13469:0:0:0:0:
448,192,13375,1,0,0:0:0:0:
192,192,13469,1,8,0:0:0:0:
320,192,13563,1,0,0:0:0:0:
448,192,13657,128,2,13938:0:0:0:0:
320,192,13844,1,8,0:0:0:0:
64,192,13938,128,2,14219:0:0:0:0:
448,192,14125,1,0,0:0:0:0:
320,192,14219,1,8,0:0:0:0:
192,192,14313,1,0,0:0:0:0:
448,192,14407,128,2,14688:0:0:0:0:
64,192,14594,1,8,0:0:0:0:
192,192,14688,128,2,14969:0:0:0:0:
320,192,14875,1,0,0:0:0:0:
64,192,14969,1,8,0:0:0:0:
320,192,15063,1,0,0:0:0:0:
448,192,15157,128,2,15438:0:0:0:0:
192,192,15344,1,8,0:0:0:0:
320,192,15438,128,2,15719:0:0:0:0:
448,192,15625,1,0,0:0:0:0:
192,192,15719,1,8,0:0:0:0:
448,192,15813,1,0,0:0:0:0:
320,192,15907,128,2,16188:0:0:0:0:
448,192,16094,1,8,0:0:0:0:
192,192,16188,128,2,16469:0:0:0:0:
320,192,16375,1,0,0:0:0:0:
64,192,16469,1,8,0:0:0:0:
320,192,16563,1,0,0:0:0:0:
192,192,16657,128,2,16938:0:0:0:0:
320,192,16844,1,8,0:0:0:0:
64,192,16938,128,2,17219:0:0:0:0:
320,192,17032,1,8,0:0:0:0:
192,192,17125,1,0,0:0:0:0:
320,192,17219,1,8,0:0:0:0:
192,192,17313,1,0,0:0:0:0:
64,192,17407,128,2,17688:0:0:0:0:
320,192,17407,1,0,0:0:0:0:
448,192,17500,1,0,0:0:0:0:
192,192,17594,1,8,0:0:0:0:
320,192,17688,128,2,17969:0:0:0:0:
448,192,17782,1,8,0:0:0:0:
64,192,17875,1,0,0:0:0:0:
192,192,17969,1,8,0:0:0:0:
320,192,18063,1,0,0:0:0:0:
64,192,18157,128,10,18438:0:0:0:0:
320,192,18438,128,2,18719:0:0:0:0:
192,192,18719,1,8,0:0:0:0:
320,192,18813,1,0,0:0:0:0:
192,192,18907,128,10,19188:0:0:0:0:
448,192,19188,128,2,19469:0:0:0:0:
320,192,19469,1,8,0:0:0:0:
64,192,19563,1,0,0:0:0:0:
320,192,19657,128,10,19938:0:0:0:0:
64,192,19938,128,2,20219:0:0:0:0:
192,192,20219,1,8,0:0:0:0:
320,192,20313,1,0,0:0:0:0:
448,192,20407,128,2,20688:0:0:0:0:
64,192,20594,128,8,21063:0:0:0:0:
320,192,20688,1,0,0:0:0:0:
192,192,20782,128,0,20969:0:0:0:0:
448,192,20782,1,8,0:0:0:0:
320,192,20875,1,0,0:0:0:0:
448,192,20969,1,8,0:0:0:0:
192,192,21063,1,0,0:0:0:0:
320,192,21157,1,0,0:0:0:0:
448,192,21157,1,4,0:0:0:0:
64,192,21157,1,0,0:0:0:0:
192,192,21344,1,8,0:0:0:0:
320,192,21344,1,0,0:0:0:0:
192,192,21532,1,0,0:0:0:0:
64,192,21625,1,0,0:0:0:0:
448,192,21719,1,0,0:0:0:0:
320,192,21719,1,8,0:0:0:0:
192,192,21907,1,0,0:0:0:0:
320,192,22094,1,8,0:0:0:0:
64,192,22094,1,0,0:0:0:0:
448,192,22188,1,0,0:0:0:0:
320,192,22375,1,0,0:0:0:0:
192,192,22469,1,0,0:0:0:0:
64,192,22469,1,8,0:0:0:0:
448,192,22657,1,0,0:0:0:0:
320,192,22844,1,8,0:0:0:0:
192,192,22844,1,0,0:0:0:0:
320,192,23032,1,0,0:0:0:0:
64,192,23125,1,0,0:0:0:0:
192,192,23219,1,8,0:0:0:0:
448,192,23219,1,0,0:0:0:0:
448,192,23407,1,0,0:0:0:0:
64,192,23594,1,0,0:0:0:0:
192,192,23594,1,8,0:0:0:0:
320,192,23782,1,0,0:0:0:0:
448,192,23875,1,0,0:0:0:0:
192,192,23969,1,8,0:0:0:0:
64,192,23969,1,0,0:0:0:0:
320,192,24063,1,0,0:0:0:0:
448,192,24157,1,0,0:0:0:0:
192,192,24157,1,0,0:0:0:0:
192,192,24344,1,0,0:0:0:0:
320,192,24344,1,8,0:0:0:0:
192,192,24532,1,0,0:0:0:0:
64,192,24625,1,0,0:0:0:0:
448,192,24719,1,8,0:0:0:0:
320,192,24719,1,0,0:0:0:0:
192,192,24907,1,0,0:0:0:0:
320,192,25094,1,8,0:0:0:0:
64,192,25094,1,0,0:0:0:0:
448,192,25188,1,0,0:0:0:0:
320,192,25375,1,0,0:0:0:0:
192,192,25469,1,8,0:0:0:0:
64,192,25469,1,0,0:0:0:0:
448,192,25657,1,0,0:0:0:0:
320,192,25844,1,8,0:0:0:0:
192,192,25844,1,0,0:0:0:0:
320,192,26032,5,0,0:0:0:0:
64,192,26125,1,0,0:0:0:0:
192,192,26219,1,0,0:0:0:0:
448,192,26219,1,8,0:0:0:0:
448,192,26407,1,0,0:0:0:0:
64,192,26594,1,0,0:0:0:0:
192,192,26594,1,8,0:0:0:0:
320,192,26688,1,0,0:0:0:0:
448,192,26875,1,0,0:0:0:0:
192,192,26969,1,8,0:0:0:0:
64,192,26969,1,0,0:0:0:0:
448,192,27157,1,0,0:0:0:0:
64,192,27157,1,4,0:0:0:0:
192,192,27157,1,0,0:0:0:0:
192,192,27344,1,8,0:0:0:0:
320,192,27344,1,0,0:0:0:0:
320,192,27532,1,0,0:0:0:0:
448,192,27625,1,0,0:0:0:0:
192,192,27719,1,8,0:0:0:0:
64,192,27719,1,0,0:0:0:0:
320,192,27907,1,0,0:0:0:0:
448,192,28094,1,0,0:0:0:0:
192,192,28094,1,8,0:0:0:0:
64,192,28188,1,0,0:0:0:0:
192,192,28375,1,0,0:0:0:0:
448,192,28469,1,8,0:0:0:0:
320,192,28469,1,0,0:0:0:0:
64,192,28657,1,0,0:0:0:0:
320,192,28844,1,0,0:0:0:0:
192,192,28844,1,8,0:0:0:0:
192,192,29032,1,0,0:0:0:0:
448,192,29125,1,0,0:0:0:0:
64,192,29219,1,8,0:0:0:0:
320,192,29219,1,0,0:0:0:0:
64,192,29407,1,0,0:0:0:0:
320,192,29594,1,0,0:0:0:0:
448,192,29594,1,8,0:0:0:0:
64,192,29688,1,0,0:0:0:0:
64,192,29875,1,0,0:0:0:0:
448,192,29969,1,0,0:0:0:0:
320,192,29969,1,8,0:0:0:0:
320,192,30157,1,0,0:0:0:0:
64,192,30157,1,0,0:0:0:0:
192,192,30344,1,0,0:0:0:0:
320,192,30344,1,8,0:0:0:0:
320,192,30532,1,0,0:0:0:0:
448,192,30625,1,0,0:0:0:0:
192,192,30719,1,8,0:0:0:0:
64,192,30719,1,0,0:0:0:0:
448,192,30813,1,0,0:0:0:0:
320,192,30907,1,0,0:0:0:0:
448,192,31094,1,8,0:0:0:0:
192,192,31094,1,0,0:0:0:0:
64,192,31188,1,0,0:0:0:0:
192,192,31375,1,0,0:0:0:0:
448,192,31469,1,0,0:0:0:0:
320,192,31469,1,8,0:0:0:0:
64,192,31657,1,0,0:0:0:0:
320,192,31844,1,8,0:0:0:0:
192,192,31844,1,0,0:0:0:0:
192,192,32032,5,0,0:0:0:0:
448,192,32125,1,0,0:0:0:0:
64,192,32219,1,0,0:0:0:0:
320,192,32219,1,0,0:0:0:0:
192,192,32313,1,0,0:0:0:0:
320,192,32407,1,8,0:0:0:0:
448,192,32500,1,0,0:0:0:0:
320,192,32594,1,8,0:0:0:0:
64,192,32594,1,0,0:0:0:0:
192,192,32688,1,0,0:0:0:0:
320,192,32782,1,8,0:0:0:0:
448,192,32782,1,0,0:0:0:0:
192,192,32875,1,0,0:0:0:0:
64,192,32969,1,0,0:0:0:0:
448,192,32969,1,8,0:0:0:0:
192,192,33063,1,0,0:0:0:0:
320,192,33157,1,0,0:0:0:0:
64,192,33157,1,0,0:0:0:0:
448,192,33157,128,6,34657:0:0:0:0:
192,192,33344,1,8,0:0:0:0:
320,192,33344,1,0,0:0:0:0:
192,192,33532,1,0,0:0:0:0:
64,192,33625,1,0,0:0:0:0:
192,192,33719,1,0,0:0:0:0:
320,192,33719,1,8,0:0:0:0:
64,192,33907,1,0,0:0:0:0:
320,192,34094,1,8,0:0:0:0:
64,192,34094,1,0,0:0:0:0:
192,192,34188,1,0,0:0:0:0:
320,192,34375,1,0,0:0:0:0:
192,192,34469,1,8,0:0:0:0:
64,192,34469,1,0,0:0:0:0:
64,192,34657,128,6,36157:0:0:0:0:
320,192,34844,1,8,0:0:0:0:
192,192,34844,1,0,0:0:0:0:
192,192,35032,1,0,0:0:0:0:
320,192,35125,1,0,0:0:0:0:
192,192,35219,1,8,0:0:0:0:
448,192,35219,1,0,0:0:0:0:
448,192,35407,1,0,0:0:0:0:
320,192,35594,1,8,0:0:0:0:
192,192,35594,1,0,0:0:0:0:
320,192,35782,1,0,0:0:0:0:
192,192,35875,1,0,0:0:0:0:
448,192,35969,1,8,0:0:0:0:
320,192,35969,1,0,0:0:0:0:
192,192,36063,1,0,0:0:0:0:
448,192,36157,1,0,0:0:0:0:
320,192,36157,128,6,37657:0:0:0:0:
192,192,36344,1,8,0:0:0:0:
448,192,36344,1,0,0:0:0:0:
192,192,36532,1,0,0:0:0:0:
64,192,36625,1,0,0:0:0:0:
448,192,36719,1,0,0:0:0:0:
192,192,36719,1,8,0:0:0:0:
448,192,36907,1,0,0:0:0:0:
192,192,37094,1,8,0:0:0:0:
64,192,37094,1,0,0:0:0:0:
448,192,37188,1,0,0:0:0:0:
192,192,37375,1,0,0:0:0:0:
448,192,37469,1,8,0:0:0:0:
64,192,37469,1,0,0:0:0:0:
192,192,37657,128,6,39157:0:0:0:0:
64,192,37844,1,0,0:0:0:0:
320,192,37844,1,8,0:0:0:0:
448,192,38032,5,0,0:0:0:0:
64,192,38125,1,0,0:0:0:0:
320,192,38219,1,8,0:0:0:0:
448,192,38219,1,0,0:0:0:0:
320,192,38407,1,0,0:0:0:0:
64,192,38594,1,0,0:0:0:0:
448,192,38594,1,8,0:0:0:0:
320,192,38688,1,0,0:0:0:0:
64,192,38875,1,0,0:0:0:0:
320,192,38969,1,8,0:0:0:0:
448,192,38969,1,0,0:0:0:0:
448,192,39157,1,0,0:0:0:0:
320,192,39157,1,0,0:0:0:0:
64,192,39157,128,6,40657:0:0:0:0:
320,192,39344,1,8,0:0:0:0:
192,192,39344,1,0,0:0:0:0:
320,192,39532,1,0,0:0:0:0:
448,192,39625,1,0,0:0:0:0:
320,192,39719,1,0,0:0:0:0:
192,192,39719,1,8,0:0:0:0:
448,192,39907,1,0,0:0:0:0:
192,192,40094,1,0,0:0:0:0:
448,192,40094,1,8,0:0:0:0:
320,192,40188,1,0,0:0:0:0:
192,192,40375,1,0,0:0:0:0:
320,192,40469,1,8,0:0:0:0:
448,192,40469,1,0,0:0:0:0:
448,192,40657,128,6,42157:0:0:0:0:
192,192,40844,1,0,0:0:0:0:
320,192,40844,1,8,0:0:0:0:
320,192,41032,1,0,0:0:0:0:
192,192,41125,1,0,0:0:0:0:
320,192,41219,1,8,0:0:0:0:
64,192,41219,1,0,0:0:0:0:
64,192,41407,1,0,0:0:0:0:
192,192,41594,1,0,0:0:0:0:
320,192,41594,1,8,0:0:0:0:
64,192,41688,1,0,0:0:0:0:
320,192,41875,1,0,0:0:0:0:
64,192,41969,1,0,0:0:0:0:
192,192,41969,1,8,0:0:0:0:
320,192,42063,1,0,0:0:0:0:
64,192,42157,1,0,0:0:0:0:
192,192,42157,128,6,43657:0:0:0:0:
320,192,42344,1,8,0:0:0:0:
64,192,42344,1,0,0:0:0:0:
320,192,42532,1,0,0:0:0:0:
448,192,42625,1,0,0:0:0:0:
64,192,42719,1,0,0:0:0:0:
320,192,42719,1,8,0:0:0:0:
64,192,42907,1,0,0:0:0:0:
320,192,43094,1,8,0:0:0:0:
448,192,43094,1,0,0:0:0:0:
64,192,43188,1,0,0:0:0:0:
320,192,43375,1,0,0:0:0:0:
64,192,43469,1,0,0:0:0:0:
448,192,43469,1,8,0:0:0:0:
320,192,43657,128,6,45157:0:0:0:0:
448,192,43844,1,0,0:0:0:0:
192,192,43844,1,8,0:0:0:0:
64,192,43938,1,0,0:0:0:0:
192,192,44032,1,0,0:0:0:0:
192,192,44219,1,8,0:0:0:0:
64,192,44219,1,0,0:0:0:0:
448,192,44313,1,0,0:0:0:0:
192,192,44407,1,0,0:0:0:0:
448,192,44594,1,8,0:0:0:0:
64,192,44594,1,0,0:0:0:0:
192,192,44688,1,0,0:0:0:0:
448,192,44782,1,8,0:0:0:0:
192,192,44875,1,0,0:0:0:0:
64,192,44969,1,8,0:0:0:0:
192,192,45063,1,0,0:0:0:0:
64,192,45157,1,0,0:0:0:0:
448,192,45157,128,6,46657:0:0:0:0:
192,192,45344,1,8,0:0:0:0:
320,192,45344,1,0,0:0:0:0:
64,192,45532,1,0,0:0:0:0:
192,192,45625,1,0,0:0:0:0:
64,192,45719,1,0,0:0:0:0:
320,192,45719,1,8,0:0:0:0:
192,192,45907,1,0,0:0:0:0:
192,192,46094,1,0,0:0:0:0:
64,192,46094,1,8,0:0:0:0:
320,192,46188,1,0,0:0:0:0:
320,192,46375,1,0,0:0:0:0:
192,192,46469,1,8,0:0:0:0:
64,192,46469,1,0,0:0:0:0:
64,192,46657,128,6,48157:0:0:0:0:
320,192,46844,1,0,0:0:0:0:
192,192,46844,1,8,0:0:0:0:
192,192,47032,1,0,0:0:0:0:
448,192,47125,1,0,0:0:0:0:
192,192,47219,1,8,0:0:0:0:
320,192,47219,1,0,0:0:0:0:
320,192,47407,1,0,0:0:0:0:
448,192,47594,1,0,0:0:0:0:
192,192,47594,1,8,0:0:0:0:
320,192,47688,1,0,0:0:0:0:
192,192,47875,1,0,0:0:0:0:
448,192,47969,1,0,0:0:0:0:
320,192,47969,1,8,0:0:0:0:
192,192,48063,1,0,0:0:0:0:
448,192,48157,1,0,0:0:0:0:
320,192,48157,128,6,49657:0:0:0:0:
192,192,48344,1,8,0:0:0:0:
448,192,48344,1,0,0:0:0:0:
448,192,48532,1,0,0:0:0:0:
64,192,48625,1,0,0:0:0:0:
448,192,48719,1,0,0:0:0:0:
192,192,48719,1,8,0:0:0:0:
64,192,48907,1,0,0:0:0:0:
192,192,49094,1,8,0:0:0:0:
64,192,49094,1,0,0:0:0:0:
448,192,49188,1,0,0:0:0:0:
64,192,49375,1,0,0:0:0:0:
192,192,49469,1,0,0:0:0:0:
448,192,49469,1,8,0:0:0:0:
192,192,49657,128,6,51157:0:0:0:0:
320,192,49844,1,0,0:0:0:0:
448,192,49844,1,8,0:0:0:0:
64,192,49938,1,0,0:0:0:0:
448,192,50032,1,8,0:0:0:0:
320,192,50125,1,0,0:0:0:0:
448,192,50219,1,8,0:0:0:0:
64,192,50219,1,0,0:0:0:0:
320,192,50313,1,0,0:0:0:0:
64,192,50407,1,8,0:0:0:0:
64,192,50594,1,8,0:0:0:0:
448,192,50594,1,0,0:0:0:0:
320,192,50688,1,0,0:0:0:0:
448,192,50782,1,8,0:0:0:0:
64,192,50875,1,0,0:0:0:0:
448,192,50969,1,8,0:0:0:0:
64,192,51063,1,0,0:0:0:0:
448,192,51157,1,4,0:0:0:0:
320,192,51157,1,4,0:0:0:0:
192,192,51344,1,0,0:0:0:0:
320,192,51344,1,8,0:0:0:0:
320,192,51532,1,0,0:0:0:0:
64,192,51532,1,0,0:0:0:0:
448,192,51532,1,0,0:0:0:0:
448,192,51719,1,8,0:0:0:0:
64,192,51719,1,0,0:0:0:0:
192,192,51907,1,0,0:0:0:0:
64,192,51907,1,0,0:0:0:0:
320,192,51907,1,0,0:0:0:0:
448,192,52094,1,0,0:0:0:0:
192,192,52094,1,8,0:0:0:0:
320,192,52188,1,0,0:0:0:0:
448,192,52282,1,8,0:0:0:0:
320,192,52375,1,0,0:0:0:0:
192,192,52469,1,8,0:0:0:0:
64,192,52469,1,0,0:0:0:0:
448,192,52657,1,0,0:0:0:0:
320,192,52657,1,4,0:0:0:0:
64,192,52657,1,0,0:0:0:0:
192,192,52657,1,4,0:0:0:0:
320,192,52844,1,8,0:0:0:0:
448,192,52844,1,0,0:0:0:0:
320,192,53032,1,0,0:0:0:0:
64,192,53032,1,0,0:0:0:0:
192,192,53032,1,0,0:0:0:0:
192,192,53219,1,8,0:0:0:0:
448,192,53219,1,0,0:0:0:0:
448,192,53407,1,0,0:0:0:0:
192,192,53407,1,0,0:0:0:0:
64,192,53407,1,0,0:0:0:0:
448,192,53594,1,0,0:0:0:0:
320,192,53594,1,8,0:0:0:0:
192,192,53688,1,0,0:0:0:0:
320,192,53782,1,8,0:0:0:0:
64,192,53875,1,0,0:0:0:0:
192,192,53969,1,0,0:0:0:0:
320,192,53969,1,8,0:0:0:0:
320,192,54157,1,4,0:0:0:0:
64,192,54157,1,0,0:0:0:0:
192,192,54157,1,4,0:0:0:0:
448,192,54157,1,0,0:0:0:0:
320,192,54344,1,8,0:0:0:0:
64,192,54344,1,0,0:0:0:0:
448,192,54438,1,0,0:0:0:0:
64,192,54532,1,8,0:0:0:0:
320,192,54625,1,0,0:0:0:0:
448,192,54719,1,0,0:0:0:0:
192,192,54719,1,8,0:0:0:0:
320,192,54813,1,0,0:0:0:0:
64,192,54907,1,4,0:0:0:0:
448,192,54907,1,0,0:0:0:0:
192,192,54907,1,4,0:0:0:0:
64,192,55094,1,0,0:0:0:0:
192,192,55094,1,8,0:0:0:0:
320,192,55188,1,0,0:0:0:0:
448,192,55282,1,8,0:0:0:0:
320,192,55375,1,0,0:0:0:0:
192,192,55469,1,8,0:0:0:0:
64,192,55469,1,0,0:0:0:0:
448,192,55563,1,0,0:0:0:0:
320,192,55657,1,0,0:0:0:0:
192,192,55657,1,4,0:0:0:0:
64,192,55657,1,0,0:0:0:0:
192,192,55844,1,8,0:0:0:0:
448,192,56032,1,0,0:0:0:0:
64,192,56032,1,0,0:0:0:0:
320,192,56032,1,4,0:0:0:0:
448,192,56219,1,8,0:0:0:0:
320,192,56407,1,0,0:0:0:0:
64,192,56407,1,0,0:0:0:0:
192,192,56407,1,4,0:0:0:0:
64,192,56594,1,8,0:0:0:0:
448,192,56782,1,8,0:0:0:0:
192,192,56782,1,0,0:0:0:0:
320,192,56782,1,4,0:0:0:0:
64,192,56875,1,0,0:0:0:0:
192,192,56969,1,8,0:0:0:0:
320,192,57063,1,0,0:0:0:0:
192,192,57157,1,4,0:0:0:0:
64,192,57157,128,0,59407:0:0:0:0:
448,192,57157,1,8,0:0:0:0:
320,192,57344,1,8,0:0:0:0:
448,192,57532,1,0,0:0:0:0:
320,192,57532,1,0,0:0:0:0:
448,192,57719,1,8,0:0:0:0:
320,192,57907,1,0,0:0:0:0:
192,192,57907,1,0,0:0:0:0:
448,192,58094,1,0,0:0:0:0:
320,192,58094,1,8,0:0:0:0:
448,192,58282,1,0,0:0:0:0:
192,192,58282,1,0,0:0:0:0:
320,192,58469,1,8,0:0:0:0:
192,192,58469,1,0,0:0:0:0:
448,192,58657,1,0,0:0:0:0:
320,192,58657,1,0,0:0:0:0:
192,192,58657,1,0,0:0:0:0:
448,192,58844,1,8,0:0:0:0:
192,192,58844,1,0,0:0:0:0:
320,192,58938,1,0,0:0:0:0:
448,192,59032,1,8,0:0:0:0:
320,192,59125,1,0,0:0:0:0:
192,192,59219,1,8,0:0:0:0:
320,192,59313,1,0,0:0:0:0:
192,192,59407,1,0,0:0:0:0:
448,192,59407,1,8,0:0:0:0:
64,192,59594,1,0,0:0:0:0:
320,192,59594,1,0,0:0:0:0:
448,192,59782,1,0,0:0:0:0:
64,192,59782,1,0,0:0:0:0:
192,192,59782,128,2,60063:0:0:0:0:
320,192,59782,128,2,60063:0:0:0:0:
192,192,60157,1,0,0:0:0:0:
320,192,60157,1,4,0:0:0:0:
448,192,60157,1,0,0:0:0:0:
64,192,60157,128,2,60344:0:0:0:0:
320,192,60344,1,8,0:0:0:0:
192,192,60344,1,0,0:0:0:0:
448,192,60344,128,2,60532:0:0:0:0:
320,192,60532,1,0,0:0:0:0:
448,192,60625,1,0,0:0:0:0:
64,192,60719,1,0,0:0:0:0:
320,192,60719,1,8,0:0:0:0:
320,192,60907,1,0,0:0:0:0:
64,192,60907,128,2,61094:0:0:0:0:
192,192,61094,1,8,0:0:0:0:
448,192,61094,1,0,0:0:0:0:
320,192,61094,128,2,61188:0:0:0:0:
64,192,61188,1,0,0:0:0:0:
448,192,61282,128,2,61469:0:0:0:0:
192,192,61375,1,0,0:0:0:0:
64,192,61469,1,0,0:0:0:0:
320,192,61469,128,10,61563:0:0:0:0:
64,192,61657,1,0,0:0:0:0:
448,192,61657,128,2,62032:0:0:0:0:
192,192,61844,1,8,0:0:0:0:
320,192,61844,1,0,0:0:0:0:
192,192,62032,1,0,0:0:0:0:
64,192,62032,128,2,62219:0:0:0:0:
448,192,62125,1,0,0:0:0:0:
192,192,62219,1,0,0:0:0:0:
320,192,62219,128,10,62782:0:0:0:0:
64,192,62407,1,0,0:0:0:0:
448,192,62594,1,0,0:0:0:0:
192,192,62594,1,8,0:0:0:0:
448,192,62782,1,0,0:0:0:0:
192,192,62782,128,2,62969:0:0:0:0:
64,192,62875,1,0,0:0:0:0:
320,192,62969,1,8,0:0:0:0:
448,192,62969,1,0,0:0:0:0:
192,192,63063,1,0,0:0:0:0:
64,192,63157,1,0,0:0:0:0:
320,192,63157,1,0,0:0:0:0:
448,192,63157,128,2,63344:0:0:0:0:
320,192,63344,1,0,0:0:0:0:
192,192,63344,1,8,0:0:0:0:
64,192,63344,128,2,63532:0:0:0:0:
192,192,63532,1,0,0:0:0:0:
320,192,63532,128,2,63719:0:0:0:0:
448,192,63625,1,0,0:0:0:0:
64,192,63719,1,8,0:0:0:0:
192,192,63719,1,0,0:0:0:0:
192,192,63907,1,0,0:0:0:0:
320,192,63907,128,2,64094:0:0:0:0:
64,192,64094,1,8,0:0:0:0:
448,192,64094,128,2,64282:0:0:0:0:
192,192,64188,1,0,0:0:0:0:
64,192,64282,128,2,64469:0:0:0:0:
192,192,64375,1,0,0:0:0:0:
320,192,64469,1,8,0:0:0:0:
448,192,64469,1,0,0:0:0:0:
64,192,64657,1,0,0:0:0:0:
448,192,64657,128,2,64844:0:0:0:0:
192,192,64844,1,8,0:0:0:0:
64,192,64844,1,0,0:0:0:0:
320,192,64844,128,2,65032:0:0:0:0:
192,192,65032,5,0,0:0:0:0:
448,192,65125,1,0,0:0:0:0:
320,192,65219,1,0,0:0:0:0:
64,192,65219,1,8,0:0:0:0:
192,192,65219,128,2,65500:0:0:0:0:
64,192,65407,1,0,0:0:0:0:
192,192,65594,1,8,0:0:0:0:
448,192,65594,1,0,0:0:0:0:
320,192,65594,128,2,65782:0:0:0:0:
64,192,65688,1,0,0:0:0:0:
192,192,65782,128,2,65969:0:0:0:0:
64,192,65875,1,0,0:0:0:0:
320,192,65969,1,8,0:0:0:0:
448,192,65969,1,0,0:0:0:0:
64,192,66157,1,0,0:0:0:0:
320,192,66157,1,4,0:0:0:0:
448,192,66157,128,2,66344:0:0:0:0:
64,192,66344,1,8,0:0:0:0:
192,192,66344,1,0,0:0:0:0:
320,192,66344,128,2,66532:0:0:0:0:
192,192,66532,1,0,0:0:0:0:
64,192,66625,1,0,0:0:0:0:
320,192,66719,1,8,0:0:0:0:
448,192,66719,1,0,0:0:0:0:
192,192,66907,1,0,0:0:0:0:
448,192,66907,128,2,67094:0:0:0:0:
64,192,67094,1,0,0:0:0:0:
320,192,67094,1,8,0:0:0:0:
192,192,67094,128,2,67282:0:0:0:0:
448,192,67188,1,0,0:0:0:0:
64,192,67282,128,2,67375:0:0:0:0:
320,192,67375,1,0,0:0:0:0:
64,192,67469,1,8,0:0:0:0:
448,192,67469,1,0,0:0:0:0:
448,192,67657,1,0,0:0:0:0:
64,192,67657,128,2,68032:0:0:0:0:
192,192,67844,1,0,0:0:0:0:
320,192,67844,1,8,0:0:0:0:
448,192,68032,1,0,0:0:0:0:
320,192,68032,128,2,68219:0:0:0:0:
64,192,68125,1,0,0:0:0:0:
448,192,68219,1,8,0:0:0:0:
192,192,68219,128,2,68407:0:0:0:0:
448,192,68407,1,0,0:0:0:0:
192,192,68594,1,0,0:0:0:0:
64,192,68594,1,8,0:0:0:0:
320,192,68594,128,2,68782:0:0:0:0:
448,192,68688,1,0,0:0:0:0:
192,192,68782,128,2,68969:0:0:0:0:
448,192,68875,1,0,0:0:0:0:
320,192,68969,1,8,0:0:0:0:
64,192,68969,128,2,69157:0:0:0:0:
192,192,69157,1,0,0:0:0:0:
448,192,69157,128,2,69344:0:0:0:0:
192,192,69344,1,8,0:0:0:0:
320,192,69344,128,2,69532:0:0:0:0:
192,192,69532,1,0,0:0:0:0:
448,192,69532,128,2,69719:0:0:0:0:
64,192,69625,1,0,0:0:0:0:
320,192,69719,1,8,0:0:0:0:
192,192,69719,1,0,0:0:0:0:
192,192,69907,1,0,0:0:0:0:
448,192,69907,128,2,70188:0:0:0:0:
64,192,70094,1,8,0:0:0:0:
320,192,70094,1,0,0:0:0:0:
448,192,70282,1,0,0:0:0:0:
320,192,70282,1,0,0:0:0:0:
192,192,70282,128,2,70563:0:0:0:0:
64,192,70469,1,0,0:0:0:0:
448,192,70469,1,8,0:0:0:0:
320,192,70563,1,0,0:0:0:0:
448,192,70657,128,2,70938:0:0:0:0:
192,192,70657,1,0,0:0:0:0:
64,192,70750,1,0,0:0:0:0:
192,192,70844,1,8,0:0:0:0:
320,192,70844,1,0,0:0:0:0:
64,192,70938,128,2,71219:0:0:0:0:
192,192,71032,5,0,0:0:0:0:
320,192,71125,1,0,0:0:0:0:
192,192,71219,1,0,0:0:0:0:
448,192,71219,128,2,71594:0:0:0:0:
320,192,71313,1,0,0:0:0:0:
192,192,71407,1,8,0:0:0:0:
64,192,71500,1,0,0:0:0:0:
192,192,71594,1,8,0:0:0:0:
320,192,71688,1,0,0:0:0:0:
192,192,71782,1,8,0:0:0:0:
64,192,71782,1,0,0:0:0:0:
320,192,71875,1,0,0:0:0:0:
448,192,71969,1,0,0:0:0:0:
64,192,71969,1,8,0:0:0:0:
320,192,72063,1,0,0:0:0:0:
192,192,72157,1,4,0:0:0:0:
64,192,72157,1,0,0:0:0:0:
448,192,72157,128,2,72344:0:0:0:0:
192,192,72344,1,8,0:0:0:0:
320,192,72344,1,0,0:0:0:0:
64,192,72344,128,2,72532:0:0:0:0:
192,192,72532,1,0,0:0:0:0:
64,192,72625,1,0,0:0:0:0:
448,192,72719,1,0,0:0:0:0:
320,192,72719,1,8,0:0:0:0:
192,192,72907,1,0,0:0:0:0:
448,192,72907,128,2,73094:0:0:0:0:
320,192,73094,1,8,0:0:0:0:
64,192,73094,1,0,0:0:0:0:
192,192,73094,128,2,73282:0:0:0:0:
448,192,73188,1,0,0:0:0:0:
64,192,73282,128,2,73469:0:0:0:0:
320,192,73375,1,0,0:0:0:0:
448,192,73469,1,8,0:0:0:0:
192,192,73469,128,2,73657:0:0:0:0:
448,192,73657,1,0,0:0:0:0:
64,192,73657,128,2,73844:0:0:0:0:
192,192,73844,1,8,0:0:0:0:
320,192,73844,128,2,74032:0:0:0:0:
192,192,74032,1,0,0:0:0:0:
448,192,74032,128,2,74219:0:0:0:0:
64,192,74125,1,0,0:0:0:0:
320,192,74219,1,0,0:0:0:0:
192,192,74219,128,10,74594:0:0:0:0:
448,192,74407,1,0,0:0:0:0:
64,192,74594,1,0,0:0:0:0:
320,192,74594,1,8,0:0:0:0:
64,192,74782,1,0,0:0:0:0:
320,192,74782,128,2,74969:0:0:0:0:
448,192,74875,1,0,0:0:0:0:
192,192,74969,1,8,0:0:0:0:
64,192,74969,1,0,0:0:0:0:
320,192,75063,1,0,0:0:0:0:
448,192,75157,1,0,0:0:0:0:
192,192,75157,1,0,0:0:0:0:
64,192,75157,128,2,75344:0:0:0:0:
192,192,75344,1,0,0:0:0:0:
320,192,75344,1,8,0:0:0:0:
448,192,75344,128,2,75532:0:0:0:0:
320,192,75532,1,0,0:0:0:0:
192,192,75532,128,2,75719:0:0:0:0:
64,192,75625,1,0,0:0:0:0:
448,192,75719,1,8,0:0:0:0:
320,192,75719,1,0,0:0:0:0:
320,192,75907,1,0,0:0:0:0:
192,192,75907,128,2,76094:0:0:0:0:
448,192,76094,1,8,0:0:0:0:
64,192,76094,128,2,76282:0:0:0:0:
320,192,76188,1,0,0:0:0:0:
448,192,76282,128,2,76469:0:0:0:0:
192,192,76375,1,0,0:0:0:0:
320,192,76469,1,8,0:0:0:0:
64,192,76469,1,0,0:0:0:0:
448,192,76657,1,0,0:0:0:0:
64,192,76657,128,2,76844:0:0:0:0:
320,192,76844,1,8,0:0:0:0:
448,192,76844,1,0,0:0:0:0:
192,192,76844,128,2,77032:0:0:0:0:
320,192,77032,5,0,0:0:0:0:
64,192,77125,1,0,0:0:0:0:
192,192,77219,1,0,0:0:0:0:
448,192,77219,1,8,0:0:0:0:
320,192,77219,128,2,77500:0:0:0:0:
448,192,77407,1,0,0:0:0:0:
320,192,77594,1,8,0:0:0:0:
64,192,77594,1,0,0:0:0:0:
192,192,77594,128,2,77782:0:0:0:0:
448,192,77688,1,0,0:0:0:0:
320,192,77782,128,2,77969:0:0:0:0:
448,192,77875,1,0,0:0:0:0:
192,192,77969,1,8,0:0:0:0:
64,192,77969,1,0,0:0:0:0:
448,192,78157,1,0,0:0:0:0:
192,192,78157,1,4,0:0:0:0:
64,192,78157,128,2,78344:0:0:0:0:
448,192,78344,1,8,0:0:0:0:
320,192,78344,1,0,0:0:0:0:
192,192,78344,128,2,78532:0:0:0:0:
448,192,78532,1,0,0:0:0:0:
320,192,78532,128,2,78719:0:0:0:0:
64,192,78625,1,0,0:0:0:0:
192,192,78719,1,0,0:0:0:0:
448,192,78719,128,10,78907:0:0:0:0:
320,192,78907,1,0,0:0:0:0:
64,192,78907,128,2,79094:0:0:0:0:
448,192,79094,1,0,0:0:0:0:
192,192,79094,1,8,0:0:0:0:
320,192,79094,128,2,79282:0:0:0:0:
64,192,79188,1,0,0:0:0:0:
448,192,79282,128,2,79375:0:0:0:0:
192,192,79375,1,0,0:0:0:0:
448,192,79469,1,8,0:0:0:0:
64,192,79469,1,0,0:0:0:0:
64,192,79657,1,0,0:0:0:0:
448,192,79657,128,2,79844:0:0:0:0:
192,192,79844,1,8,0:0:0:0:
320,192,79844,128,2,80032:0:0:0:0:
64,192,80032,1,0,0:0:0:0:
192,192,80032,128,2,80219:0:0:0:0:
448,192,80125,1,0,0:0:0:0:
64,192,80219,1,8,0:0:0:0:
320,192,80219,128,2,80407:0:0:0:0:
64,192,80407,1,0,0:0:0:0:
320,192,80594,1,0,0:0:0:0:
448,192,80594,1,8,0:0:0:0:
192,192,80594,128,2,80782:0:0:0:0:
64,192,80688,1,0,0:0:0:0:
320,192,80782,128,2,80969:0:0:0:0:
64,192,80875,1,0,0:0:0:0:
192,192,80969,1,8,0:0:0:0:
448,192,80969,128,2,81157:0:0:0:0:
320,192,81157,1,0,0:0:0:0:
64,192,81157,128,2,81719:0:0:0:0:
320,192,81344,1,8,0:0:0:0:
192,192,81344,1,0,0:0:0:0:
320,192,81532,1,0,0:0:0:0:
448,192,81625,1,0,0:0:0:0:
192,192,81719,1,8,0:0:0:0:
320,192,81719,1,0,0:0:0:0:
64,192,81907,1,0,0:0:0:0:
320,192,81907,128,2,82282:0:0:0:0:
448,192,82094,1,8,0:0:0:0:
192,192,82094,1,0,0:0:0:0:
64,192,82282,1,0,0:0:0:0:
448,192,82282,128,2,82657:0:0:0:0:
192,192,82375,1,0,0:0:0:0:
320,192,82469,1,0,0:0:0:0:
64,192,82469,1,8,0:0:0:0:
64,192,82657,128,2,83407:0:0:0:0:
320,192,82657,1,0,0:0:0:0:
448,192,82750,1,0,0:0:0:0:
320,192,82844,1,8,0:0:0:0:
192,192,82844,1,0,0:0:0:0:
448,192,82938,1,0,0:0:0:0:
320,192,83032,5,0,0:0:0:0:
192,192,83125,1,0,0:0:0:0:
320,192,83219,1,0,0:0:0:0:
192,192,83313,1,0,0:0:0:0:
320,192,83407,1,8,0:0:0:0:
448,192,83407,128,2,83969:0:0:0:0:
64,192,83500,1,0,0:0:0:0:
320,192,83594,1,8,0:0:0:0:
64,192,83688,1,0,0:0:0:0:
320,192,83782,1,8,0:0:0:0:
192,192,83782,1,0,0:0:0:0:
64,192,83875,1,0,0:0:0:0:
320,192,83969,1,8,0:0:0:0:
192,192,83969,128,2,84157:0:0:0:0:
64,192,84063,1,0,0:0:0:0:
320,192,84157,1,6,0:0:0:0:
448,192,84157,1,0,0:0:0:0:
64,192,84344,1,0,0:0:0:0:
192,192,84344,1,10,0:0:0:0:
320,192,84438,1,2,0:0:0:0:
448,192,84438,1,0,0:0:0:0:
192,192,84625,1,2,0:0:0:0:
64,192,84625,1,0,0:0:0:0:
448,192,84719,128,0,84907:0:0:0:0:
320,192,84719,128,10,84907:0:0:0:0:
64,192,84907,1,0,0:0:0:0:
192,192,84907,1,6,0:0:0:0:
448,192,85094,1,10,0:0:0:0:
64,192,85094,1,0,0:0:0:0:
192,192,85188,1,0,0:0:0:0:
320,192,85188,1,2,0:0:0:0:
64,192,85375,1,0,0:0:0:0:
448,192,85375,1,2,0:0:0:0:
192,192,85469,128,0,85657:0:0:0:0:
320,192,85469,128,10,85657:0:0:0:0:
64,192,85657,1,0,0:0:0:0:
448,192,85657,1,6,0:0:0:0:
320,192,85844,1,10,0:0:0:0:
64,192,85844,1,0,0:0:0:0:
448,192,85938,1,2,0:0:0:0:
192,192,85938,1,0,0:0:0:0:
448,192,86125,1,2,0:0:0:0:
192,192,86125,1,0,0:0:0:0:
64,192,86219,128,0,86407:0:0:0:0:
320,192,86219,128,10,86407:0:0:0:0:
192,192,86407,128,4,86782:0:0:0:0:
448,192,86407,128,2,86782:0:0:0:0:
320,192,86782,128,2,87063:0:0:0:0:
64,192,86782,128,2,87063:0:0:0:0:
192,192,87157,1,4,0:0:0:0:
64,192,87157,1,0,0:0:0:0:
448,192,87157,1,0,0:0:0:0:
448,192,87344,1,8,0:0:0:0:
64,192,87344,1,0,0:0:0:0:
192,192,87438,1,0,0:0:0:0:
320,192,87438,1,0,0:0:0:0:
192,192,87625,1,0,0:0:0:0:
320,192,87625,1,0,0:0:0:0:
64,192,87719,1,0,0:0:0:0:
448,192,87719,1,8,0:0:0:0:
320,192,87907,1,0,0:0:0:0:
64,192,87907,1,0,0:0:0:0:
192,192,88094,1,0,0:0:0:0:
448,192,88094,1,8,0:0:0:0:
320,192,88188,1,0,0:0:0:0:
64,192,88188,1,0,0:0:0:0:
448,192,88375,1,0,0:0:0:0:
320,192,88375,1,0,0:0:0:0:
64,192,88469,1,8,0:0:0:0:
192,192,88469,1,0,0:0:0:0:
320,192,88657,1,0,0:0:0:0:
64,192,88657,1,0,0:0:0:0:
320,192,88844,1,8,0:0:0:0:
448,192,88844,1,0,0:0:0:0:
64,192,88938,1,0,0:0:0:0:
192,192,88938,1,0,0:0:0:0:
64,192,89125,1,0,0:0:0:0:
448,192,89125,1,0,0:0:0:0:
192,192,89219,1,8,0:0:0:0:
320,192,89219,1,0,0:0:0:0:
320,192,89407,1,0,0:0:0:0:
64,192,89407,1,8,0:0:0:0:
192,192,89500,1,0,0:0:0:0:
64,192,89594,1,8,0:0:0:0:
320,192,89688,1,0,0:0:0:0:
64,192,89782,128,2,90063:0:0:0:0:
448,192,89782,1,8,0:0:0:0:
192,192,89782,128,2,90063:0:0:0:0:
320,192,89969,1,8,0:0:0:0:
448,192,90063,1,0,0:0:0:0:
192,192,90157,1,0,0:0:0:0:
64,192,90157,1,4,0:0:0:0:
320,192,90157,1,0,0:0:0:0:
320,192,90344,1,8,0:0:0:0:
192,192,90344,1,0,0:0:0:0:
448,192,90438,1,0,0:0:0:0:
320,192,90532,1,0,0:0:0:0:
64,192,90719,1,0,0:0:0:0:
192,192,90719,1,8,0:0:0:0:
320,192,90907,1,0,0:0:0:0:
448,192,90907,1,0,0:0:0:0:
64,192,91000,1,0,0:0:0:0:
192,192,91094,1,8,0:0:0:0:
448,192,91094,1,0,0:0:0:0:
64,192,91188,1,0,0:0:0:0:
320,192,91282,1,0,0:0:0:0:
192,192,91282,1,0,0:0:0:0:
320,192,91469,1,0,0:0:0:0:
448,192,91469,1,8,0:0:0:0:
64,192,91469,1,0,0:0:0:0:
64,192,91657,1,0,0:0:0:0:
192,192,91657,1,0,0:0:0:0:
192,192,91844,1,8,0:0:0:0:
320,192,91844,1,0,0:0:0:0:
64,192,91938,1,0,0:0:0:0:
192,192,92032,1,0,0:0:0:0:
320,192,92032,1,0,0:0:0:0:
320,192,92219,1,8,0:0:0:0:
64,192,92219,1,0,0:0:0:0:
64,192,92407,1,0,0:0:0:0:
448,192,92407,1,0,0:0:0:0:
192,192,92500,1,0,0:0:0:0:
448,192,92594,1,0,0:0:0:0:
320,192,92594,1,8,0:0:0:0:
64,192,92688,1,0,0:0:0:0:
192,192,92782,1,0,0:0:0:0:
320,192,92969,1,8,0:0:0:0:
448,192,92969,1,0,0:0:0:0:
64,192,93157,1,0,0:0:0:0:
320,192,93157,1,0,0:0:0:0:
448,192,93157,1,0,0:0:0:0:
320,192,93344,1,0,0:0:0:0:
192,192,93344,1,8,0:0:0:0:
64,192,93438,1,0,0:0:0:0:
320,192,93532,1,0,0:0:0:0:
64,192,93719,1,8,0:0:0:0:
192,192,93719,1,0,0:0:0:0:
448,192,93719,1,0,0:0:0:0:
320,192,93907,1,0,0:0:0:0:
64,192,94000,1,0,0:0:0:0:
192,192,94094,1,8,0:0:0:0:
448,192,94094,1,0,0:0:0:0:
64,192,94188,1,0,0:0:0:0:
320,192,94282,1,0,0:0:0:0:
320,192,94469,1,8,0:0:0:0:
448,192,94469,1,0,0:0:0:0:
192,192,94469,1,0,0:0:0:0:
64,192,94657,1,0,0:0:0:0:
192,192,94844,1,8,0:0:0:0:
320,192,94844,1,0,0:0:0:0:
448,192,94938,1,0,0:0:0:0:
192,192,95032,5,0,0:0:0:0:
320,192,95219,1,0,0:0:0:0:
64,192,95219,1,8,0:0:0:0:
64,192,95407,1,0,0:0:0:0:
448,192,95407,1,0,0:0:0:0:
192,192,95500,1,0,0:0:0:0:
320,192,95594,1,8,0:0:0:0:
192,192,95688,1,0,0:0:0:0:
64,192,95782,1,0,0:0:0:0:
448,192,95782,1,0,0:0:0:0:
192,192,95875,1,0,0:0:0:0:
320,192,95969,1,8,0:0:0:0:
192,192,96063,1,0,0:0:0:0:
64,192,96157,1,0,0:0:0:0:
320,192,96157,1,0,0:0:0:0:
448,192,96157,1,4,0:0:0:0:
192,192,96344,1,8,0:0:0:0:
64,192,96344,1,0,0:0:0:0:
448,192,96438,1,0,0:0:0:0:
192,192,96532,1,0,0:0:0:0:
320,192,96719,1,8,0:0:0:0:
448,192,96719,1,0,0:0:0:0:
192,192,96907,1,0,0:0:0:0:
448,192,97000,1,0,0:0:0:0:
64,192,97094,1,0,0:0:0:0:
320,192,97094,1,8,0:0:0:0:
448,192,97188,1,0,0:0:0:0:
192,192,97282,1,0,0:0:0:0:
320,192,97282,1,0,0:0:0:0:
64,192,97469,1,8,0:0:0:0:
192,192,97469,1,0,0:0:0:0:
448,192,97469,1,0,0:0:0:0:
448,192,97657,1,0,0:0:0:0:
192,192,97657,1,0,0:0:0:0:
64,192,97844,1,0,0:0:0:0:
320,192,97844,1,8,0:0:0:0:
192,192,97938,1,0,0:0:0:0:
320,192,98032,1,0,0:0:0:0:
448,192,98219,1,8,0:0:0:0:
192,192,98219,1,0,0:0:0:0:
320,192,98219,1,0,0:0:0:0:
448,192,98407,1,0,0:0:0:0:
64,192,98407,1,0,0:0:0:0:
320,192,98500,1,0,0:0:0:0:
192,192,98594,1,0,0:0:0:0:
64,192,98594,1,8,0:0:0:0:
448,192,98688,1,0,0:0:0:0:
320,192,98782,1,0,0:0:0:0:
64,192,98969,1,0,0:0:0:0:
192,192,98969,1,8,0:0:0:0:
192,192,99157,1,0,0:0:0:0:
448,192,99157,1,0,0:0:0:0:
320,192,99157,1,0,0:0:0:0:
320,192,99344,1,0,0:0:0:0:
192,192,99344,1,8,0:0:0:0:
448,192,99438,1,0,0:0:0:0:
192,192,99532,1,0,0:0:0:0:
64,192,99625,1,0,0:0:0:0:
320,192,99719,1,8,0:0:0:0:
448,192,99719,1,0,0:0:0:0:
192,192,99907,1,0,0:0:0:0:
64,192,100000,1,0,0:0:0:0:
192,192,100094,1,8,0:0:0:0:
320,192,100094,1,0,0:0:0:0:
448,192,100188,1,0,0:0:0:0:
320,192,100282,1,0,0:0:0:0:
64,192,100469,1,0,0:0:0:0:
192,192,100469,1,8,0:0:0:0:
320,192,100657,1,2,0:0:0:0:
64,192,100657,1,4,0:0:0:0:
448,192,100657,128,2,101032:0:0:0:0:
64,192,101032,128,0,101969:0:0:0:0:
192,192,101032,128,2,101594:0:0:0:0:
320,192,101594,128,2,101875:0:0:0:0:
448,192,101782,128,2,101969:0:0:0:0:
320,192,101969,1,2,0:0:0:0:
192,192,101969,1,8,0:0:0:0:
192,192,102157,1,4,0:0:0:0:
448,192,102157,1,0,0:0:0:0:
64,192,102157,128,2,103657:0:0:0:0:
320,192,102344,1,8,0:0:0:0:
192,192,102344,1,0,0:0:0:0:
320,192,102532,1,0,0:0:0:0:
448,192,102625,1,0,0:0:0:0:
320,192,102719,1,0,0:0:0:0:
192,192,102719,1,8,0:0:0:0:
448,192,102907,1,0,0:0:0:0:
192,192,103094,1,8,0:0:0:0:
448,192,103094,1,0,0:0:0:0:
320,192,103188,1,0,0:0:0:0:
192,192,103375,1,0,0:0:0:0:
320,192,103469,1,8,0:0:0:0:
448,192,103469,1,0,0:0:0:0:
448,192,103657,128,6,105157:0:0:0:0:
192,192,103844,1,8,0:0:0:0:
320,192,103844,1,0,0:0:0:0:
320,192,104032,1,0,0:0:0:0:
192,192,104125,1,0,0:0:0:0:
320,192,104219,1,8,0:0:0:0:
64,192,104219,1,0,0:0:0:0:
64,192,104407,1,0,0:0:0:0:
192,192,104594,1,8,0:0:0:0:
320,192,104594,1,0,0:0:0:0:
64,192,104688,1,0,0:0:0:0:
320,192,104875,1,0,0:0:0:0:
64,192,104969,1,8,0:0:0:0:
192,192,104969,1,0,0:0:0:0:
320,192,105063,1,0,0:0:0:0:
64,192,105157,1,0,0:0:0:0:
192,192,105157,128,6,106657:0:0:0:0:
320,192,105344,1,8,0:0:0:0:
64,192,105344,1,0,0:0:0:0:
320,192,105532,1,0,0:0:0:0:
448,192,105625,1,0,0:0:0:0:
64,192,105719,1,0,0:0:0:0:
320,192,105719,1,8,0:0:0:0:
64,192,105907,1,0,0:0:0:0:
320,192,106094,1,8,0:0:0:0:
448,192,106094,1,0,0:0:0:0:
64,192,106188,1,0,0:0:0:0:
320,192,106375,1,0,0:0:0:0:
64,192,106469,1,8,0:0:0:0:
448,192,106469,1,0,0:0:0:0:
320,192,106657,128,6,108157:0:0:0:0:
448,192,106844,1,0,0:0:0:0:
192,192,106844,1,8,0:0:0:0:
64,192,107032,5,0,0:0:0:0:
448,192,107125,1,0,0:0:0:0:
192,192,107219,1,8,0:0:0:0:
64,192,107219,1,0,0:0:0:0:
192,192,107407,1,0,0:0:0:0:
448,192,107594,1,0,0:0:0:0:
64,192,107594,1,8,0:0:0:0:
192,192,107688,1,0,0:0:0:0:
448,192,107875,1,0,0:0:0:0:
192,192,107969,1,8,0:0:0:0:
64,192,107969,1,0,0:0:0:0:
64,192,108157,1,0,0:0:0:0:
192,192,108157,1,0,0:0:0:0:
448,192,108157,128,6,109657:0:0:0:0:
192,192,108344,1,8,0:0:0:0:
320,192,108344,1,0,0:0:0:0:
192,192,108532,1,0,0:0:0:0:
64,192,108625,1,0,0:0:0:0:
192,192,108719,1,0,0:0:0:0:
320,192,108719,1,8,0:0:0:0:
64,192,108907,1,0,0:0:0:0:
320,192,109094,1,0,0:0:0:0:
64,192,109094,1,8,0:0:0:0:
192,192,109188,1,0,0:0:0:0:
320,192,109375,1,0,0:0:0:0:
192,192,109469,1,8,0:0:0:0:
64,192,109469,1,0,0:0:0:0:
64,192,109657,128,6,111157:0:0:0:0:
320,192,109844,1,0,0:0:0:0:
192,192,109844,1,8,0:0:0:0:
192,192,110032,1,0,0:0:0:0:
320,192,110125,1,0,0:0:0:0:
192,192,110219,1,8,0:0:0:0:
448,192,110219,1,0,0:0:0:0:
448,192,110407,1,0,0:0:0:0:
320,192,110594,1,0,0:0:0:0:
192,192,110594,1,8,0:0:0:0:
448,192,110688,1,0,0:0:0:0:
192,192,110875,1,0,0:0:0:0:
448,192,110969,1,0,0:0:0:0:
320,192,110969,1,8,0:0:0:0:
192,192,111063,1,0,0:0:0:0:
448,192,111157,1,0,0:0:0:0:
320,192,111157,128,6,112657:0:0:0:0:
192,192,111344,1,8,0:0:0:0:
448,192,111344,1,0,0:0:0:0:
192,192,111532,1,0,0:0:0:0:
64,192,111625,1,0,0:0:0:0:
448,192,111719,1,0,0:0:0:0:
192,192,111719,1,8,0:0:0:0:
448,192,111907,1,0,0:0:0:0:
192,192,112094,1,8,0:0:0:0:
64,192,112094,1,0,0:0:0:0:
448,192,112188,1,0,0:0:0:0:
192,192,112375,1,0,0:0:0:0:
448,192,112469,1,0,0:0:0:0:
64,192,112469,1,8,0:0:0:0:
192,192,112657,128,6,114157:0:0:0:0:
448,192,112657,1,0,0:0:0:0:
320,192,112750,1,8,0:0:0:0:
64,192,112844,1,0,0:0:0:0:
320,192,113032,1,0,0:0:0:0:
448,192,113125,1,0,0:0:0:0:
64,192,113219,1,8,0:0:0:0:
448,192,113407,1,0,0:0:0:0:
64,192,113500,1,0,0:0:0:0:
320,192,113594,1,8,0:0:0:0:
64,192,113782,1,8,0:0:0:0:
320,192,113875,1,0,0:0:0:0:
448,192,113969,1,8,0:0:0:0:
320,192,114063,1,0,0:0:0:0:
64,192,114157,128,6,115657:0:0:0:0:
320,192,114344,1,8,0:0:0:0:
448,192,114532,1,0,0:0:0:0:
320,192,114532,1,0,0:0:0:0:
192,192,114719,1,8,0:0:0:0:
320,192,114907,1,0,0:0:0:0:
192,192,114907,1,0,0:0:0:0:
448,192,115094,1,8,0:0:0:0:
192,192,115282,1,0,0:0:0:0:
448,192,115282,1,0,0:0:0:0:
448,192,115469,1,8,0:0:0:0:
320,192,115563,1,0,0:0:0:0:
448,192,115657,128,6,117157:0:0:0:0:
192,192,115657,1,0,0:0:0:0:
320,192,115844,1,8,0:0:0:0:
192,192,116032,1,0,0:0:0:0:
320,192,116032,1,0,0:0:0:0:
320,192,116219,1,8,0:0:0:0:
64,192,116407,1,0,0:0:0:0:
192,192,116407,1,0,0:0:0:0:
320,192,116594,1,8,0:0:0:0:
64,192,116782,1,0,0:0:0:0:
192,192,116782,1,0,0:0:0:0:
192,192,116969,1,8,0:0:0:0:
320,192,117063,1,0,0:0:0:0:
64,192,117157,1,0,0:0:0:0:
192,192,117157,128,6,118657:0:0:0:0:
320,192,117344,1,8,0:0:0:0:
320,192,117532,1,0,0:0:0:0:
64,192,117532,1,0,0:0:0:0:
320,192,117719,1,8,0:0:0:0:
64,192,117907,1,0,0:0:0:0:
448,192,117907,1,0,0:0:0:0:
320,192,118094,1,8,0:0:0:0:
448,192,118094,1,0,0:0:0:0:
64,192,118282,1,0,0:0:0:0:
320,192,118282,1,0,0:0:0:0:
448,192,118469,1,8,0:0:0:0:
64,192,118563,1,0,0:0:0:0:
320,192,118657,128,6,120157:0:0:0:0:
448,192,118657,1,0,0:0:0:0:
64,192,118844,1,8,0:0:0:0:
192,192,119032,1,0,0:0:0:0:
64,192,119032,1,0,0:0:0:0:
448,192,119219,1,8,0:0:0:0:
192,192,119407,1,0,0:0:0:0:
448,192,119407,1,8,0:0:0:0:
448,192,119594,1,8,0:0:0:0:
192,192,119594,1,0,0:0:0:0:
64,192,119688,1,0,0:0:0:0:
192,192,119782,1,8,0:0:0:0:
448,192,119875,1,0,0:0:0:0:
192,192,119969,1,8,0:0:0:0:
64,192,120063,1,0,0:0:0:0:
448,192,120157,1,4,0:0:0:0:
192,192,120157,1,4,0:0:0:0:
64,192,120250,1,0,0:0:0:0:
320,192,120344,1,0,0:0:0:0:
192,192,120344,1,8,0:0:0:0:
448,192,120438,1,0,0:0:0:0:
192,192,120532,1,0,0:0:0:0:
64,192,120532,1,0,0:0:0:0:
320,192,120625,1,0,0:0:0:0:
64,192,120719,1,8,0:0:0:0:
448,192,120719,1,0,0:0:0:0:
192,192,120813,1,0,0:0:0:0:
320,192,120907,1,0,0:0:0:0:
64,192,120907,1,0,0:0:0:0:
448,192,121000,1,0,0:0:0:0:
64,192,121094,1,0,0:0:0:0:
320,192,121094,1,8,0:0:0:0:
192,192,121188,1,0,0:0:0:0:
64,192,121282,1,8,0:0:0:0:
192,192,121375,1,0,0:0:0:0:
320,192,121469,1,8,0:0:0:0:
448,192,121469,1,0,0:0:0:0:
64,192,121657,1,0,0:0:0:0:
192,192,121657,1,4,0:0:0:0:
448,192,121657,1,0,0:0:0:0:
320,192,121657,1,4,0:0:0:0:
192,192,121844,1,8,0:0:0:0:
64,192,121844,1,0,0:0:0:0:
448,192,121938,1,0,0:0:0:0:
192,192,122032,1,0,0:0:0:0:
64,192,122032,1,0,0:0:0:0:
320,192,122125,1,0,0:0:0:0:
448,192,122219,1,8,0:0:0:0:
64,192,122219,1,0,0:0:0:0:
192,192,122313,1,0,0:0:0:0:
64,192,122407,1,0,0:0:0:0:
448,192,122407,1,0,0:0:0:0:
320,192,122500,1,0,0:0:0:0:
64,192,122594,1,0,0:0:0:0:
192,192,122594,1,8,0:0:0:0:
320,192,122688,1,0,0:0:0:0:
192,192,122782,1,8,0:0:0:0:
448,192,122875,1,0,0:0:0:0:
320,192,122969,1,0,0:0:0:0:
192,192,122969,1,8,0:0:0:0:
192,192,123157,1,4,0:0:0:0:
448,192,123157,1,0,0:0:0:0:
320,192,123157,1,4,0:0:0:0:
64,192,123157,1,0,0:0:0:0:
192,192,123344,1,8,0:0:0:0:
448,192,123344,1,0,0:0:0:0:
64,192,123438,1,0,0:0:0:0:
448,192,123532,1,8,0:0:0:0:
192,192,123625,1,0,0:0:0:0:
64,192,123719,1,0,0:0:0:0:
320,192,123719,1,8,0:0:0:0:
192,192,123813,1,0,0:0:0:0:
448,192,123907,1,4,0:0:0:0:
64,192,123907,1,0,0:0:0:0:
320,192,123907,1,4,0:0:0:0:
448,192,124094,1,0,0:0:0:0:
320,192,124094,1,8,0:0:0:0:
192,192,124188,1,0,0:0:0:0:
64,192,124282,1,8,0:0:0:0:
192,192,124375,1,0,0:0:0:0:
320,192,124469,1,8,0:0:0:0:
448,192,124469,1,0,0:0:0:0:
64,192,124563,1,0,0:0:0:0:
192,192,124657,1,0,0:0:0:0:
320,192,124657,1,4,0:0:0:0:
448,192,124657,1,0,0:0:0:0:
320,192,124844,1,8,0:0:0:0:
64,192,125032,1,0,0:0:0:0:
448,192,125032,1,0,0:0:0:0:
192,192,125032,1,4,0:0:0:0:
64,192,125219,1,8,0:0:0:0:
192,192,125407,1,0,0:0:0:0:
448,192,125407,1,0,0:0:0:0:
320,192,125500,1,4,0:0:0:0:
448,192,125594,1,8,0:0:0:0:
192,192,125688,1,4,0:0:0:0:
64,192,125782,1,8,0:0:0:0:
320,192,125782,1,0,0:0:0:0:
448,192,125875,1,0,0:0:0:0:
320,192,125969,1,8,0:0:0:0:
192,192,126063,1,0,0:0:0:0:
320,192,126157,1,4,0:0:0:0:
448,192,126157,128,0,128407:0:0:0:0:
64,192,126157,1,8,0:0:0:0:
192,192,126344,1,8,0:0:0:0:
320,192,126438,1,0,0:0:0:0:
64,192,126532,1,0,0:0:0:0:
192,192,126532,1,0,0:0:0:0:
320,192,126719,1,8,0:0:0:0:
64,192,126813,1,0,0:0:0:0:
192,192,126907,1,0,0:0:0:0:
320,192,126907,1,0,0:0:0:0:
64,192,127000,1,0,0:0:0:0:
192,192,127094,1,0,0:0:0:0:
320,192,127094,1,8,0:0:0:0:
64,192,127282,1,0,0:0:0:0:
320,192,127282,1,0,0:0:0:0:
192,192,127469,1,8,0:0:0:0:
320,192,127469,1,0,0:0:0:0:
64,192,127657,1,0,0:0:0:0:
192,192,127657,1,0,0:0:0:0:
320,192,127657,1,0,0:0:0:0:
64,192,127844,1,8,0:0:0:0:
320,192,127844,1,0,0:0:0:0:
192,192,127938,1,0,0:0:0:0:
64,192,128032,5,8,0:0:0:0:
192,192,128125,1,0,0:0:0:0:
320,192,128219,1,8,0:0:0:0:
192,192,128313,1,0,0:0:0:0:
320,192,128407,1,0,0:0:0:0:
64,192,128407,1,8,0:0:0:0:
448,192,128594,1,0,0:0:0:0:
192,192,128594,1,0,0:0:0:0:
64,192,128782,1,0,0:0:0:0:
448,192,128782,1,0,0:0:0:0:
320,192,128782,128,2,129063:0:0:0:0:
192,192,128782,128,2,129063:0:0:0:0:
320,192,129157,5,0,0:0:0:0:
192,192,129157,1,4,0:0:0:0:
64,192,129157,1,0,0:0:0:0:
448,192,129157,128,2,129344:0:0:0:0:
192,192,129344,1,8,0:0:0:0:
320,192,129344,1,0,0:0:0:0:
64,192,129344,128,2,129532:0:0:0:0:
192,192,129532,1,0,0:0:0:0:
64,192,129625,1,0,0:0:0:0:
448,192,129719,1,0,0:0:0:0:
192,192,129719,1,8,0:0:0:0:
64,192,129907,1,0,0:0:0:0:
448,192,129907,128,2,130094:0:0:0:0:
320,192,130094,1,8,0:0:0:0:
64,192,130094,1,0,0:0:0:0:
192,192,130094,128,2,130188:0:0:0:0:
448,192,130188,1,0,0:0:0:0:
64,192,130282,128,2,130469:0:0:0:0:
448,192,130375,1,0,0:0:0:0:
320,192,130469,1,8,0:0:0:0:
192,192,130469,128,2,130563:0:0:0:0:
448,192,130657,1,0,0:0:0:0:
64,192,130657,128,2,131032:0:0:0:0:
320,192,130844,1,8,0:0:0:0:
192,192,130844,1,0,0:0:0:0:
320,192,131032,1,0,0:0:0:0:
448,192,131032,128,2,131219:0:0:0:0:
64,192,131125,1,0,0:0:0:0:
320,192,131219,1,0,0:0:0:0:
192,192,131219,128,10,131782:0:0:0:0:
448,192,131407,1,0,0:0:0:0:
64,192,131594,1,0,0:0:0:0:
320,192,131594,1,8,0:0:0:0:
64,192,131782,1,0,0:0:0:0:
320,192,131782,128,2,131969:0:0:0:0:
448,192,131875,1,0,0:0:0:0:
192,192,131969,1,8,0:0:0:0:
64,192,131969,1,0,0:0:0:0:
320,192,132063,1,0,0:0:0:0:
448,192,132157,1,0,0:0:0:0:
192,192,132157,1,0,0:0:0:0:
64,192,132157,128,2,132344:0:0:0:0:
192,192,132344,1,0,0:0:0:0:
320,192,132344,1,8,0:0:0:0:
448,192,132344,128,2,132532:0:0:0:0:
320,192,132532,1,0,0:0:0:0:
192,192,132532,128,2,132719:0:0:0:0:
64,192,132625,1,0,0:0:0:0:
448,192,132719,1,8,0:0:0:0:
320,192,132719,1,0,0:0:0:0:
320,192,132907,1,0,0:0:0:0:
192,192,132907,128,2,133094:0:0:0:0:
448,192,133094,1,8,0:0:0:0:
64,192,133094,128,2,133282:0:0:0:0:
192,192,133188,1,0,0:0:0:0:
448,192,133282,128,2,133469:0:0:0:0:
320,192,133375,1,0,0:0:0:0:
192,192,133469,1,8,0:0:0:0:
64,192,133469,1,0,0:0:0:0:
448,192,133657,1,0,0:0:0:0:
64,192,133657,128,2,133844:0:0:0:0:
320,192,133844,1,8,0:0:0:0:
448,192,133844,1,0,0:0:0:0:
192,192,133844,128,2,134032:0:0:0:0:
320,192,134032,5,0,0:0:0:0:
64,192,134125,1,0,0:0:0:0:
192,192,134219,1,0,0:0:0:0:
448,192,134219,1,8,0:0:0:0:
320,192,134219,128,2,134500:0:0:0:0:
448,192,134407,1,0,0:0:0:0:
320,192,134594,1,8,0:0:0:0:
64,192,134594,1,0,0:0:0:0:
192,192,134594,128,2,134782:0:0:0:0:
448,192,134688,1,0,0:0:0:0:
320,192,134782,128,2,134969:0:0:0:0:
448,192,134875,1,0,0:0:0:0:
192,192,134969,1,8,0:0:0:0:
64,192,134969,1,0,0:0:0:0:
448,192,135157,1,0,0:0:0:0:
192,192,135157,1,4,0:0:0:0:
64,192,135157,128,2,135344:0:0:0:0:
448,192,135344,1,8,0:0:0:0:
320,192,135344,1,0,0:0:0:0:
192,192,135344,128,2,135532:0:0:0:0:
320,192,135532,1,0,0:0:0:0:
448,192,135625,1,0,0:0:0:0:
192,192,135719,1,8,0:0:0:0:
64,192,135719,1,0,0:0:0:0:
320,192,135907,1,0,0:0:0:0:
64,192,135907,128,2,136094:0:0:0:0:
448,192,136094,1,0,0:0:0:0:
192,192,136094,1,8,0:0:0:0:
320,192,136094,128,2,136282:0:0:0:0:
64,192,136188,1,0,0:0:0:0:
448,192,136282,128,2,136375:0:0:0:0:
192,192,136375,1,0,0:0:0:0:
448,192,136469,1,8,0:0:0:0:
64,192,136469,1,0,0:0:0:0:
64,192,136657,1,0,0:0:0:0:
448,192,136657,128,2,137032:0:0:0:0:
320,192,136844,1,0,0:0:0:0:
192,192,136844,1,8,0:0:0:0:
64,192,137032,1,0,0:0:0:0:
192,192,137032,128,2,137219:0:0:0:0:
448,192,137125,1,0,0:0:0:0:
64,192,137219,1,8,0:0:0:0:
320,192,137219,128,2,137407:0:0:0:0:
64,192,137407,1,0,0:0:0:0:
320,192,137594,1,0,0:0:0:0:
448,192,137594,1,8,0:0:0:0:
192,192,137594,128,2,137782:0:0:0:0:
64,192,137688,1,0,0:0:0:0:
320,192,137782,128,2,137969:0:0:0:0:
64,192,137875,1,0,0:0:0:0:
192,192,137969,1,8,0:0:0:0:
448,192,137969,128,2,138157:0:0:0:0:
320,192,138157,1,0,0:0:0:0:
64,192,138157,128,2,138344:0:0:0:0:
320,192,138344,1,8,0:0:0:0:
192,192,138344,128,2,138532:0:0:0:0:
320,192,138532,1,0,0:0:0:0:
64,192,138532,128,2,138719:0:0:0:0:
448,192,138625,1,0,0:0:0:0:
192,192,138719,1,8,0:0:0:0:
320,192,138719,1,0,0:0:0:0:
448,192,138813,1,0,0:0:0:0:
320,192,138907,1,0,0:0:0:0:
64,192,138907,128,2,139188:0:0:0:0:
448,192,139094,1,8,0:0:0:0:
192,192,139094,1,0,0:0:0:0:
64,192,139282,1,0,0:0:0:0:
192,192,139282,1,0,0:0:0:0:
320,192,139282,128,2,139563:0:0:0:0:
448,192,139469,1,0,0:0:0:0:
64,192,139469,1,8,0:0:0:0:
192,192,139563,1,0,0:0:0:0:
64,192,139657,128,2,139938:0:0:0:0:
320,192,139657,1,0,0:0:0:0:
448,192,139750,1,0,0:0:0:0:
320,192,139844,1,8,0:0:0:0:
192,192,139844,1,0,0:0:0:0:
448,192,139938,128,2,140219:0:0:0:0:
320,192,140032,5,0,0:0:0:0:
192,192,140125,1,0,0:0:0:0:
320,192,140219,1,0,0:0:0:0:
64,192,140219,128,2,140594:0:0:0:0:
192,192,140313,1,0,0:0:0:0:
320,192,140407,1,8,0:0:0:0:
448,192,140500,1,0,0:0:0:0:
192,192,140594,1,8,0:0:0:0:
320,192,140594,128,2,140782:0:0:0:0:
448,192,140688,1,0,0:0:0:0:
192,192,140782,128,2,140969:0:0:0:0:
64,192,140782,1,8,0:0:0:0:
448,192,140875,1,0,0:0:0:0:
64,192,140969,1,0,0:0:0:0:
320,192,140969,1,8,0:0:0:0:
448,192,141063,1,0,0:0:0:0:
320,192,141157,1,4,0:0:0:0:
192,192,141157,1,0,0:0:0:0:
64,192,141157,128,2,141344:0:0:0:0:
320,192,141344,1,8,0:0:0:0:
192,192,141344,1,0,0:0:0:0:
448,192,141344,128,2,141532:0:0:0:0:
320,192,141532,1,0,0:0:0:0:
192,192,141532,128,2,141719:0:0:0:0:
448,192,141625,1,0,0:0:0:0:
64,192,141719,1,0,0:0:0:0:
320,192,141719,1,8,0:0:0:0:
320,192,141907,1,0,0:0:0:0:
64,192,141907,128,2,142094:0:0:0:0:
192,192,142094,1,8,0:0:0:0:
448,192,142094,1,0,0:0:0:0:
320,192,142094,128,2,142282:0:0:0:0:
64,192,142188,1,0,0:0:0:0:
448,192,142282,128,2,142469:0:0:0:0:
192,192,142375,1,0,0:0:0:0:
64,192,142469,1,8,0:0:0:0:
320,192,142469,128,2,142657:0:0:0:0:
64,192,142657,1,0,0:0:0:0:
448,192,142657,128,2,142844:0:0:0:0:
320,192,142844,1,8,0:0:0:0:
192,192,142844,128,2,143032:0:0:0:0:
320,192,143032,1,0,0:0:0:0:
64,192,143032,128,2,143219:0:0:0:0:
448,192,143125,1,0,0:0:0:0:
192,192,143219,1,0,0:0:0:0:
320,192,143219,128,10,143594:0:0:0:0:
64,192,143407,1,0,0:0:0:0:
448,192,143594,1,0,0:0:0:0:
192,192,143594,1,8,0:0:0:0:
448,192,143782,1,0,0:0:0:0:
192,192,143782,128,2,143969:0:0:0:0:
64,192,143875,1,0,0:0:0:0:
320,192,143969,1,8,0:0:0:0:
448,192,143969,1,0,0:0:0:0:
192,192,144063,1,0,0:0:0:0:
64,192,144157,1,0,0:0:0:0:
320,192,144157,1,0,0:0:0:0:
448,192,144157,128,2,144344:0:0:0:0:
320,192,144344,1,0,0:0:0:0:
192,192,144344,1,8,0:0:0:0:
64,192,144344,128,2,144532:0:0:0:0:
192,192,144532,1,0,0:0:0:0:
320,192,144532,128,2,144719:0:0:0:0:
448,192,144625,1,0,0:0:0:0:
64,192,144719,1,8,0:0:0:0:
192,192,144719,1,0,0:0:0:0:
192,192,144907,1,0,0:0:0:0:
320,192,144907,128,2,145094:0:0:0:0:
64,192,145094,1,8,0:0:0:0:
448,192,145094,128,2,145282:0:0:0:0:
192,192,145188,1,0,0:0:0:0:
64,192,145282,128,2,145469:0:0:0:0:
192,192,145375,1,0,0:0:0:0:
320,192,145469,1,8,0:0:0:0:
448,192,145469,1,0,0:0:0:0:
64,192,145657,1,0,0:0:0:0:
448,192,145657,128,2,145844:0:0:0:0:
192,192,145844,1,8,0:0:0:0:
64,192,145844,1,0,0:0:0:0:
320,192,145844,128,2,146032:0:0:0:0:
192,192,146032,5,0,0:0:0:0:
448,192,146125,1,0,0:0:0:0:
320,192,146219,1,0,0:0:0:0:
64,192,146219,1,8,0:0:0:0:
192,192,146219,128,2,146500:0:0:0:0:
64,192,146407,1,0,0:0:0:0:
192,192,146594,1,8,0:0:0:0:
448,192,146594,1,0,0:0:0:0:
320,192,146594,128,2,146782:0:0:0:0:
64,192,146688,1,0,0:0:0:0:
192,192,146782,128,2,146969:0:0:0:0:
64,192,146875,1,0,0:0:0:0:
320,192,146969,1,8,0:0:0:0:
448,192,146969,1,0,0:0:0:0:
64,192,147157,1,0,0:0:0:0:
320,192,147157,1,4,0:0:0:0:
448,192,147157,128,2,147344:0:0:0:0:
64,192,147344,1,8,0:0:0:0:
192,192,147344,1,0,0:0:0:0:
320,192,147344,128,2,147532:0:0:0:0:
448,192,147532,1,0,0:0:0:0:
192,192,147532,128,2,147719:0:0:0:0:
320,192,147625,1,0,0:0:0:0:
448,192,147719,1,8,0:0:0:0:
64,192,147719,128,2,147907:0:0:0:0:
192,192,147907,1,0,0:0:0:0:
448,192,147907,128,2,148094:0:0:0:0:
64,192,148094,1,0,0:0:0:0:
320,192,148094,1,8,0:0:0:0:
192,192,148094,128,2,148282:0:0:0:0:
448,192,148188,1,0,0:0:0:0:
64,192,148282,128,2,148375:0:0:0:0:
320,192,148375,1,0,0:0:0:0:
64,192,148469,1,8,0:0:0:0:
448,192,148469,1,0,0:0:0:0:
448,192,148657,1,0,0:0:0:0:
64,192,148657,128,2,148844:0:0:0:0:
320,192,148844,1,8,0:0:0:0:
192,192,148844,128,2,149032:0:0:0:0:
448,192,149032,1,0,0:0:0:0:
320,192,149032,128,2,149219:0:0:0:0:
64,192,149125,1,0,0:0:0:0:
448,192,149219,1,8,0:0:0:0:
192,192,149219,128,2,149407:0:0:0:0:
448,192,149407,1,0,0:0:0:0:
192,192,149594,1,0,0:0:0:0:
64,192,149594,1,8,0:0:0:0:
320,192,149594,128,2,149782:0:0:0:0:
448,192,149688,1,0,0:0:0:0:
192,192,149782,128,2,149969:0:0:0:0:
448,192,149875,1,0,0:0:0:0:
320,192,149969,1,8,0:0:0:0:
64,192,149969,128,2,150157:0:0:0:0:
192,192,150157,1,0,0:0:0:0:
448,192,150157,128,2,150719:0:0:0:0:
192,192,150344,1,8,0:0:0:0:
320,192,150344,1,0,0:0:0:0:
64,192,150438,1,0,0:0:0:0:
192,192,150532,1,0,0:0:0:0:
64,192,150625,1,0,0:0:0:0:
320,192,150719,1,8,0:0:0:0:
192,192,150719,1,0,0:0:0:0:
64,192,150813,1,0,0:0:0:0:
320,192,150907,1,0,0:0:0:0:
192,192,150907,128,2,151282:0:0:0:0:
448,192,151000,1,0,0:0:0:0:
64,192,151094,1,8,0:0:0:0:
320,192,151094,1,0,0:0:0:0:
448,192,151188,1,0,0:0:0:0:
320,192,151282,1,0,0:0:0:0:
64,192,151282,128,2,151657:0:0:0:0:
192,192,151469,1,0,0:0:0:0:
448,192,151469,1,8,0:0:0:0:
448,192,151657,128,2,152407:0:0:0:0:
192,192,151657,1,0,0:0:0:0:
64,192,151750,1,0,0:0:0:0:
192,192,151844,1,8,0:0:0:0:
320,192,151844,1,0,0:0:0:0:
64,192,151938,1,0,0:0:0:0:
192,192,152032,5,0,0:0:0:0:
320,192,152125,1,0,0:0:0:0:
192,192,152219,1,0,0:0:0:0:
320,192,152313,1,0,0:0:0:0:
192,192,152407,1,8,0:0:0:0:
64,192,152407,128,2,152782:0:0:0:0:
448,192,152500,1,0,0:0:0:0:
192,192,152594,1,8,0:0:0:0:
320,192,152688,1,0,0:0:0:0:
192,192,152782,1,8,0:0:0:0:
448,192,152782,128,2,152969:0:0:0:0:
64,192,152875,1,0,0:0:0:0:
192,192,152969,1,8,0:0:0:0:
320,192,152969,128,2,153157:0:0:0:0:
64,192,153063,1,0,0:0:0:0:
448,192,153157,1,0,0:0:0:0:
192,192,153157,128,6,153344:0:0:0:0:
448,192,153344,128,10,153532:0:0:0:0:
64,192,153438,1,0,0:0:0:0:
320,192,153532,1,0,0:0:0:0:
192,192,153532,1,0,0:0:0:0:
320,192,153719,1,8,0:0:0:0:
64,192,153907,128,2,154094:0:0:0:0:
448,192,153907,1,0,0:0:0:0:
320,192,154094,128,10,154282:0:0:0:0:
192,192,154188,1,0,0:0:0:0:
448,192,154282,128,2,154469:0:0:0:0:
64,192,154282,1,0,0:0:0:0:
192,192,154469,128,10,154657:0:0:0:0:
64,192,154657,1,0,0:0:0:0:
448,192,154657,128,2,155032:0:0:0:0:
64,192,154844,1,8,0:0:0:0:
192,192,154938,1,0,0:0:0:0:
320,192,155032,1,0,0:0:0:0:
64,192,155032,128,2,155219:0:0:0:0:
320,192,155219,128,10,155407:0:0:0:0:
64,192,155407,1,0,0:0:0:0:
448,192,155407,1,0,0:0:0:0:
192,192,155594,128,10,155782:0:0:0:0:
64,192,155688,1,0,0:0:0:0:
448,192,155782,128,2,155969:0:0:0:0:
320,192,155782,1,0,0:0:0:0:
64,192,155969,1,8,0:0:0:0:
320,192,156157,1,0,0:0:0:0:
448,192,156157,128,2,156344:0:0:0:0:
64,192,156344,128,10,156532:0:0:0:0:
448,192,156438,1,0,0:0:0:0:
192,192,156532,1,0,0:0:0:0:
320,192,156532,128,2,156719:0:0:0:0:
64,192,156719,1,8,0:0:0:0:
192,192,156907,1,0,0:0:0:0:
320,192,156907,128,2,157094:0:0:0:0:
448,192,157094,128,10,157282:0:0:0:0:
192,192,157188,1,0,0:0:0:0:
64,192,157282,128,2,157469:0:0:0:0:
320,192,157282,1,0,0:0:0:0:
448,192,157469,1,8,0:0:0:0:
64,192,157657,1,0,0:0:0:0:
448,192,157657,128,2,157844:0:0:0:0:
320,192,157844,128,10,158032:0:0:0:0:
192,192,157938,1,0,0:0:0:0:
64,192,158032,5,0,0:0:0:0:
448,192,158032,1,0,0:0:0:0:
320,192,158219,128,10,158407:0:0:0:0:
64,192,158407,1,0,0:0:0:0:
448,192,158407,1,0,0:0:0:0:
64,192,158594,128,10,158782:0:0:0:0:
192,192,158688,1,0,0:0:0:0:
320,192,158782,128,2,158969:0:0:0:0:
448,192,158782,1,0,0:0:0:0:
192,192,158969,1,8,0:0:0:0:
448,192,159063,1,0,0:0:0:0:
192,192,159157,1,4,0:0:0:0:
64,192,159157,128,2,159344:0:0:0:0:
320,192,159344,128,10,159532:0:0:0:0:
448,192,159532,1,0,0:0:0:0:
192,192,159532,128,2,159719:0:0:0:0:
64,192,159719,128,10,159907:0:0:0:0:
320,192,159813,1,0,0:0:0:0:
192,192,159907,1,0,0:0:0:0:
448,192,159907,128,2,160094:0:0:0:0:
192,192,160094,128,10,160282:0:0:0:0:
64,192,160282,128,2,160469:0:0:0:0:
448,192,160282,1,0,0:0:0:0:
192,192,160469,1,8,0:0:0:0:
320,192,160563,1,0,0:0:0:0:
448,192,160657,1,0,0:0:0:0:
64,192,160657,128,2,160844:0:0:0:0:
192,192,160844,1,8,0:0:0:0:
448,192,161032,1,0,0:0:0:0:
320,192,161032,128,2,161219:0:0:0:0:
192,192,161219,128,10,161407:0:0:0:0:
320,192,161313,1,0,0:0:0:0:
448,192,161407,1,0,0:0:0:0:
64,192,161407,1,0,0:0:0:0:
320,192,161594,128,10,161782:0:0:0:0:
448,192,161782,128,2,161969:0:0:0:0:
64,192,161782,1,0,0:0:0:0:
64,192,161969,128,10,162157:0:0:0:0:
320,192,162063,1,0,0:0:0:0:
192,192,162157,1,0,0:0:0:0:
448,192,162157,128,2,162344:0:0:0:0:
320,192,162344,1,8,0:0:0:0:
192,192,162532,1,0,0:0:0:0:
448,192,162532,128,2,162719:0:0:0:0:
320,192,162719,1,8,0:0:0:0:
64,192,162813,1,0,0:0:0:0:
192,192,162907,1,0,0:0:0:0:
448,192,162907,128,2,163094:0:0:0:0:
64,192,163094,1,8,0:0:0:0:
448,192,163282,1,0,0:0:0:0:
192,192,163282,128,2,163469:0:0:0:0:
320,192,163469,128,10,163657:0:0:0:0:
64,192,163563,1,0,0:0:0:0:
448,192,163657,128,2,164032:0:0:0:0:
192,192,163657,1,0,0:0:0:0:
192,192,163844,1,8,0:0:0:0:
320,192,164032,5,0,0:0:0:0:
64,192,164032,128,2,164219:0:0:0:0:
320,192,164219,128,10,164407:0:0:0:0:
192,192,164313,1,0,0:0:0:0:
448,192,164407,1,0,0:0:0:0:
64,192,164500,1,0,0:0:0:0:
320,192,164594,1,8,0:0:0:0:
192,192,164594,128,2,164782:0:0:0:0:
64,192,164688,1,0,0:0:0:0:
320,192,164782,128,2,164969:0:0:0:0:
448,192,164782,1,8,0:0:0:0:
64,192,164875,1,0,0:0:0:0:
448,192,164969,1,0,0:0:0:0:
192,192,164969,1,8,0:0:0:0:
64,192,165063,1,0,0:0:0:0:
320,192,165157,128,6,165344:0:0:0:0:
192,192,165157,1,0,0:0:0:0:
64,192,165344,128,10,165532:0:0:0:0:
192,192,165532,1,0,0:0:0:0:
320,192,165532,1,0,0:0:0:0:
192,192,165719,1,8,0:0:0:0:
448,192,165907,128,2,166094:0:0:0:0:
64,192,165907,1,0,0:0:0:0:
192,192,166094,128,10,166282:0:0:0:0:
64,192,166282,128,2,166469:0:0:0:0:
320,192,166282,1,0,0:0:0:0:
320,192,166469,128,10,166657:0:0:0:0:
448,192,166657,1,0,0:0:0:0:
64,192,166657,128,2,167032:0:0:0:0:
320,192,166844,1,8,0:0:0:0:
192,192,167032,1,0,0:0:0:0:
448,192,167032,128,2,167219:0:0:0:0:
192,192,167219,128,10,167407:0:0:0:0:
448,192,167407,1,0,0:0:0:0:
64,192,167407,1,0,0:0:0:0:
320,192,167594,128,10,167782:0:0:0:0:
64,192,167782,128,2,167969:0:0:0:0:
192,192,167782,1,0,0:0:0:0:
448,192,167969,1,8,0:0:0:0:
192,192,168157,1,0,0:0:0:0:
64,192,168157,128,2,168344:0:0:0:0:
448,192,168344,128,10,168532:0:0:0:0:
320,192,168532,1,0,0:0:0:0:
192,192,168532,128,2,168719:0:0:0:0:
448,192,168719,1,8,0:0:0:0:
320,192,168907,1,0,0:0:0:0:
192,192,168907,128,2,169094:0:0:0:0:
64,192,169094,128,10,169282:0:0:0:0:
448,192,169282,128,2,169469:0:0:0:0:
192,192,169282,1,0,0:0:0:0:
64,192,169469,1,8,0:0:0:0:
448,192,169657,1,0,0:0:0:0:
64,192,169657,128,2,169844:0:0:0:0:
192,192,169844,128,10,170032:0:0:0:0:
448,192,170032,5,0,0:0:0:0:
64,192,170032,1,0,0:0:0:0:
192,192,170219,128,10,170407:0:0:0:0:
448,192,170407,1,0,0:0:0:0:
64,192,170407,1,0,0:0:0:0:
448,192,170594,128,10,170782:0:0:0:0:
192,192,170782,128,2,170969:0:0:0:0:
64,192,170782,1,0,0:0:0:0:
320,192,170969,1,8,0:0:0:0:
320,192,171157,1,4,0:0:0:0:
448,192,171157,128,10,171344:0:0:0:0:
192,192,171344,128,10,171532:0:0:0:0:
64,192,171532,1,0,0:0:0:0:
320,192,171532,128,2,171719:0:0:0:0:
448,192,171719,128,10,171907:0:0:0:0:
320,192,171907,1,0,0:0:0:0:
64,192,171907,128,2,172094:0:0:0:0:
320,192,172094,128,10,172282:0:0:0:0:
448,192,172282,128,2,172469:0:0:0:0:
64,192,172282,1,0,0:0:0:0:
320,192,172469,1,8,0:0:0:0:
64,192,172657,1,0,0:0:0:0:
448,192,172657,128,2,172844:0:0:0:0:
320,192,172844,1,8,0:0:0:0:
64,192,173032,1,0,0:0:0:0:
192,192,173032,128,2,173219:0:0:0:0:
320,192,173219,128,10,173407:0:0:0:0:
64,192,173407,1,0,0:0:0:0:
448,192,173407,1,0,0:0:0:0:
192,192,173594,128,10,173782:0:0:0:0:
64,192,173782,128,2,173969:0:0:0:0:
448,192,173782,1,0,0:0:0:0:
448,192,173969,128,10,174157:0:0:0:0:
320,192,174157,1,0,0:0:0:0:
64,192,174157,128,2,174344:0:0:0:0:
192,192,174344,1,8,0:0:0:0:
320,192,174532,1,0,0:0:0:0:
64,192,174532,128,2,174719:0:0:0:0:
192,192,174719,1,8,0:0:0:0:
320,192,174907,1,0,0:0:0:0:
64,192,174907,128,2,175094:0:0:0:0:
448,192,175094,1,8,0:0:0:0:
64,192,175282,1,0,0:0:0:0:
320,192,175282,128,2,175469:0:0:0:0:
192,192,175469,128,10,175657:0:0:0:0:
64,192,175657,128,2,176032:0:0:0:0:
320,192,175657,1,0,0:0:0:0:
320,192,175844,1,8,0:0:0:0:
192,192,176032,5,0,0:0:0:0:
448,192,176032,128,2,176219:0:0:0:0:
192,192,176219,128,10,176407:0:0:0:0:
64,192,176407,1,0,0:0:0:0:
192,192,176594,1,8,0:0:0:0:
320,192,176594,128,2,176782:0:0:0:0:
192,192,176782,128,2,176969:0:0:0:0:
64,192,176782,1,8,0:0:0:0:
448,192,176969,1,0,0:0:0:0:
320,192,176969,1,8,0:0:0:0:
192,192,177157,1,6,0:0:0:0:
64,192,177157,1,0,0:0:0:0:
448,192,177344,1,0,0:0:0:0:
320,192,177344,1,10,0:0:0:0:
192,192,177438,1,2,0:0:0:0:
64,192,177438,1,0,0:0:0:0:
320,192,177625,1,2,0:0:0:0:
448,192,177625,1,0,0:0:0:0:
64,192,177719,128,0,177907:0:0:0:0:
192,192,177719,128,10,177907:0:0:0:0:
448,192,177907,1,0,0:0:0:0:
320,192,177907,1,6,0:0:0:0:
64,192,178094,1,10,0:0:0:0:
448,192,178094,1,0,0:0:0:0:
320,192,178188,1,0,0:0:0:0:
192,192,178188,1,2,0:0:0:0:
448,192,178375,1,0,0:0:0:0:
64,192,178375,1,2,0:0:0:0:
320,192,178469,128,0,178657:0:0:0:0:
192,192,178469,128,10,178657:0:0:0:0:
448,192,178657,1,0,0:0:0:0:
64,192,178657,1,6,0:0:0:0:
192,192,178844,1,10,0:0:0:0:
448,192,178844,1,0,0:0:0:0:
64,192,178938,1,2,0:0:0:0:
320,192,178938,1,0,0:0:0:0:
64,192,179125,1,2,0:0:0:0:
320,192,179125,1,0,0:0:0:0:
448,192,179219,128,0,179407:0:0:0:0:
192,192,179219,128,10,179407:0:0:0:0:
320,192,179407,128,4,179782:0:0:0:0:
64,192,179407,128,2,179782:0:0:0:0:
192,192,179782,128,2,180063:0:0:0:0:
448,192,179782,128,2,180063:0:0:0:0:
320,192,180157,1,4,0:0:0:0:
448,192,180157,1,0,0:0:0:0:
64,192,180157,1,0,0:0:0:0:
64,192,180344,1,8,0:0:0:0:
448,192,180344,1,0,0:0:0:0:
320,192,180438,1,0,0:0:0:0:
192,192,180438,1,0,0:0:0:0:
320,192,180625,1,0,0:0:0:0:
192,192,180625,1,0,0:0:0:0:
448,192,180719,1,0,0:0:0:0:
64,192,180719,1,8,0:0:0:0:
192,192,180907,1,0,0:0:0:0:
448,192,180907,1,0,0:0:0:0:
320,192,181094,1,0,0:0:0:0:
64,192,181094,1,8,0:0:0:0:
192,192,181188,1,0,0:0:0:0:
448,192,181188,1,0,0:0:0:0:
64,192,181375,1,0,0:0:0:0:
192,192,181375,1,0,0:0:0:0:
448,192,181469,1,8,0:0:0:0:
320,192,181469,1,0,0:0:0:0:
192,192,181657,1,0,0:0:0:0:
448,192,181657,1,0,0:0:0:0:
192,192,181844,1,8,0:0:0:0:
64,192,181844,1,0,0:0:0:0:
448,192,181938,1,0,0:0:0:0:
320,192,181938,1,0,0:0:0:0:
448,192,182125,1,0,0:0:0:0:
64,192,182125,1,0,0:0:0:0:
320,192,182219,1,8,0:0:0:0:
192,192,182219,1,0,0:0:0:0:
64,192,182407,1,0,0:0:0:0:
320,192,182407,1,8,0:0:0:0:
192,192,182407,128,0,183063:0:0:0:0:
448,192,182407,128,0,183063:0:0:0:0:
320,192,182782,128,2,183063:0:0:0:0:
64,192,182782,128,2,183063:0:0:0:0:
448,192,183157,1,4,0:0:0:0:
192,192,183157,1,4,0:0:0:0:
64,192,183157,128,2,184563:0:0:0:0:
320,192,183157,128,2,183344:0:0:0:0:
192,192,183344,1,8,0:0:0:0:
320,192,183438,1,0,0:0:0:0:
192,192,183532,1,0,0:0:0:0:
448,192,183532,128,2,183719:0:0:0:0:
320,192,183719,1,8,0:0:0:0:
448,192,183813,1,0,0:0:0:0:
192,192,183907,1,0,0:0:0:0:
320,192,183907,128,2,184094:0:0:0:0:
192,192,184094,1,8,0:0:0:0:
320,192,184188,1,0,0:0:0:0:
448,192,184282,1,0,0:0:0:0:
192,192,184282,128,2,184469:0:0:0:0:
448,192,184469,1,8,0:0:0:0:
320,192,184563,1,0,0:0:0:0:
448,192,184657,128,2,184844:0:0:0:0:
192,192,184657,128,6,186063:0:0:0:0:
64,192,184657,1,0,0:0:0:0:
320,192,184844,1,8,0:0:0:0:
64,192,184938,1,0,0:0:0:0:
448,192,185032,1,0,0:0:0:0:
320,192,185032,128,2,185219:0:0:0:0:
64,192,185219,1,8,0:0:0:0:
448,192,185313,1,0,0:0:0:0:
64,192,185407,128,2,185594:0:0:0:0:
320,192,185407,1,0,0:0:0:0:
320,192,185594,1,8,0:0:0:0:
64,192,185688,1,0,0:0:0:0:
320,192,185782,128,2,185969:0:0:0:0:
448,192,185782,1,0,0:0:0:0:
448,192,185969,1,8,0:0:0:0:
64,192,186063,1,0,0:0:0:0:
320,192,186157,128,6,187563:0:0:0:0:
448,192,186157,128,2,186344:0:0:0:0:
192,192,186157,1,0,0:0:0:0:
64,192,186344,1,8,0:0:0:0:
192,192,186438,1,0,0:0:0:0:
448,192,186532,128,2,186719:0:0:0:0:
64,192,186532,1,0,0:0:0:0:
192,192,186719,1,8,0:0:0:0:
448,192,186813,1,0,0:0:0:0:
64,192,186907,128,2,187094:0:0:0:0:
192,192,186907,1,0,0:0:0:0:
448,192,187094,1,8,0:0:0:0:
64,192,187188,1,0,0:0:0:0:
192,192,187282,128,2,187469:0:0:0:0:
448,192,187282,1,0,0:0:0:0:
448,192,187469,1,8,0:0:0:0:
64,192,187563,1,0,0:0:0:0:
448,192,187657,128,6,188313:0:0:0:0:
192,192,187657,128,2,187844:0:0:0:0:
320,192,187657,1,0,0:0:0:0:
64,192,187844,1,8,0:0:0:0:
320,192,187938,1,0,0:0:0:0:
192,192,188032,1,8,0:0:0:0:
320,192,188125,1,0,0:0:0:0:
64,192,188219,1,8,0:0:0:0:
192,192,188313,1,0,0:0:0:0:
320,192,188407,1,4,0:0:0:0:
448,192,188407,1,4,0:0:0:0:
64,192,188407,1,8,0:0:0:0:
320,192,188782,128,2,189157:0:0:0:0:
64,192,188782,128,2,189063:0:0:0:0:
192,192,188782,128,2,189157:0:0:0:0:
448,192,188782,128,2,189063:0:0:0:0:
