osu file format v14

[General]
AudioFilename: audio.mp3
AudioLeadIn: 0
PreviewTime: -1
Countdown: 0
SampleSet: Normal
StackLeniency: 0.7
Mode: 1
LetterboxInBreaks: 0
WidescreenStoryboard: 1

[Editor]
DistanceSpacing: 0.8
BeatDivisor: 4
GridSize: 16
TimelineZoom: 2.4

[Metadata]
Title:Unreal Mokushi Sou
TitleUnicode:Unreal Mokushi Sou
Artist:Omoi
ArtistUnicode:Omoi
Creator:Raichu69
Version:Oni
Source:
Tags:Omoi
BeatmapID:1204125
BeatmapSetID:542275

[Difficulty]
HPDrainRate:5
CircleSize:2
OverallDifficulty:5
ApproachRate:6
SliderMultiplier:1.4
SliderTickRate:1

[Events]
//Background and Video events
0,0,"maxresdefault (1).jpg",0,0
//Break Periods
//Storyboard Layer 0 (Background)
//Storyboard Layer 1 (Fail)
//Storyboard Layer 2 (Pass)
//Storyboard Layer 3 (Foreground)
//Storyboard Sound Samples

[TimingPoints]
5309,307.692307692308,4,1,0,100,1,0
74232,-100,4,1,0,100,0,1
93924,-100,4,1,0,100,0,0
143155,-100,4,1,0,100,0,1
162847,-100,4,1,0,100,0,0
187462,-100,4,1,0,30,0,0
192385,-100,4,1,0,100,0,0
197309,-100,4,1,0,100,0,1
217001,-100,4,1,0,100,0,0

[HitObjects]
256,192,5309,5,0,0:0:0:0:
256,192,5616,5,0,0:0:0:0:
256,192,5924,1,2,0:0:0:0:
256,192,6078,1,2,0:0:0:0:
256,192,6232,1,0,0:0:0:0:
256,192,6385,1,0,0:0:0:0:
256,192,6693,1,0,0:0:0:0:
256,192,7001,1,2,0:0:0:0:
256,192,7155,1,0,0:0:0:0:
256,192,7462,1,0,0:0:0:0:
256,192,7616,1,0,0:0:0:0:
256,192,7924,1,2,0:0:0:0:
256,192,8078,1,2,0:0:0:0:
256,192,8385,1,0,0:0:0:0:
256,192,8693,1,0,0:0:0:0:
256,192,9001,1,2,0:0:0:0:
256,192,9462,1,2,0:0:0:0:
256,192,9616,1,0,0:0:0:0:
256,192,10232,1,0,0:0:0:0:
256,192,10539,1,0,0:0:0:0:
256,192,10847,1,2,0:0:0:0:
256,192,11155,1,0,0:0:0:0:
256,192,11462,1,0,0:0:0:0:
256,192,12078,1,0,0:0:0:0:
256,192,12385,1,0,0:0:0:0:
256,192,12693,1,2,0:0:0:0:
256,192,13001,1,2,0:0:0:0:
256,192,13155,1,2,0:0:0:0:
256,192,13309,1,0,0:0:0:0:
256,192,13616,1,0,0:0:0:0:
256,192,13770,1,0,0:0:0:0:
256,192,13924,1,2,0:0:0:0:
256,192,14078,1,0,0:0:0:0:
256,192,14231,1,2,0:0:0:0:
256,192,14385,1,0,0:0:0:0:
256,192,14539,1,2,0:0:0:0:
256,192,14693,1,0,0:0:0:0:
256,192,14847,1,2,0:0:0:0:
256,192,15000,1,0,0:0:0:0:
256,192,15154,1,2,0:0:0:0:
256,192,15308,1,2,0:0:0:0:
256,192,15462,1,2,0:0:0:0:
256,192,15539,1,0,0:0:0:0:
256,192,15616,1,0,0:0:0:0:
256,192,15693,1,0,0:0:0:0:
256,192,15770,1,2,0:0:0:0:
256,192,15923,1,2,0:0:0:0:
256,192,16077,1,0,0:0:0:0:
256,192,16231,1,0,0:0:0:0:
256,192,16385,1,2,0:0:0:0:
256,192,16539,1,0,0:0:0:0:
256,192,16693,1,2,0:0:0:0:
256,192,16847,1,0,0:0:0:0:
256,192,17000,1,0,0:0:0:0:
256,192,17154,1,2,0:0:0:0:
256,192,17308,1,0,0:0:0:0:
256,192,17462,1,0,0:0:0:0:
256,192,17616,1,2,0:0:0:0:
256,192,17693,1,0,0:0:0:0:
256,192,17770,1,0,0:0:0:0:
256,192,17847,1,0,0:0:0:0:
256,192,17924,1,2,0:0:0:0:
256,192,18077,1,0,0:0:0:0:
256,192,18231,1,2,0:0:0:0:
256,192,18309,1,0,0:0:0:0:
256,192,18385,1,0,0:0:0:0:
256,192,18462,1,0,0:0:0:0:
256,192,18539,1,2,0:0:0:0:
256,192,18693,1,0,0:0:0:0:
256,192,18847,1,2,0:0:0:0:
256,192,19000,1,2,0:0:0:0:
256,192,19154,1,2,0:0:0:0:
256,192,19308,1,0,0:0:0:0:
256,192,19462,1,2,0:0:0:0:
256,192,19616,1,0,0:0:0:0:
256,192,19770,1,2,0:0:0:0:
256,192,19924,1,0,0:0:0:0:
256,192,20077,1,4,0:0:0:0:
256,192,20385,1,0,0:0:0:0:
256,192,20539,1,0,0:0:0:0:
256,192,20693,1,2,0:0:0:0:
256,192,20847,1,0,0:0:0:0:
256,192,21000,1,0,0:0:0:0:
256,192,21154,1,0,0:0:0:0:
256,192,21308,1,2,0:0:0:0:
256,192,21462,1,0,0:0:0:0:
256,192,21616,1,2,0:0:0:0:
256,192,21770,1,2,0:0:0:0:
256,192,21924,1,0,0:0:0:0:
256,192,22077,1,2,0:0:0:0:
256,192,22231,1,0,0:0:0:0:
256,192,22385,1,0,0:0:0:0:
256,192,22539,1,0,0:0:0:0:
256,192,22693,1,2,0:0:0:0:
256,192,22847,1,0,0:0:0:0:
256,192,23000,1,2,0:0:0:0:
256,192,23154,1,0,0:0:0:0:
256,192,23308,1,0,0:0:0:0:
256,192,23462,1,0,0:0:0:0:
256,192,23616,1,2,0:0:0:0:
256,192,23770,1,2,0:0:0:0:
256,192,23847,1,2,0:0:0:0:
256,192,23924,1,2,0:0:0:0:
256,192,24077,1,2,0:0:0:0:
256,192,24231,1,2,0:0:0:0:
256,192,24309,1,2,0:0:0:0:
256,192,24385,1,2,0:0:0:0:
256,192,24539,1,0,0:0:0:0:
256,192,24693,1,2,0:0:0:0:
256,192,24770,1,2,0:0:0:0:
256,192,24847,1,2,0:0:0:0:
256,192,25000,1,0,0:0:0:0:
256,192,25154,1,2,0:0:0:0:
256,192,25308,1,0,0:0:0:0:
256,192,25462,1,0,0:0:0:0:
256,192,25616,1,0,0:0:0:0:
256,192,25770,1,2,0:0:0:0:
256,192,25924,1,0,0:0:0:0:
256,192,26000,1,0,0:0:0:0:
256,192,26078,1,0,0:0:0:0:
256,192,26231,1,2,0:0:0:0:
256,192,26385,1,0,0:0:0:0:
256,192,26539,1,2,0:0:0:0:
256,192,26693,1,0,0:0:0:0:
256,192,26846,1,0,0:0:0:0:
256,192,27000,1,2,0:0:0:0:
256,192,27154,1,0,0:0:0:0:
256,192,27308,1,0,0:0:0:0:
256,192,27462,1,2,0:0:0:0:
256,192,27616,1,0,0:0:0:0:
256,192,27693,1,0,0:0:0:0:
256,192,27770,1,2,0:0:0:0:
256,192,27923,1,0,0:0:0:0:
256,192,28077,1,2,0:0:0:0:
256,192,28231,1,0,0:0:0:0:
256,192,28308,1,0,0:0:0:0:
256,192,28385,1,2,0:0:0:0:
256,192,28539,1,0,0:0:0:0:
256,192,28693,1,2,0:0:0:0:
256,192,28846,1,2,0:0:0:0:
256,192,29000,1,2,0:0:0:0:
256,192,29154,1,0,0:0:0:0:
256,192,29308,1,2,0:0:0:0:
256,192,29462,1,0,0:0:0:0:
256,192,29616,1,2,0:0:0:0:
256,192,29770,1,0,0:0:0:0:
256,192,29923,1,0,0:0:0:0:
256,192,30231,1,0,0:0:0:0:
256,192,30385,1,0,0:0:0:0:
256,192,30539,1,2,0:0:0:0:
256,192,30693,1,0,0:0:0:0:
256,192,30846,1,0,0:0:0:0:
256,192,31000,1,0,0:0:0:0:
256,192,31154,1,2,0:0:0:0:
256,192,31308,1,0,0:0:0:0:
256,192,31462,1,2,0:0:0:0:
256,192,31616,1,2,0:0:0:0:
256,192,31770,1,0,0:0:0:0:
256,192,31924,1,2,0:0:0:0:
256,192,32077,1,0,0:0:0:0:
256,192,32231,1,0,0:0:0:0:
256,192,32385,1,6,0:0:0:0:
256,192,32693,1,6,0:0:0:0:
256,192,33000,1,6,0:0:0:0:
256,192,33308,1,6,0:0:0:0:
256,192,33616,1,6,0:0:0:0:
256,192,34231,1,6,0:0:0:0:
256,192,34539,1,0,0:0:0:0:
256,192,34693,1,0,0:0:0:0:
256,192,34848,1,2,0:0:0:0:
256,192,35155,1,0,0:0:0:0:
256,192,35463,1,2,0:0:0:0:
256,192,35771,1,0,0:0:0:0:
256,192,36078,1,2,0:0:0:0:
256,192,36386,1,0,0:0:0:0:
256,192,36539,1,2,0:0:0:0:
256,192,36693,1,2,0:0:0:0:
256,192,36847,5,0,0:0:0:0:
256,192,37001,1,2,0:0:0:0:
256,192,37309,1,2,0:0:0:0:
256,192,37617,1,0,0:0:0:0:
256,192,37924,1,2,0:0:0:0:
256,192,38232,1,2,0:0:0:0:
256,192,38385,1,0,0:0:0:0:
256,192,38539,1,2,0:0:0:0:
256,192,38848,1,0,0:0:0:0:
256,192,39155,1,2,0:0:0:0:
256,192,39463,1,0,0:0:0:0:
256,192,39770,1,2,0:0:0:0:
256,192,40078,1,0,0:0:0:0:
256,192,40232,1,0,0:0:0:0:
256,192,40386,1,2,0:0:0:0:
256,192,40539,1,2,0:0:0:0:
256,192,40693,1,2,0:0:0:0:
256,192,40847,1,0,0:0:0:0:
256,192,41001,1,2,0:0:0:0:
256,192,41155,1,0,0:0:0:0:
256,192,41309,1,2,0:0:0:0:
256,192,41462,1,0,0:0:0:0:
256,192,41616,1,2,0:0:0:0:
256,192,41770,1,0,0:0:0:0:
256,192,41924,1,0,0:0:0:0:
256,192,42232,1,2,0:0:0:0:
256,192,42385,1,0,0:0:0:0:
256,192,42539,1,2,0:0:0:0:
256,192,42693,1,2,0:0:0:0:
256,192,42847,1,2,0:0:0:0:
256,192,43001,1,0,0:0:0:0:
256,192,43155,1,2,0:0:0:0:
256,192,43309,1,0,0:0:0:0:
256,192,43462,1,2,0:0:0:0:
256,192,43616,1,0,0:0:0:0:
256,192,43770,1,2,0:0:0:0:
256,192,43924,1,0,0:0:0:0:
256,192,44078,1,0,0:0:0:0:
256,192,44232,1,0,0:0:0:0:
256,192,44385,1,2,0:0:0:0:
256,192,44694,1,0,0:0:0:0:
256,192,44848,1,0,0:0:0:0:
256,192,45001,1,2,0:0:0:0:
256,192,45155,1,0,0:0:0:0:
256,192,45309,1,2,0:0:0:0:
256,192,45463,1,0,0:0:0:0:
256,192,45617,1,0,0:0:0:0:
256,192,45771,1,0,0:0:0:0:
256,192,45924,1,2,0:0:0:0:
256,192,46232,1,0,0:0:0:0:
256,192,46386,1,0,0:0:0:0:
256,192,46540,1,2,0:0:0:0:
256,192,46694,1,0,0:0:0:0:
256,192,46848,1,2,0:0:0:0:
256,192,47001,1,0,0:0:0:0:
256,192,47155,1,2,0:0:0:0:
256,192,47463,1,0,0:0:0:0:
256,192,47617,1,0,0:0:0:0:
256,192,47770,1,2,0:0:0:0:
256,192,47925,1,0,0:0:0:0:
256,192,48078,1,2,0:0:0:0:
256,192,48232,1,0,0:0:0:0:
256,192,48386,1,0,0:0:0:0:
256,192,48540,1,2,0:0:0:0:
256,192,48694,1,2,0:0:0:0:
256,192,48848,1,0,0:0:0:0:
256,192,49001,1,0,0:0:0:0:
256,192,49155,1,2,0:0:0:0:
256,192,49309,1,0,0:0:0:0:
256,192,49463,1,0,0:0:0:0:
256,192,49616,1,2,0:0:0:0:
256,192,50078,1,0,0:0:0:0:
256,192,50232,1,2,0:0:0:0:
256,192,50386,1,0,0:0:0:0:
256,192,50539,1,2,0:0:0:0:
256,192,50694,1,0,0:0:0:0:
256,192,50847,1,0,0:0:0:0:
256,192,51001,1,0,0:0:0:0:
256,192,51155,1,2,0:0:0:0:
256,192,51309,1,0,0:0:0:0:
256,192,51462,1,2,0:0:0:0:
256,192,51617,1,0,0:0:0:0:
256,192,51770,1,0,0:0:0:0:
256,192,52078,1,2,0:0:0:0:
256,192,52232,1,0,0:0:0:0:
256,192,52386,1,2,0:0:0:0:
256,192,52540,1,0,0:0:0:0:
256,192,52693,1,0,0:0:0:0:
256,192,52848,1,0,0:0:0:0:
256,192,53001,1,2,0:0:0:0:
256,192,53155,1,0,0:0:0:0:
256,192,53308,5,0,0:0:0:0:
256,192,53463,1,0,0:0:0:0:
256,192,53617,1,2,0:0:0:0:
256,192,53771,1,0,0:0:0:0:
256,192,53924,5,0,0:0:0:0:
256,192,54078,1,0,0:0:0:0:
256,192,54231,1,2,0:0:0:0:
256,192,54308,1,2,0:0:0:0:
256,192,54385,1,2,0:0:0:0:
256,192,54462,1,2,0:0:0:0:
256,192,54539,1,0,0:0:0:0:
256,192,54847,1,0,0:0:0:0:
256,192,55000,1,0,0:0:0:0:
256,192,55154,1,2,0:0:0:0:
256,192,55308,1,0,0:0:0:0:
256,192,55462,1,2,0:0:0:0:
256,192,55616,1,0,0:0:0:0:
256,192,55770,1,0,0:0:0:0:
256,192,55847,1,0,0:0:0:0:
256,192,55924,1,2,0:0:0:0:
256,192,56077,1,0,0:0:0:0:
256,192,56231,1,0,0:0:0:0:
256,192,56385,1,2,0:0:0:0:
256,192,56539,1,0,0:0:0:0:
256,192,56693,1,2,0:0:0:0:
256,192,56847,1,2,0:0:0:0:
256,192,57000,1,4,0:0:0:0:
256,192,57308,1,4,0:0:0:0:
256,192,57616,1,4,0:0:0:0:
256,192,57924,1,4,0:0:0:0:
256,192,58231,1,4,0:0:0:0:
256,192,58539,1,4,0:0:0:0:
256,192,58847,1,0,0:0:0:0:
256,192,59000,1,2,0:0:0:0:
256,192,59154,1,2,0:0:0:0:
256,192,59308,1,0,0:0:0:0:
256,192,59462,1,0,0:0:0:0:
256,192,59616,1,2,0:0:0:0:
256,192,59770,1,2,0:0:0:0:
256,192,59924,1,0,0:0:0:0:
256,192,60077,1,2,0:0:0:0:
256,192,60385,1,2,0:0:0:0:
256,192,60693,1,2,0:0:0:0:
256,192,61000,1,0,0:0:0:0:
256,192,61154,1,2,0:0:0:0:
256,192,61462,1,2,0:0:0:0:
256,192,61616,1,0,0:0:0:0:
256,192,61924,1,0,0:0:0:0:
256,192,62000,1,0,0:0:0:0:
256,192,62077,1,0,0:0:0:0:
256,192,62154,1,0,0:0:0:0:
256,192,62231,1,0,0:0:0:0:
256,192,62847,1,2,0:0:0:0:
256,192,63000,1,0,0:0:0:0:
256,192,63154,1,2,0:0:0:0:
256,192,63231,1,0,0:0:0:0:
256,192,63308,1,0,0:0:0:0:
256,192,63462,1,2,0:0:0:0:
256,192,63616,1,2,0:0:0:0:
256,192,63693,1,0,0:0:0:0:
256,192,63770,1,0,0:0:0:0:
256,192,63924,1,0,0:0:0:0:
256,192,64077,1,2,0:0:0:0:
256,192,64385,1,4,0:0:0:0:
256,192,64693,1,0,0:0:0:0:
256,192,64847,1,0,0:0:0:0:
256,192,65001,1,2,0:0:0:0:
256,192,65309,1,2,0:0:0:0:
256,192,65616,1,2,0:0:0:0:
256,192,66078,1,2,0:0:0:0:
224,192,66796,2,0,L|304:192,1,70
256,192,67155,1,2,0:0:0:0:
256,192,67462,1,0,0:0:0:0:
256,192,67770,1,2,0:0:0:0:
256,192,68078,1,2,0:0:0:0:
224,192,69001,2,0,L|304:192,1,70
256,192,69308,5,0,0:0:0:0:
256,192,69385,1,0,0:0:0:0:
256,192,69462,1,0,0:0:0:0:
256,192,69616,1,2,0:0:0:0:
256,192,69770,1,2,0:0:0:0:
256,192,69924,1,0,0:0:0:0:
256,192,70000,1,0,0:0:0:0:
256,192,70077,1,0,0:0:0:0:
256,192,70231,1,2,0:0:0:0:
256,192,70385,1,2,0:0:0:0:
256,192,70539,1,2,0:0:0:0:
256,192,70693,1,0,0:0:0:0:
256,192,70770,1,0,0:0:0:0:
256,192,70847,1,0,0:0:0:0:
256,192,71000,1,2,0:0:0:0:
256,192,71154,1,2,0:0:0:0:
256,192,71308,1,0,0:0:0:0:
256,192,71385,1,0,0:0:0:0:
256,192,71462,1,0,0:0:0:0:
256,192,71616,1,2,0:0:0:0:
256,192,71770,1,2,0:0:0:0:
256,192,71924,1,0,0:0:0:0:
256,192,72078,1,2,0:0:0:0:
256,192,72231,1,2,0:0:0:0:
256,192,72385,1,0,0:0:0:0:
256,192,72462,1,0,0:0:0:0:
256,192,72539,1,0,0:0:0:0:
256,192,72693,1,2,0:0:0:0:
256,192,72847,1,0,0:0:0:0:
256,192,73000,5,2,0:0:0:0:
256,192,73308,1,4,0:0:0:0:
256,192,73616,1,6,0:0:0:0:
256,192,73924,1,4,0:0:0:0:
256,192,74231,1,2,0:0:0:0:
256,192,74385,1,0,0:0:0:0:
256,192,74462,1,0,0:0:0:0:
256,192,74539,1,2,0:0:0:0:
256,192,74693,1,0,0:0:0:0:
256,192,74847,1,2,0:0:0:0:
256,192,75000,1,0,0:0:0:0:
256,192,75078,1,0,0:0:0:0:
256,192,75154,1,0,0:0:0:0:
256,192,75308,1,2,0:0:0:0:
256,192,75462,1,0,0:0:0:0:
256,192,75616,1,2,0:0:0:0:
256,192,75770,1,2,0:0:0:0:
256,192,75924,1,0,0:0:0:0:
256,192,76077,1,2,0:0:0:0:
256,192,76539,1,2,0:0:0:0:
256,192,76693,1,0,0:0:0:0:
256,192,76770,1,0,0:0:0:0:
256,192,76847,1,0,0:0:0:0:
256,192,77000,1,2,0:0:0:0:
256,192,77154,1,0,0:0:0:0:
256,192,77308,1,2,0:0:0:0:
256,192,77462,1,0,0:0:0:0:
256,192,77616,1,2,0:0:0:0:
256,192,77770,1,2,0:0:0:0:
256,192,77847,1,2,0:0:0:0:
256,192,77924,1,2,0:0:0:0:
256,192,78385,1,2,0:0:0:0:
256,192,78539,1,2,0:0:0:0:
256,192,79154,5,2,0:0:0:0:
256,192,79308,1,0,0:0:0:0:
256,192,79385,1,0,0:0:0:0:
256,192,79462,1,2,0:0:0:0:
256,192,79616,1,0,0:0:0:0:
256,192,79693,1,2,0:0:0:0:
256,192,79770,1,2,0:0:0:0:
256,192,79924,1,0,0:0:0:0:
256,192,80001,1,0,0:0:0:0:
256,192,80078,1,2,0:0:0:0:
256,192,80231,1,0,0:0:0:0:
256,192,80309,1,2,0:0:0:0:
256,192,80385,1,2,0:0:0:0:
256,192,80539,1,0,0:0:0:0:
256,192,80616,1,0,0:0:0:0:
256,192,80693,1,0,0:0:0:0:
256,192,80847,1,0,0:0:0:0:
256,192,80924,1,2,0:0:0:0:
256,192,81001,1,2,0:0:0:0:
256,192,81154,1,0,0:0:0:0:
256,192,81232,1,2,0:0:0:0:
256,192,81308,1,2,0:0:0:0:
256,192,81462,1,0,0:0:0:0:
256,192,81616,5,2,0:0:0:0:
256,192,81693,1,2,0:0:0:0:
256,192,81770,1,2,0:0:0:0:
256,192,81847,1,2,0:0:0:0:
256,192,81924,1,2,0:0:0:0:
256,192,82077,1,0,0:0:0:0:
256,192,82231,1,2,0:0:0:0:
256,192,82309,1,2,0:0:0:0:
256,192,82385,1,2,0:0:0:0:
256,192,82462,1,2,0:0:0:0:
256,192,82539,1,2,0:0:0:0:
256,192,82693,1,0,0:0:0:0:
256,192,82847,1,2,0:0:0:0:
256,192,82924,1,2,0:0:0:0:
256,192,83000,1,2,0:0:0:0:
256,192,83154,1,0,0:0:0:0:
256,192,83308,1,0,0:0:0:0:
256,192,83385,1,0,0:0:0:0:
256,192,83462,1,0,0:0:0:0:
256,192,83616,1,0,0:0:0:0:
256,192,83770,1,2,0:0:0:0:
256,192,83847,1,2,0:0:0:0:
256,192,83924,1,2,0:0:0:0:
256,192,84077,1,0,0:0:0:0:
256,192,84231,1,0,0:0:0:0:
256,192,84385,1,0,0:0:0:0:
256,192,84539,1,2,0:0:0:0:
256,192,84693,1,2,0:0:0:0:
256,192,84847,1,0,0:0:0:0:
256,192,85000,1,2,0:0:0:0:
256,192,85154,1,0,0:0:0:0:
256,192,85462,1,0,0:0:0:0:
256,192,85616,1,2,0:0:0:0:
256,192,85770,1,0,0:0:0:0:
256,192,85924,1,0,0:0:0:0:
256,192,86231,1,0,0:0:0:0:
256,192,86385,1,2,0:0:0:0:
256,192,86539,1,0,0:0:0:0:
256,192,86693,1,0,0:0:0:0:
256,192,86770,1,0,0:0:0:0:
256,192,86847,1,0,0:0:0:0:
256,192,87000,1,2,0:0:0:0:
256,192,87078,1,2,0:0:0:0:
256,192,87154,1,2,0:0:0:0:
256,192,87232,1,2,0:0:0:0:
256,192,87308,1,2,0:0:0:0:
256,192,87462,1,0,0:0:0:0:
256,192,87616,1,2,0:0:0:0:
256,192,87770,1,2,0:0:0:0:
256,192,87847,1,2,0:0:0:0:
256,192,87924,1,2,0:0:0:0:
256,192,88001,1,2,0:0:0:0:
256,192,88077,1,2,0:0:0:0:
256,192,88231,1,2,0:0:0:0:
256,192,88385,1,0,0:0:0:0:
256,192,88539,1,2,0:0:0:0:
256,192,89000,1,2,0:0:0:0:
256,192,89154,1,0,0:0:0:0:
256,192,89308,1,2,0:0:0:0:
256,192,89462,1,0,0:0:0:0:
256,192,89616,1,2,0:0:0:0:
256,192,89770,1,0,0:0:0:0:
256,192,89924,1,2,0:0:0:0:
256,192,90077,1,0,0:0:0:0:
256,192,90231,1,0,0:0:0:0:
256,192,90309,1,0,0:0:0:0:
256,192,90385,1,2,0:0:0:0:
256,192,90539,1,0,0:0:0:0:
256,192,90616,1,0,0:0:0:0:
256,192,90693,1,2,0:0:0:0:
256,192,90847,1,2,0:0:0:0:
256,192,90924,1,2,0:0:0:0:
256,192,91001,1,2,0:0:0:0:
256,192,91154,1,0,0:0:0:0:
256,192,91462,1,2,0:0:0:0:
256,192,91616,1,0,0:0:0:0:
256,192,91770,1,2,0:0:0:0:
256,192,91924,1,2,0:0:0:0:
256,192,92231,1,2,0:0:0:0:
256,192,92539,1,2,0:0:0:0:
256,192,92847,1,0,0:0:0:0:
256,192,93000,1,0,0:0:0:0:
256,192,93154,1,2,0:0:0:0:
256,192,93308,1,2,0:0:0:0:
256,192,93462,1,0,0:0:0:0:
256,192,93616,1,2,0:0:0:0:
256,192,93770,1,0,0:0:0:0:
256,192,93924,5,2,0:0:0:0:
256,192,94077,1,2,0:0:0:0:
256,192,94155,5,2,0:0:0:0:
256,192,94231,1,0,0:0:0:0:
256,192,94385,1,0,0:0:0:0:
256,192,94539,1,0,0:0:0:0:
256,192,94693,1,2,0:0:0:0:
256,192,94770,1,2,0:0:0:0:
256,192,94847,1,0,0:0:0:0:
256,192,95000,1,0,0:0:0:0:
256,192,95154,1,2,0:0:0:0:
256,192,95308,1,0,0:0:0:0:
256,192,95462,1,2,0:0:0:0:
256,192,95539,1,2,0:0:0:0:
256,192,95616,1,2,0:0:0:0:
256,192,95770,1,0,0:0:0:0:
256,192,95847,1,0,0:0:0:0:
256,192,95924,1,0,0:0:0:0:
256,192,96077,1,0,0:0:0:0:
256,192,96155,1,0,0:0:0:0:
256,192,96231,1,2,0:0:0:0:
256,192,96385,1,2,0:0:0:0:
256,192,96539,1,0,0:0:0:0:
256,192,96616,1,0,0:0:0:0:
256,192,96693,1,2,0:0:0:0:
256,192,96847,1,2,0:0:0:0:
256,192,97000,1,0,0:0:0:0:
256,192,97154,1,0,0:0:0:0:
256,192,97231,1,0,0:0:0:0:
256,192,97308,1,2,0:0:0:0:
256,192,97462,1,2,0:0:0:0:
256,192,97616,1,0,0:0:0:0:
256,192,97770,1,0,0:0:0:0:
256,192,97924,1,2,0:0:0:0:
256,192,98077,1,0,0:0:0:0:
256,192,98231,1,2,0:0:0:0:
256,192,98385,1,0,0:0:0:0:
256,192,98539,1,2,0:0:0:0:
256,192,98693,1,2,0:0:0:0:
256,192,98847,1,0,0:0:0:0:
256,192,99000,1,2,0:0:0:0:
256,192,99154,1,0,0:0:0:0:
256,192,99308,1,0,0:0:0:0:
256,192,99462,1,2,0:0:0:0:
256,192,99616,1,0,0:0:0:0:
256,192,99770,1,0,0:0:0:0:
256,192,99924,1,2,0:0:0:0:
256,192,100077,1,2,0:0:0:0:
256,192,100231,1,0,0:0:0:0:
256,192,100385,1,2,0:0:0:0:
256,192,100539,1,0,0:0:0:0:
256,192,100693,1,2,0:0:0:0:
256,192,100847,1,2,0:0:0:0:
256,192,100924,1,2,0:0:0:0:
256,192,101000,1,2,0:0:0:0:
256,192,101077,1,0,0:0:0:0:
256,192,101154,1,0,0:0:0:0:
256,192,101231,1,0,0:0:0:0:
256,192,101308,1,0,0:0:0:0:
256,192,101616,1,4,0:0:0:0:
256,192,101770,1,6,0:0:0:0:
256,192,102077,1,4,0:0:0:0:
256,192,102232,1,6,0:0:0:0:
256,192,102539,1,4,0:0:0:0:
256,192,102847,1,4,0:0:0:0:
256,192,103154,1,4,0:0:0:0:
256,192,103462,1,2,0:0:0:0:
256,192,103616,1,0,0:0:0:0:
256,192,103770,1,2,0:0:0:0:
256,192,103924,1,0,0:0:0:0:
256,192,104077,1,2,0:0:0:0:
256,192,104155,1,2,0:0:0:0:
256,192,104231,1,2,0:0:0:0:
256,192,104385,1,0,0:0:0:0:
256,192,104693,1,2,0:0:0:0:
256,192,104847,1,0,0:0:0:0:
256,192,105000,1,2,0:0:0:0:
256,192,105154,1,2,0:0:0:0:
256,192,105308,1,2,0:0:0:0:
256,192,105462,1,2,0:0:0:0:
256,192,105616,1,0,0:0:0:0:
256,192,105770,1,0,0:0:0:0:
256,192,105924,1,2,0:0:0:0:
256,192,106001,1,2,0:0:0:0:
256,192,106077,1,0,0:0:0:0:
256,192,106231,1,2,0:0:0:0:
256,192,106385,1,0,0:0:0:0:
256,192,106693,1,0,0:0:0:0:
256,192,106847,1,2,0:0:0:0:
256,192,107000,1,0,0:0:0:0:
256,192,107154,1,2,0:0:0:0:
256,192,107308,1,2,0:0:0:0:
256,192,107462,1,0,0:0:0:0:
256,192,107539,1,0,0:0:0:0:
256,192,107616,1,2,0:0:0:0:
256,192,107924,1,2,0:0:0:0:
256,192,108077,1,0,0:0:0:0:
256,192,108231,1,2,0:0:0:0:
256,192,108385,1,2,0:0:0:0:
256,192,108539,1,0,0:0:0:0:
256,192,108693,1,2,0:0:0:0:
256,192,108770,1,2,0:0:0:0:
256,192,108847,1,0,0:0:0:0:
256,192,109154,1,2,0:0:0:0:
256,192,109462,1,2,0:0:0:0:
256,192,109616,1,0,0:0:0:0:
256,192,109770,1,0,0:0:0:0:
256,192,109924,1,2,0:0:0:0:
256,192,110001,1,2,0:0:0:0:
256,192,110077,1,0,0:0:0:0:
256,192,110231,1,2,0:0:0:0:
256,192,110309,1,2,0:0:0:0:
256,192,110385,1,0,0:0:0:0:
256,192,110539,1,0,0:0:0:0:
256,192,110616,1,0,0:0:0:0:
256,192,110693,1,2,0:0:0:0:
256,192,111154,1,0,0:0:0:0:
256,192,111308,1,0,0:0:0:0:
256,192,111462,1,2,0:0:0:0:
256,192,111616,1,2,0:0:0:0:
256,192,111770,1,0,0:0:0:0:
256,192,111924,1,0,0:0:0:0:
256,192,112077,1,2,0:0:0:0:
256,192,112231,1,2,0:0:0:0:
256,192,112385,1,0,0:0:0:0:
256,192,112462,1,0,0:0:0:0:
256,192,112539,1,0,0:0:0:0:
256,192,112693,1,2,0:0:0:0:
256,192,112770,1,0,0:0:0:0:
256,192,112847,1,0,0:0:0:0:
256,192,113000,1,2,0:0:0:0:
256,192,113078,1,0,0:0:0:0:
256,192,113154,1,2,0:0:0:0:
256,192,113308,1,0,0:0:0:0:
256,192,113616,1,0,0:0:0:0:
256,192,113770,1,0,0:0:0:0:
256,192,113924,1,2,0:0:0:0:
256,192,114077,1,2,0:0:0:0:
256,192,114231,1,0,0:0:0:0:
256,192,114385,1,2,0:0:0:0:
256,192,114539,1,0,0:0:0:0:
256,192,114693,1,2,0:0:0:0:
256,192,114847,5,2,0:0:0:0:
256,192,114924,1,2,0:0:0:0:
256,192,115000,1,0,0:0:0:0:
256,192,115154,5,2,0:0:0:0:
256,192,115308,5,2,0:0:0:0:
256,192,115462,1,0,0:0:0:0:
256,192,115616,1,2,0:0:0:0:
256,192,115770,1,2,0:0:0:0:
256,192,115924,1,0,0:0:0:0:
256,192,116077,1,2,0:0:0:0:
256,192,116539,1,2,0:0:0:0:
256,192,116693,1,0,0:0:0:0:
256,192,116847,1,2,0:0:0:0:
256,192,117000,1,0,0:0:0:0:
256,192,117154,1,2,0:0:0:0:
256,192,117308,1,0,0:0:0:0:
256,192,117462,1,0,0:0:0:0:
256,192,117770,1,2,0:0:0:0:
256,192,117924,1,0,0:0:0:0:
256,192,118231,1,0,0:0:0:0:
256,192,118385,1,2,0:0:0:0:
256,192,118539,1,0,0:0:0:0:
256,192,119000,1,2,0:0:0:0:
256,192,119154,1,2,0:0:0:0:
256,192,119308,1,0,0:0:0:0:
256,192,119462,1,0,0:0:0:0:
256,192,119616,1,2,0:0:0:0:
256,192,119770,1,0,0:0:0:0:
256,192,119847,1,0,0:0:0:0:
256,192,119924,1,2,0:0:0:0:
256,192,120077,1,0,0:0:0:0:
256,192,120231,1,2,0:0:0:0:
256,192,120385,1,0,0:0:0:0:
256,192,120539,1,2,0:0:0:0:
256,192,120616,1,2,0:0:0:0:
256,192,120693,1,2,0:0:0:0:
256,192,121000,1,2,0:0:0:0:
256,192,121154,1,2,0:0:0:0:
256,192,121308,1,0,0:0:0:0:
256,192,121385,1,0,0:0:0:0:
256,192,121462,1,0,0:0:0:0:
256,192,121616,1,2,0:0:0:0:
256,192,121770,1,0,0:0:0:0:
256,192,121847,1,0,0:0:0:0:
256,192,121924,1,2,0:0:0:0:
256,192,122077,1,2,0:0:0:0:
256,192,122231,1,0,0:0:0:0:
256,192,122308,1,0,0:0:0:0:
256,192,122385,1,0,0:0:0:0:
256,192,122539,1,2,0:0:0:0:
256,192,122616,1,2,0:0:0:0:
256,192,122693,1,2,0:0:0:0:
256,192,122770,1,2,0:0:0:0:
256,192,122847,1,2,0:0:0:0:
256,192,123000,1,0,0:0:0:0:
256,192,123154,1,0,0:0:0:0:
256,192,123308,1,0,0:0:0:0:
256,192,123462,1,2,0:0:0:0:
256,192,123770,1,0,0:0:0:0:
256,192,123923,1,0,0:0:0:0:
256,192,124077,1,2,0:0:0:0:
256,192,124231,1,0,0:0:0:0:
256,192,124385,1,2,0:0:0:0:
256,192,124539,1,0,0:0:0:0:
256,192,124693,1,2,0:0:0:0:
256,192,124770,1,2,0:0:0:0:
256,192,124847,1,2,0:0:0:0:
256,192,124924,1,2,0:0:0:0:
256,192,125000,1,2,0:0:0:0:
256,192,125154,1,0,0:0:0:0:
256,192,125308,1,2,0:0:0:0:
256,192,125462,1,0,0:0:0:0:
256,192,125616,1,2,0:0:0:0:
256,192,125770,1,2,0:0:0:0:
256,192,125923,1,4,0:0:0:0:
256,192,126231,1,4,0:0:0:0:
256,192,126539,1,4,0:0:0:0:
256,192,126847,1,4,0:0:0:0:
256,192,127154,1,4,0:0:0:0:
256,192,127462,1,4,0:0:0:0:
256,192,127770,1,0,0:0:0:0:
256,192,127923,1,2,0:0:0:0:
256,192,128077,1,2,0:0:0:0:
256,192,128231,1,0,0:0:0:0:
256,192,128385,1,2,0:0:0:0:
256,192,128539,1,0,0:0:0:0:
256,192,128693,1,2,0:0:0:0:
256,192,128847,1,0,0:0:0:0:
256,192,129000,1,2,0:0:0:0:
256,192,129308,1,2,0:0:0:0:
256,192,129616,1,2,0:0:0:0:
256,192,129923,1,0,0:0:0:0:
256,192,130077,1,2,0:0:0:0:
256,192,130385,1,2,0:0:0:0:
256,192,130539,1,0,0:0:0:0:
256,192,130847,1,2,0:0:0:0:
256,192,130924,1,0,0:0:0:0:
256,192,131000,1,0,0:0:0:0:
256,192,131078,1,0,0:0:0:0:
256,192,131154,1,0,0:0:0:0:
256,192,131770,1,2,0:0:0:0:
256,192,131923,1,2,0:0:0:0:
256,192,132077,1,0,0:0:0:0:
256,192,132231,1,0,0:0:0:0:
256,192,132385,1,2,0:0:0:0:
256,192,132539,1,2,0:0:0:0:
256,192,132616,1,2,0:0:0:0:
256,192,132693,1,0,0:0:0:0:
256,192,132770,1,2,0:0:0:0:
256,192,132847,1,0,0:0:0:0:
256,192,132923,1,2,0:0:0:0:
256,192,133000,1,2,0:0:0:0:
256,192,133308,1,4,0:0:0:0:
256,192,133616,1,0,0:0:0:0:
256,192,133770,5,2,0:0:0:0:
256,192,133924,1,2,0:0:0:0:
256,192,134077,1,2,0:0:0:0:
256,192,134231,1,0,0:0:0:0:
256,192,134385,1,0,0:0:0:0:
256,192,134539,1,0,0:0:0:0:
256,192,134693,1,0,0:0:0:0:
256,192,134847,1,2,0:0:0:0:
256,192,135000,1,2,0:0:0:0:
256,192,135154,1,0,0:0:0:0:
256,192,135308,1,2,0:0:0:0:
256,192,135462,1,2,0:0:0:0:
256,192,135616,1,2,0:0:0:0:
256,192,135770,1,0,0:0:0:0:
256,192,135924,1,0,0:0:0:0:
256,192,136077,1,2,0:0:0:0:
256,192,136385,1,2,0:0:0:0:
256,192,136693,1,2,0:0:0:0:
256,192,137000,1,2,0:0:0:0:
256,192,137308,1,0,0:0:0:0:
256,192,137462,1,2,0:0:0:0:
256,192,137616,1,2,0:0:0:0:
256,192,137770,1,0,0:0:0:0:
256,192,137924,1,2,0:0:0:0:
256,192,138077,1,2,0:0:0:0:
256,192,138231,5,0,0:0:0:0:
256,192,138308,1,0,0:0:0:0:
256,192,138385,1,0,0:0:0:0:
256,192,138539,1,2,0:0:0:0:
256,192,138693,1,2,0:0:0:0:
256,192,138847,1,0,0:0:0:0:
256,192,138924,1,0,0:0:0:0:
256,192,139000,1,0,0:0:0:0:
256,192,139154,1,2,0:0:0:0:
256,192,139308,1,2,0:0:0:0:
256,192,139462,1,0,0:0:0:0:
256,192,139539,1,0,0:0:0:0:
256,192,139616,1,0,0:0:0:0:
256,192,139770,1,2,0:0:0:0:
256,192,140077,1,0,0:0:0:0:
256,192,140154,1,0,0:0:0:0:
256,192,140231,1,0,0:0:0:0:
256,192,140385,5,0,0:0:0:0:
256,192,140539,1,2,0:0:0:0:
256,192,140693,1,0,0:0:0:0:
256,192,140847,1,0,0:0:0:0:
256,192,141001,1,2,0:0:0:0:
256,192,141154,1,2,0:0:0:0:
256,192,141308,1,0,0:0:0:0:
256,192,141385,1,0,0:0:0:0:
256,192,141462,1,0,0:0:0:0:
256,192,141616,1,2,0:0:0:0:
256,192,141770,1,2,0:0:0:0:
256,192,141923,5,0,0:0:0:0:
256,192,142231,1,4,0:0:0:0:
256,192,142539,1,6,0:0:0:0:
256,192,142847,1,4,0:0:0:0:
256,192,143154,1,2,0:0:0:0:
256,192,143308,1,0,0:0:0:0:
256,192,143385,1,0,0:0:0:0:
256,192,143462,1,2,0:0:0:0:
256,192,143616,1,0,0:0:0:0:
256,192,143770,1,2,0:0:0:0:
256,192,143923,1,0,0:0:0:0:
256,192,144077,1,0,0:0:0:0:
256,192,144231,1,2,0:0:0:0:
256,192,144385,1,0,0:0:0:0:
256,192,144539,1,0,0:0:0:0:
256,192,144693,1,2,0:0:0:0:
256,192,144847,1,0,0:0:0:0:
256,192,144924,1,0,0:0:0:0:
256,192,145000,1,2,0:0:0:0:
256,192,145462,1,2,0:0:0:0:
256,192,145616,1,0,0:0:0:0:
256,192,145770,1,2,0:0:0:0:
256,192,145923,1,0,0:0:0:0:
256,192,146077,1,2,0:0:0:0:
256,192,146231,1,2,0:0:0:0:
256,192,146309,1,2,0:0:0:0:
256,192,146385,1,0,0:0:0:0:
256,192,146539,1,2,0:0:0:0:
256,192,146693,1,2,0:0:0:0:
256,192,146770,1,2,0:0:0:0:
256,192,146847,1,2,0:0:0:0:
256,192,147308,1,2,0:0:0:0:
256,192,147462,1,2,0:0:0:0:
256,192,148077,5,0,0:0:0:0:
256,192,148385,1,0,0:0:0:0:
256,192,148462,1,2,0:0:0:0:
256,192,148539,1,2,0:0:0:0:
256,192,148616,1,2,0:0:0:0:
256,192,148693,1,2,0:0:0:0:
256,192,149001,1,0,0:0:0:0:
256,192,149078,1,2,0:0:0:0:
256,192,149154,1,2,0:0:0:0:
256,192,149232,1,2,0:0:0:0:
256,192,149308,1,2,0:0:0:0:
256,192,149616,1,0,0:0:0:0:
256,192,149693,1,2,0:0:0:0:
256,192,149769,1,2,0:0:0:0:
256,192,149847,1,2,0:0:0:0:
256,192,149923,1,2,0:0:0:0:
256,192,150231,1,0,0:0:0:0:
256,192,150385,1,0,0:0:0:0:
256,192,150539,5,2,0:0:0:0:
256,192,150616,1,2,0:0:0:0:
256,192,150693,1,0,0:0:0:0:
256,192,150847,1,2,0:0:0:0:
256,192,150924,1,2,0:0:0:0:
256,192,151000,1,0,0:0:0:0:
256,192,151154,1,2,0:0:0:0:
256,192,151232,1,2,0:0:0:0:
256,192,151308,1,0,0:0:0:0:
256,192,151462,1,0,0:0:0:0:
256,192,151539,1,0,0:0:0:0:
256,192,151616,1,0,0:0:0:0:
256,192,151770,1,2,0:0:0:0:
256,192,151847,1,2,0:0:0:0:
256,192,151923,1,2,0:0:0:0:
256,192,152077,1,0,0:0:0:0:
256,192,152231,1,0,0:0:0:0:
256,192,152385,1,0,0:0:0:0:
256,192,152539,1,0,0:0:0:0:
256,192,152693,1,2,0:0:0:0:
256,192,152770,1,2,0:0:0:0:
256,192,152847,1,2,0:0:0:0:
256,192,153000,1,0,0:0:0:0:
256,192,153078,1,0,0:0:0:0:
256,192,153154,1,0,0:0:0:0:
256,192,153308,1,0,0:0:0:0:
256,192,153462,1,2,0:0:0:0:
256,192,153616,1,0,0:0:0:0:
256,192,153770,1,2,0:0:0:0:
256,192,153923,1,0,0:0:0:0:
256,192,154077,1,2,0:0:0:0:
256,192,154385,1,0,0:0:0:0:
256,192,154539,1,2,0:0:0:0:
256,192,154693,1,0,0:0:0:0:
256,192,154847,1,0,0:0:0:0:
256,192,155154,1,0,0:0:0:0:
256,192,155308,1,2,0:0:0:0:
256,192,155462,1,0,0:0:0:0:
256,192,155616,1,0,0:0:0:0:
256,192,155770,1,0,0:0:0:0:
256,192,155923,1,2,0:0:0:0:
256,192,156077,1,2,0:0:0:0:
256,192,156231,1,2,0:0:0:0:
256,192,156385,1,0,0:0:0:0:
256,192,156539,1,2,0:0:0:0:
256,192,156693,1,2,0:0:0:0:
256,192,156770,1,2,0:0:0:0:
256,192,156847,1,0,0:0:0:0:
256,192,157000,1,2,0:0:0:0:
256,192,157078,1,2,0:0:0:0:
256,192,157154,1,2,0:0:0:0:
256,192,157308,1,2,0:0:0:0:
256,192,157385,1,2,0:0:0:0:
256,192,157462,1,0,0:0:0:0:
256,192,157923,1,2,0:0:0:0:
256,192,158077,1,0,0:0:0:0:
256,192,158231,1,2,0:0:0:0:
256,192,158385,1,0,0:0:0:0:
256,192,158539,1,2,0:0:0:0:
256,192,158693,1,0,0:0:0:0:
256,192,158847,1,2,0:0:0:0:
256,192,159000,1,0,0:0:0:0:
256,192,159154,1,0,0:0:0:0:
256,192,159308,1,2,0:0:0:0:
256,192,159462,1,0,0:0:0:0:
256,192,159616,1,2,0:0:0:0:
256,192,159770,1,0,0:0:0:0:
256,192,159923,1,0,0:0:0:0:
256,192,160385,1,2,0:0:0:0:
256,192,160539,1,0,0:0:0:0:
256,192,160693,1,2,0:0:0:0:
256,192,160847,1,2,0:0:0:0:
256,192,161154,1,2,0:0:0:0:
256,192,161308,1,0,0:0:0:0:
256,192,161462,1,2,0:0:0:0:
256,192,161616,1,2,0:0:0:0:
256,192,161770,1,2,0:0:0:0:
256,192,161923,1,0,0:0:0:0:
256,192,162077,1,2,0:0:0:0:
256,192,162231,1,2,0:0:0:0:
256,192,162385,1,0,0:0:0:0:
256,192,162539,1,2,0:0:0:0:
256,192,162693,1,0,0:0:0:0:
256,192,162847,5,2,0:0:0:0:
256,192,162924,1,2,0:0:0:0:
256,192,163000,1,2,0:0:0:0:
256,192,163154,1,0,0:0:0:0:
256,192,163232,1,0,0:0:0:0:
256,192,163308,1,0,0:0:0:0:
256,192,163462,1,0,0:0:0:0:
256,192,163539,1,2,0:0:0:0:
256,192,163616,1,2,0:0:0:0:
256,192,163770,1,2,0:0:0:0:
256,192,163847,1,2,0:0:0:0:
256,192,163923,1,0,0:0:0:0:
256,192,164077,1,2,0:0:0:0:
256,192,164231,1,0,0:0:0:0:
256,192,164385,1,2,0:0:0:0:
256,192,164462,1,2,0:0:0:0:
256,192,164539,1,2,0:0:0:0:
256,192,164693,1,0,0:0:0:0:
256,192,164770,1,2,0:0:0:0:
256,192,164847,1,0,0:0:0:0:
256,192,165000,1,2,0:0:0:0:
256,192,165078,1,2,0:0:0:0:
256,192,165154,1,0,0:0:0:0:
256,192,165308,1,2,0:0:0:0:
256,192,165462,1,0,0:0:0:0:
256,192,165616,1,2,0:0:0:0:
256,192,165693,1,2,0:0:0:0:
256,192,165770,1,2,0:0:0:0:
256,192,165923,1,0,0:0:0:0:
256,192,166077,1,2,0:0:0:0:
256,192,166231,1,0,0:0:0:0:
256,192,166385,1,2,0:0:0:0:
256,192,166539,1,2,0:0:0:0:
256,192,166616,1,2,0:0:0:0:
256,192,166693,1,2,0:0:0:0:
256,192,166847,1,0,0:0:0:0:
256,192,167000,1,2,0:0:0:0:
256,192,167154,1,0,0:0:0:0:
256,192,167231,1,0,0:0:0:0:
256,192,167308,1,0,0:0:0:0:
256,192,167462,1,2,0:0:0:0:
256,192,167616,1,0,0:0:0:0:
256,192,167770,1,2,0:0:0:0:
256,192,167847,1,2,0:0:0:0:
256,192,167924,1,2,0:0:0:0:
256,192,168000,1,2,0:0:0:0:
256,192,168077,1,2,0:0:0:0:
256,192,168231,1,0,0:0:0:0:
256,192,168385,1,2,0:0:0:0:
256,192,168539,1,2,0:0:0:0:
256,192,168693,1,2,0:0:0:0:
256,192,168847,1,0,0:0:0:0:
256,192,169000,1,2,0:0:0:0:
256,192,169154,1,0,0:0:0:0:
256,192,169308,5,0,0:0:0:0:
256,192,169462,1,0,0:0:0:0:
256,192,169616,1,2,0:0:0:0:
256,192,169770,1,0,0:0:0:0:
256,192,169924,1,2,0:0:0:0:
256,192,170077,1,0,0:0:0:0:
256,192,170231,1,2,0:0:0:0:
256,192,170308,1,2,0:0:0:0:
256,192,170385,1,2,0:0:0:0:
256,192,170539,1,0,0:0:0:0:
256,192,170693,1,2,0:0:0:0:
256,192,170770,1,2,0:0:0:0:
256,192,170847,1,2,0:0:0:0:
256,192,171000,1,2,0:0:0:0:
256,192,171154,1,0,0:0:0:0:
256,192,171308,1,2,0:0:0:0:
256,192,171462,1,0,0:0:0:0:
256,192,171616,1,0,0:0:0:0:
256,192,171770,1,0,0:0:0:0:
256,192,171924,1,2,0:0:0:0:
256,192,172077,1,0,0:0:0:0:
256,192,172231,1,2,0:0:0:0:
256,192,172385,1,2,0:0:0:0:
256,192,172539,1,0,0:0:0:0:
256,192,172693,1,0,0:0:0:0:
256,192,172847,1,0,0:0:0:0:
256,192,173000,1,2,0:0:0:0:
256,192,173078,1,2,0:0:0:0:
256,192,173154,1,2,0:0:0:0:
256,192,173308,1,2,0:0:0:0:
256,192,173462,1,0,0:0:0:0:
256,192,173616,1,0,0:0:0:0:
256,192,173770,1,2,0:0:0:0:
256,192,173924,1,2,0:0:0:0:
256,192,174077,1,2,0:0:0:0:
256,192,174231,1,0,0:0:0:0:
256,192,174385,1,0,0:0:0:0:
256,192,174539,1,2,0:0:0:0:
256,192,174693,1,2,0:0:0:0:
256,192,174770,1,2,0:0:0:0:
256,192,174847,1,0,0:0:0:0:
256,192,175154,1,0,0:0:0:0:
256,192,175309,1,2,0:0:0:0:
256,192,175461,1,2,0:0:0:0:
256,192,175539,1,2,0:0:0:0:
256,192,175615,1,2,0:0:0:0:
256,192,175769,1,0,0:0:0:0:
256,192,175923,1,2,0:0:0:0:
256,192,176077,1,2,0:0:0:0:
256,192,176231,1,2,0:0:0:0:
256,192,176384,1,0,0:0:0:0:
256,192,176538,1,0,0:0:0:0:
256,192,176692,1,2,0:0:0:0:
256,192,176846,1,2,0:0:0:0:
256,192,177000,1,0,0:0:0:0:
256,192,177154,1,2,0:0:0:0:
256,192,177231,1,2,0:0:0:0:
256,192,177308,1,0,0:0:0:0:
256,192,177616,1,0,0:0:0:0:
256,192,177769,1,2,0:0:0:0:
256,192,177923,1,2,0:0:0:0:
256,192,178077,1,2,0:0:0:0:
256,192,178231,1,0,0:0:0:0:
256,192,178385,1,2,0:0:0:0:
256,192,178539,1,2,0:0:0:0:
256,192,178693,1,0,0:0:0:0:
256,192,178846,1,0,0:0:0:0:
256,192,179000,1,2,0:0:0:0:
256,192,179154,1,0,0:0:0:0:
256,192,179308,1,2,0:0:0:0:
256,192,179616,1,2,0:0:0:0:
256,192,180077,1,0,0:0:0:0:
256,192,180232,1,2,0:0:0:0:
256,192,180384,1,2,0:0:0:0:
256,192,180538,1,2,0:0:0:0:
256,192,180692,1,0,0:0:0:0:
256,192,180846,1,2,0:0:0:0:
256,192,181000,1,2,0:0:0:0:
256,192,181154,1,0,0:0:0:0:
256,192,181309,1,2,0:0:0:0:
256,192,181461,1,2,0:0:0:0:
256,192,181615,1,0,0:0:0:0:
256,192,181769,1,2,0:0:0:0:
256,192,182077,1,2,0:0:0:0:
256,192,182539,1,0,0:0:0:0:
256,192,182692,1,2,0:0:0:0:
256,192,182846,1,2,0:0:0:0:
256,192,183000,1,2,0:0:0:0:
256,192,183154,1,0,0:0:0:0:
256,192,183308,1,2,0:0:0:0:
256,192,183462,1,2,0:0:0:0:
256,192,183616,1,2,0:0:0:0:
256,192,183769,1,0,0:0:0:0:
256,192,183924,1,0,0:0:0:0:
256,192,184077,1,0,0:0:0:0:
256,192,184231,1,2,0:0:0:0:
256,192,184385,1,2,0:0:0:0:
256,192,184539,1,2,0:0:0:0:
256,192,184693,1,0,0:0:0:0:
256,192,184847,1,2,0:0:0:0:
256,192,185000,1,2,0:0:0:0:
256,192,185078,1,2,0:0:0:0:
256,192,185154,1,2,0:0:0:0:
256,192,185308,1,0,0:0:0:0:
256,192,185385,1,0,0:0:0:0:
256,192,185462,1,2,0:0:0:0:
256,192,185616,1,2,0:0:0:0:
256,192,185693,1,2,0:0:0:0:
256,192,185770,1,2,0:0:0:0:
256,192,185924,1,0,0:0:0:0:
256,192,186001,1,0,0:0:0:0:
256,192,186077,1,2,0:0:0:0:
256,192,186231,1,2,0:0:0:0:
256,192,186309,1,2,0:0:0:0:
256,192,186385,1,2,0:0:0:0:
256,192,186539,1,0,0:0:0:0:
256,192,186693,1,0,0:0:0:0:
256,192,186847,1,2,0:0:0:0:
256,192,187000,1,2,0:0:0:0:
256,192,187154,1,0,0:0:0:0:
256,192,187308,1,0,0:0:0:0:
256,192,187462,1,2,0:0:0:0:
256,192,187770,1,2,0:0:0:0:
256,192,187924,1,0,0:0:0:0:
256,192,188077,1,2,0:0:0:0:
256,192,188231,1,0,0:0:0:0:
256,192,188385,1,2,0:0:0:0:
256,192,188539,1,0,0:0:0:0:
256,192,188693,1,2,0:0:0:0:
256,192,188847,1,0,0:0:0:0:
256,192,189000,1,2,0:0:0:0:
256,192,189154,1,0,0:0:0:0:
256,192,189309,1,2,0:0:0:0:
256,192,189462,1,0,0:0:0:0:
256,192,189616,1,2,0:0:0:0:
256,192,189770,1,0,0:0:0:0:
256,192,189924,1,2,0:0:0:0:
256,192,190077,1,0,0:0:0:0:
256,192,190232,1,2,0:0:0:0:
256,192,190385,1,0,0:0:0:0:
256,192,190539,1,2,0:0:0:0:
256,192,190693,1,0,0:0:0:0:
256,192,190847,1,2,0:0:0:0:
256,192,191000,1,0,0:0:0:0:
256,192,191154,1,2,0:0:0:0:
256,192,191308,1,0,0:0:0:0:
256,192,191462,1,2,0:0:0:0:
256,192,191616,1,0,0:0:0:0:
256,192,191770,1,2,0:0:0:0:
256,192,191847,1,2,0:0:0:0:
256,192,191924,1,2,0:0:0:0:
256,192,192000,1,2,0:0:0:0:
256,192,192077,1,0,0:0:0:0:
256,192,192154,1,2,0:0:0:0:
256,192,192231,1,2,0:0:0:0:
256,192,192308,1,2,0:0:0:0:
256,192,192385,1,0,0:0:0:0:
256,192,192539,1,2,0:0:0:0:
256,192,192693,1,0,0:0:0:0:
256,192,192847,1,2,0:0:0:0:
256,192,193000,1,2,0:0:0:0:
256,192,193154,1,0,0:0:0:0:
256,192,193308,1,0,0:0:0:0:
256,192,193462,1,2,0:0:0:0:
256,192,193616,1,0,0:0:0:0:
256,192,193924,1,2,0:0:0:0:
256,192,194077,1,0,0:0:0:0:
256,192,194847,1,2,0:0:0:0:
256,192,194924,1,2,0:0:0:0:
256,192,195000,1,2,0:0:0:0:
256,192,195154,1,0,0:0:0:0:
256,192,195232,1,0,0:0:0:0:
256,192,195308,1,2,0:0:0:0:
256,192,195462,1,2,0:0:0:0:
256,192,195539,1,2,0:0:0:0:
256,192,195616,1,2,0:0:0:0:
256,192,195770,1,0,0:0:0:0:
256,192,195847,1,0,0:0:0:0:
256,192,195924,1,2,0:0:0:0:
256,192,196077,1,2,0:0:0:0:
256,192,196155,1,2,0:0:0:0:
256,192,196231,1,2,0:0:0:0:
256,192,196539,1,2,0:0:0:0:
256,192,196693,5,0,0:0:0:0:
256,192,196847,1,2,0:0:0:0:
256,192,197000,1,0,0:0:0:0:
256,192,197078,1,0,0:0:0:0:
256,192,197154,1,0,0:0:0:0:
256,192,197308,1,2,0:0:0:0:
256,192,197462,1,0,0:0:0:0:
256,192,197616,1,2,0:0:0:0:
256,192,197770,1,0,0:0:0:0:
256,192,197924,1,2,0:0:0:0:
256,192,198001,1,2,0:0:0:0:
256,192,198077,1,2,0:0:0:0:
256,192,198155,1,2,0:0:0:0:
256,192,198231,1,2,0:0:0:0:
256,192,198385,1,0,0:0:0:0:
256,192,198539,1,2,0:0:0:0:
256,192,198693,1,0,0:0:0:0:
256,192,198847,1,2,0:0:0:0:
256,192,199000,1,0,0:0:0:0:
256,192,199154,1,0,0:0:0:0:
256,192,199462,1,2,0:0:0:0:
256,192,199616,1,0,0:0:0:0:
256,192,199770,1,2,0:0:0:0:
256,192,199847,1,2,0:0:0:0:
256,192,199924,1,2,0:0:0:0:
256,192,200077,1,0,0:0:0:0:
256,192,200231,1,0,0:0:0:0:
256,192,200385,1,2,0:0:0:0:
256,192,200693,1,2,0:0:0:0:
256,192,200847,1,0,0:0:0:0:
256,192,201000,1,2,0:0:0:0:
256,192,201154,1,0,0:0:0:0:
256,192,201308,1,2,0:0:0:0:
256,192,201385,1,2,0:0:0:0:
256,192,201462,1,2,0:0:0:0:
256,192,201616,1,0,0:0:0:0:
256,192,201770,1,0,0:0:0:0:
256,192,202231,1,2,0:0:0:0:
256,192,202385,1,0,0:0:0:0:
256,192,202539,1,2,0:0:0:0:
256,192,202693,1,0,0:0:0:0:
256,192,202847,1,2,0:0:0:0:
256,192,203001,1,0,0:0:0:0:
256,192,203155,1,2,0:0:0:0:
256,192,203232,1,2,0:0:0:0:
256,192,203308,1,2,0:0:0:0:
256,192,203462,1,0,0:0:0:0:
256,192,203616,1,2,0:0:0:0:
256,192,203770,1,0,0:0:0:0:
256,192,203924,1,2,0:0:0:0:
256,192,204078,1,0,0:0:0:0:
256,192,204155,1,0,0:0:0:0:
256,192,204231,1,0,0:0:0:0:
256,192,204693,1,2,0:0:0:0:
256,192,204847,1,0,0:0:0:0:
256,192,205001,1,2,0:0:0:0:
256,192,205155,1,2,0:0:0:0:
256,192,205462,1,2,0:0:0:0:
256,192,205616,1,0,0:0:0:0:
256,192,205770,1,2,0:0:0:0:
256,192,205924,1,2,0:0:0:0:
256,192,206078,1,2,0:0:0:0:
256,192,206231,1,0,0:0:0:0:
256,192,206385,1,2,0:0:0:0:
256,192,206539,1,2,0:0:0:0:
256,192,206693,1,0,0:0:0:0:
256,192,206847,1,2,0:0:0:0:
256,192,207001,1,0,0:0:0:0:
256,192,207155,5,0,0:0:0:0:
256,192,207232,1,0,0:0:0:0:
256,192,207308,1,2,0:0:0:0:
256,192,207462,1,2,0:0:0:0:
256,192,207539,1,2,0:0:0:0:
256,192,207616,1,0,0:0:0:0:
256,192,207770,1,0,0:0:0:0:
256,192,207924,1,2,0:0:0:0:
256,192,208078,1,2,0:0:0:0:
256,192,208155,1,2,0:0:0:0:
256,192,208231,1,0,0:0:0:0:
256,192,208385,1,0,0:0:0:0:
256,192,208462,1,0,0:0:0:0:
256,192,208539,1,2,0:0:0:0:
256,192,208693,1,2,0:0:0:0:
256,192,208847,1,2,0:0:0:0:
256,192,209001,1,0,0:0:0:0:
256,192,209155,1,0,0:0:0:0:
256,192,209308,1,2,0:0:0:0:
256,192,209462,1,0,0:0:0:0:
256,192,209539,1,0,0:0:0:0:
256,192,209616,1,2,0:0:0:0:
256,192,209770,1,0,0:0:0:0:
256,192,209847,1,0,0:0:0:0:
256,192,209924,1,2,0:0:0:0:
256,192,210078,1,2,0:0:0:0:
256,192,210231,1,0,0:0:0:0:
256,192,210385,1,2,0:0:0:0:
256,192,210539,1,0,0:0:0:0:
256,192,210693,1,2,0:0:0:0:
256,192,210847,1,2,0:0:0:0:
256,192,210924,1,2,0:0:0:0:
256,192,211001,1,2,0:0:0:0:
256,192,211155,1,2,0:0:0:0:
256,192,211308,1,0,0:0:0:0:
256,192,211462,1,2,0:0:0:0:
256,192,211616,1,0,0:0:0:0:
256,192,212077,1,2,0:0:0:0:
256,192,212231,1,0,0:0:0:0:
256,192,212385,1,2,0:0:0:0:
256,192,212539,1,0,0:0:0:0:
256,192,212693,1,2,0:0:0:0:
256,192,212847,1,0,0:0:0:0:
256,192,213001,1,2,0:0:0:0:
256,192,213154,1,0,0:0:0:0:
256,192,213308,1,0,0:0:0:0:
256,192,213385,1,0,0:0:0:0:
256,192,213462,1,2,0:0:0:0:
256,192,213616,1,0,0:0:0:0:
256,192,213693,1,0,0:0:0:0:
256,192,213770,1,2,0:0:0:0:
256,192,213924,1,2,0:0:0:0:
256,192,214001,1,2,0:0:0:0:
256,192,214077,1,2,0:0:0:0:
256,192,214231,1,0,0:0:0:0:
256,192,214539,1,2,0:0:0:0:
256,192,214693,1,0,0:0:0:0:
256,192,214847,1,2,0:0:0:0:
256,192,215001,1,2,0:0:0:0:
256,192,215308,1,2,0:0:0:0:
256,192,215462,1,0,0:0:0:0:
256,192,215616,1,2,0:0:0:0:
256,192,215770,1,2,0:0:0:0:
256,192,215924,1,2,0:0:0:0:
256,192,216077,1,0,0:0:0:0:
256,192,216231,1,2,0:0:0:0:
256,192,216385,1,2,0:0:0:0:
256,192,216539,1,0,0:0:0:0:
256,192,216693,1,2,0:0:0:0:
256,192,216847,1,0,0:0:0:0:
256,192,217001,5,2,0:0:0:0:
256,192,217078,1,2,0:0:0:0:
256,192,217154,1,2,0:0:0:0:
256,192,217308,1,0,0:0:0:0:
256,192,217462,1,0,0:0:0:0:
256,192,217539,1,0,0:0:0:0:
256,192,217616,1,0,0:0:0:0:
256,192,217770,1,2,0:0:0:0:
256,192,217924,1,0,0:0:0:0:
256,192,218001,1,0,0:0:0:0:
256,192,218077,1,0,0:0:0:0:
256,192,218231,1,2,0:0:0:0:
256,192,218385,1,0,0:0:0:0:
256,192,218539,1,2,0:0:0:0:
256,192,218693,1,2,0:0:0:0:
256,192,218847,1,0,0:0:0:0:
256,192,219001,1,0,0:0:0:0:
256,192,219154,1,2,0:0:0:0:
256,192,219308,1,0,0:0:0:0:
256,192,219462,1,2,0:0:0:0:
256,192,219616,1,2,0:0:0:0:
256,192,219693,1,2,0:0:0:0:
256,192,219770,1,0,0:0:0:0:
256,192,219924,1,2,0:0:0:0:
256,192,220077,1,0,0:0:0:0:
256,192,220231,1,2,0:0:0:0:
256,192,220309,1,2,0:0:0:0:
256,192,220385,1,0,0:0:0:0:
256,192,220539,1,2,0:0:0:0:
256,192,220693,1,0,0:0:0:0:
256,192,220847,1,0,0:0:0:0:
256,192,221001,1,2,0:0:0:0:
256,192,221154,1,0,0:0:0:0:
256,192,221308,1,2,0:0:0:0:
256,192,221462,1,0,0:0:0:0:
256,192,221616,1,2,0:0:0:0:
256,192,221693,1,2,0:0:0:0:
256,192,221770,1,2,0:0:0:0:
256,192,221924,1,0,0:0:0:0:
256,192,222077,1,2,0:0:0:0:
256,192,222231,1,0,0:0:0:0:
256,192,222385,1,0,0:0:0:0:
256,192,222539,1,2,0:0:0:0:
256,192,222693,1,0,0:0:0:0:
256,192,222847,1,0,0:0:0:0:
256,192,223001,1,0,0:0:0:0:
256,192,223078,1,0,0:0:0:0:
256,192,223154,1,2,0:0:0:0:
256,192,223308,1,0,0:0:0:0:
256,192,223462,1,2,0:0:0:0:
256,192,223616,1,0,0:0:0:0:
256,192,223770,1,2,0:0:0:0:
256,192,223924,1,2,0:0:0:0:
256,192,224000,1,2,0:0:0:0:
256,192,224077,1,2,0:0:0:0:
256,192,224154,1,0,0:0:0:0:
256,192,224231,1,2,0:0:0:0:
256,192,224308,1,2,0:0:0:0:
256,192,224385,1,0,0:0:0:0:
256,192,224693,1,0,0:0:0:0:
256,192,224847,1,2,0:0:0:0:
256,192,225000,1,2,0:0:0:0:
256,192,225154,1,0,0:0:0:0:
256,192,225308,1,2,0:0:0:0:
256,192,225462,1,2,0:0:0:0:
256,192,225616,1,0,0:0:0:0:
256,192,225693,1,2,0:0:0:0:
256,192,225770,1,2,0:0:0:0:
256,192,225924,1,0,0:0:0:0:
256,192,226001,1,2,0:0:0:0:
256,192,226077,1,2,0:0:0:0:
256,192,226231,1,0,0:0:0:0:
256,192,226309,1,2,0:0:0:0:
256,192,226385,1,2,0:0:0:0:
256,192,226539,1,0,0:0:0:0:
256,192,226616,1,2,0:0:0:0:
256,192,226693,1,2,0:0:0:0:
256,192,226847,1,0,0:0:0:0:
256,192,227000,1,0,0:0:0:0:
256,192,227154,1,2,0:0:0:0:
256,192,227308,1,0,0:0:0:0:
256,192,227462,1,0,0:0:0:0:
256,192,227616,1,0,0:0:0:0:
256,192,227769,1,2,0:0:0:0:
256,192,227923,1,0,0:0:0:0:
256,192,228077,1,0,0:0:0:0:
256,192,228231,1,2,0:0:0:0:
256,192,228385,1,0,0:0:0:0:
256,192,228539,1,2,0:0:0:0:
256,192,228693,1,0,0:0:0:0:
256,192,228846,1,0,0:0:0:0:
256,192,229000,1,2,0:0:0:0:
256,192,229154,1,0,0:0:0:0:
256,192,229308,1,2,0:0:0:0:
256,192,229462,1,2,0:0:0:0:
256,192,229616,1,0,0:0:0:0:
256,192,229770,1,0,0:0:0:0:
256,192,229923,1,2,0:0:0:0:
256,192,230077,1,2,0:0:0:0:
256,192,230231,1,0,0:0:0:0:
256,192,230385,1,0,0:0:0:0:
256,192,230539,1,2,0:0:0:0:
256,192,230693,1,2,0:0:0:0:
256,192,230846,1,2,0:0:0:0:
256,192,231000,1,2,0:0:0:0:
256,192,231154,1,0,0:0:0:0:
256,192,231308,1,2,0:0:0:0:
256,192,231462,1,0,0:0:0:0:
256,192,231616,1,2,0:0:0:0:
256,192,231770,1,0,0:0:0:0:
256,192,231923,1,0,0:0:0:0:
256,192,232231,1,0,0:0:0:0:
256,192,232385,1,2,0:0:0:0:
256,192,232539,1,0,0:0:0:0:
256,192,232693,1,2,0:0:0:0:
256,192,232847,1,0,0:0:0:0:
256,192,233000,1,2,0:0:0:0:
256,192,233155,1,0,0:0:0:0:
256,192,233308,1,2,0:0:0:0:
256,192,233462,1,0,0:0:0:0:
256,192,233616,1,2,0:0:0:0:
256,192,233770,1,0,0:0:0:0:
256,192,233923,1,2,0:0:0:0:
256,192,234077,1,0,0:0:0:0:
256,192,234231,1,0,0:0:0:0:
256,192,234385,1,2,0:0:0:0:
256,192,234539,1,2,0:0:0:0:
256,192,234693,1,2,0:0:0:0:
256,192,234847,1,0,0:0:0:0:
256,192,235001,1,2,0:0:0:0:
256,192,235154,1,2,0:0:0:0:
256,192,235308,1,0,0:0:0:0:
256,192,235462,1,2,0:0:0:0:
256,192,235616,1,2,0:0:0:0:
256,192,236077,1,2,0:0:0:0:
256,192,236231,1,2,0:0:0:0:
256,192,236385,1,0,0:0:0:0:
256,192,236539,1,0,0:0:0:0:
256,192,236616,1,0,0:0:0:0:
256,192,236693,1,0,0:0:0:0:
256,192,236847,1,2,0:0:0:0:
256,192,236924,1,2,0:0:0:0:
256,192,237000,1,2,0:0:0:0:
256,192,237154,1,2,0:0:0:0:
256,192,237231,1,2,0:0:0:0:
256,192,237308,1,2,0:0:0:0:
256,192,237462,1,0,0:0:0:0:
256,192,237616,1,2,0:0:0:0:
256,192,237924,1,4,0:0:0:0:
