osu file format v14

[General]
AudioFilename: audio.mp3
AudioLeadIn: 0
PreviewTime: -1
Countdown: 0
SampleSet: Normal
StackLeniency: 1
Mode: 1
LetterboxInBreaks: 0
WidescreenStoryboard: 1

[Editor]
DistanceSpacing: 0.8
BeatDivisor: 4
GridSize: 16
TimelineZoom: 2.4

[Metadata]
Title:Unreal Mokushi Sou
TitleUnicode:Unreal Mokushi Sou
Artist:Omoi
ArtistUnicode:Omoi
Creator:Raichu69
Version:Muzukashii
Source:
Tags:Omoi
BeatmapID:1204123
BeatmapSetID:542275

[Difficulty]
HPDrainRate:5
CircleSize:2
OverallDifficulty:5
ApproachRate:6
SliderMultiplier:1.4
SliderTickRate:1

[Events]
//Background and Video events
0,0,"maxresdefault (1).jpg",0,0
//Break Periods
//Storyboard Layer 0 (Background)
//Storyboard Layer 1 (Fail)
//Storyboard Layer 2 (Pass)
//Storyboard Layer 3 (Foreground)
//Storyboard Sound Samples

[TimingPoints]
5309,307.692307692308,4,1,0,100,1,0
74232,-100,4,1,0,100,0,1
93924,-100,4,1,0,100,0,0
143155,-100,4,1,0,100,0,1
162847,-100,4,1,0,100,0,0
187462,-100,4,1,0,30,0,0
192385,-100,4,1,0,100,0,0
197309,-100,4,1,0,100,0,1
217001,-100,4,1,0,100,0,0

[HitObjects]
256,192,5309,5,0,0:0:0:0:
256,192,5617,5,0,0:0:0:0:
256,192,5924,1,2,0:0:0:0:
256,192,6078,1,2,0:0:0:0:
256,192,6232,1,0,0:0:0:0:
256,192,6386,1,0,0:0:0:0:
256,192,6694,1,0,0:0:0:0:
256,192,7001,1,2,0:0:0:0:
256,192,7155,1,0,0:0:0:0:
256,192,7463,1,0,0:0:0:0:
256,192,7617,1,0,0:0:0:0:
256,192,7924,1,2,0:0:0:0:
256,192,8078,1,2,0:0:0:0:
256,192,8386,1,0,0:0:0:0:
256,192,8694,1,0,0:0:0:0:
256,192,9001,1,2,0:0:0:0:
256,192,9463,1,2,0:0:0:0:
256,192,9617,1,0,0:0:0:0:
256,192,10232,1,0,0:0:0:0:
256,192,10540,1,0,0:0:0:0:
256,192,10848,1,2,0:0:0:0:
256,192,11155,1,0,0:0:0:0:
256,192,11463,1,0,0:0:0:0:
256,192,12078,1,0,0:0:0:0:
256,192,12386,1,0,0:0:0:0:
256,192,12694,1,2,0:0:0:0:
256,192,13001,1,2,0:0:0:0:
256,192,13155,1,2,0:0:0:0:
256,192,13309,1,0,0:0:0:0:
256,192,13617,1,2,0:0:0:0:
256,192,13771,1,2,0:0:0:0:
256,192,13924,1,0,0:0:0:0:
256,192,15154,1,0,0:0:0:0:
256,192,15308,1,0,0:0:0:0:
256,192,15462,1,2,0:0:0:0:
256,192,15770,1,0,0:0:0:0:
256,192,15923,1,0,0:0:0:0:
256,192,16077,1,2,0:0:0:0:
256,192,16385,1,0,0:0:0:0:
256,192,16539,1,0,0:0:0:0:
256,192,16693,1,2,0:0:0:0:
256,192,16847,1,2,0:0:0:0:
256,192,17000,1,2,0:0:0:0:
256,192,17154,1,0,0:0:0:0:
256,192,17308,1,2,0:0:0:0:
256,192,17462,1,0,0:0:0:0:
256,192,17616,1,2,0:0:0:0:
256,192,17770,1,2,0:0:0:0:
256,192,17924,1,2,0:0:0:0:
256,192,18231,1,2,0:0:0:0:
256,192,18385,1,2,0:0:0:0:
256,192,18539,1,2,0:0:0:0:
256,192,18847,1,0,0:0:0:0:
256,192,19000,1,2,0:0:0:0:
256,192,19155,1,2,0:0:0:0:
256,192,19308,1,2,0:0:0:0:
256,192,19462,1,0,0:0:0:0:
256,192,19616,1,2,0:0:0:0:
256,192,19770,1,2,0:0:0:0:
256,192,19924,1,0,0:0:0:0:
256,192,20077,1,0,0:0:0:0:
256,192,20385,1,0,0:0:0:0:
256,192,20539,1,0,0:0:0:0:
256,192,20693,1,2,0:0:0:0:
256,192,21001,1,0,0:0:0:0:
256,192,21154,1,0,0:0:0:0:
256,192,21308,1,2,0:0:0:0:
256,192,21616,1,2,0:0:0:0:
256,192,21770,1,2,0:0:0:0:
256,192,21924,1,0,0:0:0:0:
256,192,22231,1,2,0:0:0:0:
256,192,22385,1,2,0:0:0:0:
256,192,22539,1,0,0:0:0:0:
256,192,22847,1,0,0:0:0:0:
256,192,23000,1,2,0:0:0:0:
256,192,23154,1,0,0:0:0:0:
256,192,23462,1,2,0:0:0:0:
256,192,23616,1,0,0:0:0:0:
256,192,23770,1,2,0:0:0:0:
256,192,23924,1,2,0:0:0:0:
256,192,24077,1,0,0:0:0:0:
256,192,24231,1,2,0:0:0:0:
256,192,24385,1,0,0:0:0:0:
256,192,24539,1,2,0:0:0:0:
256,192,24693,1,0,0:0:0:0:
256,192,24847,1,2,0:0:0:0:
256,192,25000,1,0,0:0:0:0:
256,192,25154,1,0,0:0:0:0:
256,192,25308,1,2,0:0:0:0:
256,192,25616,1,0,0:0:0:0:
256,192,25769,1,0,0:0:0:0:
256,192,25923,1,2,0:0:0:0:
256,192,26231,1,0,0:0:0:0:
256,192,26385,1,0,0:0:0:0:
256,192,26539,1,2,0:0:0:0:
256,192,26693,1,2,0:0:0:0:
256,192,26846,1,2,0:0:0:0:
256,192,27000,1,0,0:0:0:0:
256,192,27154,1,2,0:0:0:0:
256,192,27308,1,0,0:0:0:0:
256,192,27462,1,2,0:0:0:0:
256,192,27616,1,2,0:0:0:0:
256,192,27770,1,2,0:0:0:0:
256,192,28077,1,2,0:0:0:0:
256,192,28231,1,2,0:0:0:0:
256,192,28385,1,2,0:0:0:0:
256,192,28693,1,2,0:0:0:0:
256,192,28846,1,0,0:0:0:0:
256,192,29000,1,2,0:0:0:0:
256,192,29154,1,2,0:0:0:0:
256,192,29309,1,2,0:0:0:0:
256,192,29462,1,0,0:0:0:0:
256,192,29616,1,2,0:0:0:0:
256,192,29770,1,2,0:0:0:0:
256,192,29923,1,0,0:0:0:0:
256,192,30231,1,4,0:0:0:0:
256,192,30539,1,6,0:0:0:0:
256,192,30847,1,4,0:0:0:0:
256,192,31154,1,6,0:0:0:0:
256,192,31462,1,4,0:0:0:0:
256,192,31770,1,6,0:0:0:0:
256,192,32077,1,4,0:0:0:0:
256,192,32385,1,6,0:0:0:0:
256,192,32693,1,4,0:0:0:0:
256,192,33000,1,6,0:0:0:0:
256,192,33308,1,6,0:0:0:0:
256,192,33616,1,6,0:0:0:0:
256,192,34231,1,6,0:0:0:0:
256,192,34539,1,0,0:0:0:0:
256,192,34693,1,0,0:0:0:0:
256,192,34847,5,0,0:0:0:0:
256,192,35154,1,0,0:0:0:0:
256,192,35462,1,2,0:0:0:0:
256,192,35770,1,0,0:0:0:0:
256,192,36077,1,2,0:0:0:0:
256,192,36385,1,0,0:0:0:0:
256,192,36693,1,0,0:0:0:0:
256,192,37000,1,0,0:0:0:0:
256,192,37308,1,2,0:0:0:0:
256,192,37616,1,0,0:0:0:0:
256,192,37924,1,2,0:0:0:0:
256,192,38231,1,0,0:0:0:0:
256,192,38539,1,0,0:0:0:0:
256,192,38847,1,2,0:0:0:0:
256,192,39154,1,0,0:0:0:0:
256,192,39462,1,0,0:0:0:0:
256,192,39770,1,2,0:0:0:0:
256,192,40077,1,0,0:0:0:0:
256,192,40385,1,0,0:0:0:0:
256,192,40693,1,2,0:0:0:0:
256,192,41000,1,0,0:0:0:0:
256,192,41308,1,0,0:0:0:0:
256,192,41616,1,2,0:0:0:0:
256,192,41924,1,0,0:0:0:0:
256,192,42231,1,2,0:0:0:0:
256,192,42539,1,0,0:0:0:0:
256,192,42847,1,0,0:0:0:0:
256,192,43154,1,2,0:0:0:0:
256,192,43462,1,0,0:0:0:0:
256,192,43770,1,2,0:0:0:0:
256,192,44077,1,0,0:0:0:0:
256,192,44385,1,2,0:0:0:0:
256,192,44693,1,0,0:0:0:0:
256,192,44847,1,0,0:0:0:0:
256,192,45001,1,2,0:0:0:0:
256,192,45155,1,0,0:0:0:0:
256,192,45308,1,2,0:0:0:0:
256,192,45462,1,0,0:0:0:0:
256,192,45616,1,0,0:0:0:0:
256,192,45770,1,0,0:0:0:0:
256,192,45924,1,2,0:0:0:0:
256,192,46078,1,0,0:0:0:0:
256,192,46231,1,0,0:0:0:0:
256,192,46385,1,2,0:0:0:0:
256,192,46539,1,0,0:0:0:0:
256,192,46693,1,0,0:0:0:0:
256,192,46847,1,2,0:0:0:0:
256,192,47154,1,2,0:0:0:0:
256,192,47616,1,0,0:0:0:0:
256,192,47770,1,2,0:0:0:0:
256,192,47924,1,0,0:0:0:0:
256,192,48077,1,2,0:0:0:0:
256,192,48232,1,0,0:0:0:0:
256,192,48385,1,0,0:0:0:0:
256,192,48539,1,2,0:0:0:0:
256,192,48847,1,0,0:0:0:0:
256,192,49000,1,2,0:0:0:0:
256,192,49155,1,0,0:0:0:0:
256,192,49308,1,2,0:0:0:0:
256,192,49462,1,2,0:0:0:0:
256,192,49616,1,0,0:0:0:0:
256,192,50078,1,0,0:0:0:0:
256,192,50231,1,2,0:0:0:0:
256,192,50385,1,0,0:0:0:0:
256,192,50539,1,2,0:0:0:0:
256,192,50693,1,0,0:0:0:0:
256,192,50847,1,2,0:0:0:0:
256,192,51001,1,0,0:0:0:0:
256,192,51154,1,0,0:0:0:0:
256,192,51309,1,2,0:0:0:0:
256,192,51462,1,2,0:0:0:0:
256,192,51616,1,2,0:0:0:0:
256,192,52077,1,2,0:0:0:0:
256,192,52232,1,0,0:0:0:0:
256,192,52385,1,2,0:0:0:0:
256,192,52539,1,0,0:0:0:0:
256,192,52693,1,0,0:0:0:0:
256,192,52847,1,2,0:0:0:0:
256,192,53000,1,2,0:0:0:0:
256,192,53155,1,0,0:0:0:0:
256,192,53308,1,2,0:0:0:0:
256,192,53462,1,2,0:0:0:0:
256,192,53616,1,0,0:0:0:0:
256,192,53770,1,2,0:0:0:0:
256,192,53924,5,0,0:0:0:0:
256,192,54078,1,0,0:0:0:0:
112,192,54309,2,0,L|352:192,1,210
256,192,55462,1,0,0:0:0:0:
256,192,55770,1,2,0:0:0:0:
256,192,56231,1,2,0:0:0:0:
256,192,56693,1,2,0:0:0:0:
256,192,57000,1,0,0:0:0:0:
256,192,57462,1,0,0:0:0:0:
256,192,57924,1,0,0:0:0:0:
256,192,58539,1,0,0:0:0:0:
256,192,58847,1,2,0:0:0:0:
256,192,59770,1,2,0:0:0:0:
256,192,60077,1,0,0:0:0:0:
256,192,60385,1,0,0:0:0:0:
256,192,60693,1,2,0:0:0:0:
256,192,61000,1,2,0:0:0:0:
256,192,61154,1,0,0:0:0:0:
256,192,61462,1,2,0:0:0:0:
256,192,61616,1,0,0:0:0:0:
256,192,61924,1,0,0:0:0:0:
256,192,62847,1,0,0:0:0:0:
256,192,63154,1,2,0:0:0:0:
256,192,63462,1,0,0:0:0:0:
256,192,63616,1,2,0:0:0:0:
256,192,64693,5,0,0:0:0:0:
256,192,64847,1,0,0:0:0:0:
256,192,65000,1,2,0:0:0:0:
256,192,65308,1,2,0:0:0:0:
256,192,65616,1,2,0:0:0:0:
256,192,66077,1,2,0:0:0:0:
224,192,66796,2,0,L|304:192,1,70
256,192,67154,1,2,0:0:0:0:
256,192,67462,1,2,0:0:0:0:
256,192,67770,1,0,0:0:0:0:
256,192,68077,1,2,0:0:0:0:
224,192,69001,2,0,L|304:192,1,70
256,192,69309,1,0,0:0:0:0:
256,192,69463,1,0,0:0:0:0:
256,192,69539,1,0,0:0:0:0:
256,192,69617,1,2,0:0:0:0:
256,192,69771,1,2,0:0:0:0:
256,192,69847,1,0,0:0:0:0:
256,192,69925,1,0,0:0:0:0:
256,192,70079,1,0,0:0:0:0:
256,192,70155,1,2,0:0:0:0:
256,192,70232,1,2,0:0:0:0:
256,192,70386,1,2,0:0:0:0:
256,192,70540,1,0,0:0:0:0:
256,192,70616,1,0,0:0:0:0:
256,192,70694,1,0,0:0:0:0:
256,192,70848,1,2,0:0:0:0:
256,192,71002,1,0,0:0:0:0:
256,192,71155,1,2,0:0:0:0:
256,192,71310,1,0,0:0:0:0:
256,192,71386,1,0,0:0:0:0:
256,192,71463,1,0,0:0:0:0:
256,192,71770,1,6,0:0:0:0:
256,192,73308,1,2,0:0:0:0:
256,192,73616,1,2,0:0:0:0:
256,192,73924,1,2,0:0:0:0:
256,192,74232,1,4,0:0:0:0:
256,192,74385,1,0,0:0:0:0:
256,192,74462,1,0,0:0:0:0:
256,192,74539,1,0,0:0:0:0:
256,192,74693,1,0,0:0:0:0:
256,192,74847,1,2,0:0:0:0:
256,192,75000,1,0,0:0:0:0:
256,192,75155,1,0,0:0:0:0:
256,192,75308,1,2,0:0:0:0:
256,192,75462,1,0,0:0:0:0:
256,192,75616,1,2,0:0:0:0:
256,192,75770,1,0,0:0:0:0:
256,192,75924,1,0,0:0:0:0:
256,192,76077,1,2,0:0:0:0:
256,192,76539,1,2,0:0:0:0:
256,192,76693,1,0,0:0:0:0:
256,192,76847,1,2,0:0:0:0:
256,192,77001,1,2,0:0:0:0:
256,192,77154,1,0,0:0:0:0:
256,192,77308,1,2,0:0:0:0:
256,192,77385,1,2,0:0:0:0:
256,192,77462,1,2,0:0:0:0:
256,192,77616,1,2,0:0:0:0:
256,192,77770,1,2,0:0:0:0:
256,192,77924,1,2,0:0:0:0:
256,192,78001,1,2,0:0:0:0:
256,192,78078,1,2,0:0:0:0:
256,192,78232,1,2,0:0:0:0:
256,192,78385,1,2,0:0:0:0:
256,192,78539,1,0,0:0:0:0:
256,192,79154,1,0,0:0:0:0:
256,192,79462,1,0,0:0:0:0:
256,192,79539,1,0,0:0:0:0:
256,192,79616,1,0,0:0:0:0:
256,192,79770,1,2,0:0:0:0:
256,192,80077,1,0,0:0:0:0:
256,192,80155,1,0,0:0:0:0:
256,192,80232,1,0,0:0:0:0:
256,192,80385,1,2,0:0:0:0:
256,192,80693,1,0,0:0:0:0:
256,192,80770,1,0,0:0:0:0:
256,192,80847,1,0,0:0:0:0:
256,192,81001,1,2,0:0:0:0:
256,192,81308,1,0,0:0:0:0:
256,192,81462,1,0,0:0:0:0:
256,192,81616,1,2,0:0:0:0:
256,192,81770,1,2,0:0:0:0:
256,192,81924,1,0,0:0:0:0:
256,192,82078,1,2,0:0:0:0:
256,192,82232,1,2,0:0:0:0:
256,192,82385,1,0,0:0:0:0:
256,192,82539,1,2,0:0:0:0:
256,192,82693,1,2,0:0:0:0:
256,192,82847,1,2,0:0:0:0:
256,192,82924,1,2,0:0:0:0:
256,192,83001,1,2,0:0:0:0:
256,192,83155,1,0,0:0:0:0:
256,192,83308,1,2,0:0:0:0:
256,192,83385,1,2,0:0:0:0:
256,192,83462,1,2,0:0:0:0:
256,192,83616,1,0,0:0:0:0:
256,192,83770,1,2,0:0:0:0:
256,192,83847,1,2,0:0:0:0:
256,192,83924,1,2,0:0:0:0:
256,192,84077,1,0,0:0:0:0:
256,192,84232,1,0,0:0:0:0:
256,192,84385,1,2,0:0:0:0:
256,192,84539,1,0,0:0:0:0:
256,192,84693,1,2,0:0:0:0:
256,192,84770,1,2,0:0:0:0:
256,192,84847,1,2,0:0:0:0:
256,192,85000,1,0,0:0:0:0:
256,192,85155,1,2,0:0:0:0:
256,192,85309,1,0,0:0:0:0:
256,192,85462,1,2,0:0:0:0:
256,192,85616,1,0,0:0:0:0:
256,192,85770,1,2,0:0:0:0:
256,192,85924,1,0,0:0:0:0:
256,192,86231,1,0,0:0:0:0:
256,192,86385,1,2,0:0:0:0:
256,192,86462,1,2,0:0:0:0:
256,192,86539,1,2,0:0:0:0:
256,192,86693,1,0,0:0:0:0:
256,192,86847,1,2,0:0:0:0:
256,192,87000,1,0,0:0:0:0:
256,192,87154,1,2,0:0:0:0:
256,192,87462,1,0,0:0:0:0:
256,192,87770,1,2,0:0:0:0:
256,192,87847,1,2,0:0:0:0:
256,192,87924,1,2,0:0:0:0:
256,192,88078,1,2,0:0:0:0:
256,192,88231,1,0,0:0:0:0:
256,192,88385,1,2,0:0:0:0:
256,192,88462,1,2,0:0:0:0:
256,192,88539,1,2,0:0:0:0:
256,192,88693,1,0,0:0:0:0:
256,192,89000,1,0,0:0:0:0:
256,192,89308,1,2,0:0:0:0:
256,192,89462,5,0,0:0:0:0:
256,192,89770,5,2,0:0:0:0:
256,192,90077,1,0,0:0:0:0:
256,192,90231,1,2,0:0:0:0:
256,192,90385,1,0,0:0:0:0:
256,192,90539,1,2,0:0:0:0:
256,192,90693,1,0,0:0:0:0:
256,192,90847,1,2,0:0:0:0:
256,192,91000,1,0,0:0:0:0:
256,192,91462,1,2,0:0:0:0:
256,192,91616,1,0,0:0:0:0:
256,192,91770,1,0,0:0:0:0:
256,192,91924,1,2,0:0:0:0:
256,192,92231,1,2,0:0:0:0:
256,192,92539,1,0,0:0:0:0:
256,192,92847,1,0,0:0:0:0:
256,192,93000,1,0,0:0:0:0:
256,192,93154,1,2,0:0:0:0:
256,192,93308,1,2,0:0:0:0:
256,192,93616,1,2,0:0:0:0:
256,192,93924,1,0,0:0:0:0:
256,192,94078,1,0,0:0:0:0:
256,192,94232,1,2,0:0:0:0:
256,192,94386,1,2,0:0:0:0:
256,192,94540,1,0,0:0:0:0:
256,192,94693,1,0,0:0:0:0:
256,192,94847,1,2,0:0:0:0:
256,192,95001,1,2,0:0:0:0:
256,192,95155,1,0,0:0:0:0:
256,192,95309,1,0,0:0:0:0:
256,192,95463,1,2,0:0:0:0:
256,192,95617,1,2,0:0:0:0:
256,192,95770,1,2,0:0:0:0:
256,192,95924,1,0,0:0:0:0:
256,192,96078,1,2,0:0:0:0:
256,192,96232,1,0,0:0:0:0:
256,192,96386,1,2,0:0:0:0:
256,192,96540,1,2,0:0:0:0:
256,192,96694,1,2,0:0:0:0:
256,192,97001,1,2,0:0:0:0:
256,192,97155,1,2,0:0:0:0:
256,192,97309,1,2,0:0:0:0:
256,192,97617,1,2,0:0:0:0:
256,192,97770,1,0,0:0:0:0:
256,192,97924,1,2,0:0:0:0:
256,192,98078,1,2,0:0:0:0:
256,192,98232,1,0,0:0:0:0:
256,192,98386,1,2,0:0:0:0:
256,192,98540,1,0,0:0:0:0:
256,192,98694,1,2,0:0:0:0:
256,192,98847,1,0,0:0:0:0:
256,192,99154,1,0,0:0:0:0:
256,192,99308,1,0,0:0:0:0:
256,192,99462,1,2,0:0:0:0:
256,192,99770,1,0,0:0:0:0:
256,192,99924,1,0,0:0:0:0:
256,192,100077,1,2,0:0:0:0:
48,96,100385,2,0,L|192:96,1,140.399990653992
400,192,101001,2,0,L|256:192,1,140.399990653992
256,192,101616,1,0,0:0:0:0:
256,192,101770,1,2,0:0:0:0:
256,192,102077,1,0,0:0:0:0:
256,192,102231,1,2,0:0:0:0:
256,192,102539,1,6,0:0:0:0:
256,192,102847,1,6,0:0:0:0:
256,192,103154,5,6,0:0:0:0:
256,192,103462,1,0,0:0:0:0:
256,192,103616,1,0,0:0:0:0:
256,192,103770,5,0,0:0:0:0:
256,192,104077,1,0,0:0:0:0:
256,192,104385,1,2,0:0:0:0:
256,192,104693,1,0,0:0:0:0:
256,192,105000,1,2,0:0:0:0:
256,192,105308,1,0,0:0:0:0:
256,192,105616,1,0,0:0:0:0:
256,192,105923,1,0,0:0:0:0:
256,192,106231,1,2,0:0:0:0:
256,192,106539,1,0,0:0:0:0:
256,192,106847,1,2,0:0:0:0:
256,192,107154,1,0,0:0:0:0:
256,192,107462,1,0,0:0:0:0:
256,192,107770,1,2,0:0:0:0:
256,192,108077,1,0,0:0:0:0:
256,192,108385,1,0,0:0:0:0:
256,192,108693,1,2,0:0:0:0:
256,192,109000,1,0,0:0:0:0:
256,192,109308,1,0,0:0:0:0:
256,192,109616,1,2,0:0:0:0:
256,192,109923,1,0,0:0:0:0:
256,192,110231,1,0,0:0:0:0:
256,192,110539,1,2,0:0:0:0:
256,192,110847,1,0,0:0:0:0:
256,192,111154,1,2,0:0:0:0:
256,192,111462,1,0,0:0:0:0:
256,192,111770,1,0,0:0:0:0:
256,192,112077,1,2,0:0:0:0:
256,192,112385,1,0,0:0:0:0:
256,192,112693,1,2,0:0:0:0:
256,192,113000,1,0,0:0:0:0:
256,192,113308,1,2,0:0:0:0:
256,192,113616,1,0,0:0:0:0:
256,192,113770,1,0,0:0:0:0:
256,192,113924,1,2,0:0:0:0:
256,192,114078,1,0,0:0:0:0:
256,192,114231,1,2,0:0:0:0:
256,192,114385,1,0,0:0:0:0:
256,192,114539,1,0,0:0:0:0:
256,192,114693,1,0,0:0:0:0:
256,192,114847,1,2,0:0:0:0:
256,192,115001,1,0,0:0:0:0:
256,192,115154,1,0,0:0:0:0:
256,192,115308,1,2,0:0:0:0:
256,192,115462,1,0,0:0:0:0:
256,192,115616,1,0,0:0:0:0:
256,192,115770,1,2,0:0:0:0:
256,192,116077,1,2,0:0:0:0:
256,192,116539,1,0,0:0:0:0:
256,192,116693,1,2,0:0:0:0:
256,192,116847,1,0,0:0:0:0:
256,192,117000,1,2,0:0:0:0:
256,192,117155,1,0,0:0:0:0:
256,192,117308,1,0,0:0:0:0:
256,192,117462,1,2,0:0:0:0:
256,192,117770,1,0,0:0:0:0:
256,192,117923,1,2,0:0:0:0:
256,192,118078,1,0,0:0:0:0:
256,192,118231,1,2,0:0:0:0:
256,192,118385,1,2,0:0:0:0:
256,192,118539,1,0,0:0:0:0:
256,192,119001,1,0,0:0:0:0:
256,192,119154,1,2,0:0:0:0:
256,192,119308,1,0,0:0:0:0:
256,192,119462,1,2,0:0:0:0:
256,192,119616,1,0,0:0:0:0:
256,192,119770,1,2,0:0:0:0:
256,192,119924,1,0,0:0:0:0:
256,192,120077,1,0,0:0:0:0:
256,192,120232,1,2,0:0:0:0:
256,192,120385,1,2,0:0:0:0:
256,192,120539,1,2,0:0:0:0:
256,192,121000,1,2,0:0:0:0:
256,192,121155,1,0,0:0:0:0:
256,192,121308,1,2,0:0:0:0:
256,192,121462,1,0,0:0:0:0:
256,192,121616,1,0,0:0:0:0:
256,192,121770,1,2,0:0:0:0:
256,192,121923,1,2,0:0:0:0:
256,192,122078,1,0,0:0:0:0:
256,192,122231,5,2,0:0:0:0:
256,192,122385,1,2,0:0:0:0:
256,192,122539,1,0,0:0:0:0:
256,192,122693,1,2,0:0:0:0:
256,192,122847,5,0,0:0:0:0:
256,192,123001,1,0,0:0:0:0:
112,192,123155,6,0,L|416:192,1,280.705157081992
256,192,124385,1,0,0:0:0:0:
256,192,124693,1,2,0:0:0:0:
256,192,125154,1,2,0:0:0:0:
256,192,125616,1,2,0:0:0:0:
256,192,125924,1,0,0:0:0:0:
256,192,126385,1,0,0:0:0:0:
256,192,126847,1,0,0:0:0:0:
256,192,127308,1,0,0:0:0:0:
256,192,127770,1,2,0:0:0:0:
256,192,128693,1,2,0:0:0:0:
256,192,129000,1,0,0:0:0:0:
256,192,129308,1,0,0:0:0:0:
256,192,129616,1,2,0:0:0:0:
256,192,129924,1,2,0:0:0:0:
256,192,130077,1,0,0:0:0:0:
256,192,130385,1,2,0:0:0:0:
256,192,130539,1,0,0:0:0:0:
256,192,130847,1,0,0:0:0:0:
256,192,131770,1,0,0:0:0:0:
256,192,132077,1,2,0:0:0:0:
256,192,132385,1,0,0:0:0:0:
256,192,132539,1,2,0:0:0:0:
256,192,133616,5,0,0:0:0:0:
256,192,133770,1,0,0:0:0:0:
256,192,133924,1,2,0:0:0:0:
256,192,134231,1,2,0:0:0:0:
256,192,134539,1,2,0:0:0:0:
256,192,135000,1,2,0:0:0:0:
256,192,136077,1,2,0:0:0:0:
256,192,136385,1,2,0:0:0:0:
256,192,136693,1,0,0:0:0:0:
256,192,137000,1,2,0:0:0:0:
256,192,138232,1,0,0:0:0:0:
256,192,138386,1,0,0:0:0:0:
256,192,138462,1,0,0:0:0:0:
256,192,138540,1,2,0:0:0:0:
256,192,138694,1,2,0:0:0:0:
256,192,138770,1,0,0:0:0:0:
256,192,138848,1,0,0:0:0:0:
256,192,139002,1,0,0:0:0:0:
256,192,139078,1,2,0:0:0:0:
256,192,139155,1,2,0:0:0:0:
256,192,139309,1,2,0:0:0:0:
256,192,139463,1,0,0:0:0:0:
256,192,139539,1,0,0:0:0:0:
256,192,139617,1,0,0:0:0:0:
256,192,139771,1,2,0:0:0:0:
256,192,139925,1,0,0:0:0:0:
256,192,140078,1,2,0:0:0:0:
256,192,140233,1,0,0:0:0:0:
256,192,140309,1,0,0:0:0:0:
256,192,140386,1,0,0:0:0:0:
256,192,140693,1,6,0:0:0:0:
256,192,143155,1,4,0:0:0:0:
256,192,143308,1,0,0:0:0:0:
256,192,143385,1,0,0:0:0:0:
256,192,143462,1,0,0:0:0:0:
256,192,143616,1,0,0:0:0:0:
256,192,143770,1,2,0:0:0:0:
256,192,143923,1,0,0:0:0:0:
256,192,144078,1,0,0:0:0:0:
256,192,144231,1,2,0:0:0:0:
256,192,144385,1,0,0:0:0:0:
256,192,144539,1,2,0:0:0:0:
256,192,144693,1,0,0:0:0:0:
256,192,144847,1,0,0:0:0:0:
256,192,145000,1,2,0:0:0:0:
256,192,145462,1,2,0:0:0:0:
256,192,145616,1,0,0:0:0:0:
256,192,145770,1,2,0:0:0:0:
256,192,145924,1,2,0:0:0:0:
256,192,146077,1,0,0:0:0:0:
256,192,146231,1,0,0:0:0:0:
256,192,146308,1,0,0:0:0:0:
256,192,146385,1,2,0:0:0:0:
256,192,146539,1,2,0:0:0:0:
256,192,146693,1,2,0:0:0:0:
256,192,146847,1,2,0:0:0:0:
256,192,146924,1,2,0:0:0:0:
256,192,147001,1,0,0:0:0:0:
256,192,147155,1,0,0:0:0:0:
256,192,147308,1,2,0:0:0:0:
256,192,147462,1,0,0:0:0:0:
256,192,148077,1,0,0:0:0:0:
256,192,148385,1,0,0:0:0:0:
256,192,148462,1,0,0:0:0:0:
256,192,148539,1,0,0:0:0:0:
256,192,148693,1,2,0:0:0:0:
256,192,149000,1,0,0:0:0:0:
256,192,149078,1,0,0:0:0:0:
256,192,149155,1,0,0:0:0:0:
256,192,149308,1,2,0:0:0:0:
256,192,149616,1,0,0:0:0:0:
256,192,149693,1,0,0:0:0:0:
256,192,149770,1,0,0:0:0:0:
256,192,149924,1,2,0:0:0:0:
256,192,150231,1,0,0:0:0:0:
256,192,150385,1,0,0:0:0:0:
256,192,150539,1,2,0:0:0:0:
256,192,150693,1,2,0:0:0:0:
256,192,150847,1,0,0:0:0:0:
256,192,151001,1,2,0:0:0:0:
256,192,151155,1,2,0:0:0:0:
256,192,151308,1,0,0:0:0:0:
256,192,151462,1,2,0:0:0:0:
256,192,151616,1,2,0:0:0:0:
256,192,151770,1,2,0:0:0:0:
256,192,151847,1,2,0:0:0:0:
256,192,151924,1,2,0:0:0:0:
256,192,152078,1,0,0:0:0:0:
256,192,152231,1,2,0:0:0:0:
256,192,152308,1,2,0:0:0:0:
256,192,152385,1,2,0:0:0:0:
256,192,152539,1,0,0:0:0:0:
256,192,152693,1,2,0:0:0:0:
256,192,152770,1,2,0:0:0:0:
256,192,152847,1,2,0:0:0:0:
256,192,153000,1,0,0:0:0:0:
256,192,153155,1,0,0:0:0:0:
256,192,153308,1,2,0:0:0:0:
256,192,153462,1,0,0:0:0:0:
256,192,153616,1,2,0:0:0:0:
256,192,153693,1,2,0:0:0:0:
256,192,153770,1,2,0:0:0:0:
256,192,153923,1,0,0:0:0:0:
256,192,154078,1,2,0:0:0:0:
256,192,154232,1,0,0:0:0:0:
256,192,154385,1,2,0:0:0:0:
256,192,154539,1,0,0:0:0:0:
256,192,154693,1,2,0:0:0:0:
256,192,154847,1,0,0:0:0:0:
256,192,155154,1,0,0:0:0:0:
256,192,155308,1,2,0:0:0:0:
256,192,155385,1,2,0:0:0:0:
256,192,155462,1,2,0:0:0:0:
256,192,155616,1,0,0:0:0:0:
256,192,155770,1,2,0:0:0:0:
256,192,155923,1,0,0:0:0:0:
256,192,156077,1,2,0:0:0:0:
256,192,156385,1,0,0:0:0:0:
256,192,156693,1,2,0:0:0:0:
256,192,156770,1,2,0:0:0:0:
256,192,156847,1,2,0:0:0:0:
256,192,157001,5,2,0:0:0:0:
256,192,157154,1,0,0:0:0:0:
256,192,157308,1,2,0:0:0:0:
256,192,157385,1,2,0:0:0:0:
256,192,157462,1,2,0:0:0:0:
256,192,157616,1,0,0:0:0:0:
256,192,157924,5,0,0:0:0:0:
256,192,158001,1,0,0:0:0:0:
256,192,158078,1,2,0:0:0:0:
256,192,158231,1,2,0:0:0:0:
256,192,158385,5,2,0:0:0:0:
256,192,158462,1,2,0:0:0:0:
256,192,158539,1,0,0:0:0:0:
256,192,158693,1,0,0:0:0:0:
256,192,158847,1,0,0:0:0:0:
256,192,159000,1,0,0:0:0:0:
256,192,159154,1,2,0:0:0:0:
256,192,159232,1,2,0:0:0:0:
256,192,159309,1,2,0:0:0:0:
256,192,159462,1,2,0:0:0:0:
256,192,159770,1,2,0:0:0:0:
256,192,159847,1,0,0:0:0:0:
256,192,159924,1,0,0:0:0:0:
256,192,160078,1,0,0:0:0:0:
256,192,160385,1,2,0:0:0:0:
256,192,160539,1,0,0:0:0:0:
256,192,160616,1,0,0:0:0:0:
256,192,160693,1,0,0:0:0:0:
256,192,160847,1,2,0:0:0:0:
256,192,161154,1,2,0:0:0:0:
256,192,161616,1,0,0:0:0:0:
256,192,161770,1,0,0:0:0:0:
256,192,161924,1,0,0:0:0:0:
256,192,162077,1,2,0:0:0:0:
256,192,162231,1,2,0:0:0:0:
256,192,162385,1,0,0:0:0:0:
256,192,162693,1,2,0:0:0:0:
256,192,162847,1,2,0:0:0:0:
256,192,163154,1,0,0:0:0:0:
256,192,163462,1,0,0:0:0:0:
256,192,163770,1,0,0:0:0:0:
256,192,164077,1,2,0:0:0:0:
256,192,164385,1,0,0:0:0:0:
256,192,164693,1,0,0:0:0:0:
256,192,165000,1,0,0:0:0:0:
256,192,165616,1,2,0:0:0:0:
256,192,165924,1,0,0:0:0:0:
256,192,166231,1,0,0:0:0:0:
256,192,166539,1,6,0:0:0:0:
256,192,167154,1,6,0:0:0:0:
256,192,167770,12,0,169001,0:0:0:0:
256,192,169924,5,6,0:0:0:0:
256,192,170231,1,6,0:0:0:0:
256,192,170693,12,0,171770,0:0:0:0:
256,192,172693,5,2,0:0:0:0:
256,192,172847,1,0,0:0:0:0:
256,192,173000,1,2,0:0:0:0:
256,192,173078,1,2,0:0:0:0:
256,192,173154,1,2,0:0:0:0:
256,192,173309,1,0,0:0:0:0:
256,192,173462,1,0,0:0:0:0:
256,192,173539,1,0,0:0:0:0:
256,192,173616,1,2,0:0:0:0:
256,192,173770,1,0,0:0:0:0:
256,192,173924,1,0,0:0:0:0:
256,192,174078,1,0,0:0:0:0:
256,192,174232,1,2,0:0:0:0:
256,192,174385,1,0,0:0:0:0:
256,192,174539,1,0,0:0:0:0:
256,192,174693,1,0,0:0:0:0:
256,192,174847,1,2,0:0:0:0:
256,192,175154,1,0,0:0:0:0:
256,192,175309,1,2,0:0:0:0:
256,192,175462,1,0,0:0:0:0:
256,192,175539,1,0,0:0:0:0:
256,192,175616,1,2,0:0:0:0:
256,192,175770,1,2,0:0:0:0:
256,192,175924,1,0,0:0:0:0:
256,192,176001,1,0,0:0:0:0:
256,192,176077,1,2,0:0:0:0:
256,192,176232,1,0,0:0:0:0:
256,192,176385,1,0,0:0:0:0:
256,192,176539,1,0,0:0:0:0:
256,192,176693,1,2,0:0:0:0:
256,192,176847,1,0,0:0:0:0:
256,192,177000,1,2,0:0:0:0:
256,192,177155,1,0,0:0:0:0:
256,192,177308,1,2,0:0:0:0:
256,192,177616,1,0,0:0:0:0:
256,192,177770,1,0,0:0:0:0:
256,192,177924,1,2,0:0:0:0:
256,192,178078,1,0,0:0:0:0:
256,192,178231,1,0,0:0:0:0:
256,192,178385,1,0,0:0:0:0:
256,192,178539,1,2,0:0:0:0:
256,192,178693,1,0,0:0:0:0:
256,192,178847,1,2,0:0:0:0:
256,192,179154,1,0,0:0:0:0:
256,192,179308,5,2,0:0:0:0:
256,192,179616,1,2,0:0:0:0:
256,192,180077,1,2,0:0:0:0:
256,192,180232,1,0,0:0:0:0:
256,192,180385,1,2,0:0:0:0:
256,192,180539,1,0,0:0:0:0:
256,192,180693,1,0,0:0:0:0:
256,192,180847,1,0,0:0:0:0:
256,192,181000,1,2,0:0:0:0:
256,192,181155,1,0,0:0:0:0:
256,192,181308,1,0,0:0:0:0:
256,192,181462,1,0,0:0:0:0:
256,192,181616,1,2,0:0:0:0:
256,192,181770,1,2,0:0:0:0:
256,192,182077,1,2,0:0:0:0:
256,192,182539,1,2,0:0:0:0:
256,192,182847,1,2,0:0:0:0:
256,192,183000,1,0,0:0:0:0:
256,192,183462,1,0,0:0:0:0:
256,192,183770,1,6,0:0:0:0:
256,192,184231,1,6,0:0:0:0:
256,192,184693,1,6,0:0:0:0:
144,112,185001,2,0,P|352:128|176:304,1,560
256,192,186539,1,0,0:0:0:0:
256,192,186847,1,2,0:0:0:0:
256,192,187154,1,0,0:0:0:0:
256,192,187462,1,2,0:0:0:0:
256,192,187616,1,0,0:0:0:0:
256,192,187770,1,2,0:0:0:0:
256,192,187924,1,0,0:0:0:0:
256,192,188077,1,2,0:0:0:0:
256,192,188232,1,0,0:0:0:0:
256,192,188385,1,2,0:0:0:0:
256,192,188539,1,0,0:0:0:0:
256,192,188693,1,2,0:0:0:0:
256,192,188847,1,0,0:0:0:0:
256,192,189000,1,2,0:0:0:0:
256,192,189155,1,0,0:0:0:0:
256,192,189308,1,2,0:0:0:0:
256,192,189462,1,0,0:0:0:0:
256,192,189616,1,2,0:0:0:0:
256,192,189770,1,0,0:0:0:0:
256,192,189924,1,2,0:0:0:0:
256,192,190078,1,0,0:0:0:0:
256,192,190231,1,2,0:0:0:0:
256,192,190385,1,0,0:0:0:0:
256,192,190539,1,2,0:0:0:0:
256,192,190693,1,0,0:0:0:0:
256,192,190847,1,2,0:0:0:0:
256,192,191001,1,0,0:0:0:0:
256,192,191155,1,2,0:0:0:0:
256,192,191309,1,0,0:0:0:0:
256,192,191462,1,2,0:0:0:0:
256,192,191616,1,0,0:0:0:0:
176,192,191770,2,4,L|336:192,1,140.399990653992
256,192,192385,1,4,0:0:0:0:
256,192,192693,1,4,0:0:0:0:
256,192,192847,1,4,0:0:0:0:
256,192,193000,1,6,0:0:0:0:
256,192,193308,1,4,0:0:0:0:
256,192,193616,1,6,0:0:0:0:
256,192,193924,5,6,0:0:0:0:
256,192,194077,1,0,0:0:0:0:
256,192,194693,1,0,0:0:0:0:
256,192,194847,5,6,0:0:0:0:
256,192,196077,1,6,0:0:0:0:
256,192,196539,1,6,0:0:0:0:
256,192,197309,1,4,0:0:0:0:
256,192,197462,1,0,0:0:0:0:
256,192,197539,1,0,0:0:0:0:
256,192,197616,1,0,0:0:0:0:
256,192,197770,1,0,0:0:0:0:
256,192,197924,1,2,0:0:0:0:
256,192,198077,1,0,0:0:0:0:
256,192,198232,1,0,0:0:0:0:
256,192,198385,1,2,0:0:0:0:
256,192,198539,1,0,0:0:0:0:
256,192,198693,1,2,0:0:0:0:
256,192,198847,1,0,0:0:0:0:
256,192,199001,1,0,0:0:0:0:
256,192,199154,1,2,0:0:0:0:
256,192,199616,1,2,0:0:0:0:
256,192,199770,1,0,0:0:0:0:
256,192,199924,1,2,0:0:0:0:
256,192,200078,1,2,0:0:0:0:
256,192,200231,1,0,0:0:0:0:
256,192,200385,1,2,0:0:0:0:
256,192,200462,1,2,0:0:0:0:
256,192,200539,1,2,0:0:0:0:
256,192,200693,1,2,0:0:0:0:
256,192,200847,1,2,0:0:0:0:
256,192,201001,1,2,0:0:0:0:
256,192,201078,1,2,0:0:0:0:
256,192,201155,1,2,0:0:0:0:
256,192,201309,1,2,0:0:0:0:
256,192,201462,1,2,0:0:0:0:
256,192,201616,1,0,0:0:0:0:
256,192,202231,1,0,0:0:0:0:
256,192,202539,1,2,0:0:0:0:
256,192,202693,1,0,0:0:0:0:
256,192,202770,1,0,0:0:0:0:
256,192,202847,1,2,0:0:0:0:
256,192,203001,1,2,0:0:0:0:
256,192,203078,1,2,0:0:0:0:
256,192,203154,1,0,0:0:0:0:
256,192,203309,1,0,0:0:0:0:
256,192,203462,1,2,0:0:0:0:
256,192,203616,1,0,0:0:0:0:
256,192,203770,1,0,0:0:0:0:
256,192,203847,1,0,0:0:0:0:
256,192,203924,1,0,0:0:0:0:
256,192,204078,1,2,0:0:0:0:
256,192,204232,1,2,0:0:0:0:
256,192,204385,1,0,0:0:0:0:
256,192,204462,1,0,0:0:0:0:
256,192,204539,1,0,0:0:0:0:
256,192,204693,1,2,0:0:0:0:
256,192,204847,1,2,0:0:0:0:
256,192,205001,1,0,0:0:0:0:
256,192,205155,1,2,0:0:0:0:
256,192,205232,1,2,0:0:0:0:
256,192,205309,1,2,0:0:0:0:
256,192,205462,1,2,0:0:0:0:
256,192,205539,1,2,0:0:0:0:
256,192,205616,1,0,0:0:0:0:
256,192,205770,1,2,0:0:0:0:
256,192,205847,1,2,0:0:0:0:
256,192,205924,1,2,0:0:0:0:
256,192,206078,1,0,0:0:0:0:
256,192,206232,1,0,0:0:0:0:
256,192,206385,1,2,0:0:0:0:
256,192,206539,1,2,0:0:0:0:
256,192,206616,1,2,0:0:0:0:
256,192,206693,1,0,0:0:0:0:
256,192,206847,1,2,0:0:0:0:
256,192,207001,1,2,0:0:0:0:
256,192,207154,1,0,0:0:0:0:
256,192,207309,1,0,0:0:0:0:
256,192,207462,1,2,0:0:0:0:
256,192,207616,1,0,0:0:0:0:
256,192,207770,1,2,0:0:0:0:
256,192,207847,1,2,0:0:0:0:
256,192,207924,1,2,0:0:0:0:
256,192,208077,1,0,0:0:0:0:
256,192,208232,1,2,0:0:0:0:
256,192,208386,1,0,0:0:0:0:
256,192,208539,1,2,0:0:0:0:
256,192,208693,1,0,0:0:0:0:
256,192,208847,1,2,0:0:0:0:
256,192,209001,1,0,0:0:0:0:
256,192,209308,1,0,0:0:0:0:
256,192,209462,1,2,0:0:0:0:
256,192,209539,1,2,0:0:0:0:
256,192,209616,1,2,0:0:0:0:
256,192,209770,1,0,0:0:0:0:
256,192,209924,1,2,0:0:0:0:
256,192,210077,1,0,0:0:0:0:
256,192,210231,1,2,0:0:0:0:
256,192,210539,1,0,0:0:0:0:
256,192,210847,1,2,0:0:0:0:
256,192,210924,1,2,0:0:0:0:
256,192,211001,1,2,0:0:0:0:
256,192,211155,5,2,0:0:0:0:
256,192,211308,1,0,0:0:0:0:
256,192,211462,1,2,0:0:0:0:
256,192,211539,1,2,0:0:0:0:
256,192,211616,1,2,0:0:0:0:
256,192,211770,1,0,0:0:0:0:
256,192,212077,5,2,0:0:0:0:
256,192,212385,1,2,0:0:0:0:
256,192,212539,1,0,0:0:0:0:
256,192,212616,1,0,0:0:0:0:
256,192,212693,1,0,0:0:0:0:
256,192,212847,1,2,0:0:0:0:
256,192,213000,1,0,0:0:0:0:
256,192,213155,1,0,0:0:0:0:
256,192,213308,1,0,0:0:0:0:
256,192,213385,1,0,0:0:0:0:
256,192,213462,1,0,0:0:0:0:
256,192,213616,1,2,0:0:0:0:
256,192,213924,1,0,0:0:0:0:
256,192,214077,1,2,0:0:0:0:
256,192,214539,1,2,0:0:0:0:
256,192,214616,1,2,0:0:0:0:
256,192,214693,1,2,0:0:0:0:
256,192,214847,1,2,0:0:0:0:
256,192,215000,1,0,0:0:0:0:
256,192,215308,1,2,0:0:0:0:
256,192,215385,1,2,0:0:0:0:
256,192,215462,1,0,0:0:0:0:
256,192,215770,1,2,0:0:0:0:
256,192,215924,1,0,0:0:0:0:
256,192,216077,1,0,0:0:0:0:
256,192,216231,1,2,0:0:0:0:
256,192,216385,1,2,0:0:0:0:
256,192,216539,1,0,0:0:0:0:
256,192,216847,1,2,0:0:0:0:
256,192,217001,1,0,0:0:0:0:
256,192,217155,1,0,0:0:0:0:
256,192,217309,1,2,0:0:0:0:
256,192,217617,1,0,0:0:0:0:
256,192,217770,1,0,0:0:0:0:
256,192,217924,1,2,0:0:0:0:
256,192,218232,1,0,0:0:0:0:
256,192,218386,1,0,0:0:0:0:
256,192,218540,1,2,0:0:0:0:
256,192,218694,1,2,0:0:0:0:
256,192,218847,1,2,0:0:0:0:
256,192,219001,1,0,0:0:0:0:
256,192,219155,1,2,0:0:0:0:
256,192,219309,1,0,0:0:0:0:
256,192,219463,1,2,0:0:0:0:
256,192,219617,1,2,0:0:0:0:
256,192,219771,1,2,0:0:0:0:
256,192,220078,1,2,0:0:0:0:
256,192,220232,1,2,0:0:0:0:
256,192,220386,1,2,0:0:0:0:
256,192,220694,1,0,0:0:0:0:
256,192,220847,1,2,0:0:0:0:
256,192,221002,1,2,0:0:0:0:
256,192,221155,1,2,0:0:0:0:
256,192,221309,1,0,0:0:0:0:
256,192,221463,1,2,0:0:0:0:
256,192,221617,1,2,0:0:0:0:
256,192,221771,1,0,0:0:0:0:
256,192,221924,1,0,0:0:0:0:
256,192,222232,1,0,0:0:0:0:
256,192,222386,1,0,0:0:0:0:
256,192,222540,1,2,0:0:0:0:
256,192,222848,1,0,0:0:0:0:
256,192,223001,1,0,0:0:0:0:
256,192,223155,1,2,0:0:0:0:
256,192,223463,1,2,0:0:0:0:
256,192,223617,1,2,0:0:0:0:
256,192,223771,1,0,0:0:0:0:
256,192,224078,1,2,0:0:0:0:
256,192,224232,1,2,0:0:0:0:
256,192,224386,1,0,0:0:0:0:
256,192,224694,1,0,0:0:0:0:
256,192,224847,1,2,0:0:0:0:
256,192,225001,1,0,0:0:0:0:
256,192,225309,1,2,0:0:0:0:
256,192,225463,1,0,0:0:0:0:
256,192,225617,1,2,0:0:0:0:
256,192,225771,1,2,0:0:0:0:
256,192,225924,1,0,0:0:0:0:
256,192,226078,1,2,0:0:0:0:
256,192,226232,1,0,0:0:0:0:
256,192,226386,1,2,0:0:0:0:
256,192,226540,1,0,0:0:0:0:
256,192,226694,1,2,0:0:0:0:
256,192,226847,1,0,0:0:0:0:
256,192,227001,1,0,0:0:0:0:
256,192,227155,1,2,0:0:0:0:
256,192,227463,1,0,0:0:0:0:
256,192,227616,1,0,0:0:0:0:
256,192,227770,1,2,0:0:0:0:
256,192,228078,1,0,0:0:0:0:
256,192,228232,1,0,0:0:0:0:
256,192,228386,1,2,0:0:0:0:
256,192,228540,1,2,0:0:0:0:
256,192,228693,1,2,0:0:0:0:
256,192,228847,1,0,0:0:0:0:
256,192,229001,1,2,0:0:0:0:
256,192,229155,1,0,0:0:0:0:
256,192,229309,1,2,0:0:0:0:
256,192,229463,1,2,0:0:0:0:
256,192,229617,1,2,0:0:0:0:
256,192,229924,1,2,0:0:0:0:
256,192,230078,1,2,0:0:0:0:
256,192,230232,1,2,0:0:0:0:
256,192,230540,1,2,0:0:0:0:
256,192,230693,1,0,0:0:0:0:
256,192,230847,1,2,0:0:0:0:
256,192,231001,1,2,0:0:0:0:
256,192,231156,1,2,0:0:0:0:
256,192,231309,1,0,0:0:0:0:
256,192,231463,1,2,0:0:0:0:
256,192,231617,1,2,0:0:0:0:
256,192,231770,1,0,0:0:0:0:
256,192,232078,1,0,0:0:0:0:
256,192,232385,1,2,0:0:0:0:
256,192,232693,1,0,0:0:0:0:
256,192,233001,1,2,0:0:0:0:
256,192,233309,1,0,0:0:0:0:
256,192,233616,1,2,0:0:0:0:
256,192,233924,1,0,0:0:0:0:
256,192,234232,1,2,0:0:0:0:
256,192,234309,1,2,0:0:0:0:
256,192,234385,1,2,0:0:0:0:
256,192,234539,1,0,0:0:0:0:
256,192,234616,1,0,0:0:0:0:
256,192,234693,1,0,0:0:0:0:
256,192,234847,1,2,0:0:0:0:
256,192,234924,1,2,0:0:0:0:
256,192,235001,1,2,0:0:0:0:
256,192,235155,1,0,0:0:0:0:
256,192,235232,1,0,0:0:0:0:
256,192,235309,1,0,0:0:0:0:
256,192,235462,1,2,0:0:0:0:
256,192,235539,1,2,0:0:0:0:
256,192,235616,1,2,0:0:0:0:
256,192,235770,1,2,0:0:0:0:
256,192,236078,1,2,0:0:0:0:
256,192,236155,1,2,0:0:0:0:
256,192,236232,1,2,0:0:0:0:
256,192,236385,1,2,0:0:0:0:
256,192,236693,1,0,0:0:0:0:
256,192,236847,1,0,0:0:0:0:
256,192,237001,1,0,0:0:0:0:
256,192,237155,1,0,0:0:0:0:
256,192,237309,1,0,0:0:0:0:
256,192,237462,1,0,0:0:0:0:
256,192,237616,1,2,0:0:0:0:
256,192,237924,1,0,0:0:0:0:
