osu file format v14

[General]
AudioFilename: audio.mp3
AudioLeadIn: 0
PreviewTime: -1
Countdown: 0
SampleSet: Normal
StackLeniency: 0.7
Mode: 1
LetterboxInBreaks: 0
WidescreenStoryboard: 1

[Editor]
DistanceSpacing: 0.8
BeatDivisor: 4
GridSize: 16
TimelineZoom: 2.4

[Metadata]
Title:Unreal Mokushi Sou
TitleUnicode:Unreal Mokushi Sou
Artist:Omoi
ArtistUnicode:Omoi
Creator:Raichu69
Version:Futsuu
Source:
Tags:Omoi
BeatmapID:1204122
BeatmapSetID:542275

[Difficulty]
HPDrainRate:5
CircleSize:2
OverallDifficulty:5
ApproachRate:6
SliderMultiplier:1.4
SliderTickRate:1

[Events]
//Background and Video events
0,0,"maxresdefault (1).jpg",0,0
//Break Periods
//Storyboard Layer 0 (Background)
//Storyboard Layer 1 (Fail)
//Storyboard Layer 2 (Pass)
//Storyboard Layer 3 (Foreground)
//Storyboard Sound Samples

[TimingPoints]
5309,307.692307692308,4,1,0,100,1,0
74232,-100,4,1,0,100,0,1
93924,-100,4,1,0,100,0,0
143155,-100,4,1,0,100,0,1
162847,-100,4,1,0,100,0,0
187462,-100,4,1,0,30,0,0
192385,-100,4,1,0,100,0,0
197309,-100,4,1,0,100,0,1
217001,-100,4,1,0,100,0,0

[HitObjects]
256,192,5309,5,0,0:0:0:0:
256,192,5617,5,0,0:0:0:0:
256,192,5924,1,2,0:0:0:0:
208,192,6232,2,0,L|288:192,1,70
256,192,6693,1,0,0:0:0:0:
256,192,7155,1,2,0:0:0:0:
256,192,7616,1,2,0:0:0:0:
256,192,8078,1,2,0:0:0:0:
256,192,8386,1,0,0:0:0:0:
256,192,8694,1,0,0:0:0:0:
256,192,9001,1,2,0:0:0:0:
256,192,9617,1,2,0:0:0:0:
256,192,10232,1,0,0:0:0:0:
256,192,10540,1,0,0:0:0:0:
256,192,10848,1,2,0:0:0:0:
256,192,11155,1,0,0:0:0:0:
256,192,11463,1,0,0:0:0:0:
256,192,12078,1,0,0:0:0:0:
256,192,12386,1,0,0:0:0:0:
256,192,12694,1,2,0:0:0:0:
256,192,13001,1,2,0:0:0:0:
256,192,13309,1,0,0:0:0:0:
256,192,13617,1,2,0:0:0:0:
256,192,13924,1,0,0:0:0:0:
256,192,15155,1,0,0:0:0:0:
256,192,15770,1,0,0:0:0:0:
256,192,16385,1,0,0:0:0:0:
256,192,16693,1,2,0:0:0:0:
256,192,17001,1,0,0:0:0:0:
256,192,17616,1,2,0:0:0:0:
256,192,18232,1,2,0:0:0:0:
256,192,18847,1,0,0:0:0:0:
256,192,19155,1,2,0:0:0:0:
256,192,19462,1,0,0:0:0:0:
256,192,20078,1,0,0:0:0:0:
256,192,20693,1,0,0:0:0:0:
256,192,21309,1,0,0:0:0:0:
256,192,21924,1,0,0:0:0:0:
256,192,22539,5,0,0:0:0:0:
256,192,23155,1,0,0:0:0:0:
256,192,23770,1,2,0:0:0:0:
256,192,24078,1,2,0:0:0:0:
256,192,24385,1,2,0:0:0:0:
256,192,24693,1,2,0:0:0:0:
256,192,25001,1,0,0:0:0:0:
256,192,25616,1,0,0:0:0:0:
256,192,26232,1,0,0:0:0:0:
256,192,26539,1,2,0:0:0:0:
256,192,26847,1,0,0:0:0:0:
256,192,27462,1,2,0:0:0:0:
256,192,28078,1,2,0:0:0:0:
256,192,28693,1,0,0:0:0:0:
256,192,29309,1,0,0:0:0:0:
256,192,29924,1,0,0:0:0:0:
256,192,30232,1,0,0:0:0:0:
256,192,30539,1,2,0:0:0:0:
256,192,30847,1,0,0:0:0:0:
256,192,31155,1,2,0:0:0:0:
256,192,31462,1,0,0:0:0:0:
256,192,31770,1,2,0:0:0:0:
256,192,32078,1,0,0:0:0:0:
256,192,32385,1,2,0:0:0:0:
256,192,33001,1,2,0:0:0:0:
256,192,33616,5,2,0:0:0:0:
256,192,34232,1,2,0:0:0:0:
256,192,34539,5,0,0:0:0:0:
256,192,34847,5,2,0:0:0:0:
256,192,35154,1,0,0:0:0:0:
256,192,35462,1,2,0:0:0:0:
256,192,35770,1,0,0:0:0:0:
256,192,36077,1,2,0:0:0:0:
256,192,36385,1,2,0:0:0:0:
256,192,37000,1,2,0:0:0:0:
256,192,37308,1,2,0:0:0:0:
256,192,37924,1,2,0:0:0:0:
256,192,38231,1,2,0:0:0:0:
256,192,38539,1,2,0:0:0:0:
256,192,39154,1,0,0:0:0:0:
256,192,39462,1,2,0:0:0:0:
256,192,39770,1,0,0:0:0:0:
256,192,40385,1,0,0:0:0:0:
256,192,40693,1,2,0:0:0:0:
256,192,41000,1,0,0:0:0:0:
256,192,41308,1,0,0:0:0:0:
256,192,41616,1,2,0:0:0:0:
256,192,42231,1,2,0:0:0:0:
256,192,42539,1,0,0:0:0:0:
256,192,42847,1,0,0:0:0:0:
256,192,43154,1,2,0:0:0:0:
256,192,43462,1,0,0:0:0:0:
256,192,43770,1,2,0:0:0:0:
256,192,44078,1,2,0:0:0:0:
256,192,44693,1,2,0:0:0:0:
256,192,45000,1,0,0:0:0:0:
256,192,45308,1,2,0:0:0:0:
256,192,45616,1,0,0:0:0:0:
256,192,45924,1,2,0:0:0:0:
256,192,46231,1,0,0:0:0:0:
256,192,46539,1,0,0:0:0:0:
256,192,46847,1,2,0:0:0:0:
256,192,47154,1,2,0:0:0:0:
256,192,47770,1,2,0:0:0:0:
256,192,48077,1,0,0:0:0:0:
256,192,48385,1,2,0:0:0:0:
256,192,49000,1,0,0:0:0:0:
256,192,49308,1,0,0:0:0:0:
256,192,49616,1,2,0:0:0:0:
256,192,50231,1,0,0:0:0:0:
256,192,50539,1,2,0:0:0:0:
256,192,50847,1,0,0:0:0:0:
256,192,51154,1,0,0:0:0:0:
256,192,51462,1,2,0:0:0:0:
256,192,52078,1,2,0:0:0:0:
256,192,52385,1,0,0:0:0:0:
256,192,52693,1,0,0:0:0:0:
256,192,53000,1,2,0:0:0:0:
256,192,53308,1,0,0:0:0:0:
256,192,53616,1,0,0:0:0:0:
256,192,53924,5,0,0:0:0:0:
112,192,54309,2,0,L|384:192,1,245
256,192,55462,1,0,0:0:0:0:
144,192,55770,2,0,L|384:192,1,210
256,192,56693,1,2,0:0:0:0:
368,192,57001,2,0,L|144:192,1,210
256,192,57924,1,0,0:0:0:0:
256,192,58539,1,0,0:0:0:0:
256,192,58847,1,2,0:0:0:0:
256,192,59770,1,0,0:0:0:0:
256,192,60077,1,2,0:0:0:0:
256,192,60385,1,2,0:0:0:0:
256,192,60693,1,0,0:0:0:0:
256,192,61001,1,0,0:0:0:0:
256,192,61616,1,0,0:0:0:0:
256,192,61924,1,0,0:0:0:0:
256,192,62847,1,0,0:0:0:0:
32,192,63155,2,0,L|464:192,1,420
256,192,64385,1,0,0:0:0:0:
256,192,64693,5,0,0:0:0:0:
256,192,65000,1,2,0:0:0:0:
256,192,65308,1,2,0:0:0:0:
256,192,65616,1,2,0:0:0:0:
256,192,66077,1,2,0:0:0:0:
256,192,67154,1,2,0:0:0:0:
256,192,67462,1,2,0:0:0:0:
256,192,67770,1,0,0:0:0:0:
256,192,68077,1,2,0:0:0:0:
256,192,69309,1,0,0:0:0:0:
256,192,69616,1,2,0:0:0:0:
256,192,69924,1,0,0:0:0:0:
256,192,70231,1,2,0:0:0:0:
256,192,70539,1,0,0:0:0:0:
256,192,70847,1,0,0:0:0:0:
256,192,71155,1,2,0:0:0:0:
256,192,71462,1,0,0:0:0:0:
256,192,71770,1,2,0:0:0:0:
256,192,73308,1,2,0:0:0:0:
256,192,73616,1,2,0:0:0:0:
256,192,73924,1,2,0:0:0:0:
256,192,74231,1,0,0:0:0:0:
256,192,74539,1,0,0:0:0:0:
256,192,74847,1,0,0:0:0:0:
256,192,75308,1,0,0:0:0:0:
256,192,75616,1,0,0:0:0:0:
256,192,75924,1,0,0:0:0:0:
256,192,76539,1,0,0:0:0:0:
256,192,76847,1,0,0:0:0:0:
256,192,77155,1,0,0:0:0:0:
256,192,77616,1,2,0:0:0:0:
256,192,77924,1,2,0:0:0:0:
256,192,78539,1,2,0:0:0:0:
256,192,79154,1,0,0:0:0:0:
256,192,79462,1,0,0:0:0:0:
256,192,79770,1,2,0:0:0:0:
256,192,80077,1,0,0:0:0:0:
256,192,80385,1,2,0:0:0:0:
256,192,80693,1,2,0:0:0:0:
256,192,81308,1,0,0:0:0:0:
64,192,81616,2,0,L|496:192,1,420
128,192,82847,2,0,L|288:192,1,140
352,192,83309,2,0,L|272:192,1,70
256,192,84077,1,0,0:0:0:0:
256,192,84385,1,0,0:0:0:0:
256,192,84693,1,2,0:0:0:0:
256,192,85001,1,0,0:0:0:0:
256,192,85462,1,0,0:0:0:0:
256,192,85770,1,0,0:0:0:0:
256,192,86385,1,2,0:0:0:0:
256,192,86693,1,0,0:0:0:0:
256,192,87001,1,2,0:0:0:0:
256,192,87462,1,0,0:0:0:0:
256,192,87770,1,2,0:0:0:0:
256,192,88385,1,2,0:0:0:0:
256,192,89000,1,0,0:0:0:0:
256,192,89309,1,0,0:0:0:0:
256,192,89770,5,2,0:0:0:0:
256,192,90078,1,2,0:0:0:0:
256,192,90539,1,2,0:0:0:0:
256,192,90847,1,2,0:0:0:0:
256,192,91462,1,2,0:0:0:0:
256,192,91924,1,2,0:0:0:0:
256,192,92231,1,2,0:0:0:0:
256,192,92539,1,0,0:0:0:0:
256,192,93001,1,6,0:0:0:0:
256,192,93616,5,6,0:0:0:0:
256,192,93924,1,6,0:0:0:0:
256,192,94539,5,2,0:0:0:0:
256,192,95155,1,2,0:0:0:0:
256,192,95462,1,0,0:0:0:0:
256,192,95770,1,2,0:0:0:0:
256,192,96385,1,2,0:0:0:0:
256,192,97001,1,2,0:0:0:0:
256,192,97616,1,2,0:0:0:0:
256,192,97924,1,0,0:0:0:0:
256,192,98232,1,2,0:0:0:0:
256,192,98847,1,2,0:0:0:0:
256,192,99462,1,2,0:0:0:0:
256,192,100078,1,2,0:0:0:0:
256,192,100385,1,2,0:0:0:0:
80,192,100693,2,0,L|384:192,1,280
256,192,101616,1,0,0:0:0:0:
256,192,102232,1,0,0:0:0:0:
256,192,102539,12,0,103462,0:0:0:0:
256,192,103770,5,0,0:0:0:0:
256,192,104077,1,0,0:0:0:0:
256,192,104385,1,2,0:0:0:0:
256,192,104693,1,0,0:0:0:0:
256,192,105000,1,2,0:0:0:0:
256,192,105308,1,0,0:0:0:0:
256,192,105616,1,0,0:0:0:0:
256,192,105924,1,0,0:0:0:0:
256,192,106231,1,2,0:0:0:0:
256,192,106847,1,2,0:0:0:0:
256,192,107154,1,0,0:0:0:0:
256,192,107462,1,0,0:0:0:0:
256,192,108077,1,0,0:0:0:0:
256,192,108385,1,0,0:0:0:0:
256,192,108693,1,2,0:0:0:0:
256,192,109308,1,0,0:0:0:0:
256,192,109616,1,2,0:0:0:0:
256,192,109924,1,0,0:0:0:0:
256,192,110231,1,0,0:0:0:0:
256,192,110539,1,2,0:0:0:0:
256,192,111154,1,2,0:0:0:0:
256,192,111462,1,0,0:0:0:0:
256,192,111770,1,0,0:0:0:0:
256,192,112077,1,2,0:0:0:0:
256,192,112385,1,0,0:0:0:0:
256,192,112693,1,2,0:0:0:0:
256,192,113000,1,0,0:0:0:0:
256,192,113616,1,2,0:0:0:0:
256,192,113924,1,0,0:0:0:0:
256,192,114231,1,2,0:0:0:0:
256,192,114539,1,0,0:0:0:0:
256,192,114847,1,2,0:0:0:0:
256,192,115154,1,0,0:0:0:0:
256,192,115462,1,0,0:0:0:0:
256,192,115770,1,0,0:0:0:0:
256,192,116077,1,2,0:0:0:0:
256,192,116693,1,2,0:0:0:0:
256,192,117000,1,0,0:0:0:0:
256,192,117308,1,0,0:0:0:0:
256,192,117924,1,0,0:0:0:0:
256,192,118231,1,0,0:0:0:0:
256,192,118539,1,2,0:0:0:0:
256,192,119154,1,0,0:0:0:0:
256,192,119462,1,2,0:0:0:0:
256,192,119770,1,0,0:0:0:0:
256,192,120077,1,0,0:0:0:0:
256,192,120385,1,2,0:0:0:0:
256,192,121000,1,2,0:0:0:0:
256,192,121308,1,0,0:0:0:0:
256,192,121616,1,0,0:0:0:0:
256,192,121924,1,2,0:0:0:0:
256,192,122231,1,0,0:0:0:0:
256,192,122539,1,0,0:0:0:0:
256,192,122847,5,0,0:0:0:0:
96,192,123155,2,0,L|384:192,1,279.999983978272
256,192,124385,1,0,0:0:0:0:
256,192,124693,1,2,0:0:0:0:
256,192,125154,1,2,0:0:0:0:
256,192,125616,1,2,0:0:0:0:
256,192,125924,1,0,0:0:0:0:
256,192,126385,1,0,0:0:0:0:
256,192,126847,1,0,0:0:0:0:
256,192,127308,1,0,0:0:0:0:
256,192,127770,1,2,0:0:0:0:
256,192,128693,1,2,0:0:0:0:
256,192,129000,1,0,0:0:0:0:
256,192,129308,1,0,0:0:0:0:
256,192,129616,1,2,0:0:0:0:
256,192,129924,1,0,0:0:0:0:
256,192,130232,1,0,0:0:0:0:
256,192,130539,1,2,0:0:0:0:
256,192,130847,1,0,0:0:0:0:
256,192,131770,1,0,0:0:0:0:
256,192,132077,1,2,0:0:0:0:
256,192,132539,1,2,0:0:0:0:
256,192,133616,5,0,0:0:0:0:
256,192,133924,1,2,0:0:0:0:
256,192,134231,1,2,0:0:0:0:
256,192,134539,1,2,0:0:0:0:
256,192,135000,1,2,0:0:0:0:
256,192,136077,1,2,0:0:0:0:
256,192,136385,1,2,0:0:0:0:
256,192,136693,1,0,0:0:0:0:
256,192,137000,1,2,0:0:0:0:
256,192,138231,1,0,0:0:0:0:
256,192,138539,1,2,0:0:0:0:
256,192,138847,1,0,0:0:0:0:
256,192,139154,1,2,0:0:0:0:
256,192,139462,1,0,0:0:0:0:
256,192,139770,1,0,0:0:0:0:
256,192,140077,1,2,0:0:0:0:
256,192,140385,1,0,0:0:0:0:
256,192,140693,1,2,0:0:0:0:
256,192,142231,1,2,0:0:0:0:
256,192,142539,1,2,0:0:0:0:
256,192,142847,1,2,0:0:0:0:
256,192,143154,1,0,0:0:0:0:
256,192,143462,1,2,0:0:0:0:
256,192,143770,1,0,0:0:0:0:
256,192,144231,1,0,0:0:0:0:
256,192,144539,1,2,0:0:0:0:
256,192,144847,1,2,0:0:0:0:
256,192,145462,1,0,0:0:0:0:
256,192,145770,1,2,0:0:0:0:
256,192,146078,1,2,0:0:0:0:
256,192,146539,1,2,0:0:0:0:
256,192,146847,1,2,0:0:0:0:
256,192,147462,1,2,0:0:0:0:
256,192,148077,1,0,0:0:0:0:
256,192,148385,1,0,0:0:0:0:
256,192,148693,1,2,0:0:0:0:
256,192,149000,1,0,0:0:0:0:
256,192,149308,1,2,0:0:0:0:
256,192,149616,1,2,0:0:0:0:
112,192,150539,2,0,L|416:192,1,280
256,192,151462,1,0,0:0:0:0:
256,192,151770,1,2,0:0:0:0:
256,192,152078,1,2,0:0:0:0:
256,192,153000,1,0,0:0:0:0:
256,192,153308,1,0,0:0:0:0:
256,192,153616,1,2,0:0:0:0:
256,192,153924,1,2,0:0:0:0:
256,192,154385,1,2,0:0:0:0:
256,192,154693,1,2,0:0:0:0:
256,192,155309,1,0,0:0:0:0:
256,192,155616,1,0,0:0:0:0:
256,192,155924,1,0,0:0:0:0:
256,192,156385,1,0,0:0:0:0:
256,192,156693,1,2,0:0:0:0:
256,192,157309,1,2,0:0:0:0:
256,192,157924,1,0,0:0:0:0:
256,192,158232,1,2,0:0:0:0:
256,192,158693,1,0,0:0:0:0:
256,192,159155,1,2,0:0:0:0:
256,192,159462,1,2,0:0:0:0:
256,192,159770,1,2,0:0:0:0:
256,192,160385,1,2,0:0:0:0:
256,192,160847,1,2,0:0:0:0:
256,192,161155,1,2,0:0:0:0:
256,192,161616,1,0,0:0:0:0:
256,192,161924,1,0,0:0:0:0:
256,192,162232,1,0,0:0:0:0:
256,192,162847,1,0,0:0:0:0:
256,192,163154,1,0,0:0:0:0:
256,192,163462,1,0,0:0:0:0:
256,192,163770,1,0,0:0:0:0:
256,192,164077,1,2,0:0:0:0:
256,192,164385,1,0,0:0:0:0:
256,192,164693,1,0,0:0:0:0:
256,192,165000,1,0,0:0:0:0:
256,192,165616,1,2,0:0:0:0:
256,192,165924,1,0,0:0:0:0:
256,192,166231,1,0,0:0:0:0:
176,192,166539,2,0,L|336:192,1,140
176,192,167155,2,0,L|336:192,1,140
0,192,167770,2,0,L|560:192,1,560
246,192,169924,1,0,0:0:0:0:
246,192,170232,1,0,0:0:0:0:
0,192,170693,2,0,L|512:192,1,490
256,192,172693,1,2,0:0:0:0:
256,192,173001,1,2,0:0:0:0:
256,192,173616,1,2,0:0:0:0:
256,192,173924,1,0,0:0:0:0:
256,192,174231,1,0,0:0:0:0:
256,192,174539,1,2,0:0:0:0:
256,192,174847,1,0,0:0:0:0:
256,192,175154,1,2,0:0:0:0:
256,192,175462,1,2,0:0:0:0:
256,192,176078,1,2,0:0:0:0:
256,192,176385,1,0,0:0:0:0:
256,192,176693,1,0,0:0:0:0:
256,192,177000,1,2,0:0:0:0:
256,192,177308,1,0,0:0:0:0:
256,192,177616,1,0,0:0:0:0:
256,192,177924,1,2,0:0:0:0:
256,192,178231,1,0,0:0:0:0:
256,192,178539,1,2,0:0:0:0:
256,192,178847,1,0,0:0:0:0:
256,192,179155,1,2,0:0:0:0:
256,192,179616,1,2,0:0:0:0:
256,192,180077,1,2,0:0:0:0:
256,192,180385,1,0,0:0:0:0:
256,192,180693,1,0,0:0:0:0:
256,192,181000,1,2,0:0:0:0:
256,192,181308,1,0,0:0:0:0:
256,192,181616,5,2,0:0:0:0:
256,192,182077,1,2,0:0:0:0:
256,192,182539,1,2,0:0:0:0:
256,192,182847,5,2,0:0:0:0:
256,192,183462,1,0,0:0:0:0:
256,192,183770,1,2,0:0:0:0:
256,192,184231,1,2,0:0:0:0:
256,192,184693,1,2,0:0:0:0:
176,352,185001,2,0,P|112:224|416:160,1,559.999967956544
256,192,186539,1,0,0:0:0:0:
256,192,186847,1,2,0:0:0:0:
256,192,187154,1,0,0:0:0:0:
256,192,187462,1,4,0:0:0:0:
256,192,188078,1,0,0:0:0:0:
256,192,188693,1,0,0:0:0:0:
256,192,189309,1,0,0:0:0:0:
256,192,189924,1,0,0:0:0:0:
256,192,190539,1,0,0:0:0:0:
256,192,191155,1,0,0:0:0:0:
256,192,191770,1,0,0:0:0:0:
256,192,192385,1,0,0:0:0:0:
256,192,192693,1,0,0:0:0:0:
256,192,193000,1,2,0:0:0:0:
256,192,193308,1,0,0:0:0:0:
256,192,193616,1,2,0:0:0:0:
256,192,194078,1,2,0:0:0:0:
64,192,194847,2,0,L|496:192,1,420
192,192,196078,2,0,L|336:192,1,140
192,192,196539,2,0,L|336:192,1,140
256,192,197308,1,0,0:0:0:0:
256,192,197616,1,2,0:0:0:0:
256,192,197924,1,2,0:0:0:0:
256,192,198385,1,2,0:0:0:0:
256,192,198693,1,0,0:0:0:0:
256,192,199001,1,2,0:0:0:0:
256,192,199616,1,2,0:0:0:0:
256,192,199924,1,2,0:0:0:0:
256,192,200232,1,2,0:0:0:0:
256,192,200693,1,0,0:0:0:0:
256,192,201000,1,2,0:0:0:0:
256,192,201616,1,2,0:0:0:0:
256,192,202231,1,0,0:0:0:0:
256,192,202693,1,2,0:0:0:0:
256,192,203000,1,0,0:0:0:0:
256,192,203462,1,2,0:0:0:0:
256,192,203770,1,2,0:0:0:0:
256,192,204078,1,2,0:0:0:0:
256,192,204693,1,2,0:0:0:0:
256,192,205155,1,2,0:0:0:0:
256,192,205462,1,0,0:0:0:0:
256,192,205770,1,2,0:0:0:0:
256,192,206077,1,0,0:0:0:0:
256,192,206539,1,2,0:0:0:0:
256,192,206847,1,0,0:0:0:0:
256,192,207154,1,2,0:0:0:0:
256,192,207462,1,0,0:0:0:0:
256,192,207770,1,2,0:0:0:0:
256,192,208232,1,2,0:0:0:0:
256,192,208539,1,2,0:0:0:0:
256,192,209001,1,2,0:0:0:0:
256,192,209462,1,2,0:0:0:0:
256,192,209770,1,2,0:0:0:0:
256,192,210231,1,2,0:0:0:0:
256,192,210539,1,0,0:0:0:0:
256,192,210847,1,2,0:0:0:0:
256,192,211462,1,2,0:0:0:0:
256,192,212077,1,2,0:0:0:0:
256,192,212539,1,2,0:0:0:0:
256,192,213001,1,2,0:0:0:0:
256,192,213308,1,0,0:0:0:0:
256,192,213616,1,2,0:0:0:0:
256,192,213924,1,2,0:0:0:0:
256,192,214539,1,2,0:0:0:0:
256,192,215001,1,2,0:0:0:0:
256,192,215308,1,2,0:0:0:0:
256,192,215770,1,2,0:0:0:0:
256,192,216077,1,4,0:0:0:0:
256,192,216539,1,4,0:0:0:0:
256,192,217000,1,4,0:0:0:0:
256,192,217616,1,0,0:0:0:0:
256,192,218232,1,0,0:0:0:0:
256,192,218539,1,0,0:0:0:0:
256,192,218847,1,2,0:0:0:0:
256,192,219462,1,2,0:0:0:0:
256,192,220078,1,2,0:0:0:0:
256,192,220693,1,2,0:0:0:0:
256,192,221001,1,2,0:0:0:0:
256,192,221309,1,2,0:0:0:0:
256,192,221924,1,0,0:0:0:0:
256,192,222539,1,0,0:0:0:0:
256,192,223155,1,0,0:0:0:0:
256,192,223770,1,0,0:0:0:0:
256,192,224385,1,0,0:0:0:0:
256,192,225001,1,0,0:0:0:0:
256,192,225616,1,2,0:0:0:0:
256,192,225924,1,2,0:0:0:0:
256,192,226232,1,2,0:0:0:0:
256,192,226539,1,2,0:0:0:0:
256,192,226847,1,0,0:0:0:0:
256,192,227462,1,0,0:0:0:0:
256,192,228078,1,0,0:0:0:0:
256,192,228385,1,0,0:0:0:0:
256,192,228693,1,2,0:0:0:0:
256,192,229309,1,2,0:0:0:0:
256,192,229924,1,2,0:0:0:0:
256,192,230539,1,2,0:0:0:0:
256,192,230847,1,2,0:0:0:0:
256,192,231155,1,2,0:0:0:0:
256,192,231770,1,0,0:0:0:0:
256,192,232385,1,2,0:0:0:0:
256,192,233001,1,0,0:0:0:0:
256,192,233616,1,2,0:0:0:0:
256,192,234232,1,0,0:0:0:0:
256,192,234539,1,2,0:0:0:0:
256,192,234847,1,0,0:0:0:0:
256,192,235155,1,2,0:0:0:0:
256,192,235462,1,2,0:0:0:0:
256,192,236078,1,2,0:0:0:0:
256,192,237616,1,2,0:0:0:0:
256,192,237924,1,2,0:0:0:0:
