osu file format v14

[General]
AudioFilename: Dance on the Eve of the Attack.mp3
AudioLeadIn: 0
PreviewTime: 13215
Countdown: 0
SampleSet: Normal
StackLeniency: 0.4
Mode: 0
LetterboxInBreaks: 0
WidescreenStoryboard: 0

[Editor]
Bookmarks: 13215,33972,44350,54728,65107,75485,78080,93323,98836,101431,111809,122188,129972,132566,153323,163701,174080,184458,188999,194836,200026,207809,228566,238945,251918
DistanceSpacing: 1
BeatDivisor: 2
GridSize: 4
TimelineZoom: 1

[Metadata]
Title:Totsugeki Zenya no Dance
TitleUnicode:突撃前夜のダンス
Artist:Omoi
ArtistUnicode:Omoi
Creator:Yales
Version:Normal
Source:
Tags:alyssa sakurai hatsune miku vocaloid Synthesizer Rock Dance on the Eve of the Attack
BeatmapID:787518
BeatmapSetID:342030

[Difficulty]
HPDrainRate:4
CircleSize:3
OverallDifficulty:4
ApproachRate:5
SliderMultiplier:0.999999999999999
SliderTickRate:1

[Events]
//Background and Video events
0,0,"BGdance.jpg",0,0
//Break Periods
2,101631,110609
2,205415,206285
//Storyboard Layer 0 (Background)
//Storyboard Layer 1 (Fail)
//Storyboard Layer 2 (Pass)
//Storyboard Layer 3 (Foreground)
//Storyboard Sound Samples

[TimingPoints]
2837,324.324324324324,4,2,1,30,1,0
13215,-100,4,1,1,70,0,1
13296,-100,4,1,1,70,0,0
22620,-100,4,3,1,70,0,0
23593,-100,4,1,1,70,0,1
23674,-100,4,1,1,70,0,0
33972,-100,4,2,1,50,0,0
44350,-100,4,1,1,60,0,0
49377,-100,4,3,1,60,0,0
49539,-100,4,1,1,60,0,0
53269,-100,4,3,1,60,0,0
53431,-100,4,1,1,60,0,0
53593,-100,4,3,1,60,0,0
53755,-100,4,1,1,60,0,0
54404,-100,4,3,1,60,0,0
54728,-100,4,1,1,60,0,1
54809,-100,4,1,1,60,0,0
65107,-100,4,1,1,60,0,1
65188,-100,4,1,1,60,0,0
70296,-100,4,2,1,50,0,0
72891,-100,4,1,1,60,0,1
74188,-100,4,1,1,60,0,0
75161,-100,4,2,1,45,0,0
75485,-100,4,1,1,60,0,0
76458,-100,4,3,1,60,0,0
76782,-100,4,1,1,50,0,0
77026,-100,4,3,1,50,0,0
77755,-100,4,2,1,20,0,0
78080,-100,4,1,1,70,0,1
87161,-100,4,3,1,50,0,0
88458,-100,4,1,1,70,0,1
98512,-100,4,3,1,70,0,1
98836,-100,4,1,1,70,0,0
98918,-100,4,1,1,60,0,0
111809,-100,4,3,1,50,0,0
119593,-100,4,1,1,60,0,1
119674,-100,4,3,1,60,0,1
122188,-100,4,1,1,60,0,0
131269,-100,4,1,1,70,0,1
131350,-100,4,2,1,70,0,1
131593,-100,4,1,1,70,0,1
131674,-100,4,2,1,70,0,0
131918,-100,4,1,1,70,0,1
131999,-100,4,2,1,70,0,1
132242,-100,4,1,1,70,0,0
132566,-100,4,1,1,70,0,1
141647,-100,4,3,1,50,0,0
142945,-100,4,1,1,70,0,1
152999,-100,4,3,1,70,0,1
153323,-100,4,1,1,60,0,0
163701,-100,4,1,1,70,0,1
163782,-100,4,1,1,70,0,0
171485,-100,4,1,1,70,0,1
171566,-100,4,1,1,70,0,0
173107,-100,4,3,1,70,0,0
174080,-100,4,1,1,70,0,1
184458,-100,4,2,2,50,0,0
194188,-100,4,2,1,50,0,0
194836,-100,4,1,1,50,0,0
199701,-100,4,3,1,50,0,0
200026,-100,4,1,1,60,0,0
205215,-100,4,2,1,20,0,0
207485,-100,4,1,1,60,0,0
207647,-100,4,2,1,20,0,0
207809,-100,4,1,1,70,0,1
216891,-100,4,3,1,70,0,0
218188,-100,4,1,1,70,0,1
228485,-100,4,1,1,70,0,0
228566,-100,4,1,1,70,0,1
228647,-100,4,1,1,70,0,0
237972,-100,4,3,1,70,0,0
238945,-100,4,1,1,70,0,1
239026,-100,4,1,1,70,0,0
249323,-100,4,2,1,20,0,0
251755,-100,4,3,1,40,0,0
251918,-100,4,3,1,40,0,1
251999,-100,4,3,1,40,0,0

[Colours]
Combo1 : 255,255,176
Combo2 : 255,196,225
Combo3 : 215,255,198
Combo4 : 198,255,250

[HitObjects]
88,336,2837,6,0,L|92:224,1,99.9999999999999,4|8,0:0|0:0,0:0:0:0:
100,136,3485,2,0,L|96:72,2,50,2|0|2,0:0|0:0|0:0,0:0:0:0:
144,160,3972,2,0,P|204:168|252:152,1,99.9999999999999,0|0,0:0|0:0,0:0:0:0:
288,140,4458,2,0,P|348:132|396:148,1,99.9999999999999,2|2,0:0|0:0,0:0:0:0:
452,216,5107,1,8,0:0:0:0:
468,116,5431,6,0,L|480:8,2,99.9999999999999,4|8|2,0:0|0:0|0:0,0:0:0:0:
452,216,6404,1,8,0:0:0:0:
384,292,6728,2,0,P|324:308|284:300,1,99.9999999999999,2|8,0:0|0:0,0:0:0:0:
224,224,7377,2,0,L|208:172,2,50,2|8|2,0:0|0:0|0:0,0:0:0:0:
156,296,8026,6,0,P|106:302|59:286,1,99.9999999999999,4|8,0:0|0:0,0:0:0:0:
8,200,8674,2,0,L|24:96,1,99.9999999999999,2|8,0:0|0:0,0:0:0:0:
100,36,9323,2,0,P|149:29|196:45,1,99.9999999999999,4|4,0:0|0:0,0:0:0:0:
248,132,9972,2,0,L|232:230,1,99.9999999999999,6|6,0:0|0:0,0:0:0:0:
244,328,10620,6,0,P|300:324|364:288,1,99.9999999999999,4|8,0:0|0:0,0:0:0:0:
420,244,11269,2,0,P|412:176|380:144,1,99.9999999999999,8|8,0:0|0:0,0:0:0:0:
324,224,11918,6,0,B|184:304|184:172|32:236,1,300,12|2,1:2|0:0,0:0:0:0:
28,332,13215,6,0,P|80:360|144:352,1,99.9999999999999,4|8,0:0|0:0,0:0:0:0:
220,364,13864,2,0,P|268:354|309:326,1,99.9999999999999,2|8,0:0|0:0,0:0:0:0:
324,224,14512,2,0,L|312:96,2,99.9999999999999,4|8|2,0:0|0:0|0:0,0:0:0:0:
412,276,15485,1,8,0:0:0:0:
424,176,15809,6,0,L|432:52,2,99.9999999999999,4|8|2,0:0|0:0|0:0,0:0:0:0:
412,276,16782,1,8,0:0:0:0:
312,280,17107,2,0,P|248:280|188:252,1,99.9999999999999,4|8,0:0|0:0,0:0:0:0:
172,180,17755,2,0,P|168:112|184:68,1,99.9999999999999,2|8,0:0|0:0,0:0:0:0:
264,32,18404,6,0,P|360:28|424:116,1,200,4|2,0:0|0:0,0:0:0:0:
416,208,19377,1,8,0:0:0:0:
328,256,19701,2,0,P|320:184|332:152,1,99.9999999999999,4|8,0:0|0:0,0:0:0:0:
416,208,20350,2,0,P|426:256|416:304,1,99.9999999999999,4|8,0:0|0:0,0:0:0:0:
372,328,20836,1,0,0:0:0:0:
324,344,20999,6,0,B|257:329|257:329|196:356|196:356|108:340,1,200,12|10,0:0|0:0,0:0:0:0:
32,332,21972,1,8,0:0:0:0:
28,232,22296,2,0,B|24:184|24:184|40:112,1,99.9999999999999,4|8,0:0|0:0,0:0:0:0:
120,80,22945,2,0,B|131:130|131:130|127:178,1,99.9999999999999,12|8,0:0|0:0,0:0:0:0:
184,264,23593,6,0,P|216:216|264:196,1,99.9999999999999,4|8,0:0|0:0,0:0:0:0:
352,212,24242,2,0,P|377:263|370:315,1,99.9999999999999,2|8,0:0|0:0,0:0:0:0:
312,380,24891,2,0,P|254:376|213:344,1,99.9999999999999,2|8,0:0|0:0,0:0:0:0:
184,264,25539,2,0,P|120:248|76:260,1,99.9999999999999,2|8,0:0|0:0,0:0:0:0:
76,356,26188,6,0,L|56:140,1,200,4|2,0:0|0:0,0:0:0:0:
44,56,27161,1,8,0:0:0:0:
128,112,27485,2,0,P|220:140|332:100,1,200,4|2,0:0|0:0,0:0:0:0:
392,44,28458,1,8,0:0:0:0:
400,144,28782,6,0,P|402:194|420:264,1,99.9999999999999,4|8,0:0|0:0,0:0:0:0:
492,304,29431,2,0,P|502:255|505:205,1,99.9999999999999,2|8,0:0|0:0,0:0:0:0:
412,242,30080,1,4,0:0:0:0:
400,340,30404,1,8,0:0:0:0:
320,280,30728,2,0,P|248:276|204:288,1,99.9999999999999,2|8,0:0|0:0,0:0:0:0:
164,364,31377,6,0,B|208:236|132:284|160:168,1,200,4|2,0:0|0:0,0:0:0:0:
164,72,32350,1,8,0:0:0:0:
244,132,32674,6,0,P|288:140|352:128,1,99.9999999999999,4|12,0:0|0:0,0:0:0:0:
384,40,33323,1,6,0:0:0:0:
468,96,33647,6,0,L|508:56,2,50,12|8|4,0:0|0:0|0:0,0:0:0:0:
428,192,34296,1,8,0:0:0:0:
344,248,34620,2,0,P|292:240|244:208,1,99.9999999999999,2|8,3:0|0:0,0:0:0:0:
156,184,35269,2,0,P|104:188|56:224,2,99.9999999999999,4|8|2,0:0|0:0|3:0,0:0:0:0:
136,280,36242,1,8,3:0:0:0:
44,320,36566,6,0,L|28:112,1,200,4|2,0:0|3:0,0:0:0:0:
128,120,37539,1,8,0:0:0:0:
224,88,37864,2,0,P|212:62|178:38,2,50,4|0|8,0:0|0:0|0:0,0:0:0:0:
232,192,38512,2,0,P|252:216|264:244,2,50,2|0|8,3:0|0:0|3:0,0:0:0:0:
168,268,39161,6,0,P|88:276|24:168,1,200,4|2,0:0|3:0,0:0:0:0:
40,88,40134,2,0,L|60:32,2,50,8|0|4,0:0|0:0|0:0,0:0:0:0:
120,148,40782,1,8,0:0:0:0:
184,72,41107,2,0,P|241:65|296:80,1,99.9999999999999,2|8,3:0|3:0,0:0:0:0:
356,140,41755,6,0,P|413:146|464:128,1,99.9999999999999,4|8,0:0|0:0,0:0:0:0:
496,44,42404,1,2,3:0:0:0:
400,20,42728,1,8,0:0:0:0:
308,60,43053,2,0,P|272:100|268:172,1,99.9999999999999,4|12,0:0|0:0,0:0:0:0:
320,228,43701,2,0,P|352:288|348:336,1,99.9999999999999,6|12,3:0|3:0,0:0:0:0:
260,360,44350,6,0,P|156:360|84:284,1,200,4|2,0:0|0:0,0:0:0:0:
84,196,45323,1,8,0:0:0:0:
108,100,45647,2,0,L|128:44,2,50,4|0|8,0:0|0:0|0:0,0:0:0:0:
172,176,46296,2,0,P|236:180|284:168,1,99.9999999999999,2|8,0:0|0:0,0:0:0:0:
360,128,46945,6,0,P|424:112|504:140,2,150,4|0|8,0:0|0:0|0:0,0:0:0:0:
388,220,48242,2,0,L|368:328,1,99.9999999999999,4|8,0:0|0:0,0:0:0:0:
288,264,48891,1,6,0:0:0:0:
188,264,49215,2,0,P|152:276|120:304,2,50,8|0|4,0:0|0:0|0:0,0:0:0:0:
176,364,49864,6,0,P|100:360|60:332,1,99.9999999999999,8|2,0:0|0:0,0:0:0:0:
32,264,50512,1,8,0:0:0:0:
36,164,50836,2,0,L|48:100,2,50,4|0|8,0:0|0:0|0:0,0:0:0:0:
116,224,51485,2,0,P|184:220|228:208,1,99.9999999999999,6|8,0:0|0:0,0:0:0:0:
260,192,51972,1,0,0:0:0:0:
304,168,52134,6,0,P|371:145|448:188,2,150,4|0|8,0:0|0:0|0:0,0:0:0:0:
368,244,53431,2,0,L|348:352,1,99.9999999999999,4|12,0:0|0:0,0:0:0:0:
265,288,54080,2,0,L|249:352,2,50,6|0|8,0:0|0:0|0:0,0:0:0:0:
196,216,54728,6,0,P|120:220|80:248,1,99.9999999999999,4|8,0:0|0:0,0:0:0:0:
28,300,55377,1,0,0:0:0:0:
12,200,55701,2,0,L|0:128,2,50,8|0|4,0:0|0:0|0:0,0:0:0:0:
108,168,56350,2,0,L|120:96,2,50,8|0|2,0:0|0:0|0:0,0:0:0:0:
192,224,56999,1,8,0:0:0:0:
288,256,57323,6,0,P|400:228|436:136,1,200,4|2,0:0|0:0,0:0:0:0:
388,72,58296,1,8,0:0:0:0:
300,20,58620,2,0,P|300:128|356:168,2,150,4|8|8,0:0|0:0|0:0,0:0:0:0:
388,72,59918,6,0,P|460:76|512:60,2,99.9999999999999,4|8|8,0:0|0:0|0:0,0:0:0:0:
300,20,60891,2,0,P|272:16|228:16,2,50,8|0|4,0:0|0:0|0:0,0:0:0:0:
308,120,61539,2,0,L|292:340,1,200,8|8,0:0|0:0,0:0:0:0:
200,284,62512,6,0,L|184:144,1,99.9999999999999,4|8,0:0|0:0,0:0:0:0:
180,84,63161,1,2,0:0:0:0:
92,132,63485,2,0,L|80:196,2,50,8|0|2,0:0|0:0|0:0,0:0:0:0:
144,48,64134,6,0,P|100:40|76:40,2,50,8|8|10,0:0|0:0|0:0,0:0:0:0:
180,84,64620,2,0,P|204:81|229:75,2,50,0|10|0,0:0|0:0|0:0,0:0:0:0:
176,132,65107,6,0,L|192:344,1,200,4|6,0:0|0:0,0:0:0:0:
292,328,66080,1,8,0:0:0:0:
264,288,66242,2,0,P|208:281|100:304,1,150,0|2,0:0|0:0,0:0:0:0:
24,332,67053,1,6,0:0:0:0:
76,248,67377,2,0,P|73:193|80:128,1,99.9999999999999,12|4,0:0|0:0,0:0:0:0:
112,56,68026,5,8,0:0:0:0:
212,64,68350,2,0,P|260:96|288:136,1,99.9999999999999,2|8,0:0|0:0,0:0:0:0:
364,192,68999,2,0,P|472:156|508:72,1,200,4|2,0:0|0:0,0:0:0:0:
436,12,69972,1,8,0:0:0:0:
372,88,70296,6,0,L|392:312,2,200,12|2|12,1:0|0:0|1:0,0:0:0:0:
176,40,72242,2,0,P|120:48|52:84,1,99.9999999999999,2|8,0:0|0:0,0:0:0:0:
32,152,72891,6,0,P|36:268|96:344,1,200,12|8,0:0|0:0,0:0:0:0:
224,192,74188,2,0,L|356:196,1,99.9999999999999,12|8,0:0|0:0,0:0:0:0:
392,268,74836,1,8,0:0:0:0:
256,192,75485,12,12,76782,0:0:0:0:
364,240,78080,6,0,P|372:184|356:124,1,99.9999999999999,4|8,0:0|0:0,0:0:0:0:
304,60,78728,2,0,P|244:52|192:68,1,99.9999999999999,2|8,0:0|0:0,0:0:0:0:
144,142,79377,2,0,P|135:191|143:240,1,99.9999999999999,6|8,0:0|0:0,0:0:0:0:
188,328,80026,1,4,0:0:0:0:
388,324,80674,6,0,P|436:280|464:220,1,99.9999999999999,4|8,0:0|0:0,0:0:0:0:
492,156,81323,2,0,P|492:76|468:24,1,99.9999999999999,2|8,0:0|0:0,0:0:0:0:
400,108,81972,2,0,P|296:140|188:92,1,200,4|14,0:0|0:0,0:0:0:0:
152,32,82945,1,12,0:0:0:0:
132,132,83269,6,0,L|116:216,1,50,4|0,0:0|0:0,0:0:0:0:
100,224,83593,2,0,P|44:216|0:232,2,99.9999999999999,8|2|8,0:0|0:0|0:0,0:0:0:0:
56,312,84566,1,4,0:2:0:0:
156,324,84891,2,0,P|212:320|268:280,1,99.9999999999999,8|2,0:0|0:0,0:0:0:0:
252,200,85539,1,8,0:0:0:0:
320,124,85864,6,0,P|404:124|492:248,1,200,12|12,0:0|0:0,0:0:0:0:
444,292,86836,1,8,0:0:0:0:
352,332,87161,2,0,P|348:264|372:220,2,99.9999999999999,12|12|8,1:0|0:0|0:0,0:0:0:0:
260,152,88458,6,0,P|168:128|48:184,1,200,4|14,0:0|0:0,0:0:0:0:
72,264,89431,2,0,L|88:344,1,50,12|0,0:0|0:0,0:0:0:0:
180,316,89918,2,0,L|196:396,1,50,0|8,0:0|0:0,0:0:0:0:
288,352,90404,2,0,P|364:332|400:300,1,99.9999999999999,2|8,0:0|0:0,0:0:0:0:
436,236,91053,6,0,P|444:160|436:116,1,99.9999999999999,12|8,0:0|0:0,0:0:0:0:
376,60,91701,2,0,L|336:-4,2,50,2|0|8,0:0|0:0|0:0,0:0:0:0:
308,132,92350,2,0,P|236:136|176:116,1,99.9999999999999,4|8,0:0|0:0,0:0:0:0:
144,56,92999,2,0,P|72:52|12:72,1,99.9999999999999,2|8,0:0|0:0,0:0:0:0:
24,156,93647,6,0,B|40:224|40:224|28:272|28:272|56:364,1,200,4|2,0:0|0:0,0:0:0:0:
148,328,94620,1,8,0:0:0:0:
208,248,94945,2,0,B|264:240|264:240|324:256,1,99.9999999999999,4|8,0:0|0:0,0:0:0:0:
348,276,95431,2,0,B|404:284|404:284|464:268,1,99.9999999999999,0|0,0:0|0:0,0:0:0:0:
484,240,95918,1,8,0:0:0:0:
476,140,96242,6,0,L|464:32,2,99.9999999999999,4|8|2,0:0|0:0|0:0,0:0:0:0:
484,240,97215,1,8,0:0:0:0:
400,188,97539,2,0,P|328:180|272:192,1,99.9999999999999,4|8,0:0|0:0,0:0:0:0:
208,224,98188,2,0,P|136:232|80:216,1,99.9999999999999,6|8,0:0|0:0,0:0:0:0:
256,192,98836,12,4,101431,0:0:0:0:
456,276,111809,6,0,P|492:208|508:68,2,200,4|2|8,0:0|0:0|1:0,0:0:0:0:
372,328,113431,1,8,0:1:0:0:
276,308,113755,2,0,P|247:300|228:292,2,50,2|8|2,0:0|0:0|0:0,0:0:0:0:
348,236,114404,6,0,P|364:164|356:28,2,200,4|2|2,0:0|0:0|0:0,0:0:0:0:
276,308,116026,1,8,0:0:0:0:
180,284,116350,2,0,P|152:278|132:268,2,50,2|2|12,0:2|0:2|1:0,0:0:0:0:
244,204,116999,6,0,P|232:112|180:8,2,200,12|2|4,0:3|0:0|0:0,0:0:0:0:
180,284,118621,1,8,0:1:0:0:
84,260,118945,2,0,P|56:254|36:244,2,50,2|0|8,0:0|0:0|0:0,0:0:0:0:
180,284,119593,6,0,P|260:280|304:260,1,99.9999999999999,12|8,0:3|0:0,0:0:0:0:
340,196,120242,1,8,0:0:0:0:
240,192,120566,2,0,P|160:188|116:168,1,99.9999999999999,8|8,0:0|0:0,0:0:0:0:
80,104,121215,1,8,0:0:0:0:
180,96,121539,2,0,P|260:92|304:72,1,99.9999999999999,2|8,0:0|0:0,0:0:0:0:
341,2,122188,6,0,B|309:106|389:66|337:202,1,200,4|2,0:0|0:0,0:0:0:0:
304,288,123161,2,0,P|264:260|240:212,1,99.9999999999999,8|4,0:0|0:0,0:0:0:0:
208,120,123809,1,8,0:0:0:0:
216,20,124134,2,0,P|252:8|284:4,2,50,2|0|8,0:0|0:0|0:0,0:0:0:0:
136,80,124782,6,0,B|104:184|184:144|132:280,1,200,4|2,0:0|0:0,0:0:0:0:
168,368,125755,2,0,P|212:336|232:292,1,99.9999999999999,8|4,0:0|0:0,0:0:0:0:
267,198,126403,1,8,0:0:0:0:
263,98,126728,2,0,P|227:86|195:82,2,50,2|0|8,0:0|0:0|0:0,0:0:0:0:
356,60,127377,6,0,B|388:164|308:124|360:260,1,200,4|2,0:0|0:0,0:0:0:0:
324,348,128350,2,0,P|280:316|262:273,1,99.9999999999999,8|4,0:0|0:0,0:0:0:0:
225,182,128998,1,8,0:0:0:0:
229,82,129323,2,0,P|265:70|297:66,2,50,2|0|8,0:0|0:0|0:0,0:0:0:0:
140,132,129972,6,0,P|124:176|152:260,1,99.9999999999999,4|8,0:0|0:0,0:0:0:0:
208,292,130620,2,0,P|248:308|328:280,1,99.9999999999999,8|8,0:0|0:0,0:0:0:0:
368,220,131269,5,4,0:0:0:0:
400,124,131593,1,4,0:0:0:0:
356,36,131918,2,0,P|284:16|240:28,1,99.9999999999999,4|8,0:0|0:0,0:0:0:0:
195,92,132566,6,0,L|208:304,1,200,4|2,0:0|0:0,0:0:0:0:
116,336,133539,1,8,0:0:0:0:
104,236,133864,2,0,L|96:124,2,99.9999999999999,4|8|2,0:0|0:0|0:0,0:0:0:0:
284,324,135161,6,0,P|392:296|440:208,1,200,4|2,0:0|0:0,0:0:0:0:
388,136,136134,1,8,0:0:0:0:
288,116,136458,2,0,P|296:176|328:220,1,99.9999999999999,4|8,0:0|0:0,0:0:0:0:
388,136,137107,2,0,P|380:76|348:32,1,99.9999999999999,2|8,0:0|0:0,0:0:0:0:
260,24,137755,6,0,P|144:32|68:112,1,200,4|2,0:0|0:0,0:0:0:0:
44,176,138728,1,8,0:0:0:0:
52,276,139053,2,0,B|88:320|160:328,1,99.9999999999999,4|8,0:0|0:0,0:0:0:0:
236,304,139701,2,0,L|292:260,2,50,2|0|8,0:0|0:0|0:0,0:0:0:0:
172,228,140350,6,0,P|160:144|172:24,1,200,4|2,0:0|0:0,0:0:0:0:
272,24,141323,1,8,0:0:0:0:
272,124,141647,2,0,L|260:188,2,50,12|0|12,1:0|0:0|0:0,0:0:0:0:
360,76,142296,2,0,L|372:12,2,50,8|2|10,0:0|0:0|0:0,0:0:0:0:
392,172,142945,6,0,P|472:180|520:160,2,99.9999999999999,4|8|14,0:0|0:0|0:0,0:0:0:0:
308,224,143918,2,0,P|279:224|252:232,1,50,12|0,0:0|0:0,0:0:0:0:
208,316,144404,2,0,P|179:315|152:308,1,50,0|8,0:0|0:0,0:0:0:0:
92,236,144891,2,0,L|96:104,1,99.9999999999999,2|8,0:0|0:0,0:0:0:0:
164,60,145539,6,0,P|276:44|368:84,1,200,4|2,0:0|0:0,0:0:0:0:
396,168,146512,1,8,0:0:0:0:
328,244,146836,2,0,P|296:180|300:136,1,99.9999999999999,4|8,0:0|0:0,0:0:0:0:
354,74,147485,2,0,P|394:82|414:90,2,50,2|0|8,0:0|0:0|0:0,0:0:0:0:
296,153,148134,6,0,P|172:180|120:272,1,200,4|2,0:0|0:0,0:0:0:0:
164,328,149107,1,8,0:0:0:0:
64,320,149431,2,0,P|32:280|32:200,1,99.9999999999999,4|8,0:0|0:0,0:0:0:0:
36,128,150080,2,0,P|47:97|68:80,2,50,2|0|12,0:0|0:0|0:0,0:0:0:0:
132,160,150728,6,0,P|160:108|160:52,1,99.9999999999999,4|8,0:0|0:0,0:0:0:0:
252,112,151377,2,0,P|336:168|432:112,1,200,2|4,0:3|0:0,0:0:0:0:
344,64,152350,1,8,0:0:0:0:
252,24,152674,2,0,P|192:48|168:116,1,99.9999999999999,4|8,0:0|0:0,0:0:0:0:
196,172,153323,6,0,B|364:284|336:128|476:200,1,300,4|12,0:0|0:3,0:0:0:0:
472,300,154620,2,0,L|488:-12,1,300,4|8,0:0|0:0,0:0:0:0:
404,56,155918,6,0,P|308:168|132:120,1,300,4|12,0:0|0:3,0:0:0:0:
176,52,157215,2,0,L|148:372,1,300,4|8,0:0|0:0,0:0:0:0:
248,340,158512,6,0,L|240:224,1,99.9999999999999,12|4,0:3|0:2,0:0:0:0:
336,208,159161,2,0,L|328:324,1,99.9999999999999,4|4,0:0|0:2,0:0:0:0:
424,340,159809,2,0,L|416:224,1,99.9999999999999,4|4,0:0|0:2,0:0:0:0:
508,196,160458,2,0,L|500:312,1,99.9999999999999,4|4,0:0|0:2,0:0:0:0:
256,192,161107,12,4,162404,0:0:0:0:
276,336,163701,6,0,P|336:344|388:328,1,99.9999999999999,4|8,0:0|0:0,0:0:0:0:
400,240,164350,2,0,P|436:192|449:139,1,99.9999999999999,4|8,0:0|0:0,0:0:0:0:
360,108,164999,2,0,P|331:45|295:10,1,99.9999999999999,4|8,0:0|0:0,0:0:0:0:
224,76,165647,2,0,P|155:69|107:82,1,99.9999999999999,2|0,0:0|0:0,0:0:0:0:
52,144,166296,6,0,L|68:268,1,99.9999999999999,4|8,0:0|0:0,0:0:0:0:
100,336,166945,2,0,P|157:333|228:312,1,99.9999999999999,2|8,0:0|0:0,0:0:0:0:
292,292,167593,2,0,P|336:292|391:304,1,99.9999999999999,4|8,0:0|0:0,0:0:0:0:
488,328,168242,1,6,0:0:0:0:
452,236,168566,1,8,0:0:0:0:
444,136,168891,6,0,P|448:76|472:20,2,99.9999999999999,4|8|2,0:0|0:0|0:0,0:0:0:0:
452,236,169864,1,12,0:0:0:0:
360,196,170188,2,0,P|296:160|272:120,2,99.9999999999999,4|8|6,0:0|0:0|0:0,0:0:0:0:
452,236,171161,1,8,0:0:0:0:
380,304,171485,6,0,P|316:332|248:336,2,99.9999999999999,12|12|12,0:0|0:0|0:0,0:0:0:0:
452,236,172458,1,8,0:0:0:0:
452,136,172782,2,0,P|428:88|380:56,1,99.9999999999999,12|8,0:3|0:0,0:0:0:0:
348,152,173431,1,8,0:0:0:0:
252,128,173755,2,0,L|240:80,1,50,8|2,0:0|0:0,0:0:0:0:
204,44,174080,6,0,P|116:68|16:24,1,200,4|2,0:0|0:0,0:0:0:0:
16,128,175053,2,0,P|20:184|12:240,1,99.9999999999999,8|4,0:0|0:0,0:0:0:0:
16,328,175701,2,0,L|84:328,1,50,8|0,0:0|0:0,0:0:0:0:
148,272,176188,2,0,L|216:272,1,50,0|8,0:0|0:0,0:0:0:0:
280,328,176674,6,0,L|400:328,2,99.9999999999999,4|8|2,0:0|0:0|0:0,0:0:0:0:
180,312,177647,1,8,0:0:0:0:
148,272,177809,2,0,P|136:184|152:136,1,99.9999999999999,0|0,0:0|0:0,0:0:0:0:
160,128,178296,2,0,P|168:64|152:16,1,99.9999999999999,8|2,0:0|0:0,0:0:0:0:
72,80,178945,1,8,0:0:0:0:
12,160,179269,6,0,P|12:236|20:272,1,99.9999999999999,4|8,0:0|0:0,0:0:0:0:
112,284,179918,1,2,0:0:0:0:
204,248,180242,1,8,0:0:0:0:
248,224,180404,2,0,P|320:208|420:236,1,150,2|8,0:2|0:0,0:0:0:0:
476,280,181215,1,2,0:0:0:0:
408,352,181539,1,12,0:0:0:0:
324,300,181864,6,0,L|336:88,2,200,4|10|12,0:0|0:0|0:0,0:0:0:0:
140,224,183809,1,6,0:0:0:0:
332,160,184458,6,0,P|300:112|256:84,1,99.9999999999999,4|8,0:0|0:0,0:0:0:0:
172,48,185107,2,0,P|112:52|52:92,1,99.9999999999999,2|8,0:0|0:0,0:0:0:0:
32,160,185755,2,0,P|24:228|40:276,1,99.9999999999999,2|8,0:0|0:0,0:0:0:0:
120,308,186404,2,0,P|176:312|240:296,1,99.9999999999999,2|8,0:0|0:0,0:0:0:0:
268,216,187053,6,0,P|324:212|388:228,1,99.9999999999999,2|8,0:0|0:0,0:0:0:0:
396,316,187701,2,0,P|445:320|494:311,1,99.9999999999999,2|8,0:0|0:0,0:0:0:0:
508,212,188350,2,0,L|504:92,1,99.9999999999999,2|8,0:0|0:0,0:0:0:0:
496,12,188999,1,4,0:0:0:0:
420,76,189323,1,8,0:0:0:0:
344,12,189647,6,0,P|292:8|224:20,1,99.9999999999999,6|8,0:0|0:0,0:0:0:0:
240,116,190296,2,0,P|188:120|120:108,1,99.9999999999999,2|8,0:0|0:0,0:0:0:0:
104,20,190945,2,0,P|52:16|-16:28,2,99.9999999999999,2|8|2,0:0|0:0|0:0,0:0:0:0:
140,113,191918,1,8,0:0:0:0:
124,212,192242,6,0,L|108:332,2,99.9999999999999,2|8|2,0:0|0:0|0:0,0:0:0:0:
140,113,193215,1,8,0:0:0:0:
216,180,193539,2,0,P|272:188|340:164,2,99.9999999999999,6|8|6,0:0|0:0|0:0,0:0:0:0:
140,113,194512,1,8,3:0:0:0:
236,88,194836,6,0,P|304:68|340:36,1,99.9999999999999,4|8,0:0|0:0,0:0:0:0:
428,48,195485,1,2,0:0:0:0:
452,144,195809,2,0,L|444:216,1,50,8|0,0:0|0:0,0:0:0:0:
376,264,196296,2,0,L|384:336,1,50,0|8,0:0|0:0,0:0:0:0:
464,368,196782,6,0,P|336:348|248:396,1,200,2|4,0:0|0:0,0:0:0:0:
176,356,197755,1,8,0:0:0:0:
252,292,198080,2,0,P|272:244|276:168,1,99.9999999999999,2|8,0:0|0:0,0:0:0:0:
184,224,198728,2,0,P|180:160|160:112,1,99.9999999999999,6|8,0:0|0:0,0:0:0:0:
92,192,199377,2,0,P|60:144|0:124,1,99.9999999999999,2|8,0:0|0:0,0:0:0:0:
0,224,200026,5,4,0:0:0:0:
32,316,200350,2,0,P|76:320|148:304,1,99.9999999999999,8|2,0:0|0:0,0:0:0:0:
184,224,200999,2,0,P|228:220|300:236,1,99.9999999999999,8|4,0:0|0:0,0:0:0:0:
296,328,201647,2,0,L|324:112,1,200,8|8,0:0|0:0,0:0:0:0:
336,32,202620,5,4,0:0:0:0:
248,76,202945,2,0,P|192:88|144:72,2,99.9999999999999,8|2|8,0:0|0:0|0:0,0:0:0:0:
256,192,203918,12,2,205215,0:0:0:0:
232,336,207485,5,8,0:0:0:0:
228,236,207809,2,0,L|240:120,1,99.9999999999999,4|8,0:0|0:0,0:0:0:0:
332,104,208458,2,0,P|240:36|144:104,1,200,2|4,0:0|0:0,0:0:0:0:
124,152,209431,1,8,0:0:0:0:
72,64,209755,1,2,0:0:0:0:
72,264,210404,6,0,P|132:276|188:252,1,99.9999999999999,4|8,0:0|0:0,0:0:0:0:
228,188,211053,2,0,P|316:168|432:200,1,200,2|4,0:0|0:0,0:0:0:0:
492,268,212026,1,8,0:0:0:0:
500,168,212350,2,0,L|508:44,1,99.9999999999999,6|8,0:0|0:0,0:0:0:0:
412,40,212999,5,4,0:0:0:0:
320,84,213323,2,0,P|240:96|156:68,1,150,8|0,0:0|0:0,0:0:0:0:
128,60,213972,2,0,P|68:60|16:88,1,99.9999999999999,8|4,0:0|0:0,0:0:0:0:
24,176,214620,1,8,0:0:0:0:
40,276,214945,2,0,L|52:364,2,50,2|0|8,0:0|0:0|0:0,0:0:0:0:
108,204,215593,6,0,P|168:184|220:188,1,99.9999999999999,4|8,0:0|0:0,0:0:0:0:
232,280,216242,2,0,P|282:278|329:260,1,99.9999999999999,2|8,0:0|0:0,0:0:0:0:
304,164,216891,2,0,P|332:92|356:76,1,99.9999999999999,12|12,1:0|0:0,0:0:0:0:
428,24,217539,2,0,P|492:56|520:100,1,99.9999999999999,2|10,0:0|0:0,0:0:0:0:
452,160,218188,6,0,L|436:304,1,99.9999999999999,4|8,0:0|0:0,0:0:0:0:
364,324,218836,2,0,L|356:248,1,50,10|0,0:0|0:0,0:0:0:0:
340,228,219161,2,0,L|348:152,1,50,8|0,0:0|0:0,0:0:0:0:
336,128,219485,2,0,P|260:102|218:108,1,99.9999999999999,4|8,0:0|0:0,0:0:0:0:
144,128,220134,2,0,P|84:180|68:220,1,99.9999999999999,2|8,0:0|0:0,0:0:0:0:
52,296,220782,6,0,P|100:344|132:352,1,99.9999999999999,6|8,0:0|0:0,0:0:0:0:
228,340,221431,2,0,P|272:288|284:232,1,99.9999999999999,2|8,0:0|0:0,0:0:0:0:
264,156,222080,2,0,P|328:184|476:160,1,200,4|2,0:0|0:0,0:0:0:0:
500,80,223053,1,8,0:0:0:0:
412,32,223377,6,0,P|352:20|288:36,1,99.9999999999999,4|8,0:0|0:0,0:0:0:0:
232,80,224026,2,0,P|172:92|108:76,1,99.9999999999999,2|8,0:0|0:0,0:0:0:0:
40,56,224674,2,0,L|20:4,2,50,4|0|8,0:0|0:0|0:0,0:0:0:0:
52,104,225161,2,0,P|56:188|52:232,1,99.9999999999999,0|0,0:0|0:0,0:0:0:0:
52,252,225647,1,8,0:0:0:0:
140,200,225972,6,0,P|184:196|240:204,1,99.9999999999999,4|8,0:0|0:0,0:0:0:0:
312,272,226620,2,0,P|356:276|412:268,1,99.9999999999999,2|8,0:0|0:0,0:0:0:0:
448,176,227269,2,0,L|456:72,2,99.9999999999999,4|8|4,0:0|0:0|0:0,0:0:0:0:
256,192,228566,12,4,231161,0:0:0:0:
116,280,232458,6,0,P|92:180|120:68,1,200,4|6,0:0|0:0,0:0:0:0:
196,32,233431,1,8,0:0:0:0:
292,56,233755,6,0,L|356:40,2,50,4|0|8,0:0|0:0|0:0,0:0:0:0:
236,140,234404,2,0,L|172:124,2,50,2|0|8,0:0|0:0|0:0,0:0:0:0:
332,176,235053,2,0,P|332:264|316:304,1,99.9999999999999,6|10,0:0|0:0,0:0:0:0:
232,300,235701,2,0,L|164:288,1,50,2|0,0:2|0:0,0:0:0:0:
136,280,236026,2,0,L|68:292,1,50,8|0,0:2|0:0,0:0:0:0:
40,308,236350,6,0,P|44:228|32:168,1,99.9999999999999,4|4,0:0|0:0,0:0:0:0:
32,108,236999,1,12,0:0:0:0:
232,104,237647,2,0,P|220:153|216:228,1,99.9999999999999,4|8,0:0|0:0,0:0:0:0:
232,300,238296,1,12,0:0:0:0:
332,280,238620,1,8,0:0:0:0:
420,228,238945,6,0,P|432:172|432:116,1,99.9999999999999,4|8,0:0|0:0,0:0:0:0:
332,132,239594,2,0,P|284:84|220:64,1,99.9999999999999,2|8,0:0|0:0,0:0:0:0:
204,156,240243,2,0,P|136:148|76:168,1,99.9999999999999,4|0,0:0|0:0,0:0:0:0:
104,256,240891,2,0,P|48:288|20:332,1,99.9999999999999,2|8,0:0|0:0,0:0:0:0:
120,356,241539,6,0,B|186:335|186:335|244:360|244:360|332:340,1,200,4|2,0:0|0:0,0:0:0:0:
408,324,242512,1,8,0:0:0:0:
460,240,242836,2,0,B|468:192|468:192|460:136,1,99.9999999999999,4|8,0:0|0:0,0:0:0:0:
360,148,243485,2,0,B|352:196|352:196|360:252,1,99.9999999999999,2|8,0:0|0:0,0:0:0:0:
280,308,244134,6,0,P|204:312|152:292,1,99.9999999999999,4|8,0:0|0:0,0:0:0:0:
112,236,244782,2,0,P|104:184|116:120,1,99.9999999999999,2|8,0:0|0:0,0:0:0:0:
176,64,245431,2,0,P|225:55|274:61,1,99.9999999999999,4|8,0:0|0:0,0:0:0:0:
344,137,246080,2,0,P|350:186|342:235,1,99.9999999999999,2|8,0:0|0:0,0:0:0:0:
252,280,246728,6,0,P|192:272|152:248,1,99.9999999999999,4|8,0:0|0:0,0:0:0:0:
136,156,247377,2,0,P|148:76|180:40,1,99.9999999999999,6|8,0:0|0:0,0:0:0:0:
252,32,248026,2,0,P|312:40|352:64,1,99.9999999999999,4|12,0:0|0:0,0:0:0:0:
380,152,248674,2,0,P|379:201|358:246,1,99.9999999999999,12|12,0:0|0:0,0:0:0:0:
256,192,249323,12,4,251918,0:0:0:0:
