osu file format v14

[General]
AudioFilename: audio.mp3
AudioLeadIn: 0
PreviewTime: 67118
Countdown: 0
SampleSet: Normal
StackLeniency: 0.4
Mode: 0
LetterboxInBreaks: 0
WidescreenStoryboard: 1

[Editor]
DistanceSpacing: 0.9
BeatDivisor: 4
GridSize: 4
TimelineZoom: 1.6

[Metadata]
Title:Teo
TitleUnicode:テオ
Artist:Omoi
ArtistUnicode:Omoi
Creator:_derp
Version:Kira [AR10]
Source:
Tags:vocaloid hatsune miku japanese
BeatmapID:0
BeatmapSetID:646837

[Difficulty]
HPDrainRate:6
CircleSize:4.2
OverallDifficulty:8.5
ApproachRate:10
SliderMultiplier:1.4
SliderTickRate:1

[Events]
//Background and Video events
0,0,"Konachan.com - 244564 ayan blue_hair bow collar dress elbow_gloves garter gloves hatsune_miku long_hair twintails vocaloid wand yuki_miku.png",0,0
//Break Periods
2,44415,47362
//Storyboard Layer 0 (Background)
//Storyboard Layer 1 (Fail)
//Storyboard Layer 2 (Pass)
//Storyboard Layer 3 (Foreground)
//Storyboard Sound Samples

[TimingPoints]
2659,324.324324324324,4,1,1,60,1,0
13037,-66.6666666666667,4,1,1,60,0,0
33226,-66.6666666666667,4,1,1,45,0,0
33794,-66.6666666666667,4,1,1,60,0,0
69794,-100,4,1,1,60,0,0
70118,-66.6666666666667,4,1,1,80,0,1
77902,-66.6666666666667,4,1,1,80,0,1
80496,-100,4,1,1,80,0,1
88280,-100,4,1,1,80,0,1
89902,-58.8235294117647,4,1,1,80,0,1
90875,-58.8235294117647,4,1,1,80,0,1
101253,-58.8235294117647,4,1,1,80,0,0
116496,-100,4,1,1,60,0,0
116821,-133.333333333333,4,1,1,60,0,0
116983,-58.8235294117647,4,1,1,80,0,0
117145,-133.333333333333,4,1,1,60,0,0
117307,-58.8235294117647,4,1,1,60,0,0
117469,-133.333333333333,4,1,1,60,0,0
117631,-58.8235294117647,4,1,1,60,0,0
117794,-133.333333333333,4,1,1,60,0,0
117956,-58.8235294117647,4,1,1,60,0,0
122010,-100,4,1,1,60,0,0
124604,-86.9565217391304,4,1,1,80,0,0
125253,-76.9230769230769,4,1,1,60,0,0
127199,-58.8235294117647,4,1,1,60,0,0
134658,-50,4,2,1,60,0,0
134821,-66.6666666666667,4,1,1,60,0,0
134983,-83.3333333333333,4,1,1,60,0,0
135307,-133.333333333333,4,1,1,60,0,0
135469,-83.3333333333333,4,1,1,60,0,0
135794,-133.333333333333,4,1,1,60,0,0
135956,-83.3333333333333,4,1,1,60,0,0
136280,-133.333333333333,4,1,1,60,0,0
136442,-83.3333333333333,4,1,1,60,0,0
137253,-200,4,1,1,60,0,0
140091,-83.3333333333333,4,1,1,60,0,0
142767,-100,4,1,1,60,0,0
147956,-66.6666666666667,4,1,1,60,0,0
150226,-100,4,1,1,60,0,0
150550,-83.3333333333333,4,1,1,60,0,0
152740,-200,4,1,1,20,0,0
153145,-66.6666666666667,4,1,1,80,0,1
163523,-58.8235294117647,4,1,1,80,0,1
173902,-58.8235294117647,4,1,1,60,0,0

[HitObjects]
24,188,2496,5,0,2:0:0:0:
32,164,2577,1,0,2:0:0:0:
40,140,2659,2,0,B|76:128|96:100|96:100|104:64|128:32,1,140,0|0,2:0|0:0,0:0:0:0:
412,32,3307,6,0,B|424:52|444:72|444:72|436:92|432:108|432:108|448:132|452:164,1,140,0|0,2:0|0:0,0:0:0:0:
228,324,3956,2,0,B|196:300|196:300|164:312|112:296|112:296|136:272,1,140,0|0,2:0|0:0,0:0:0:0:
304,224,4604,6,0,B|336:200|336:200|368:212|420:196|420:196|396:172,1,140,0|0,2:0|0:0,0:0:0:0:
112,48,5253,2,0,B|108:76|100:92|100:92|108:112|116:128|116:128|96:164|88:204,1,140,0|0,2:0|0:0,0:0:0:0:
368,208,5902,6,0,B|372:228|388:252|388:252|404:268|416:284|416:284|432:332,1,140,0|0,2:0|0:0,0:0:0:0:
120,220,6550,2,0,B|84:192|80:132|80:132|64:112|40:104,1,140,0|0,2:0|0:0,0:0:0:0:
316,100,7199,5,0,2:0:0:0:
480,120,7361,1,0,2:0:0:0:
316,100,7523,1,0,2:0:0:0:
480,120,7686,1,0,2:0:0:0:
492,128,7767,1,0,2:0:0:0:
504,136,7848,2,0,B|512:180|512:180|488:220|488:220|500:268,1,140,0|0,2:0|0:0,0:0:0:0:
360,264,8496,6,0,B|348:216|348:216|372:176|372:176|364:132,1,140,0|0,2:0|0:0,0:0:0:0:
380,28,9145,2,0,B|452:32|452:32|488:96,1,140,0|0,2:0|0:0,0:0:0:0:
472,296,9794,2,0,B|439:356|439:356|367:360,1,140,0|0,2:0|0:0,0:0:0:0:
120,296,10442,6,0,B|108:280|100:256|100:256|64:260|20:260|20:260|12:296,1,140,0|0,2:0|0:0,0:0:0:0:
60,72,11091,2,0,B|68:88|84:96|84:96|132:76|196:68,1,140,0|0,2:0|0:0,0:0:0:0:
196,72,11496,1,0,2:0:0:0:
204,76,11577,1,0,2:0:0:0:
212,80,11658,1,0,2:0:0:0:
220,84,11740,2,0,L|256:84,1,35,4|0,2:0|2:0,0:0:0:0:
424,296,11983,2,0,L|456:324,1,35,4|0,2:0|2:0,0:0:0:0:
108,312,12226,2,0,L|64:328,1,35,4|0,2:0|2:0,0:0:0:0:
152,32,12550,5,0,0:0:0:0:
148,40,12631,1,0,0:0:0:0:
144,48,12713,1,0,0:0:0:0:
140,56,12794,1,0,0:0:0:0:
136,64,12875,1,0,0:0:0:0:
132,72,12956,1,0,0:0:0:0:
128,80,13037,2,0,P|140:132|196:216,1,105.000004005432,4|0,3:0|0:0,0:0:0:0:
424,224,13361,6,0,P|372:224|316:256,1,105.000004005432
82,184,13686,1,4,3:0:0:0:
165,346,13848,1,0,0:0:0:0:
272,112,14010,6,0,P|324:124|400:124,1,105.000004005432
240,312,14334,1,4,3:0:0:0:
472,212,14496,1,0,0:0:0:0:
208,104,14658,6,0,P|164:76|120:40,1,105.000004005432
108,292,14983,1,4,3:0:0:0:
104,300,15064,1,4,2:0:0:0:
100,308,15145,1,4,2:0:0:0:
348,48,15307,6,0,P|388:72|452:96,1,105.000004005432
155,115,15631,1,4,3:0:0:0:
404,281,15794,1,0,0:0:0:0:
136,244,15956,6,0,P|72:228|24:224,1,105.000004005432
252,264,16280,1,4,3:0:0:0:
256,56,16442,1,4,3:0:0:0:
308,288,16604,5,4,3:0:0:0:
424,56,16767,1,4,3:0:0:0:
194,286,16929,5,4,3:0:0:0:
88,52,17091,1,4,3:0:0:0:
220,164,17253,6,0,P|272:158|320:132,1,105.000004005432,4|0,3:0|0:0,0:0:0:0:
462,240,17577,1,4,3:0:0:0:
466,244,17658,1,4,2:0:0:0:
470,248,17740,1,4,2:0:0:0:
188,324,17902,6,0,B|148:308|120:336|84:320,1,105.000004005432
318,125,18226,1,4,3:0:0:0:
95,94,18388,1,0,0:0:0:0:
343,281,18550,6,0,P|392:272|459:269,1,105.000004005432
123,161,18875,1,4,3:0:0:0:
345,51,19037,1,0,0:0:0:0:
204,267,19199,6,0,L|66:305,1,105.000004005432
239,35,19523,1,4,3:0:0:0:
309,295,19686,1,0,0:0:0:0:
431,129,19848,6,0,P|439:185|463:241,1,105.000004005432
127,255,20172,1,4,3:0:0:0:
119,255,20253,1,0,2:0:0:0:
111,255,20334,1,0,2:0:0:0:
256,16,20496,1,0,2:0:0:0:
388,176,20658,1,0,2:0:0:0:
104,56,20821,6,0,L|64:156,1,105.000004005432
251,271,21145,2,0,L|236:168,1,105.000004005432
392,228,21469,2,0,L|448:328,1,105.000004005432,0|0,0:0|2:0,0:0:0:0:
452,324,21713,1,0,2:0:0:0:
460,328,21794,1,0,2:0:0:0:
488,56,22118,5,0,0:0:0:0:
448,80,22199,1,0,0:0:0:0:
420,120,22280,1,0,0:0:0:0:
412,168,22361,1,0,0:0:0:0:
412,216,22442,1,0,0:0:0:0:
392,260,22523,1,0,0:0:0:0:
356,292,22604,2,0,P|304:308|272:304,1,52.5000020027161
220,204,22767,2,0,P|156:188|136:176,1,52.5000020027161
176,72,22929,2,0,P|136:28|128:12,1,52.5000020027161
324,56,23091,5,0,0:0:0:0:
328,76,23172,1,0,0:0:0:0:
332,96,23253,1,0,0:0:0:0:
336,116,23334,1,0,0:0:0:0:
340,136,23415,2,0,P|280:184|248:232,1,105.000004005432
112,176,23740,1,0,0:0:0:0:
280,348,23902,1,0,0:0:0:0:
493,227,24064,6,0,P|453:243|389:299,1,105.000004005432,4|0,3:0|0:0,0:0:0:0:
224,192,24388,1,0,0:0:0:0:
404,192,24550,1,0,0:0:0:0:
204,100,24713,5,4,3:0:0:0:
438,128,24875,1,4,3:0:0:0:
236,20,25037,5,4,3:0:0:0:
352,240,25199,1,4,3:0:0:0:
172,252,25361,5,4,3:0:0:0:
384,156,25523,1,4,3:0:0:0:
224,348,25686,5,4,3:0:0:0:
308,88,25848,1,4,3:0:0:0:
128,120,26010,6,0,L|52:192,1,105.000004005432,4|0,3:0|0:0,0:0:0:0:
244,308,26334,1,0,0:0:0:0:
268,104,26496,1,0,0:0:0:0:
472,192,26658,6,0,P|440:244|424:296,1,105.000004005432,4|0,3:0|0:0,0:0:0:0:
304,264,26983,1,0,0:0:0:0:
384,56,27145,1,0,0:0:0:0:
184,120,27307,5,4,3:0:0:0:
264,276,27469,1,4,3:0:0:0:
84,224,27631,5,4,3:0:0:0:
328,136,27794,1,4,3:0:0:0:
280,316,27956,5,4,3:0:0:0:
164,80,28118,1,4,3:0:0:0:
88,288,28280,5,4,3:0:0:0:
384,164,28442,1,4,3:0:0:0:
280,44,28604,6,0,P|256:88|252:148,1,105.000004005432
220,284,28848,5,4,3:0:0:0:
216,288,28929,2,0,P|172:316|112:328,1,105.000004005432
160,112,29172,5,4,3:0:0:0:
168,116,29253,2,0,P|220:124|276:104,1,105.000004005432
428,140,29496,5,4,3:0:0:0:
436,144,29577,2,0,P|440:188|464:248,1,105.000004005432
272,208,29902,1,0,0:0:0:0:
200,64,30064,1,0,0:0:0:0:
404,40,30226,6,4,L|508:108,1,105.000004005432,0|0,0:0|0:0,3:0:0:0:
296,260,30550,1,0,0:0:0:0:
260,260,30631,1,0,0:0:0:0:
224,260,30713,1,0,0:0:0:0:
188,260,30794,1,0,0:0:0:0:
152,260,30875,1,0,0:0:0:0:
56,136,31037,5,4,3:0:0:0:
272,136,31199,1,4,3:0:0:0:
136,32,31361,1,4,3:0:0:0:
352,48,31523,5,4,3:0:0:0:
128,252,31685,1,4,3:0:0:0:
392,244,31848,5,4,3:0:0:0:
168,44,32010,1,4,3:0:0:0:
256,352,32172,5,4,3:0:0:0:
352,48,32334,1,4,3:0:0:0:
136,68,32496,5,0,3:0:0:0:
136,104,32577,1,0,3:0:0:0:
136,140,32658,1,0,3:0:0:0:
136,176,32740,1,0,3:0:0:0:
136,212,32821,1,0,3:0:0:0:
188,184,32902,1,0,3:0:0:0:
240,160,32983,1,0,3:0:0:0:
296,152,33064,1,0,3:0:0:0:
352,156,33145,2,0,P|400:128|420:108,1,52.5000020027161,0|0,0:0|3:0,3:0:0:0:
312,296,33307,2,0,P|376:300|412:288,1,52.5000020027161,0|0,0:0|3:0,3:0:0:0:
168,344,33469,5,0,3:0:0:0:
108,328,33550,1,0,3:0:0:0:
64,284,33631,1,0,3:0:0:0:
48,220,33713,1,0,3:0:0:0:
52,156,33794,2,0,L|60:12,1,105.000004005432,4|0,1:0|1:0,1:0:0:0:
264,24,34118,1,0,0:0:0:0:
304,232,34280,1,0,0:0:0:0:
136,60,34442,6,0,P|156:116|184:156,1,105.000004005432,0|0,3:0|0:0,0:0:0:0:
40,256,34767,1,0,0:0:0:0:
240,328,34929,1,0,0:0:0:0:
248,152,35091,5,4,3:0:0:0:
360,56,35253,1,4,3:0:0:0:
372,196,35415,5,4,3:0:0:0:
224,68,35577,1,4,3:0:0:0:
448,104,35740,5,4,3:0:0:0:
208,208,35902,1,4,3:0:0:0:
464,204,36064,5,4,3:0:0:0:
248,8,36226,1,4,3:0:0:0:
76,192,36388,6,0,P|116:236|136:288,1,105.000004005432,4|0,3:0|0:0,0:0:0:0:
216,108,36713,1,0,0:0:0:0:
228,324,36875,1,0,0:0:0:0:
344,200,37037,6,0,P|388:224|460:232,1,105.000004005432,4|0,3:0|0:0,0:0:0:0:
308,80,37361,1,0,0:0:0:0:
256,308,37523,1,0,0:0:0:0:
160,168,37686,5,4,3:0:0:0:
324,328,37848,1,4,3:0:0:0:
116,244,38010,5,4,3:0:0:0:
376,264,38172,1,4,3:0:0:0:
124,328,38334,5,4,3:0:0:0:
372,184,38496,1,4,3:0:0:0:
216,104,38658,5,4,3:0:0:0:
364,336,38821,1,4,3:0:0:0:
420,88,38983,6,0,P|360:72|312:68,1,105.000004005432,4|0,3:0|0:0,0:0:0:0:
160,136,39226,5,0,3:0:0:0:
164,144,39307,2,0,P|208:164|260:208,1,105.000004005432
460,260,39550,5,0,3:0:0:0:
452,269,39631,2,0,P|400:276|352:297,1,105.000004005432
184,268,39875,5,0,3:0:0:0:
192,273,39956,2,0,P|209:224|249:170,1,105.000004005432
304,304,40280,5,4,3:0:0:0:
124,184,40442,1,4,3:0:0:0:
328,212,40604,5,4,3:0:0:0:
208,44,40767,1,4,3:0:0:0:
40,168,40929,5,4,3:0:0:0:
248,128,41091,1,4,3:0:0:0:
84,240,41253,5,4,3:0:0:0:
284,260,41415,1,4,3:0:0:0:
144,76,41577,6,0,P|112:140|120:192,1,105.000004005432
240,328,41821,5,4,3:0:0:0:
248,332,41902,2,0,P|304:336|352:316,1,105.000004005432
456,160,42145,5,4,3:0:0:0:
452,152,42226,2,0,P|436:84|404:56,1,105.000004005432
196,44,42469,5,4,3:0:0:0:
192,52,42550,2,0,P|172:100|120:128,1,105.000004005432
92,292,42875,5,0,2:0:0:0:
112,244,42956,1,0,2:0:0:0:
152,212,43037,1,0,2:0:0:0:
204,200,43118,1,0,2:0:0:0:
256,212,43199,1,0,2:0:0:0:
300,244,43280,1,0,2:0:0:0:
324,292,43361,1,0,0:0:0:0:
360,332,43442,1,0,0:0:0:0:
400,348,43523,6,0,P|423:338|448:324,1,52.5000020027161
421,171,43686,6,0,P|402:190|382:206,1,52.5000020027161
128,68,43848,2,0,P|149:83|169:99,1,52.5000020027161
376,48,44010,2,0,P|349:49|324:54,1,52.5000020027161
176,268,44172,1,0,0:0:0:0:
388,96,47902,5,0,0:0:0:0:
396,108,47983,1,0,0:0:0:0:
404,120,48064,1,0,0:0:0:0:
432,304,48226,5,0,0:0:0:0:
388,332,48307,1,0,0:0:0:0:
336,344,48388,1,0,0:0:0:0:
284,340,48469,1,0,0:0:0:0:
236,320,48550,2,0,L|248:264,1,52.5000020027161
132,196,48713,2,0,L|180:156,1,52.5000020027161
196,28,48875,2,0,L|252:28,1,52.5000020027161
408,116,49037,1,0,0:0:0:0:
420,136,49118,1,0,0:0:0:0:
432,156,49199,1,0,0:0:0:0:
444,176,49280,1,0,0:0:0:0:
456,196,49361,2,0,P|412:228|360:252,1,105.000004005432,4|0,3:0|0:0,0:0:0:0:
228,56,49686,1,0,0:0:0:0:
72,196,49848,1,0,0:0:0:0:
248,264,50010,6,0,P|196:300|168:336,1,105.000004005432,4|0,3:0|0:0,0:0:0:0:
416,356,50334,1,0,0:0:0:0:
388,164,50496,1,0,0:0:0:0:
172,148,50658,5,4,3:0:0:0:
324,108,50821,1,4,3:0:0:0:
212,228,50983,5,4,3:0:0:0:
304,24,51145,1,4,3:0:0:0:
472,284,51307,5,4,3:0:0:0:
264,256,51469,1,4,3:0:0:0:
456,352,51631,5,4,3:0:0:0:
276,168,51794,1,4,3:0:0:0:
364,48,51956,6,0,P|391:69|428:130,1,105.000004005432,4|0,3:0|0:0,0:0:0:0:
172,248,52280,1,0,0:0:0:0:
192,56,52442,1,0,0:0:0:0:
481,254,52604,6,0,P|434:277|392:308,1,105.000004005432,4|0,3:0|0:0,0:0:0:0:
188,156,52929,1,0,0:0:0:0:
360,104,53091,1,0,0:0:0:0:
176,324,53253,6,0,P|116:316|72:300,1,105.000004005432,4|0,3:0|0:0,0:0:0:0:
184,212,53577,1,0,0:0:0:0:
296,288,53740,1,0,0:0:0:0:
380,200,53902,6,0,P|432:193|481:177,1,105.000004005432,4|0,3:0|0:0,0:0:0:0:
371,88,54226,1,0,0:0:0:0:
259,164,54389,1,0,0:0:0:0:
248,36,54550,6,0,P|184:44|144:68,1,105.000004005432,4|0,3:0|0:0,0:0:0:0:
88,216,54794,5,4,3:0:0:0:
92,224,54875,2,0,P|148:228|200:244,1,105.000004005432
380,264,55118,5,4,3:0:0:0:
388,264,55199,2,0,P|412:200|444:176,1,105.000004005432
216,56,55442,5,4,3:0:0:0:
208,56,55523,2,0,P|172:72|104:72,1,105.000004005432
68,312,55848,1,0,0:0:0:0:
208,320,56010,1,0,0:0:0:0:
348,328,56172,6,0,P|364:264|388:216,1,105.000004005432,4|0,3:0|0:0,0:0:0:0:
424,32,56496,1,0,0:0:0:0:
388,40,56577,1,0,0:0:0:0:
356,48,56658,1,0,0:0:0:0:
320,56,56740,1,0,0:0:0:0:
288,64,56821,1,0,0:0:0:0:
212,164,56983,1,0,0:0:0:0:
48,100,57145,5,0,0:0:0:0:
44,264,57307,1,0,0:0:0:0:
164,284,57469,5,0,0:0:0:0:
164,143,57631,1,0,0:0:0:0:
285,214,57794,1,0,0:0:0:0:
132,360,57956,1,0,0:0:0:0:
132,76,58118,1,0,0:0:0:0:
376,212,58280,1,0,0:0:0:0:
404,32,58442,5,0,3:0:0:0:
372,68,58523,1,0,3:0:0:0:
328,88,58604,1,0,3:0:0:0:
280,96,58686,1,0,3:0:0:0:
232,96,58767,1,0,3:0:0:0:
188,108,58848,5,0,3:0:0:0:
156,140,58929,1,0,3:0:0:0:
144,188,59010,1,0,3:0:0:0:
148,236,59091,2,0,P|132:288|120:300,1,52.5000020027161,0|0,3:0|3:0,3:0:0:0:
88,32,59253,2,0,L|136:68,1,52.5000020027161,0|0,3:0|3:0,3:0:0:0:
256,184,59415,2,0,P|312:192|324:192,1,52.5000020027161,0|0,0:0|3:0,3:0:0:0:
448,136,59577,2,0,P|464:80|472:68,1,52.5000020027161,0|0,0:0|3:0,3:0:0:0:
308,88,59740,6,0,P|256:72|196:68,1,105.000004005432,4|0,3:0|0:0,0:0:0:0:
76,188,60064,1,0,0:0:0:0:
168,312,60226,1,0,0:0:0:0:
200,136,60388,6,0,P|284:148|344:176,1,105.000004005432
152,232,60713,1,0,0:0:0:0:
348,308,60875,1,0,0:0:0:0:
356,96,61037,5,4,3:0:0:0:
476,224,61199,1,4,3:0:0:0:
320,40,61361,5,4,3:0:0:0:
424,264,61523,1,4,3:0:0:0:
132,148,61686,5,4,3:0:0:0:
300,244,61848,1,4,3:0:0:0:
144,88,62010,5,4,3:0:0:0:
284,304,62172,1,4,3:0:0:0:
296,60,62334,6,0,P|336:64|408:96,1,105.000004005432,4|0,3:0|0:0,0:0:0:0:
236,176,62658,1,0,0:0:0:0:
436,268,62821,1,0,0:0:0:0:
248,312,62983,6,0,P|160:300|104:308,1,105.000004005432
144,92,63307,1,0,0:0:0:0:
316,216,63469,1,0,0:0:0:0:
136,236,63631,5,4,3:0:0:0:
336,140,63794,1,4,3:0:0:0:
276,300,63956,5,4,3:0:0:0:
208,52,64118,1,4,3:0:0:0:
80,192,64280,5,4,3:0:0:0:
356,212,64442,1,4,3:0:0:0:
304,68,64604,5,4,3:0:0:0:
132,284,64767,1,4,3:0:0:0:
436,176,64929,6,0,P|404:224|372:296,1,105.000004005432,4|0,3:0|0:0,0:0:0:0:
232,304,65172,1,0,0:0:0:0:
220,316,65253,2,0,P|160:312|80:264,1,105.000004005432
156,128,65496,5,4,3:0:0:0:
160,116,65577,2,0,P|201:149|254:163,1,105.000004005432
316,56,65821,5,4,3:0:0:0:
328,52,65902,2,0,P|392:36|436:36,1,105.000004005432
488,152,66226,5,4,3:0:0:0:
320,232,66388,1,0,0:0:0:0:
468,328,66550,2,0,P|428:340|348:340,1,105.000004005432
288,108,66875,5,4,3:0:0:0:
248,268,67037,1,0,0:0:0:0:
120,328,67199,5,0,2:0:0:0:
112,312,67280,1,0,2:0:0:0:
108,296,67361,1,0,2:0:0:0:
116,264,67442,1,0,2:0:0:0:
152,228,67523,1,0,0:0:0:0:
204,220,67604,1,0,0:0:0:0:
256,236,67686,1,0,0:0:0:0:
296,272,67767,1,0,0:0:0:0:
340,300,67848,1,0,0:0:0:0:
388,316,67929,1,0,0:0:0:0:
436,320,68010,2,0,P|480:284|484:276,1,52.5000020027161
460,92,68172,5,0,0:0:0:0:
416,56,68253,1,0,0:0:0:0:
360,48,68334,1,0,0:0:0:0:
304,68,68415,1,0,0:0:0:0:
264,112,68496,2,0,P|256:140|252:172,1,52.5000020027161
92,256,68658,2,0,P|156:228|180:224,1,52.5000020027161
272,336,68821,2,0,P|304:340|344:356,1,52.5000020027161,4|0,3:0|0:0,0:0:0:0:
408,176,69145,6,0,P|376:140|368:124,1,52.5000020027161,4|0,3:0|0:0,0:0:0:0:
108,140,69469,5,0,0:0:0:0:
104,128,69550,1,0,0:0:0:0:
100,116,69632,1,0,0:0:0:0:
96,104,69713,1,0,0:0:0:0:
92,92,69794,2,0,B|112:64|112:64|160:72|236:64,1,140,0|4,0:0|0:0,0:0:0:0:
376,352,70280,1,0,3:0:0:0:
72,264,70442,5,0,3:0:0:0:
440,208,70604,1,0,3:0:0:0:
60,225,70767,5,0,3:0:0:0:
445,232,70929,1,0,3:0:0:0:
55,180,71091,5,0,3:0:0:0:
448,261,71253,1,0,3:0:0:0:
53,131,71415,5,0,3:0:0:0:
450,292,71577,1,0,3:0:0:0:
92,336,71740,5,0,3:0:0:0:
460,144,71902,1,0,3:0:0:0:
184,64,72064,1,0,3:0:0:0:
176,61,72145,1,0,3:0:0:0:
168,59,72226,1,0,0:0:0:0:
256,300,72388,2,0,P|335:339|364:363,1,105.000004005432,4|4,3:0|3:0,0:0:0:0:
404,36,72713,1,4,0:0:0:0:
144,304,72875,1,0,3:0:0:0:
444,244,73037,5,0,3:0:0:0:
104,56,73199,1,0,3:0:0:0:
452,216,73362,5,0,3:0:0:0:
76,92,73524,1,0,3:0:0:0:
452,184,73686,5,0,3:0:0:0:
60,136,73848,1,0,3:0:0:0:
444,160,74010,5,0,3:0:0:0:
56,184,74172,1,0,3:0:0:0:
392,324,74335,5,0,3:0:0:0:
236,48,74497,1,0,3:0:0:0:
180,288,74658,5,4,3:0:0:0:
180,299,74740,1,0,3:0:0:0:
180,310,74821,1,4,0:0:0:0:
476,204,74983,1,4,3:0:0:0:
40,192,75145,5,4,3:0:0:0:
404,72,75307,1,4,3:0:0:0:
256,352,75469,1,0,3:0:0:0:
48,120,75631,5,0,3:0:0:0:
428,192,75794,1,0,3:0:0:0:
52,140,75956,5,0,3:0:0:0:
428,144,76118,1,0,3:0:0:0:
56,160,76280,5,0,3:0:0:0:
428,240,76442,1,0,3:0:0:0:
60,180,76604,5,0,3:0:0:0:
428,96,76767,1,0,3:0:0:0:
124,40,76929,5,0,3:0:0:0:
364,324,77091,1,0,3:0:0:0:
71,228,77253,2,0,L|104:328,1,105.000004005432
428,128,77577,5,0,0:0:0:0:
264,328,77740,1,0,0:0:0:0:
248,28,77902,2,0,P|200:32|136:36,1,105.000004005432,4|0,3:0|0:0,0:0:0:0:
188,180,78226,2,0,P|236:200|288:216,1,105.000004005432,4|0,3:0|0:0,0:0:0:0:
200,336,78550,1,0,3:0:0:0:
56,280,78713,5,0,0:0:0:0:
56,264,78794,1,0,0:0:0:0:
56,248,78875,1,0,0:0:0:0:
56,232,78956,1,0,0:0:0:0:
56,216,79037,1,0,0:0:0:0:
56,200,79118,5,0,0:0:0:0:
68,176,79199,1,0,0:0:0:0:
92,156,79280,1,0,0:0:0:0:
132,144,79361,1,0,0:0:0:0:
180,160,79442,1,0,0:0:0:0:
212,200,79523,5,0,0:0:0:0:
248,240,79604,1,0,0:0:0:0:
296,260,79686,1,0,0:0:0:0:
348,256,79767,1,0,0:0:0:0:
392,228,79848,1,0,0:0:0:0:
412,180,79929,5,0,0:0:0:0:
408,128,80010,1,0,0:0:0:0:
368,160,80091,1,0,0:0:0:0:
316,176,80172,5,0,0:0:0:0:
265,158,80253,1,0,0:0:0:0:
229,122,80334,1,0,0:0:0:0:
214,72,80415,2,0,L|213:-4,1,52.5000020027161
236,336,80658,1,0,3:0:0:0:
76,108,80821,5,0,3:0:0:0:
396,272,80983,1,0,3:0:0:0:
59,206,81145,5,0,3:0:0:0:
418,188,81307,1,0,3:0:0:0:
94,300,81469,5,0,3:0:0:0:
396,105,81631,1,0,3:0:0:0:
172,364,81794,5,0,3:0:0:0:
336,44,81956,1,0,3:0:0:0:
44,104,82118,5,0,3:0:0:0:
328,328,82280,1,0,3:0:0:0:
168,60,82442,5,4,3:3:0:0:
168,52,82523,1,0,3:3:0:0:
168,44,82604,1,4,0:3:0:0:
120,336,82767,1,4,3:0:0:0:
328,84,82929,5,4,3:0:0:0:
56,200,83092,1,4,3:0:0:0:
360,348,83253,1,0,3:0:0:0:
436,108,83415,5,0,3:0:0:0:
116,272,83577,1,0,3:0:0:0:
453,206,83739,5,0,3:0:0:0:
94,188,83901,1,0,3:0:0:0:
418,300,84063,5,0,3:0:0:0:
116,105,84225,1,0,3:0:0:0:
340,364,84388,5,0,3:0:0:0:
176,44,84550,1,0,3:0:0:0:
92,320,84712,5,0,3:0:0:0:
380,96,84874,1,0,3:0:0:0:
252,328,85036,5,4,3:0:0:0:
244,340,85118,1,0,3:0:0:0:
236,352,85199,1,4,0:0:0:0:
248,32,85361,1,4,3:0:0:0:
420,280,85523,5,4,3:0:0:0:
80,216,85686,1,4,3:0:0:0:
308,48,85848,1,0,3:0:0:0:
167,346,86010,5,0,3:0:0:0:
167,37,86172,1,0,3:0:0:0:
433,192,86334,1,4,3:0:0:0:
78,191,86496,5,0,3:0:0:0:
344,38,86658,1,0,3:0:0:0:
344,345,86821,1,0,3:0:0:0:
76,112,86983,5,4,3:0:0:0:
380,28,87145,1,0,3:0:0:0:
384,336,87307,1,0,3:0:0:0:
76,112,87469,5,0,3:0:0:0:
384,336,87631,1,4,3:0:0:0:
380,28,87794,1,4,3:0:0:0:
72,36,87956,5,4,3:0:0:0:
336,344,88280,5,0,0:0:0:0:
12,124,88604,1,0,0:0:0:0:
400,84,88929,1,0,0:0:0:0:
168,336,89253,1,0,0:0:0:0:
120,40,89577,5,0,0:0:0:0:
100,76,89658,1,0,0:0:0:0:
84,116,89740,1,0,0:0:0:0:
76,156,89821,1,0,0:0:0:0:
72,200,89902,2,0,P|72:248|80:272,1,59.5000011348725
267,332,90064,2,0,P|245:312|228:288,1,59.5000011348725
384,240,90226,2,0,P|409:251|440:260,1,59.5000011348725
492,84,90388,2,0,P|463:91|433:93,1,59.5000011348725
268,28,90550,5,0,0:0:0:0:
224,64,90631,1,0,0:0:0:0:
192,112,90713,1,0,0:0:0:0:
168,164,90794,1,0,0:0:0:0:
156,220,90875,6,0,P|216:220|286:237,1,119.000002269745,4|0,3:0|0:0,0:0:0:0:
304,108,91199,1,0,0:0:0:0:
348,340,91361,2,0,B|376:316|412:308|412:308|424:280|452:264|452:264|464:236|472:196|456:152,1,238.00000453949,4|0,3:0|0:0,0:0:0:0:
172,32,91848,5,0,0:0:0:0:
160,316,92010,1,0,0:0:0:0:
356,84,92172,2,0,L|400:240,1,119.000002269745,4|0,3:0|0:0,0:0:0:0:
152,244,92496,5,4,3:0:0:0:
460,136,92658,1,4,3:0:0:0:
176,56,92821,5,4,3:0:0:0:
360,312,92983,1,4,3:0:0:0:
380,32,93145,5,4,3:0:0:0:
208,344,93307,1,4,3:0:0:0:
68,120,93469,6,0,P|120:148|177:167,1,119.000002269745,4|0,3:0|0:0,0:0:0:0:
300,32,93794,1,0,0:0:0:0:
476,248,93956,6,0,P|356:312|344:328,1,119.000002269745
376,44,94280,1,0,0:0:0:0:
248,324,94442,5,0,0:0:0:0:
140,64,94604,1,0,0:0:0:0:
424,164,94767,2,0,P|440:108|484:36,1,119.000002269745,4|0,3:0|0:0,0:0:0:0:
232,72,95091,5,0,0:0:0:0:
48,208,95253,2,0,B|108:268|108:268|184:296|184:296|256:360,1,238.00000453949,4|0,3:0|0:0,0:0:0:0:
372,28,95740,5,0,0:0:0:0:
328,304,95902,1,0,0:0:0:0:
92,48,96064,2,0,P|116:107|143:146,1,105.000004005432,4|0,3:0|0:0,0:0:0:0:
100,288,96388,5,0,0:0:0:0:
432,104,96550,2,0,B|392:88|392:88|344:80|344:80|296:64|296:64|244:56|244:56|200:40|200:40,1,238.00000453949,4|0,3:0|0:0,0:0:0:0:
440,288,97037,5,0,0:0:0:0:
128,356,97199,1,0,0:0:0:0:
276,188,97361,2,0,L|360:88,1,119.000002269745,4|0,3:0|0:0,0:0:0:0:
20,268,97686,5,4,3:0:0:0:
212,60,97848,1,4,3:0:0:0:
136,268,98010,5,4,3:0:0:0:
348,81,98172,1,4,3:0:0:0:
252,268,98334,5,4,3:0:0:0:
476,108,98496,1,4,3:0:0:0:
480,100,98577,1,0,0:0:0:0:
484,92,98658,1,4,3:0:0:0:
232,36,98983,1,4,0:0:0:0:
440,240,99307,1,4,0:0:0:0:
84,112,99631,1,4,0:0:0:0:
160,316,99794,1,4,2:0:0:0:
152,312,99875,1,0,2:0:0:0:
144,308,99956,1,4,2:0:0:0:
40,192,100118,5,0,0:0:0:0:
48,176,100199,1,0,0:0:0:0:
56,160,100280,1,0,0:0:0:0:
64,144,100361,1,0,0:0:0:0:
88,116,100442,1,0,0:0:0:0:
132,104,100523,1,0,0:0:0:0:
184,112,100604,1,0,0:0:0:0:
232,140,100686,1,0,0:0:0:0:
284,156,100767,1,0,0:0:0:0:
336,152,100848,5,0,0:0:0:0:
384,128,100929,2,0,P|404:64|404:52,1,59.5000011348725
216,216,101091,2,0,P|214:247|218:275,1,59.5000011348725
208,48,101253,6,0,P|261:73|320:77,1,119.000002269745,4|0,3:0|0:0,0:0:0:0:
76,316,101577,1,0,0:0:0:0:
460,96,101740,2,0,B|431:176|431:176|428:257|428:257|396:336,1,238.00000453949,4|0,3:0|0:0,0:0:0:0:
232,16,102226,5,0,0:0:0:0:
52,220,102388,1,0,0:0:0:0:
316,252,102550,2,0,L|368:136,1,119.000002269745,4|0,3:0|0:0,0:0:0:0:
32,168,102875,5,4,3:0:0:0:
184,320,103037,1,4,3:0:0:0:
32,184,103199,5,4,3:0:0:0:
352,308,103361,1,4,3:0:0:0:
32,200,103523,5,4,3:0:0:0:
396,180,103686,1,4,3:0:0:0:
176,16,103848,5,4,3:0:0:0:
40,248,104010,2,0,B|100:289|100:289|185:308|185:308|251:357,1,238.00000453949,4|0,3:0|0:0,0:0:0:0:
120,32,104496,5,4,3:0:0:0:
456,104,104658,2,0,B|456:140|472:176|472:176|460:208|456:244|456:244|464:292|448:336,1,238.00000453949,4|0,3:0|0:0,0:0:0:0:
164,48,105145,1,4,3:0:0:0:
148,328,105307,1,0,3:0:0:0:
384,88,105469,1,0,3:0:0:0:
40,108,105631,6,0,B|66:138|81:161|81:161|109:184|120:210|120:210|144:232|158:263|158:263|192:312,1,238.00000453949,4|0,3:0|0:0,0:0:0:0:
184,32,106118,1,4,3:0:0:0:
360,312,106280,1,0,0:0:0:0:
384,52,106442,6,0,P|452:100|504:116,1,119.000002269745,4|0,3:0|0:0,0:0:0:0:
292,360,106767,1,0,0:0:0:0:
40,200,106929,6,0,B|68:144|124:124|124:124|176:92|184:24,1,238.00000453949,4|0,3:0|0:0,0:0:0:0:
224,328,107415,1,0,0:0:0:0:
336,40,107577,1,4,3:0:0:0:
376,324,107740,6,0,L|468:244,1,119.000002269745,4|0,3:0|0:0,0:0:0:0:
144,260,108064,5,4,3:0:0:0:
336,120,108226,1,4,3:0:0:0:
192,336,108388,5,4,3:0:0:0:
288,48,108550,1,4,3:0:0:0:
276,372,108713,5,4,3:0:0:0:
204,24,108875,1,4,3:0:0:0:
196,24,108956,1,0,0:0:0:0:
188,24,109037,1,4,3:0:0:0:
16,228,109361,5,4,0:0:0:0:
456,184,109686,1,4,0:0:0:0:
460,304,109848,5,0,0:0:0:0:
440,308,109929,1,0,0:0:0:0:
420,312,110010,1,0,0:0:0:0:
396,312,110091,1,0,0:0:0:0:
368,308,110172,1,0,0:0:0:0:
336,288,110253,1,0,0:0:0:0:
312,244,110334,1,0,0:0:0:0:
324,192,110415,5,0,0:0:0:0:
372,168,110496,1,0,0:0:0:0:
404,128,110577,1,0,0:0:0:0:
404,76,110658,1,0,0:0:0:0:
368,36,110739,1,0,0:0:0:0:
312,36,110821,1,0,0:0:0:0:
272,72,110902,1,0,0:0:0:0:
256,124,110983,6,0,L|240:196,1,59.5000011348725
80,336,111145,2,0,L|124:264,1,59.5000011348725
152,36,111307,2,0,L|168:104,1,59.5000011348725
328,348,111469,2,0,L|240:304,1,59.5000011348725
68,112,111631,1,4,0:0:0:0:
256,192,111713,12,0,116010,0:0:0:0:
88,156,116334,5,4,3:0:0:0:
81,174,116415,1,4,3:0:0:0:
74,193,116496,2,0,B|88:222|88:245|88:245|99:276|101:308|101:308,1,105,4|0,3:0|2:0,0:0:0:0:
200,64,116821,6,0,L|208:104,1,26.2500010013581
252,320,116983,2,0,L|284:248,1,59.5000011348725,4|0,3:0|0:0,0:0:0:0:
360,32,117145,6,0,L|328:56,1,26.2500010013581
120,224,117307,2,0,B|196:236,1,59.5000011348725,0|0,3:0|0:0,0:0:0:0:
448,268,117469,6,0,L|424:240,1,26.2500010013581
248,28,117631,2,0,L|220:104,1,59.5000011348725
104,296,117794,6,0,L|152:304,1,26.2500010013581
424,160,117956,2,0,L|332:188,1,59.5000011348725
92,96,118118,2,0,L|208:144,1,119.000002269745
112,296,118442,1,0,3:0:0:0:
328,112,118604,6,0,L|232:32,1,119.000002269745,4|0,3:0|0:0,0:0:0:0:
276,312,118929,1,4,3:0:0:0:
64,32,119091,1,4,3:0:0:0:
64,232,119253,5,0,0:0:0:0:
56,240,119334,1,0,0:0:0:0:
48,248,119415,1,4,0:0:0:0:
352,296,119577,1,4,3:0:0:0:
104,344,119740,5,4,3:0:0:0:
372,184,119902,1,4,3:0:0:0:
228,368,120064,5,4,3:0:0:0:
320,92,120226,1,4,3:0:0:0:
352,360,120388,5,4,3:0:0:0:
240,28,120550,1,4,3:0:0:0:
476,272,120713,2,0,B|412:256|412:256|320:208|320:208|252:192,1,238.00000453949,4|0,3:0|0:0,0:0:0:0:
84,264,121199,1,0,0:0:0:0:
236,32,121361,5,0,0:0:0:0:
228,40,121523,1,0,0:0:0:0:
220,48,121686,1,0,0:0:0:0:
72,220,121848,5,0,0:0:0:0:
88,224,121929,1,0,0:0:0:0:
104,228,122010,2,0,L|132:288,2,46.6666666666667
276,288,122334,6,0,L|336:276,2,46.6666666666667
168,116,122658,6,0,L|148:73,2,46.6666666666667
368,152,122983,6,0,L|413:141,2,46.6666666666667
280,132,123307,5,4,3:0:0:0:
264,173,123415,1,0,1:0:0:0:
228,205,123523,1,0,1:0:0:0:
260,280,123631,5,0,1:0:0:0:
228,298,123740,1,0,1:0:0:0:
186,310,123848,1,0,1:0:0:0:
96,328,123956,5,4,3:0:0:0:
88,288,124064,1,0,1:0:0:0:
96,244,124172,1,0,1:0:0:0:
160,188,124280,5,0,1:0:0:0:
168,148,124388,1,0,1:0:0:0:
160,104,124496,1,0,1:0:0:0:
216,36,124604,6,0,P|295:45|368:79,1,161.000003070831,4|0,3:0|0:0,0:0:0:0:
452,272,125253,6,0,P|364:248|268:260,1,181.999991668702
176,180,125740,1,0,0:0:0:0:
204,56,125902,5,0,0:0:0:0:
188,64,125983,1,0,0:0:0:0:
172,72,126064,1,0,0:0:0:0:
156,80,126145,1,0,0:0:0:0:
140,88,126226,1,0,0:0:0:0:
120,108,126307,1,0,0:0:0:0:
92,152,126388,1,0,0:0:0:0:
88,208,126469,1,0,0:0:0:0:
108,260,126550,1,0,0:0:0:0:
148,296,126631,5,0,0:0:0:0:
204,304,126713,1,0,0:0:0:0:
256,288,126794,1,0,0:0:0:0:
276,236,126875,2,0,L|304:232,1,22.7499989585877
272,200,126956,2,0,L|244:192,1,22.7499989585877
276,164,127037,2,0,L|300:156,1,22.7499989585877
272,128,127118,2,0,L|244:116,1,22.7499989585877
304,72,127199,6,0,P|357:98|401:137,1,119.000002269745,4|0,3:0|0:0,0:0:0:0:
168,260,127523,1,0,0:0:0:0:
384,232,127686,1,0,0:0:0:0:
192,40,127848,6,0,P|120:136|108:176,1,119.000002269745
392,92,128172,1,0,0:0:0:0:
268,308,128334,1,0,0:0:0:0:
328,28,128496,5,4,3:0:0:0:
108,192,128658,1,4,3:0:0:0:
256,28,128821,5,4,3:0:0:0:
152,264,128983,1,4,3:0:0:0:
184,28,129145,5,4,3:0:0:0:
224,312,129307,1,4,3:0:0:0:
112,28,129469,5,4,3:0:0:0:
312,324,129631,1,4,3:0:0:0:
416,72,129794,6,0,P|372:48|304:28,1,119.000002269745,4|0,3:0|0:0,0:0:0:0:
88,308,130118,1,0,0:0:0:0:
424,232,130280,1,0,0:0:0:0:
92,95,130442,6,0,P|137:71|208:64,1,119.000002269745,4|0,3:0|0:0,0:0:0:0:
400,348,130767,1,0,0:0:0:0:
48,236,130929,1,0,0:0:0:0:
348,40,131091,6,0,B|356:80|356:80|384:112|384:112|384:192|384:192|400:220|412:264,1,238.00000453949,4|0,3:0|0:0,0:0:0:0:
276,348,131577,1,0,0:0:0:0:
224,184,131740,1,0,0:0:0:0:
376,160,131902,5,0,0:0:0:0:
416,140,131983,1,0,0:0:0:0:
428,96,132064,1,0,0:0:0:0:
408,52,132145,1,0,0:0:0:0:
368,32,132226,1,0,0:0:0:0:
324,44,132307,1,0,0:0:0:0:
244,36,132388,6,0,B|220:88|220:88|160:168|160:168|120:248,1,238.00000453949,4|0,3:0|0:0,0:0:0:0:
384,280,132875,1,0,0:0:0:0:
464,56,133037,2,0,P|408:56|332:48,1,119.000002269745,4|0,3:0|0:0,0:0:0:0:
416,304,133361,5,0,0:0:0:0:
144,56,133523,2,0,P|90:131|72:172,1,119.000002269745,4|0,3:0|0:0,0:0:0:0:
392,336,133848,5,0,0:0:0:0:
248,68,134010,1,0,0:0:0:0:
120,280,134172,2,0,L|224:368,1,119.000002269745,4|0,3:0|0:0,0:0:0:0:
472,208,134496,1,0,0:0:0:0:
128,72,134658,6,0,B|116:113|116:113|134:156|134:156|114:216,1,140
412,288,134983,2,0,L|432:212,1,41.9999987182618,4|0,3:0|0:0,0:0:0:0:
320,44,135145,2,0,L|309:84,1,41.9999987182618,4|0,3:0|0:0,0:0:0:0:
240,192,135307,6,0,L|192:192,1,26.2500010013581
88,56,135469,6,0,L|92:135,1,41.9999987182618,4|0,3:0|0:0,0:0:0:0:
184,344,135631,2,0,L|181:302,1,41.9999987182618,4|0,3:0|0:0,0:0:0:0:
332,100,135794,6,0,L|304:116,1,26.2500010013581
352,308,135956,6,0,L|296:248,1,41.9999987182618,4|0,3:0|0:0,0:0:0:0:
132,44,136118,2,0,L|164:84,1,41.9999987182618,4|0,3:0|0:0,0:0:0:0:
228,236,136280,6,0,L|256:216,1,26.2500010013581
416,56,136442,6,0,L|458:117,1,41.9999987182618,4|0,3:0|0:0,0:0:0:0:
424,328,136604,2,0,L|392:301,1,41.9999987182618,4|0,3:0|0:0,0:0:0:0:
292,76,136767,5,4,3:0:0:0:
256,100,136849,1,0,0:0:0:0:
216,80,136929,2,0,L|164:88,1,41.9999987182618
132,96,137091,5,0,0:0:0:0:
112,132,137172,1,0,0:0:0:0:
72,136,137254,2,0,L|72:206,1,70
352,276,137740,5,4,3:0:0:0:
128,32,137902,1,4,3:0:0:0:
144,288,138064,5,4,3:0:0:0:
348,52,138226,1,4,3:0:0:0:
292,332,138388,5,4,3:0:0:0:
248,32,138550,1,4,3:0:0:0:
64,256,138713,1,4,3:0:0:0:
416,316,138875,5,0,0:0:0:0:
416,300,138956,1,0,0:0:0:0:
416,284,139037,1,0,0:0:0:0:
416,268,139118,1,0,0:0:0:0:
416,252,139199,1,0,0:0:0:0:
400,208,139280,5,0,0:0:0:0:
368,172,139361,1,0,0:0:0:0:
324,160,139442,1,0,0:0:0:0:
280,168,139523,1,0,0:0:0:0:
248,200,139604,1,0,0:0:0:0:
232,244,139686,5,0,0:0:0:0:
204,280,139767,1,0,0:0:0:0:
160,296,139848,1,0,0:0:0:0:
116,280,139929,1,0,0:0:0:0:
88,244,140010,1,0,0:0:0:0:
80,200,140091,1,0,0:0:0:0:
200,124,140172,6,0,L|176:88,3,41.9999987182618
340,212,140496,6,0,L|332:264,3,41.9999987182618
412,92,140821,1,0,0:0:0:0:
396,84,140902,1,0,0:0:0:0:
364,72,140983,1,0,0:0:0:0:
324,76,141064,1,0,0:0:0:0:
288,108,141145,5,0,0:0:0:0:
272,156,141226,1,0,0:0:0:0:
252,204,141307,1,0,0:0:0:0:
216,240,141388,1,0,0:0:0:0:
172,260,141469,2,0,P|152:284|132:300,1,41.9999987182618,4|0,3:0|0:0,0:0:0:0:
56,144,141631,5,4,3:0:0:0:
356,260,141956,1,4,2:0:0:0:
120,296,142280,1,4,2:0:0:0:
116,304,142361,1,4,2:0:0:0:
112,312,142442,1,4,3:0:0:0:
424,292,142767,6,0,B|404:240|436:212|436:212|412:152|412:152|448:108|448:108|440:20|352:24|284:20|280:108|296:156,1,490,4|0,2:0|2:0,0:0:0:0:
200,40,144064,6,0,B|140:44|140:44|120:84|120:128|120:128|74:143|74:143|58:191|72:228|72:228|128:248|136:300|136:300|188:336|256:316|256:316,1,490,4|0,2:0|2:0,0:0:0:0:
232,236,145361,6,0,B|254:193|254:193|290:176|314:152|314:152|334:173|351:178|351:178|399:169|440:199|440:199|492:83|424:32|312:48|312:48,1,490,4|0,2:0|2:0,0:0:0:0:
188,32,146658,6,0,B|161:74|115:88|115:88|103:127|55:165|55:165|44:185|50:211|50:211|109:242|104:301|104:301|135:327|146:358|146:358,1,420,4|0,2:0|0:0,0:0:0:0:
240,164,147794,5,4,3:0:0:0:
420,252,147956,2,0,P|360:272|320:304,1,105.000004005432,4|0,3:0|0:0,0:0:0:0:
156,296,148199,5,4,3:0:0:0:
144,288,148280,2,0,P|148:216|160:184,1,105.000004005432
216,40,148523,5,4,3:0:0:0:
230,35,148604,2,0,P|268:81|288:155,1,105.000004005432
260,304,148848,5,4,3:0:0:0:
268,324,148929,2,0,P|320:320|388:300,1,105.000004005432
456,168,149172,5,4,3:0:0:0:
455,183,149253,2,0,P|402:184|351:174,1,105.000004005432,0|0,0:3|0:3,0:3:0:0:
176,92,149496,5,4,3:1:0:0:
164,91,149577,2,0,P|145:170|148:202,1,105.000004005432
320,268,149821,5,4,3:0:0:0:
316,280,149902,2,0,P|280:308|220:332,1,105.000004005432
84,128,150226,6,0,P|63:194|63:264,1,140,4|0,3:0|0:0,0:0:0:0:
136,260,151199,5,0,0:0:0:0:
156,228,151280,1,0,0:0:0:0:
188,208,151361,1,0,0:0:0:0:
224,204,151442,1,0,0:0:0:0:
260,204,151523,1,0,0:0:0:0:
296,196,151604,5,0,0:0:0:0:
328,176,151686,1,0,0:0:0:0:
344,140,151767,1,0,0:0:0:0:
360,104,151848,2,0,B|404:92|460:116|472:160|468:220|444:256|408:244|388:268|344:260|344:260|280:320|188:320|188:320,1,461.999985900879,4|0,0:0|2:0,0:0:0:0:
192,312,152767,6,0,L|212:232,1,81.6666666666667,0|4,2:0|2:0,0:0:0:0:
200,28,153307,1,0,3:0:0:0:
39,228,153469,5,0,3:0:0:0:
448,192,153631,1,0,3:0:0:0:
39,212,153794,5,0,3:0:0:0:
440,260,153956,1,0,3:0:0:0:
40,197,154118,5,0,3:0:0:0:
440,124,154280,1,0,3:0:0:0:
43,183,154442,5,0,3:0:0:0:
424,324,154604,1,0,3:0:0:0:
47,168,154767,5,0,3:0:0:0:
424,60,154929,1,0,3:0:0:0:
168,56,155091,5,4,3:0:0:0:
160,48,155172,1,0,3:0:0:0:
152,40,155253,1,4,3:0:0:0:
444,184,155415,5,4,3:0:0:0:
156,316,155577,1,4,3:0:0:0:
340,24,155740,2,0,P|292:84|280:124,1,105.000004005432,4|0,3:0|3:0,3:0:0:0:
440,276,156064,5,0,3:0:0:0:
48,228,156226,1,0,3:0:0:0:
432,292,156389,5,0,3:0:0:0:
60,156,156551,1,0,3:0:0:0:
424,308,156713,5,0,3:0:0:0:
92,92,156875,1,0,3:0:0:0:
416,324,157037,5,0,3:0:0:0:
136,36,157199,1,0,3:0:0:0:
48,300,157362,5,0,3:0:0:0:
412,124,157524,1,0,3:0:0:0:
196,324,157686,5,4,3:0:0:0:
188,333,157767,1,0,3:0:0:0:
180,343,157848,1,4,3:0:0:0:
100,156,158010,5,4,3:0:0:0:
456,320,158172,1,4,3:0:0:0:
332,24,158334,2,0,P|333:136|330:156,1,105.000004005432,4|0,3:0|3:0,0:0:0:0:
132,88,158658,5,0,3:0:0:0:
384,300,158821,1,0,3:0:0:0:
96,163,158983,5,0,3:0:0:0:
420,221,159146,1,0,3:0:0:0:
103,247,159307,5,0,3:0:0:0:
413,135,159470,1,0,3:0:0:0:
152,316,159631,5,0,3:0:0:0:
364,64,159794,1,0,3:0:0:0:
227,351,159956,5,0,3:0:0:0:
285,27,160119,1,0,3:0:0:0:
476,256,160280,6,0,P|388:320|376:324,1,105.000004005432,4|4,3:0|3:0,3:0:0:0:
64,248,160604,1,4,3:0:0:0:
392,168,160767,1,4,3:0:0:0:
96,40,160929,6,0,L|72:144,1,105.000004005432,4|0,3:0|0:0,0:0:0:0:
304,324,161253,2,0,L|280:204,1,105.000004005432
484,120,161577,1,0,0:0:0:0:
160,32,161740,1,0,0:0:0:0:
216,348,161902,1,0,0:0:0:0:
468,192,162064,5,0,0:0:0:0:
456,176,162145,1,0,0:0:0:0:
444,160,162226,1,0,0:0:0:0:
416,136,162307,1,0,0:0:0:0:
376,112,162388,1,0,0:0:0:0:
328,104,162469,1,0,0:0:0:0:
280,112,162550,6,0,P|240:168|236:200,1,52.5000020027161
120,328,162713,2,0,L|134:277,1,52.5000020027161
84,44,162875,2,0,L|104:96,1,52.5000020027161
276,336,163037,2,0,L|260:264,1,52.5000020027161
152,28,163199,5,0,0:0:0:0:
194,68,163280,1,0,0:0:0:0:
248,83,163361,1,0,0:0:0:0:
303,69,163442,1,0,0:0:0:0:
347,33,163523,2,0,L|421:136,1,119.000002269745,4|0,3:0|0:0,0:0:0:0:
360,328,163848,1,0,0:0:0:0:
104,56,164010,6,0,B|78:119|78:119|67:215|67:215|41:283,1,238.00000453949,4|0,3:0|0:0,0:0:0:0:
344,72,164496,1,0,0:0:0:0:
464,320,164658,1,0,0:0:0:0:
140,312,164821,2,0,L|196:200,1,119.000002269745,4|0,3:0|0:0,0:0:0:0:
372,344,165145,5,4,3:0:0:0:
88,152,165307,1,4,3:0:0:0:
388,336,165469,5,4,3:0:0:0:
364,24,165631,1,4,3:0:0:0:
216,344,165794,5,4,3:0:0:0:
164,40,165956,1,4,3:0:0:0:
488,124,166118,2,0,L|420:228,1,119.000002269745,4|0,3:0|0:0,0:0:0:0:
240,32,166442,5,0,0:0:0:0:
80,304,166604,2,0,P|100:232|104:184,1,119.000002269745,4|0,3:0|0:0,0:0:0:0:
376,352,166929,1,0,0:0:0:0:
472,96,167091,6,0,B|415:74|415:74|304:56|304:56|240:32,1,238.00000453949,4|0,3:0|0:0,0:0:0:0:
59,250,167577,1,0,0:0:0:0:
408,340,167740,1,0,0:0:0:0:
168,40,167902,6,0,B|137:91|137:91|96:192|96:192|56:256,1,238.00000453949,4|0,3:0|0:0,0:0:0:0:
392,48,168388,1,4,3:0:0:0:
284,352,168550,1,0,0:0:0:0:
168,40,168713,6,0,L|80:124,1,119.000002269745,4|0,3:0|0:0,0:0:0:0:
216,312,169037,1,0,0:0:0:0:
472,52,169199,6,0,B|456:117|456:117|451:211|451:211|432:296,1,238.00000453949,4|0,3:0|0:0,0:0:0:0:
32,136,169686,1,4,3:0:0:0:
264,364,169848,1,0,0:0:0:0:
276,36,170010,2,0,L|136:56,1,119.000002269745,4|0,3:0|0:0,0:0:0:0:
408,352,170334,5,4,3:0:0:0:
144,152,170496,1,4,3:0:0:0:
328,352,170658,5,4,3:0:0:0:
184,52,170821,1,4,3:0:0:0:
248,352,170983,5,4,3:0:0:0:
336,56,171145,1,4,3:0:0:0:
328,48,171226,1,0,0:0:0:0:
320,40,171307,1,4,3:0:0:0:
64,244,171631,5,4,0:0:0:0:
364,320,171956,1,0,0:0:0:0:
280,116,172280,1,0,0:0:0:0:
112,232,172442,1,0,0:0:0:0:
104,224,172523,1,0,0:0:0:0:
96,216,172604,1,0,0:0:0:0:
268,68,172767,5,0,0:0:0:0:
288,52,172848,1,0,0:0:0:0:
320,48,172929,1,0,0:0:0:0:
360,56,173010,1,0,0:0:0:0:
404,84,173091,1,0,0:0:0:0:
432,136,173172,5,0,0:0:0:0:
444,196,173253,1,0,0:0:0:0:
428,252,173334,1,0,0:0:0:0:
388,296,173415,1,0,0:0:0:0:
332,312,173496,1,0,0:0:0:0:
276,288,173577,2,0,P|256:232|264:196,1,59.5000011348725
228,36,173740,2,0,P|196:96|196:136,1,59.5000011348725
40,160,173902,6,0,P|98:170|152:195,1,119.000002269745,4|0,3:0|0:0,0:0:0:0:
88,324,174226,1,4,3:0:0:0:
400,44,174388,2,0,B|400:112|400:112|432:192|432:192|432:288,1,238.00000453949,4|0,3:0|0:0,0:0:0:0:
124,40,174875,5,4,3:0:0:0:
172,320,175037,1,0,0:0:0:0:
320,96,175199,2,0,L|364:212,1,119.000002269745,4|0,3:0|0:0,0:0:0:0:
128,292,175523,5,4,3:0:0:0:
192,48,175686,1,4,3:0:0:0:
72,252,175848,5,4,3:0:0:0:
280,48,176010,1,4,3:0:0:0:
40,192,176172,5,4,3:0:0:0:
368,48,176334,1,4,3:0:0:0:
284,308,176496,5,4,3:0:0:0:
112,40,176658,2,0,B|104:80|88:116|88:116|84:152|88:196|88:196|80:236|56:288,1,238.00000453949,4|0,3:0|0:0,0:0:0:0:
416,152,177145,5,0,0:0:0:0:
152,276,177307,2,0,P|195:313|264:344,1,119.000002269745,4|0,3:0|0:0,0:0:0:0:
376,40,177631,5,0,0:0:0:0:
112,40,177794,2,0,P|163:77|211:129,1,119.000002269745,4|0,3:0|0:0,0:0:0:0:
424,120,178118,5,0,0:0:0:0:
36,192,178280,2,0,B|73:231|73:231|121:257|148:303|148:303|170:316|183:334|183:334|214:361,1,238.00000453949,4|0,3:0|0:0,0:0:0:0:
452,240,178767,5,0,0:0:0:0:
244,26,178929,2,0,P|271:78|288:136,1,119.000002269745,4|4,3:0|3:0,0:0:0:0:
48,104,179253,1,4,3:0:0:0:
336,328,179415,1,0,0:0:0:0:
48,336,179577,6,0,B|107:293|107:293|148:223|148:223|214:171,1,238.00000453949,4|0,3:0|0:0,0:0:0:0:
32,40,180064,1,4,3:0:0:0:
416,44,180226,1,0,0:0:0:0:
464,312,180388,2,0,P|403:294|325:286,1,119.000002269745,4|0,3:0|0:0,0:0:0:0:
164,316,180713,5,4,3:0:0:0:
264,40,180875,1,4,3:0:0:0:
104,276,181037,5,4,3:0:0:0:
360,60,181199,1,4,3:0:0:0:
60,216,181361,5,4,3:0:0:0:
424,100,181523,1,4,3:0:0:0:
436,104,181605,1,0,0:0:0:0:
448,108,181686,1,4,3:0:0:0:
152,48,182010,5,4,3:0:0:0:
208,320,182334,1,4,3:0:0:0:
32,232,182496,1,4,2:0:0:0:
40,212,182577,1,4,2:0:0:0:
48,192,182658,1,4,3:0:0:0:
72,164,182740,1,0,0:0:0:0:
120,144,182821,5,0,0:0:0:0:
172,148,182902,1,0,0:0:0:0:
216,180,182983,2,0,P|248:240|252:272,1,59.5000011348725
340,328,183145,2,0,P|349:299|353:270,1,59.5000011348725
452,172,183307,1,0,0:0:0:0:
435,114,183388,1,0,0:0:0:0:
397,69,183469,1,0,0:0:0:0:
343,40,183550,1,0,0:0:0:0:
284,39,183631,6,0,P|252:44|223:56,1,59.5000011348725
80,192,183794,2,0,P|111:190|139:190,1,59.5000011348725
380,164,183956,2,0,P|364:192|336:228,1,59.5000011348725
104,344,184118,2,0,P|136:332|160:316,1,59.5000011348725
152,52,184280,1,4,2:0:0:0:
