osu file format v14

[General]
AudioFilename: audio.mp3
AudioLeadIn: 0
PreviewTime: 142264
Countdown: 0
SampleSet: Soft
StackLeniency: 0.2
Mode: 0
LetterboxInBreaks: 0
WidescreenStoryboard: 1
EpilepsyWarning: 1

[Editor]
Bookmarks: 2562,12940,22021,23318,33697,44075,49264,59643,67426,68724,69048,69372,69697,70021,77805,80399,88183,89480,90778,98561,101156,111534,116724,127102,137480,142670,147859,153048,184183
DistanceSpacing: 2.4
BeatDivisor: 4
GridSize: 4
TimelineZoom: 2.4

[Metadata]
Title:Teo
TitleUnicode:テオ
Artist:Omoi
ArtistUnicode:Omoi
Creator:Shmiklak
Version:waji's Insane
Source:osu!
Tags:marvollo m_a_r_v_o_l_l_o gero nymphe daycore wajinshu vocaloid hatsune miku synth rock first waltz japanese fa featured artist mappers' guild mpg 初音ミク j-rock ボーカロイド
BeatmapID:2659337
BeatmapSetID:1274098

[Difficulty]
HPDrainRate:5
CircleSize:4
OverallDifficulty:7
ApproachRate:8.3
SliderMultiplier:1.58
SliderTickRate:1

[Events]
//Background and Video events
0,0,"123.jpg",0,0
//Break Periods
2,13140,20830
2,44275,47101
//Storyboard Layer 0 (Background)
//Storyboard Layer 1 (Fail)
//Storyboard Layer 2 (Pass)
//Storyboard Layer 3 (Foreground)
Sprite,Foreground,Centre,"sb/credits/wajinshu.png",320,325 S,0,15534,,0.3 F,0,15534,15859,0,1 F,0,22021,23318,1,0
Sprite,Foreground,Centre,"sb/l.png",0,0 S,2,116724,117167,1.4,0.28 F,2,116724,117167,1,0 P,0,116724,117167,A C,0,116724,,249,155,206 M,0,116724,116764,239,342,243.6897,361.1731 M,0,116764,116805,243.6897,361.1731,246.6341,380.6859 M,0,116805,116845,246.6341,380.6859,243.6897,361.1731 M,0,116845,116886,243.6897,361.1731,239,342 M,0,116886,116926,239,342,243.6897,361.1731 M,0,116926,116967,243.6897,361.1731,246.6341,380.6859
Sprite,Foreground,Centre,"sb/l.png",0,0 S,2,117048,117491,1.4,0.28 F,2,117048,117491,1,0 P,0,117048,117491,A C,0,117048,,249,155,206 M,0,117048,117088,171,295,151.6732,299.0613 M,0,117088,117129,151.6732,299.0613,132.2421,302.5874 M,0,117129,117169,132.2421,302.5874,151.6732,299.0613 M,0,117169,117210,151.6732,299.0613,171,295 M,0,117210,117250,171,295,151.6732,299.0613 M,0,117250,117291,151.6732,299.0613,132.2421,302.5874
Sprite,Foreground,Centre,"sb/l.png",0,0 S,2,117372,117815,1.4,0.28 F,2,117372,117815,1,0 P,0,117372,117815,A C,0,117372,,249,155,206 M,0,117372,117412,217,226,211.9584,206.9302 M,0,117412,117453,211.9584,206.9302,209.362,187.3868 M,0,117453,117493,209.362,187.3868,211.9584,206.9302 M,0,117493,117534,211.9584,206.9302,217,226 M,0,117534,117574,217,226,211.9584,206.9302 M,0,117574,117615,211.9584,206.9302,209.362,187.3868
Sprite,Foreground,Centre,"sb/l.png",0,0 S,2,117697,118140,1.4,0.28 F,2,117697,118140,1,0 P,0,117697,118140,A C,0,117697,,249,155,206 M,0,117697,117737,285,273,304.2687,277.3139 M,0,117737,117778,304.2687,277.3139,323.7376,280.5981 M,0,117778,117818,323.7376,280.5981,304.2687,277.3139 M,0,117818,117859,304.2687,277.3139,285,273 M,0,117859,117899,285,273,304.2687,277.3139 M,0,117899,117940,304.2687,277.3139,323.7376,280.5981
Sprite,Foreground,Centre,"sb/l.png",329,203 S,2,118021,118221,1.4,0.28 F,2,118021,118221,1,0 P,0,118021,118221,A C,0,118021,,139,160,235
Sprite,Foreground,Centre,"sb/l.png",0,0 S,2,118183,118545,1.4,0.28 F,2,118183,118545,1,0 P,0,118183,118545,A C,0,118183,,139,160,235 M,0,118183,118223,413,254,421.5212,271.8171 M,0,118223,118264,421.5212,271.8171,430.0425,289.6343 M,0,118264,118304,430.0425,289.6343,431.9324,307.669 M,0,118304,118345,431.9324,307.669,424.5974,326.0064
Sprite,Foreground,Centre,"sb/l.png",450,433 S,2,118507,118707,1.4,0.28 F,2,118507,118707,1,0 P,0,118507,118707,A C,0,118507,,139,160,235
Sprite,Foreground,Centre,"sb/l.png",0,0 S,2,118670,119194,1.4,0.28 F,2,118670,119194,1,0 P,0,118670,119194,A C,0,118670,,139,160,235 M,0,118670,118710,513,341,511.1223,321.3394 M,0,118710,118751,511.1223,321.3394,509.2446,301.6789 M,0,118751,118791,509.2446,301.6789,507.3669,282.0184 M,0,118791,118832,507.3669,282.0184,505.4892,262.3578 M,0,118832,118872,505.4892,262.3578,503.6115,242.6973 M,0,118872,118913,503.6115,242.6973,501.7339,223.0368 M,0,118913,118953,501.7339,223.0368,499.8562,203.3762 M,0,118953,118994,499.8562,203.3762,497.9785,183.7157
Sprite,Foreground,Centre,"sb/l.png",429,104 S,2,119156,119356,1.4,0.28 F,2,119156,119356,1,0 P,0,119156,119356,A C,0,119156,,139,160,235
Sprite,Foreground,Centre,"sb/l.png",0,0 S,2,119318,119842,1.4,0.28 F,2,119318,119842,1,0 P,0,119318,119842,A C,0,119318,,242,108,94 M,0,119318,119358,315,137,295.5282,140.3033 M,0,119358,119399,295.5282,140.3033,276.0564,143.6065 M,0,119399,119439,276.0564,143.6065,256.5846,146.9098 M,0,119439,119480,256.5846,146.9098,237.1128,150.213 M,0,119480,119520,237.1128,150.213,217.641,153.5163 M,0,119520,119561,217.641,153.5163,198.6175,153.8087 M,0,119561,119601,198.6175,153.8087,180.9525,144.9763 M,0,119601,119642,180.9525,144.9763,163.2876,136.1438
Sprite,Foreground,Centre,"sb/l.png",0,0 S,2,119805,120329,1.4,0.28 F,2,119805,120329,1,0 P,0,119805,120329,A C,0,119805,,242,108,94 M,0,119805,119845,95,211,108.4216,225.3656 M,0,119845,119886,108.4216,225.3656,118.0502,242.4661 M,0,119886,119926,118.0502,242.4661,123.6926,261.2845 M,0,119926,119967,123.6926,261.2845,124.0764,280.9285 M,0,119967,120007,124.0764,280.9285,119.8119,300.0781 M,0,120007,120048,119.8119,300.0781,111.3601,317.7925 M,0,120048,120088,111.3601,317.7925,98.52449,332.6543 M,0,120088,120129,98.52449,332.6543,82.55796,344.0466
Sprite,Foreground,Centre,"sb/l.png",0,0 S,2,120291,120653,1.4,0.28 F,2,120291,120653,1,0 P,0,120291,120653,A C,0,120291,,242,108,94 M,0,120291,120331,172,402,190.5101,408.8875 M,0,120331,120372,190.5101,408.8875,209.0203,415.775 M,0,120372,120412,209.0203,415.775,228.3106,416.7443 M,0,120412,120453,228.3106,416.7443,247.9733,414.8893
Sprite,Foreground,Centre,"sb/l.png",0,0 S,2,120616,121464,1.4,0.28 F,2,120616,121464,1,0 P,0,120616,121464,A C,0,120616,,166,142,193 M,0,120616,120656,366,349,362.9742,329.489 M,0,120656,120697,362.9742,329.489,361.9277,309.7794 M,0,120697,120737,361.9277,309.7794,363.7283,290.1351 M,0,120737,120778,363.7283,290.1351,368.7908,271.0661 M,0,120778,120818,368.7908,271.0661,375.6723,252.5547 M,0,120818,120859,375.6723,252.5547,381.4875,233.6941 M,0,120859,120899,381.4875,233.6941,384.4245,214.1853 M,0,120899,120940,384.4245,214.1853,384.5365,194.449 M,0,120940,120980,384.5365,194.449,384.4245,214.1853 M,0,120980,121021,384.4245,214.1853,381.4875,233.6941 M,0,121021,121061,381.4875,233.6941,375.6723,252.5547 M,0,121061,121102,375.6723,252.5547,368.7908,271.0661 M,0,121102,121143,368.7908,271.0661,363.7283,290.1351 M,0,121143,121183,363.7283,290.1351,361.9277,309.7794 M,0,121183,121224,361.9277,309.7794,362.9742,329.489 M,0,121224,121264,362.9742,329.489,366,349
Sprite,Foreground,Centre,"sb/l.png",484,425 S,2,121426,121626,1.4,0.28 F,2,121426,121626,1,0 P,0,121426,121626,A C,0,121426,,166,142,193
Sprite,Foreground,Centre,"sb/l.png",0,0 S,2,121589,121951,1.4,0.28 F,2,121589,121951,1,0 P,0,121589,121951,A C,0,121589,,166,142,193 M,0,121589,121629,534,313,514.6937,308.95 M,0,121629,121670,514.6937,308.95,495.0508,307.2264 M,0,121670,121710,495.0508,307.2264,475.3443,307.8107 M,0,121710,121751,475.3443,307.8107,455.8785,310.9614
Sprite,Foreground,Centre,"sb/l.png",0,0 S,2,121913,122329,1.4,0.28 F,2,121913,122329,1,0 P,0,121913,122329,A C,0,121913,,249,155,206 M,0,121913,121953,382,210,378.7964,190.5116 M,0,121953,121994,378.7964,190.5116,375.5928,171.0231 M,0,121994,122034,375.5928,171.0231,374.525,164.527 M,0,122034,122075,374.525,164.527,377.7285,184.0154 M,0,122075,122115,377.7285,184.0154,380.9321,203.5038 M,0,122115,122129,380.9321,203.5038,382,210
Sprite,Foreground,Centre,"sb/l.png",0,0 S,2,122237,122653,1.4,0.28 F,2,122237,122653,1,0 P,0,122237,122653,A C,0,122237,,249,155,206 M,0,122237,122277,300,195,296.7964,175.5116 M,0,122277,122318,296.7964,175.5116,293.5928,156.0231 M,0,122318,122358,293.5928,156.0231,292.525,149.527 M,0,122358,122399,292.525,149.527,295.7286,169.0154 M,0,122399,122439,295.7286,169.0154,298.9321,188.5038 M,0,122439,122453,298.9321,188.5038,300,195
Sprite,Foreground,Centre,"sb/l.png",0,0 S,2,122561,122977,1.4,0.28 F,2,122561,122977,1,0 P,0,122561,122977,A C,0,122561,,249,155,206 M,0,122561,122601,264,269,260.7964,288.4885 M,0,122601,122642,260.7964,288.4885,257.5928,307.9769 M,0,122642,122682,257.5928,307.9769,256.525,314.4731 M,0,122682,122723,256.525,314.4731,259.7286,294.9846 M,0,122723,122763,259.7286,294.9846,262.9321,275.4962 M,0,122763,122777,262.9321,275.4962,264,269
Sprite,Foreground,Centre,"sb/l.png",0,0 S,2,122886,123302,1.4,0.28 F,2,122886,123302,1,0 P,0,122886,123302,A C,0,122886,,249,155,206 M,0,122886,122926,181,278,177.7964,297.4885 M,0,122926,122967,177.7964,297.4885,174.5928,316.9769 M,0,122967,123007,174.5928,316.9769,173.525,323.4731 M,0,123007,123048,173.525,323.4731,176.7286,303.9846 M,0,123048,123088,176.7286,303.9846,179.9321,284.4962 M,0,123088,123102,179.9321,284.4962,181,278
Sprite,Foreground,Centre,"sb/l.png",0,0 S,2,123210,123626,1.4,0.28 F,2,123210,123626,1,0 P,0,123210,123626,A C,0,123210,,139,160,235 M,0,123210,123250,148,204,128.5116,200.7964 M,0,123250,123291,128.5116,200.7964,109.0231,197.5928 M,0,123291,123331,109.0231,197.5928,102.527,196.525 M,0,123331,123372,102.527,196.525,122.0154,199.7286 M,0,123372,123412,122.0154,199.7286,141.5038,202.9321 M,0,123412,123426,141.5038,202.9321,148,204
Sprite,Foreground,Centre,"sb/l.png",0,0 S,2,123535,123951,1.4,0.28 F,2,123535,123951,1,0 P,0,123535,123951,A C,0,123535,,139,160,235 M,0,123535,123575,136,127,116.5116,123.7964 M,0,123575,123616,116.5116,123.7964,97.0231,120.5928 M,0,123616,123656,97.0231,120.5928,90.52696,119.525 M,0,123656,123697,90.52696,119.525,110.0154,122.7286 M,0,123697,123737,110.0154,122.7286,129.5038,125.9321 M,0,123737,123751,129.5038,125.9321,136,127
Sprite,Foreground,Centre,"sb/l.png",0,0 S,2,123859,124275,1.4,0.28 F,2,123859,124275,1,0 P,0,123859,124275,A C,0,123859,,139,160,235 M,0,123859,123899,217,141,236.4884,137.7964 M,0,123899,123940,236.4884,137.7964,255.9769,134.5928 M,0,123940,123980,255.9769,134.5928,262.473,133.525 M,0,123980,124021,262.473,133.525,242.9846,136.7286 M,0,124021,124061,242.9846,136.7286,223.4962,139.9321 M,0,124061,124075,223.4962,139.9321,217,141
Sprite,Foreground,Centre,"sb/l.png",0,0 S,2,124184,124600,1.4,0.28 F,2,124184,124600,1,0 P,0,124184,124600,A C,0,124184,,139,160,235 M,0,124184,124224,266,207,285.4885,203.7964 M,0,124224,124265,285.4885,203.7964,304.9769,200.5928 M,0,124265,124305,304.9769,200.5928,311.473,199.525 M,0,124305,124346,311.473,199.525,291.9846,202.7286 M,0,124346,124386,291.9846,202.7286,272.4962,205.9321 M,0,124386,124400,272.4962,205.9321,266,207
Sprite,Foreground,Centre,"sb/l.png",0,0 S,2,124507,125355,1.4,0.28 F,2,124507,125355,1,0 P,0,124507,125355,A C,0,124507,,242,108,94 M,0,124507,124547,210,266,200.9417,283.4737 M,0,124547,124588,200.9417,283.4737,195.6892,302.4145 M,0,124588,124628,195.6892,302.4145,194.1324,322.0289 M,0,124628,124669,194.1324,322.0289,197.2398,341.4577 M,0,124669,124709,197.2398,341.4577,204.2795,359.8057 M,0,124709,124750,204.2795,359.8057,214.7302,376.4648 M,0,124750,124790,214.7302,376.4648,228.7782,390.2331 M,0,124790,124831,228.7782,390.2331,245.3465,400.7963 M,0,124831,124871,245.3465,400.7963,228.7782,390.2331 M,0,124871,124912,228.7782,390.2331,214.7302,376.4648 M,0,124912,124952,214.7302,376.4648,204.2795,359.8057 M,0,124952,124993,204.2795,359.8057,197.2398,341.4577 M,0,124993,125034,197.2398,341.4577,194.1324,322.0289 M,0,125034,125074,194.1324,322.0289,195.6892,302.4145 M,0,125074,125115,195.6892,302.4145,200.9417,283.4737 M,0,125115,125155,200.9417,283.4737,210,266
Sprite,Foreground,Centre,"sb/l.png",283,321 S,2,125318,125518,1.4,0.28 F,2,125318,125518,1,0 P,0,125318,125518,A C,0,125318,,242,108,94
Sprite,Foreground,Centre,"sb/l.png",119,331 S,2,125480,125680,1.4,0.28 F,2,125480,125680,1,0 P,0,125480,125680,A C,0,125480,,242,108,94
Sprite,Foreground,Centre,"sb/l.png",283,321 S,2,125643,125843,1.4,0.28 F,2,125643,125843,1,0 P,0,125643,125843,A C,0,125643,,242,108,94
Sprite,Foreground,Centre,"sb/l.png",0,0 S,2,125805,126248,1.4,0.28 F,2,125805,126248,1,0 P,0,125805,126248,A C,0,125805,,166,142,193 M,0,125805,125845,306,205,325.6499,206.979 M,0,125845,125886,325.6499,206.979,345.2546,209.3656 M,0,125886,125926,345.2546,209.3656,325.6499,206.979 M,0,125926,125967,325.6499,206.979,306,205 M,0,125967,126007,306,205,325.6499,206.979 M,0,126007,126048,325.6499,206.979,345.2546,209.3656
Sprite,Foreground,Centre,"sb/l.png",0,0 S,2,126129,126572,1.4,0.28 F,2,126129,126572,1,0 P,0,126129,126572,A C,0,126129,,166,142,193 M,0,126129,126169,372,144,391.5082,140.9369 M,0,126169,126210,391.5082,140.9369,411,139 M,0,126210,126250,411,139,391.5082,140.9369 M,0,126250,126291,391.5082,140.9369,372,144 M,0,126291,126331,372,144,391.5082,140.9369 M,0,126331,126372,391.5082,140.9369,411,139
Sprite,Foreground,Centre,"sb/l.png",0,0 S,2,126453,126896,1.4,0.28 F,2,126453,126896,1,0 P,0,126453,126896,A C,0,126453,,166,142,193 M,0,126453,126493,445,201,464.6499,202.979 M,0,126493,126534,464.6499,202.979,484.2546,205.3656 M,0,126534,126574,484.2546,205.3656,464.6499,202.979 M,0,126574,126615,464.6499,202.979,445,201 M,0,126615,126655,445,201,464.6499,202.979 M,0,126655,126696,464.6499,202.979,484.2546,205.3656
Sprite,Foreground,Centre,"sb/l.png",0,0 S,2,126777,127220,1.4,0.28 F,2,126777,127220,1,0 P,0,126777,127220,A C,0,126777,,166,142,193 M,0,126777,126817,496,124,515.5082,120.9369 M,0,126817,126858,515.5082,120.9369,535,119 M,0,126858,126898,535,119,515.5082,120.9369 M,0,126898,126939,515.5082,120.9369,496,124 M,0,126939,126979,496,124,515.5082,120.9369 M,0,126979,127020,515.5082,120.9369,535,119
Sprite,Foreground,Centre,"sb/l.png",0,0 S,2,127102,127464,1.4,0.28 F,2,127102,127464,1,0 P,0,127102,127464,A C,0,127102,,249,155,206 M,0,127102,127142,576,192,573.09,211.5342 M,0,127142,127183,573.09,211.5342,570.4163,231.1021 M,0,127183,127223,570.4163,231.1021,567.9641,250.6989 M,0,127223,127264,567.9641,250.6989,565.7805,270.3276
Sprite,Foreground,Centre,"sb/l.png",548,372 S,2,127426,127626,1.4,0.28 F,2,127426,127626,1,0 P,0,127426,127626,A C,0,127426,,249,155,206
Sprite,Foreground,Centre,"sb/l.png",548,372 S,2,127589,127789,1.4,0.28 F,2,127589,127789,1,0 P,0,127589,127789,A C,0,127589,,249,155,206
Sprite,Foreground,Centre,"sb/l.png",0,0 S,2,127751,128113,1.4,0.28 F,2,127751,128113,1,0 P,0,127751,128113,A C,0,127751,,249,155,206 M,0,127751,127791,441,344,421.7018,348.1995 M,0,127791,127832,421.7018,348.1995,402.4464,352.5909 M,0,127832,127872,402.4464,352.5909,383.2357,357.1739 M,0,127872,127913,383.2357,357.1739,364.0671,361.93
Sprite,Foreground,Centre,"sb/l.png",245,405 S,2,128075,128275,1.4,0.28 F,2,128075,128275,1,0 P,0,128075,128275,A C,0,128075,,249,155,206
Sprite,Foreground,Centre,"sb/l.png",278,283 S,2,128237,128437,1.4,0.28 F,2,128237,128437,1,0 P,0,128237,128437,A C,0,128237,,249,155,206
Sprite,Foreground,Centre,"sb/l.png",0,0 S,2,128399,128761,1.4,0.28 F,2,128399,128761,1,0 P,0,128399,128761,A C,0,128399,,139,160,235 M,0,128399,128439,160,236,165.4265,254.9899 M,0,128439,128480,165.4265,254.9899,170.7975,273.9955 M,0,128480,128520,170.7975,273.9955,176.114,293.0165 M,0,128520,128561,176.114,293.0165,181.3687,312.0546
Sprite,Foreground,Centre,"sb/l.png",113,419 S,2,128724,128924,1.4,0.28 F,2,128724,128924,1,0 P,0,128724,128924,A C,0,128724,,139,160,235
Sprite,Foreground,Centre,"sb/l.png",0,0 S,2,128886,129248,1.4,0.28 F,2,128886,129248,1,0 P,0,128886,129248,A C,0,128886,,139,160,235 M,0,128886,128926,245,405,264.5126,408.0252 M,0,128926,128967,264.5126,408.0252,283.834,412.0884 M,0,128967,129007,283.834,412.0884,302.9096,417.178 M,0,129007,129048,302.9096,417.178,321.7119,423.2041
Sprite,Foreground,Centre,"sb/l.png",407,365 S,2,129210,129410,1.4,0.28 F,2,129210,129410,1,0 P,0,129210,129410,A C,0,129210,,139,160,235
Sprite,Foreground,Centre,"sb/l.png",0,0 S,2,129372,129734,1.4,0.28 F,2,129372,129734,1,0 P,0,129372,129734,A C,0,129372,,139,160,235 M,0,129372,129412,349,252,338.3405,235.4342 M,0,129412,129453,338.3405,235.4342,330.9019,217.2159 M,0,129453,129493,330.9019,217.2159,326.9277,197.9557 M,0,129493,129534,326.9277,197.9557,326.2494,178.2787
Sprite,Foreground,Centre,"sb/l.png",0,0 S,2,129697,130221,1.4,0.28 F,2,129697,130221,1,0 P,0,129697,130221,A C,0,129697,,242,108,94 M,0,129697,129737,254,73,251.4505,92.58475 M,0,129737,129778,251.4505,92.58475,248.901,112.1695 M,0,129778,129818,248.901,112.1695,246.3515,131.7543 M,0,129818,129859,246.3515,131.7543,243.802,151.339 M,0,129859,129899,243.802,151.339,241.2525,170.9238 M,0,129899,129940,241.2525,170.9238,238.703,190.5085 M,0,129940,129980,238.703,190.5085,236.1535,210.0933 M,0,129980,130021,236.1535,210.0933,233.604,229.678
Sprite,Foreground,Centre,"sb/l.png",119,283 S,2,130183,130383,1.4,0.28 F,2,130183,130383,1,0 P,0,130183,130383,A C,0,130183,,242,108,94
Sprite,Foreground,Centre,"sb/l.png",0,0 S,2,130345,130707,1.4,0.28 F,2,130345,130707,1,0 P,0,130345,130707,A C,0,130345,,242,108,94 M,0,130345,130385,119,409,138.6744,407.2743 M,0,130385,130426,138.6744,407.2743,158.3391,405.4409 M,0,130426,130466,158.3391,405.4409,177.9942,403.5085 M,0,130466,130507,177.9942,403.5085,197.6369,401.4523
Sprite,Foreground,Centre,"sb/l.png",0,0 S,2,130670,131032,1.4,0.28 F,2,130670,131032,1,0 P,0,130670,131032,A C,0,130670,,242,108,94 M,0,130670,130710,268,321,287.6744,322.7257 M,0,130710,130751,287.6744,322.7257,307.3391,324.5591 M,0,130751,130791,307.3391,324.5591,326.9943,326.4915 M,0,130791,130832,326.9943,326.4915,346.6369,328.5477
Sprite,Foreground,Centre,"sb/l.png",0,0 S,2,130994,131518,1.4,0.28 F,2,130994,131518,1,0 P,0,130994,131518,A C,0,130994,,242,108,94 M,0,130994,131034,414,406,416.4619,386.4047 M,0,131034,131075,416.4619,386.4047,419.3156,366.8629 M,0,131075,131115,419.3156,366.8629,422.5471,347.38 M,0,131115,131156,422.5471,347.38,426.2105,327.9735 M,0,131156,131196,426.2105,327.9735,430.2404,308.6399 M,0,131196,131237,430.2404,308.6399,434.7071,289.4024 M,0,131237,131277,434.7071,289.4024,439.5286,270.2506 M,0,131277,131318,439.5286,270.2506,444.791,251.2154
Sprite,Foreground,Centre,"sb/l.png",0,0 S,2,131480,131842,1.4,0.28 F,2,131480,131842,1,0 P,0,131480,131842,A C,0,131480,,242,108,94 M,0,131480,131520,382,141,364.6065,131.7729 M,0,131520,131561,364.6065,131.7729,345.7627,126.1486 M,0,131561,131601,345.7627,126.1486,326.1933,124.3367 M,0,131601,131642,326.1933,124.3367,306.6371,126.2791
Sprite,Foreground,Centre,"sb/l.png",248,236 S,2,131805,132005,1.4,0.28 F,2,131805,132005,1,0 P,0,131805,132005,A C,0,131805,,166,142,193
Sprite,Foreground,Centre,"sb/l.png",248,236 S,2,131886,132086,1.4,0.28 F,2,131886,132086,1,0 P,0,131886,132086,A C,0,131886,,166,142,193
Sprite,Foreground,Centre,"sb/l.png",0,0 S,2,131967,132410,1.4,0.28 F,2,131967,132410,1,0 P,0,131967,132410,A C,0,131967,,166,142,193 M,0,131967,132007,248,236,244.8328,255.4861 M,0,132007,132048,244.8328,255.4861,243.2412,275.1608 M,0,132048,132088,243.2412,275.1608,244.8328,255.4861 M,0,132088,132129,244.8328,255.4861,248,236 M,0,132129,132169,248,236,244.8328,255.4861 M,0,132169,132210,244.8328,255.4861,243.2412,275.1608
Sprite,Foreground,Centre,"sb/l.png",0,0 S,2,132291,132734,1.4,0.28 F,2,132291,132734,1,0 P,0,132291,132734,A C,0,132291,,249,155,206 M,0,132291,132331,329,275,348.5874,272.4816 M,0,132331,132372,348.5874,272.4816,368.0926,269.3933 M,0,132372,132412,368.0926,269.3933,387.507,265.7769 M,0,132412,132453,387.507,265.7769,406.7909,261.5185 M,0,132453,132493,406.7909,261.5185,425.942,256.6996 M,0,132493,132534,425.942,256.6996,444.952,251.3513
Sprite,Foreground,Centre,"sb/l.png",0,0 S,2,132616,132978,1.4,0.28 F,2,132616,132978,1,0 P,0,132616,132978,A C,0,132616,,249,155,206 M,0,132616,132656,457,245,457.0636,225.2699 M,0,132656,132697,457.0636,225.2699,454.8677,205.6703 M,0,132697,132737,454.8677,205.6703,450.4424,186.456 M,0,132737,132778,450.4424,186.456,444.0212,167.804
Sprite,Foreground,Centre,"sb/l.png",0,0 S,2,132940,133383,1.4,0.28 F,2,132940,133383,1,0 P,0,132940,133383,A C,0,132940,,249,155,206 M,0,132940,132980,342,93,322.4232,95.61023 M,0,132980,133021,322.4232,95.61023,302.8465,98.22047 M,0,133021,133061,302.8465,98.22047,283.2697,100.8307 M,0,133061,133102,283.2697,100.8307,263.693,103.4409 M,0,133102,133142,263.693,103.4409,244.1162,106.0512 M,0,133142,133183,244.1162,106.0512,224.5395,108.6614
Sprite,Foreground,Centre,"sb/l.png",0,0 S,2,133264,133626,1.4,0.28 F,2,133264,133626,1,0 P,0,133264,133626,A C,0,133264,,249,155,206 M,0,133264,133304,210,107,190.2534,106.6343 M,0,133304,133345,190.2534,106.6343,170.5068,106.2686 M,0,133345,133385,170.5068,106.2686,150.7602,105.903 M,0,133385,133426,150.7602,105.903,131.0135,105.5373
Sprite,Foreground,Centre,"sb/l.png",0,0 S,2,133589,134437,1.4,0.28 F,2,133589,134437,1,0 P,0,133589,134437,A C,0,133589,,139,160,235 M,0,133589,133629,230,184,247.7533,175.5318 M,0,133629,133670,247.7533,175.5318,263.197,163.3956 M,0,133670,133710,263.197,163.3956,275.6608,148.2288 M,0,133710,133751,275.6608,148.2288,284.124,130.501 M,0,133751,133791,284.124,130.501,288.6245,111.3858 M,0,133791,133832,288.6245,111.3858,288.3503,91.74008 M,0,133832,133872,288.3503,91.74008,283.9589,72.59126 M,0,133872,133913,283.9589,72.59126,275.2193,54.949 M,0,133913,133953,275.2193,54.949,283.9589,72.59126 M,0,133953,133994,283.9589,72.59126,288.3503,91.74008 M,0,133994,134034,288.3503,91.74008,288.6245,111.3858 M,0,134034,134075,288.6245,111.3858,284.124,130.501 M,0,134075,134116,284.124,130.501,275.6608,148.2288 M,0,134116,134156,275.6608,148.2288,263.197,163.3956 M,0,134156,134197,263.197,163.3956,247.7533,175.5318 M,0,134197,134237,247.7533,175.5318,230,184
Sprite,Foreground,Centre,"sb/l.png",109,242 S,2,134561,134761,1.4,0.28 F,2,134561,134761,1,0 P,0,134561,134761,A C,0,134561,,139,160,235
Sprite,Foreground,Centre,"sb/l.png",109,242 S,2,134643,134843,1.4,0.28 F,2,134643,134843,1,0 P,0,134643,134843,A C,0,134643,,139,160,235
Sprite,Foreground,Centre,"sb/l.png",109,242 S,2,134724,134924,1.4,0.28 F,2,134724,134924,1,0 P,0,134724,134924,A C,0,134724,,139,160,235
Sprite,Foreground,Centre,"sb/l.png",109,242 S,2,134805,135005,1.4,0.28 F,2,134805,135005,1,0 P,0,134805,135005,A C,0,134805,,139,160,235
Sprite,Foreground,Centre,"sb/l.png",109,242 S,2,134886,135086,1.4,0.28 F,2,134886,135086,1,0 P,0,134886,135086,A C,0,134886,,242,108,94
Sprite,Foreground,Centre,"sb/l.png",154,359 S,2,135048,135248,1.4,0.28 F,2,135048,135248,1,0 P,0,135048,135248,A C,0,135048,,242,108,94
Sprite,Foreground,Centre,"sb/l.png",289,146 S,2,135372,135572,1.4,0.28 F,2,135372,135572,1,0 P,0,135372,135572,A C,0,135372,,166,142,193
Sprite,Foreground,Centre,"sb/l.png",244,263 S,2,135534,135734,1.4,0.28 F,2,135534,135734,1,0 P,0,135534,135734,A C,0,135534,,166,142,193
Sprite,Foreground,Centre,"sb/l.png",497,269 S,2,135859,136059,1.4,0.28 F,2,135859,136059,1,0 P,0,135859,136059,A C,0,135859,,249,155,206
Sprite,Foreground,Centre,"sb/l.png",542,152 S,2,136021,136221,1.4,0.28 F,2,136021,136221,1,0 P,0,136021,136221,A C,0,136021,,249,155,206
Sprite,Foreground,Centre,"sb/l.png",300,77 S,2,136345,136545,1.4,0.28 F,2,136345,136545,1,0 P,0,136345,136545,A C,0,136345,,139,160,235
Sprite,Foreground,Centre,"sb/l.png",345,194 S,2,136507,136707,1.4,0.28 F,2,136507,136707,1,0 P,0,136507,136707,A C,0,136507,,139,160,235
Sprite,Foreground,Centre,"sb/l.png",345,194 S,2,136832,137032,1.4,0.28 F,2,136832,137032,1,0 P,0,136832,137032,A C,0,136832,,242,108,94
Sprite,Foreground,Centre,"sb/l.png",542,152 S,2,137156,137356,1.4,0.28 F,2,137156,137356,1,0 P,0,137156,137356,A C,0,137156,,242,108,94
Sprite,Foreground,Centre,"sb/ring.png",427,328 S,2,142670,143670,0,3 F,2,142670,143670,1,0 P,0,142670,143670,A C,0,142670,,249,155,206
Sprite,Foreground,Centre,"sb/ring.png",206,356 S,2,143967,144967,0,3 F,2,143967,144967,1,0 P,0,143967,144967,A C,0,143967,,249,155,206
Sprite,Foreground,Centre,"sb/ring.png",429,164 S,2,145264,146264,0,3 F,2,145264,146264,1,0 P,0,145264,146264,A C,0,145264,,249,155,206
Sprite,Foreground,Centre,"sb/ring.png",448,311 S,2,146561,147561,0,3 F,2,146561,147561,1,0 P,0,146561,147561,A C,0,146561,,249,155,206
Sprite,Foreground,Centre,"sb/line.png",223,289 V,0,2562,3886,5,3,1,1 F,0,2562,3886,0.6,0 P,0,2562,3886,A R,0,2562,3886,-0.06787298 C,0,2562,,76,26,138
Sprite,Foreground,Centre,"sb/line.png",209,375 V,0,3048,4372,5,3,1,1 F,0,3048,4372,0.6,0 P,0,3048,4372,A R,0,3048,4372,-0.09519761 C,0,3048,,76,26,138
Sprite,Foreground,Centre,"sb/line.png",411,337 V,0,3534,4696,5,3,1,1 F,0,3534,4696,0.6,0 P,0,3534,4696,A R,0,3534,4696,-0.08040681 C,0,3534,,76,26,138
Sprite,Foreground,Centre,"sb/line.png",411,255 V,0,3859,5183,5,3,1,1 F,0,3859,5183,0.6,0 P,0,3859,5183,A R,0,3859,5183,-0.01744836 C,0,3859,,76,26,138
Sprite,Foreground,Centre,"sb/line.png",208,224 V,0,4345,5669,5,3,1,1 F,0,4345,5669,0.6,0 P,0,4345,5669,A R,0,4345,5669,0.08819006 C,0,4345,,76,26,138
Sprite,Foreground,Centre,"sb/line.png",134,144 V,0,4832,5994,5,3,1,1 F,0,4832,5994,0.6,0 P,0,4832,5994,A R,0,4832,5994,-0.01766544 C,0,4832,,76,26,138
Sprite,Foreground,Centre,"sb/line.png",173,285 V,0,5156,6480,5,3,1,1 F,0,5156,6480,0.6,0 P,0,5156,6480,A R,0,5156,6480,-0.1218081 C,0,5156,,76,26,138
Sprite,Foreground,Centre,"sb/line.png",123,358 V,0,5643,6967,5,3,1,1 F,0,5643,6967,0.6,0 P,0,5643,6967,A R,0,5643,6967,0.01734664 C,0,5643,,76,26,138
Sprite,Foreground,Centre,"sb/line.png",317,314 V,0,6129,7291,5,3,1,1 F,0,6129,7291,0.6,0 P,0,6129,7291,A R,0,6129,7291,-0.1432649 C,0,6129,,76,26,138
Sprite,Foreground,Centre,"sb/line.png",469,316 V,0,6453,7777,5,3,1,1 F,0,6453,7777,0.6,0 P,0,6453,7777,A R,0,6453,7777,0.06788866 C,0,6453,,76,26,138
Sprite,Foreground,Centre,"sb/line.png",555,374 V,0,6940,8264,5,3,1,1 F,0,6940,8264,0.6,0 P,0,6940,8264,A R,0,6940,8264,0.06242811 C,0,6940,,76,26,138
Sprite,Foreground,Centre,"sb/line.png",525,170 V,0,7426,8426,5,3,1,1 F,0,7426,8426,0.6,0 P,0,7426,8426,A R,0,7426,8426,0.00980559 C,0,7426,,76,26,138
Sprite,Foreground,Centre,"sb/line.png",433,143 V,0,7589,8589,5,3,1,1 F,0,7589,8589,0.6,0 P,0,7589,8589,A R,0,7589,8589,-0.03979772 C,0,7589,,76,26,138
Sprite,Foreground,Centre,"sb/line.png",433,143 V,0,7670,8670,5,3,1,1 F,0,7670,8670,0.6,0 P,0,7670,8670,A R,0,7670,8670,0.009146436 C,0,7670,,76,26,138
Sprite,Foreground,Centre,"sb/line.png",433,143 V,0,7751,9075,5,3,1,1 F,0,7751,9075,0.6,0 P,0,7751,9075,A R,0,7751,9075,-0.1446454 C,0,7751,,76,26,138
Sprite,Foreground,Centre,"sb/line.png",364,77 V,0,8237,9237,5,3,1,1 F,0,8237,9237,0.6,0 P,0,8237,9237,A R,0,8237,9237,0.1408899 C,0,8237,,76,26,138
Sprite,Foreground,Centre,"sb/line.png",294,141 V,0,8399,9723,5,3,1,1 F,0,8399,9723,0.6,0 P,0,8399,9723,A R,0,8399,9723,-0.108711 C,0,8399,,76,26,138
Sprite,Foreground,Centre,"sb/line.png",221,78 V,0,8886,9886,5,3,1,1 F,0,8886,9886,0.6,0 P,0,8886,9886,A R,0,8886,9886,-0.1486041 C,0,8886,,76,26,138
Sprite,Foreground,Centre,"sb/line.png",190,167 V,0,9048,10372,5,3,1,1 F,0,9048,10372,0.6,0 P,0,9048,10372,A R,0,9048,10372,-0.05315435 C,0,9048,,76,26,138
Sprite,Foreground,Centre,"sb/line.png",106,210 V,0,9534,10534,5,3,1,1 F,0,9534,10534,0.6,0 P,0,9534,10534,A R,0,9534,10534,0.05562246 C,0,9534,,76,26,138
Sprite,Foreground,Centre,"sb/line.png",154,291 V,0,9697,10859,5,3,1,1 F,0,9697,10859,0.6,0 P,0,9697,10859,A R,0,9697,10859,-0.09507237 C,0,9697,,76,26,138
Sprite,Foreground,Centre,"sb/line.png",271,384 V,0,10021,11183,5,3,1,1 F,0,10021,11183,0.6,0 P,0,10021,11183,A R,0,10021,11183,-0.1044155 C,0,10021,,76,26,138
Sprite,Foreground,Centre,"sb/line.png",208,313 V,0,10345,11669,5,3,1,1 F,0,10345,11669,0.6,0 P,0,10345,11669,A R,0,10345,11669,-0.1475707 C,0,10345,,76,26,138
Sprite,Foreground,Centre,"sb/line.png",137,249 V,0,10832,11832,5,3,1,1 F,0,10832,11832,0.6,0 P,0,10832,11832,A R,0,10832,11832,0.1402124 C,0,10832,,76,26,138
Sprite,Foreground,Centre,"sb/line.png",193,173 V,0,10994,12318,5,3,1,1 F,0,10994,12318,0.6,0 P,0,10994,12318,A R,0,10994,12318,-0.05998259 C,0,10994,,76,26,138
Sprite,Foreground,Centre,"sb/line.png",269,116 V,0,11480,12480,5,3,1,1 F,0,11480,12480,0.6,0 P,0,11480,12480,A R,0,11480,12480,-0.007885243 C,0,11480,,76,26,138
Sprite,Foreground,Centre,"sb/line.png",361,91 V,0,11643,13129,5,3,1,1 F,0,11643,13129,0.6,0 P,0,11643,13129,A R,0,11643,13129,-0.1302056 C,0,11643,,76,26,138
Sprite,Foreground,Centre,"sb/line.png",513,202 V,0,12453,13453,5,3,1,1 F,0,12453,13453,0.6,0 P,0,12453,13453,A R,0,12453,13453,-0.05628609 C,0,12453,,76,26,138
Sprite,Foreground,Centre,"sb/line.png",513,202 V,0,12534,13534,5,3,1,1 F,0,12534,13534,0.6,0 P,0,12534,13534,A R,0,12534,13534,-0.01404463 C,0,12534,,76,26,138
Sprite,Foreground,Centre,"sb/line.png",513,202 V,0,12616,13859,5,3,1,1 F,0,12616,13859,0.6,0 P,0,12616,13859,A R,0,12616,13859,0.125667 C,0,12616,,76,26,138
Sprite,Foreground,Centre,"sb/line.png",208,396 V,0,44075,45075,5,3,1,1 F,0,44075,45075,0.6,0 P,0,44075,45075,A R,0,44075,45075,-0.06787298 C,0,44075,,76,26,138
Sprite,Foreground,Centre,"sb/line.png",352,140 V,0,47805,48967,5,3,1,1 F,0,47805,48967,0.6,0 P,0,47805,48967,A R,0,47805,48967,-0.09519761 C,0,47805,,76,26,138
Sprite,Foreground,Centre,"sb/line.png",256,113 V,0,48129,49129,5,3,1,1 F,0,48129,49129,0.6,0 P,0,48129,49129,A R,0,48129,49129,-0.08040681 C,0,48129,,76,26,138
Sprite,Foreground,Centre,"sb/line.png",256,113 V,0,48210,49210,5,3,1,1 F,0,48210,49210,0.6,0 P,0,48210,49210,A R,0,48210,49210,-0.01744836 C,0,48210,,76,26,138
Sprite,Foreground,Centre,"sb/line.png",256,113 V,0,48291,49534,5,3,1,1 F,0,48291,49534,0.6,0 P,0,48291,49534,A R,0,48291,49534,0.08819006 C,0,48291,,76,26,138
Sprite,Foreground,Centre,"sb/line.png",188,132 V,0,48616,49859,5,3,1,1 F,0,48616,49859,0.6,0 P,0,48616,49859,A R,0,48616,49859,-0.01766544 C,0,48616,,76,26,138
Sprite,Foreground,Centre,"sb/line.png",193,205 V,0,48940,50183,5,3,1,1 F,0,48940,50183,0.6,0 P,0,48940,50183,A R,0,48940,50183,-0.1218081 C,0,48940,,76,26,138
//Storyboard Sound Samples

[TimingPoints]
2562,324.324324324324,4,2,1,50,1,0
2562,-133.333333333333,4,2,1,50,0,0
12454,-133.333333333333,4,2,1,75,0,0
12940,-133.333333333333,4,2,1,90,0,0
21534,-100,4,2,1,90,0,0
23318,-128.205128205128,4,2,1,80,0,0
41481,-128.205128205128,4,2,1,80,0,0
42778,-100,4,2,1,80,0,0
44075,-100,4,2,1,90,0,0
49264,-128.205128205128,4,2,1,80,0,0
67103,-128.205128205128,4,2,1,80,0,0
67426,-100,4,2,1,80,0,0
68400,-100,4,2,1,80,0,0
70021,-100,4,2,1,95,0,1
77805,-100,4,2,1,95,0,0
78860,-100,4,2,1,95,0,0
79427,-100,4,2,1,95,0,0
79914,-100,4,2,1,95,0,0
80399,-100,4,2,1,95,0,1
87535,-100,4,2,1,95,0,1
88183,-100,4,2,1,95,0,0
89644,-100,4,2,1,95,0,0
90778,-100,4,2,1,95,0,1
98561,-100,4,2,1,95,0,0
100184,-100,4,2,1,95,0,0
101156,-100,4,2,1,95,0,1
108940,-100,4,2,1,95,0,0
109995,-100,4,2,1,95,0,0
111211,-100,4,2,1,95,0,0
111534,-100,4,2,1,70,0,0
111860,-100,4,2,1,70,0,0
112183,-100,4,2,1,67,0,0
112832,-100,4,2,1,64,0,0
113480,-100,4,2,1,61,0,0
114129,-100,4,2,1,58,0,0
114778,-100,4,2,1,55,0,0
115426,-100,4,2,1,50,0,0
116237,-100,4,2,1,70,0,0
116399,-100,4,2,1,70,0,0
116644,-100,4,2,1,70,0,0
116724,-100,4,2,1,90,0,0
125806,-100,4,2,1,90,0,0
126454,-100,4,2,1,90,0,0
131887,-100,4,2,1,90,0,0
132292,-100,4,2,1,90,0,0
137481,-100,4,2,1,90,0,0
141049,-100,4,2,1,90,0,0
142670,-100,4,2,1,70,0,0
147859,-133.333333333333,4,2,1,70,0,0
150453,-100,4,2,1,70,0,0
153048,-100,4,2,1,90,0,1
153373,-100,4,2,1,90,0,1
160832,-100,4,2,1,90,0,0
163426,-100,4,2,1,90,0,1
170562,-100,4,2,1,90,0,1
171210,-100,4,2,1,90,0,0
173805,-100,4,2,1,90,0,1
182725,-100,4,2,1,90,0,1
183535,-100,4,2,1,90,0,1
184183,-100,4,2,1,90,0,0
204940,-100,4,2,1,10,0,0

[Colours]
Combo1 : 242,108,94
Combo2 : 166,142,193
Combo3 : 249,155,206
Combo4 : 139,160,235
SliderTrackOverride : 35,4,81
SliderBorder : 255,255,255

[HitObjects]
159,233,2562,6,0,P|116:236|50:302,1,118.500004520416,4|8,3:2|0:0,0:0:0:0:
145,319,3048,2,0,L|285:326,1,118.500004520416,2|2,0:3|0:3,0:0:0:0:
347,281,3534,2,0,P|394:275|426:275,1,59.2500022602082,8|2,0:0|0:3,0:0:0:0:
347,199,3859,6,0,P|285:191|227:147,1,118.500004520416,0|8,3:0|0:0,0:0:0:0:
144,168,4345,2,0,P|151:97|161:32,1,118.500004520416,2|2,0:3|0:3,0:0:0:0:
70,88,4832,2,0,L|63:155,1,59.2500022602082,8|2,0:0|0:3,0:0:0:0:
109,229,5156,6,0,P|63:210|-9:236,1,118.500004520416,0|8,3:0|0:0,0:0:0:0:
59,302,5643,2,0,P|113:321|168:301,1,118.500004520416,2|2,0:3|0:3,0:0:0:0:
253,258,6129,2,0,P|303:251|326:252,1,59.2500022602082,8|2,0:0|0:3,0:0:0:0:
405,260,6453,6,0,L|417:380,1,118.500004520416,0|8,3:0|0:0,0:0:0:0:
491,318,6940,2,0,L|503:198,1,118.500004520416,2|8,0:3|0:2,0:0:0:0:
461,114,7426,1,8,0:2:0:0:
369,87,7589,1,8,0:2:0:0:
369,87,7670,1,8,0:2:0:0:
369,87,7751,6,0,P|312:98|288:98,2,59.2500022602082,0|2|8,3:0|0:0|0:0,0:0:0:0:
300,21,8237,1,2,0:0:0:0:
230,85,8399,2,0,P|221:120|219:150,2,59.2500022602082,0|2|8,3:0|0:0|0:0,0:0:0:0:
157,22,8886,1,2,0:0:0:0:
126,111,9048,6,0,P|132:152|135:185,2,59.2500022602082,0|2|8,3:0|0:0|0:0,0:0:0:0:
42,154,9534,1,2,0:0:0:0:
90,235,9697,2,0,P|123:247|152:262,1,59.2500022602082,0|2,3:0|0:0,0:0:0:0:
207,328,10021,2,0,P|174:340|145:355,1,59.2500022602082,8|2,0:0|0:0,0:0:0:0:
144,257,10345,6,0,L|218:250,2,59.2500022602082,0|2|8,3:0|0:0|0:0,0:0:0:0:
73,193,10832,1,2,0:0:0:0:
129,117,10994,2,0,L|55:110,2,59.2500022602082,0|2|8,3:0|0:0|0:0,0:0:0:0:
205,60,11480,1,0,3:0:0:0:
297,35,11643,6,0,P|315:87|316:143,2,88.8750033903123,2|2|2,0:2|0:0|0:0,0:0:0:0:
449,146,12453,1,8,0:0:0:0:
449,146,12534,1,8,0:0:0:0:
449,146,12616,2,0,P|437:174|432:192,3,29.6250011301041,8|8|8|8,0:0|0:0|0:0|0:0,0:0:0:0:
448,198,12940,5,4,3:2:0:0:
357,134,21534,5,8,0:0:0:0:
357,134,21697,2,0,P|344:185|342:219,1,79,8|0,0:0|0:0,0:0:0:0:
345,337,22021,2,0,P|306:329|296:327,3,39.5,8|8|8|8,0:0|0:0|0:0|0:0,0:0:0:0:
294,313,22345,2,0,P|255:321|245:323,3,39.5,8|8|8|8,0:3|0:3|0:3|0:3,0:0:0:0:
238,334,22670,2,0,P|199:326|189:324,3,39.5,8|8|8|8,0:0|0:0|0:0|0:0,0:0:0:0:
187,310,22994,2,0,P|148:318|138:320,3,39.5,8|8|8|4,0:0|0:0|0:3|0:3,0:0:0:0:
131,326,23318,6,0,P|118:250|105:188,1,123.240004137085,4|8,3:2|0:0,0:0:0:0:
49,125,23805,1,2,0:0:0:0:
113,50,23967,1,2,3:2:0:0:
166,133,24129,2,0,P|224:118|248:111,1,61.6200020685426,2|10,3:2|0:0,0:0:0:0:
392,74,24453,1,2,0:0:0:0:
335,174,24616,6,0,P|321:109|299:29,1,123.240004137085,2|10,3:2|0:0,0:0:0:0:
444,128,25102,2,0,P|430:193|408:273,1,123.240004137085,2|0,0:0|3:2,0:0:0:0:
344,349,25589,2,0,P|388:342|408:339,1,61.6200020685426,8|2,3:2|0:0,0:0:0:0:
302,234,25913,6,0,B|224:217|224:217|177:234,1,123.240004137085,2|10,3:2|0:0,0:0:0:0:
140,360,26399,2,0,P|197:348|235:281,1,123.240004137085,2|2,0:0|3:2,0:0:0:0:
90,284,26886,2,0,P|121:280|152:278,1,61.6200020685426,10|0,0:0|0:0,0:0:0:0:
255,188,27210,6,0,L|403:205,1,123.240004137085,2|10,3:2|0:0,0:0:0:0:
450,329,27697,2,0,P|400:294|339:300,1,123.240004137085,2|8,0:0|0:0,0:0:0:0:
377,202,28183,1,0,3:0:0:0:
411,122,28345,1,2,0:2:0:0:
411,122,28426,1,0,0:0:0:0:
411,122,28507,6,0,P|401:82|394:48,1,61.6200020685426,6|2,3:2|0:2,0:0:0:0:
269,127,28832,2,0,P|259:167|252:201,1,61.6200020685426,10|2,0:2|0:2,0:0:0:0:
254,206,29075,1,0,0:0:0:0:
258,231,29156,2,0,P|295:229|325:228,1,61.6200020685426,2|0,3:2|0:0,0:0:0:0:
439,225,29480,2,0,P|449:265|456:299,1,61.6200020685426,10|2,0:2|0:2,0:0:0:0:
454,304,29723,1,0,0:0:0:0:
450,329,29804,6,0,P|413:327|383:326,1,61.6200020685426,2|0,3:2|0:0,0:0:0:0:
252,368,30129,1,10,0:2:0:0:
293,272,30291,1,2,0:2:0:0:
293,272,30372,1,0,0:0:0:0:
293,272,30453,1,2,3:2:0:0:
388,326,30616,1,2,0:3:0:0:
416,201,30778,2,0,P|427:161|422:116,1,61.6200020685426,10|2,0:2|0:3,0:0:0:0:
336,83,31102,6,0,L|254:89,1,61.6200020685426,0|0,3:2|0:0,0:0:0:0:
254,79,31345,1,0,0:0:0:0:
232,71,31426,2,0,L|151:69,1,61.6200020685426,10|2,0:2|0:2,0:0:0:0:
73,88,31751,1,0,3:0:0:0:
131,186,31913,2,0,P|140:215|143:223,2,30.8100010342713,2|0|8,0:2|0:0|0:0,0:0:0:0:
227,220,32237,1,2,0:2:0:0:
227,220,32318,1,0,0:0:0:0:
227,220,32399,6,0,P|210:311|201:359,1,123.240004137085,2|8,3:2|0:0,0:0:0:0:
114,368,32886,1,0,0:0:0:0:
114,368,32967,1,0,0:0:0:0:
114,368,33048,2,0,P|102:310|95:282,1,61.6200020685426,2|2,3:2|0:0,0:0:0:0:
131,186,33372,2,0,L|148:133,2,30.8100010342713,10|8|8,0:2|0:0|0:3,0:0:0:0:
63,67,33697,6,0,P|128:64|181:12,1,123.240004137085,4|8,3:2|0:0,0:0:0:0:
268,9,34183,1,2,0:0:0:0:
260,140,34345,2,0,P|249:103|236:60,1,61.6200020685426,2|2,3:2|3:2,0:0:0:0:
354,162,34669,1,10,0:0:0:0:
351,261,34832,1,2,0:0:0:0:
446,226,34994,6,0,P|455:164|462:90,1,123.240004137085,2|10,3:2|0:0,0:0:0:0:
311,54,35480,2,0,P|350:100|348:176,1,123.240004137085,2|0,0:0|3:2,0:0:0:0:
211,128,35967,2,0,P|242:131|273:129,1,61.6200020685426,10|2,3:2|0:0,0:0:0:0:
170,44,36291,6,0,P|125:49|43:57,1,123.240004137085,2|10,3:2|0:0,0:0:0:0:
105,137,36778,1,2,0:0:0:0:
34,233,36940,2,0,P|23:195|13:160,1,61.6200020685426,2|0,3:2|3:2,0:0:0:0:
130,255,37264,2,0,P|121:304|116:339,1,61.6200020685426,10|0,0:0|0:0,0:0:0:0:
305,331,37589,6,0,P|243:347|177:375,1,123.240004137085,2|10,3:2|0:0,0:0:0:0:
239,232,38075,2,0,P|301:248|367:276,1,123.240004137085,2|8,0:0|0:0,0:0:0:0:
445,310,38561,1,0,3:0:0:0:
425,190,38724,1,2,0:2:0:0:
425,190,38805,1,0,0:0:0:0:
425,190,38886,6,0,P|408:133|385:71,1,123.240004137085,6|10,3:2|0:2,0:0:0:0:
311,8,39372,1,2,0:2:0:0:
307,106,39534,2,0,P|299:150|297:182,1,61.6200020685426,2|0,3:2|0:0,0:0:0:0:
112,123,39859,1,10,0:2:0:0:
230,84,40021,1,2,0:2:0:0:
168,195,40183,1,2,3:2:0:0:
168,195,40507,6,0,P|146:235|157:298,1,92.4300031028138,10|0,0:2|0:0,0:0:0:0:
156,300,40832,2,0,P|209:283|263:293,1,92.4300031028138,2|0,3:2|0:0,0:0:0:0:
269,298,41156,2,0,L|257:366,1,61.6200020685426,10|2,0:2|0:3,0:0:0:0:
416,281,41480,6,0,L|403:177,1,92.4300031028138,0|0,3:2|0:0,0:0:0:0:
423,169,41805,2,0,L|435:69,1,92.4300031028138,10|0,0:2|0:0,0:0:0:0:
417,59,42129,2,0,P|383:49|327:80,1,92.4300031028138,0|0,3:0|0:0,0:0:0:0:
318,94,42453,2,0,L|227:73,1,92.4300031028138,8|0,0:0|0:0,0:0:0:0:
198,72,42778,5,2,3:2:0:0:
104,154,42940,1,8,0:2:0:0:
104,154,43021,1,8,0:2:0:0:
104,154,43102,2,0,P|107:174|112:194,3,39.5,8|8|8|8,3:2|0:2|0:2|0:2,0:0:0:0:
136,218,43426,2,0,P|130:238|126:258,3,39.5,10|8|10|8,3:2|0:2|0:2|0:2,0:0:0:0:
107,285,43751,2,0,P|111:305|115:325,3,39.5,10|8|8|8,3:2|0:2|0:2|0:2,0:0:0:0:
144,340,44075,5,6,3:2:0:0:
288,84,47805,6,0,L|330:88,2,39.5,2|0|8,3:2|3:2|0:0,0:0:0:0:
192,57,48129,5,8,0:0:0:0:
192,57,48210,1,8,0:0:0:0:
192,57,48291,6,0,P|171:62|151:66,3,39.5,8|8|8|0,0:3|0:3|0:0|0:0,0:0:0:0:
124,76,48616,2,0,P|118:96|114:116,3,39.5,8|8|8|4,0:0|0:3|0:3|0:3,0:0:0:0:
129,149,48940,2,0,P|134:169|138:189,3,39.5,8|8|8|8,0:0|0:0|0:0|0:0,0:0:0:0:
132,212,49264,6,0,L|172:221|212:230,1,61.6200020685426,4|0,3:2|3:0,0:0:0:0:
247,103,49589,2,0,P|206:111|166:121,1,61.6200020685426,8|2,0:0|0:0,0:0:0:0:
35,179,49913,1,2,3:2:0:0:
186,115,50075,1,2,3:2:0:0:
75,84,50237,1,10,0:0:0:0:
132,212,50399,1,2,0:0:0:0:
252,196,50561,6,0,P|245:239|220:343,1,123.240004137085,2|10,3:2|0:0,0:0:0:0:
342,186,51048,2,0,P|335:142|310:38,1,123.240004137085,2|0,0:0|3:2,0:0:0:0:
191,209,51534,2,0,P|242:197|276:192,1,61.6200020685426,10|2,0:2|0:0,0:0:0:0:
428,83,51859,6,0,P|389:56|315:66,1,123.240004137085,0|10,3:2|0:0,0:0:0:0:
360,138,52345,1,2,0:0:0:0:
409,208,52507,2,0,P|415:251|422:281,1,61.6200020685426,0|2,3:2|3:2,0:0:0:0:
312,325,52832,2,0,P|318:282|325:252,1,61.6200020685426,10|0,0:0|0:0,0:0:0:0:
251,195,53156,6,0,P|238:154|225:66,1,123.240004137085,2|10,3:2|0:0,0:0:0:0:
96,12,53643,2,0,P|80:56|76:85,1,61.6200020685426,2|0,0:0|3:0,0:0:0:0:
165,195,53967,1,8,0:0:0:0:
225,74,54129,2,0,P|189:65|142:58,1,61.6200020685426,0|2,3:0|0:2,0:0:0:0:
165,195,54453,5,6,3:2:0:0:
141,289,54616,1,2,0:2:0:0:
114,383,54779,1,10,0:2:0:0:
45,313,54940,1,2,0:2:0:0:
141,289,55102,2,0,P|192:277|221:269,1,61.6200020685426,2|0,3:2|0:0,0:0:0:0:
249,354,55426,2,0,P|300:366|329:374,1,61.6200020685426,10|2,0:2|0:2,0:0:0:0:
401,348,55751,6,0,P|376:288|409:221,1,123.240004137085,2|10,3:2|0:2,0:0:0:0:
501,136,56237,2,0,P|492:178|480:221,1,61.6200020685426,2|2,0:2|3:2,0:0:0:0:
454,290,56561,1,2,0:3:0:0:
329,206,56724,2,0,P|287:201|242:190,1,61.6200020685426,10|2,0:2|0:3,0:0:0:0:
212,336,57048,6,0,P|277:328|320:271,1,123.240004137085,0|10,3:2|0:2,0:0:0:0:
137,247,57534,2,0,P|118:306|103:366,1,123.240004137085,2|2,0:2|0:2,0:0:0:0:
226,247,58021,2,0,P|218:216|211:186,1,61.6200020685426,8|2,0:0|0:2,0:0:0:0:
71,168,58345,6,0,P|29:211|29:272,1,123.240004137085,2|8,3:2|0:0,0:0:0:0:
103,336,58832,1,0,0:0:0:0:
137,247,58994,1,2,3:2:0:0:
207,315,59156,1,2,0:0:0:0:
221,216,59318,2,0,P|215:201|210:186,2,30.8100010342713,10|8|8,0:2|0:0|0:3,0:0:0:0:
315,180,59643,6,0,P|369:190|422:148,1,123.240004137085,4|8,3:2|0:0,0:0:0:0:
311,55,60129,2,0,P|267:65|233:77,1,61.6200020685426,2|2,0:0|3:2,0:0:0:0:
150,147,60453,1,2,3:2:0:0:
232,263,60616,2,0,P|242:219|250:178,1,61.6200020685426,10|2,0:0|0:0,0:0:0:0:
251,70,60940,5,2,3:2:0:0:
150,147,61102,1,0,3:0:0:0:
315,180,61264,1,10,0:0:0:0:
150,265,61426,2,0,P|136:209|153:140,1,123.240004137085,2|0,0:0|3:2,0:0:0:0:
287,264,61913,2,0,P|298:316|305:347,1,61.6200020685426,10|2,3:2|0:0,0:0:0:0:
419,212,62237,6,0,P|373:203|330:199,1,61.6200020685426,2|0,3:2|3:2,0:0:0:0:
269,115,62561,2,0,P|338:106|382:64,1,123.240004137085,10|0,0:0|3:2,0:0:0:0:
293,18,63048,1,2,3:2:0:0:
250,156,63210,2,0,P|259:200|263:232,1,61.6200020685426,10|0,0:0|0:0,0:0:0:0:
183,325,63534,6,0,P|138:317|38:308,1,123.240004137085,2|10,3:2|0:0,0:0:0:0:
227,250,64021,2,0,P|263:291|241:379,1,123.240004137085,2|8,0:0|0:0,0:0:0:0:
136,198,64507,1,0,3:0:0:0:
267,168,64670,1,2,0:2:0:0:
267,168,64751,1,0,0:0:0:0:
267,168,64832,5,6,3:2:0:0:
380,53,64994,1,2,0:2:0:0:
380,165,65156,1,10,0:2:0:0:
275,59,65318,1,2,0:2:0:0:
474,118,65480,2,0,P|466:159|462:187,1,61.6200020685426,2|2,3:2|0:0,0:0:0:0:
365,263,65805,2,0,P|357:222|353:194,1,61.6200020685426,10|2,0:2|0:2,0:0:0:0:
229,164,66129,6,0,L|99:178,1,123.240004137085,2|10,3:2|0:2,0:0:0:0:
156,67,66616,1,2,0:2:0:0:
242,180,66778,2,0,P|230:246|223:312,1,123.240004137085,2|10,3:2|0:2,0:0:0:0:
336,348,67264,1,8,0:3:0:0:
336,348,67345,1,4,0:3:0:0:
336,348,67426,6,0,P|367:342|381:341,3,39.5,10|0|8|8,3:2|0:0|0:0|0:0,0:0:0:0:
408,268,67751,2,0,P|428:266|449:262,3,39.5,10|8|10|8,3:2|0:0|0:2|0:0,0:0:0:0:
344,216,68075,2,0,P|324:218|304:223,3,39.5,10|8|8|8,3:2|0:0|0:0|0:0,0:0:0:0:
412,168,68400,2,0,P|432:166|453:162,3,39.5,10|8|10|0,3:2|0:0|0:2|3:0,0:0:0:0:
344,124,68724,5,10,3:2:0:0:
327,41,69048,1,8,3:2:0:0:
412,168,69372,2,0,P|419:127|428:87,1,79,8|0,3:2|3:0,0:0:0:0:
177,147,69697,2,0,P|166:93|146:22,1,118.5,10|0,3:2|0:0,0:0:0:0:
124,53,70021,1,6,3:2:0:0:
44,209,70345,6,0,P|53:240|66:297,1,79,10|2,0:2|0:2,0:0:0:0:
160,367,70670,2,0,P|169:336|182:279,1,79,2|2,3:2|0:2,0:0:0:0:
246,183,70994,2,0,P|255:214|268:271,1,79,10|2,0:2|0:2,0:0:0:0:
349,332,71318,2,0,P|358:301|371:244,1,79,2|2,3:2|0:2,0:0:0:0:
390,131,71643,5,10,0:2:0:0:
472,226,71805,1,2,0:2:0:0:
329,184,71967,2,0,P|285:173|243:166,1,79,2|2,3:2|0:0,0:0:0:0:
126,155,72291,1,10,0:2:0:0:
195,260,72453,1,2,0:2:0:0:
126,155,72616,1,2,3:2:0:0:
126,155,72940,6,0,B|166:141|166:141|223:162,1,79,10|2,0:2|0:2,0:0:0:0:
329,184,73264,2,0,B|369:198|369:198|426:177,1,79,2|2,3:2|0:2,0:0:0:0:
491,93,73589,2,0,B|505:133|505:133|484:190,1,79,10|2,0:2|0:2,0:0:0:0:
436,280,73913,2,0,B|422:320|422:320|443:377,1,79,2|2,3:2|0:2,0:0:0:0:
510,253,74237,5,10,0:2:0:0:
403,185,74399,1,2,0:2:0:0:
325,284,74561,1,2,3:2:0:0:
200,153,74724,5,8,0:0:0:0:
336,38,74886,1,10,0:2:0:0:
317,162,75048,1,2,0:2:0:0:
317,162,75210,1,6,3:2:0:0:
317,162,75534,6,0,L|248:219,1,79,10|2,0:2|0:2,0:0:0:0:
131,235,75859,2,0,L|200:292,1,79,2|2,3:2|0:2,0:0:0:0:
325,284,76183,2,0,L|256:341,1,79,10|2,0:2|0:2,0:0:0:0:
129,334,76508,2,0,L|198:391,1,79,2|2,3:2|0:2,0:0:0:0:
161,261,76832,5,10,0:2:0:0:
39,295,76994,1,2,0:2:0:0:
98,183,77156,2,0,P|103:137|93:102,1,79,2|2,3:2|0:0,0:0:0:0:
21,3,77480,1,10,0:2:0:0:
146,23,77643,1,2,0:2:0:0:
21,3,77805,1,6,3:2:0:0:
21,3,78129,6,0,P|34:57|47:163,1,158,10|2,0:2|3:2,0:0:0:0:
13,281,78616,1,8,0:0:0:0:
13,281,78697,1,8,0:0:0:0:
13,281,78778,2,0,P|57:277|65:277,3,39.5,10|8|8|8,0:0|0:0|0:3|0:3,0:0:0:0:
64,364,79102,2,0,P|108:368|116:368,3,39.5,10|8|8|8,0:0|0:0|0:0|0:0,0:0:0:0:
150,302,79426,6,0,P|194:298|202:298,3,39.5,8|8|8|8,0:3|0:3|0:3|0:3,0:0:0:0:
220,372,79750,2,0,P|264:376|272:376,3,39.5,8|8|8|8,0:0|0:0|0:3|0:3,0:0:0:0:
280,304,80075,2,0,P|324:300|332:300,3,39.5,10|8|8|4,0:0|0:0|0:3|0:3,0:0:0:0:
396,316,80399,1,6,3:2:0:0:
396,316,80724,6,0,P|437:327|475:350,1,79,10|2,0:2|0:2,0:0:0:0:
491,203,81048,2,0,P|456:222|418:231,1,79,2|2,3:2|0:2,0:0:0:0:
350,125,81372,2,0,P|391:136|429:159,1,79,10|2,0:2|0:2,0:0:0:0:
486,40,81696,2,0,P|451:59|413:68,1,79,2|2,3:2|0:2,0:0:0:0:
288,46,82021,5,10,0:2:0:0:
176,105,82183,1,2,0:2:0:0:
251,187,82345,2,0,P|258:144|245:99,1,79,2|0,3:2|0:0,0:0:0:0:
339,200,82670,1,10,0:2:0:0:
236,273,82832,1,2,0:2:0:0:
339,200,82994,1,2,3:2:0:0:
339,200,83318,6,0,B|376:186|376:186|413:198,1,79,10|2,0:2|0:2,0:0:0:0:
375,319,83643,2,0,B|337:331|337:331|300:317,1,79,2|2,3:2|0:2,0:0:0:0:
200,240,83967,2,0,B|214:203|214:203|201:165,1,79,10|2,0:2|0:2,0:0:0:0:
89,225,84292,2,0,B|76:262|76:262|90:299,1,79,2|2,3:2|0:2,0:0:0:0:
200,240,84616,5,10,0:2:0:0:
114,147,84778,1,2,0:2:0:0:
200,55,84940,1,2,3:2:0:0:
26,20,85102,5,8,0:0:0:0:
114,147,85264,1,10,0:2:0:0:
117,20,85426,1,2,0:2:0:0:
117,20,85589,1,2,3:2:0:0:
117,20,85913,6,0,L|211:28,1,79,10|2,0:2|0:2,0:0:0:0:
291,109,86237,2,0,L|385:117,1,79,2|2,3:2|0:2,0:0:0:0:
481,175,86561,2,0,L|387:183,1,79,10|2,0:2|0:2,0:0:0:0:
307,264,86885,2,0,L|213:272,1,79,2|2,3:2|0:2,0:0:0:0:
101,282,87210,5,10,0:2:0:0:
147,164,87372,1,2,0:2:0:0:
51,81,87534,2,0,P|43:37|34:-7,1,79,2|2,3:2|0:2,0:0:0:0:
161,86,87859,2,0,P|153:130|144:174,1,79,10|0,0:2|0:0,0:0:0:0:
101,282,88183,1,2,3:2:0:0:
101,282,88507,6,0,B|175:268|179:309|268:288,2,158,10|2|10,0:2|3:2|0:2,0:0:0:0:
37,216,89318,1,0,0:0:0:0:
149,158,89480,1,2,3:2:0:0:
75,54,89643,5,8,0:0:0:0:
75,54,89724,1,8,0:0:0:0:
75,54,89805,2,0,P|68:97|68:107,3,39.5,10|8|10|8,3:2|0:0|0:2|0:0,0:0:0:0:
4,136,90129,2,0,P|11:179|11:189,3,39.5,10|8|10|8,3:2|0:0|0:2|0:0,0:0:0:0:
85,191,90453,2,0,P|78:234|78:244,3,39.5,10|8|10|8,3:2|0:0|0:2|0:0,0:0:0:0:
60,300,90778,6,0,P|117:305|151:313,1,79,6|0,3:2|3:0,0:0:0:0:
276,313,91102,2,0,P|238:264|269:169,1,158,10|0,0:2|3:0,0:0:0:0:
391,245,91589,2,0,P|352:234|311:239,1,79,2|8,3:2|0:0,0:0:0:0:
229,155,91913,1,2,0:0:0:0:
346,59,92075,1,2,3:2:0:0:
346,59,92399,6,0,P|397:70|430:71,2,79,10|2|2,0:2|0:2|3:2,0:0:0:0:
225,18,92886,1,2,3:2:0:0:
118,85,93048,2,0,P|134:132|140:166,1,79,10|2,0:2|0:2,0:0:0:0:
83,279,93372,1,2,3:2:0:0:
83,279,93697,5,10,0:2:0:0:
162,377,93859,2,0,P|119:367|78:362,1,79,2|2,0:2|3:2,0:0:0:0:
189,292,94183,1,2,3:2:0:0:
296,368,94345,2,0,P|305:324|311:282,1,79,8|2,0:2|0:0,0:0:0:0:
289,164,94670,1,2,3:2:0:0:
289,164,94994,5,10,0:2:0:0:
413,221,95156,2,0,P|402:267|395:304,1,79,2|2,0:2|3:2,0:0:0:0:
493,208,95480,1,2,3:2:0:0:
382,145,95643,2,0,P|337:152|291:157,1,79,10|2,0:2|0:2,0:0:0:0:
182,121,95967,1,2,3:2:0:0:
182,121,96291,5,10,0:2:0:0:
61,158,96453,2,0,P|53:109|44:71,1,79,2|0,0:2|3:0,0:0:0:0:
167,117,96778,1,2,3:2:0:0:
135,239,96940,2,0,P|126:277|120:316,1,79,8|2,0:0|0:2,0:0:0:0:
25,233,97264,1,0,3:0:0:0:
25,233,97589,6,0,P|17:184|8:146,2,79,10|2|2,0:2|0:2|3:2,0:0:0:0:
97,129,98075,1,2,3:2:0:0:
33,19,98237,1,10,0:2:0:0:
159,21,98399,1,10,0:2:0:0:
159,21,98480,1,8,0:0:0:0:
159,21,98561,1,2,3:2:0:0:
159,21,98886,6,0,P|204:44|273:40,1,118.5,10|0,0:2|0:0,0:0:0:0:
281,37,99210,2,0,P|296:89|303:131,1,79,2|0,3:2|3:0,0:0:0:0:
419,156,99534,2,0,L|430:30,1,118.5,10|0,0:2|3:0,0:0:0:0:
436,28,99859,2,0,P|390:38|349:28,1,79,10|0,0:2|3:0,0:0:0:0:
275,127,100183,2,0,L|190:136,1,79,8|2,0:2|3:2,0:0:0:0:
85,140,100507,5,10,0:2:0:0:
85,140,100589,1,0,0:0:0:0:
85,140,100670,1,10,0:2:0:0:
85,140,100751,1,8,0:0:0:0:
85,140,100832,2,0,P|96:183|99:197,3,39.5,10|8|10|8,3:2|0:0|0:2|0:0,0:0:0:0:
60,256,101156,6,0,P|50:304|41:344,2,79,2|2|8,3:2|0:2|0:0,0:0:0:0:
184,292,101643,2,0,P|195:338|200:377,1,79,2|0,0:2|3:0,0:0:0:0:
301,275,101967,2,0,P|312:229|317:190,1,79,2|8,0:2|0:0,0:0:0:0:
312,71,102291,1,2,0:2:0:0:
424,13,102453,1,2,3:2:0:0:
424,13,102778,6,0,P|471:25|512:31,1,79,10|2,0:2|0:2,0:0:0:0:
401,107,103102,1,2,3:2:0:0:
493,193,103264,1,2,0:2:0:0:
399,277,103426,1,10,0:2:0:0:
493,193,103589,1,2,0:2:0:0:
401,107,103751,6,0,P|389:61|375:22,2,79,2|2|8,3:2|0:2|0:0,0:0:0:0:
294,175,104237,2,0,P|336:188|387:192,1,79,2|0,0:2|3:0,0:0:0:0:
292,92,104561,2,0,P|252:96|215:109,1,79,2|8,0:2|0:0,0:0:0:0:
102,174,104886,1,2,0:2:0:0:
125,50,105048,1,2,3:2:0:0:
125,50,105372,5,10,0:2:0:0:
175,165,105534,2,0,P|189:210|192:250,1,79,2|0,3:2|3:2,0:0:0:0:
97,326,105859,2,0,P|150:319|186:322,1,79,10|2,0:2|3:2,0:0:0:0:
342,353,106183,1,10,0:2:0:0:
274,246,106345,1,2,3:2:0:0:
274,246,106670,5,10,0:2:0:0:
355,149,106832,2,0,P|306:156|269:161,1,79,2|0,0:2|3:0,0:0:0:0:
323,42,107156,2,0,P|372:49|409:54,1,79,2|8,0:2|0:0,0:0:0:0:
489,143,107480,1,2,0:2:0:0:
420,249,107643,1,0,3:0:0:0:
420,249,107967,6,0,P|409:303|400:336,2,79,10|2|2,0:2|0:2|3:2,0:0:0:0:
294,265,108453,1,2,0:2:0:0:
215,164,108616,1,10,0:2:0:0:
299,69,108778,1,2,0:2:0:0:
385,160,108940,1,2,3:2:0:0:
385,160,109264,6,0,L|225:148,1,158,10|2,0:2|3:2,0:0:0:0:
112,94,109751,1,8,0:0:0:0:
112,94,109832,1,8,0:0:0:0:
112,94,109913,2,0,P|103:131|99:148,3,39.5,10|8|8|8,0:2|0:0|0:3|0:3,0:0:0:0:
148,192,110237,2,0,P|157:229|161:246,3,39.5,2|8|8|8,3:2|0:0|0:0|0:0,0:0:0:0:
56,224,110561,6,0,P|47:261|43:278,3,39.5,8|8|8|8,0:3|0:3|0:3|0:3,0:0:0:0:
118,306,110885,2,0,P|127:343|131:360,3,39.5,10|8|8|8,0:2|0:0|0:3|0:3,0:0:0:0:
208,368,111210,2,0,P|255:360|272:359,3,39.5,8|8|0|0,0:0|0:0|3:0|3:0,0:0:0:0:
272,288,111534,1,6,3:2:0:0:
256,192,111616,12,2,115913,0:0:0:0:
175,286,116237,5,0,3:0:0:0:
175,286,116318,1,0,3:0:0:0:
175,286,116399,1,8,0:0:0:0:
175,286,116724,6,0,P|183:327|184:347,3,39.5,0|2|2|2,3:0|0:0|0:0|0:0,0:0:0:0:
107,239,117048,2,0,P|66:247|46:250,3,39.5,8|2|2|2,0:0|0:0|0:0|0:0,0:0:0:0:
153,170,117372,2,0,P|145:129|145:112,3,39.5,0|2|2|2,3:0|0:0|0:0|0:0,0:0:0:0:
221,217,117697,2,0,P|262:225|280:227,3,39.5,8|2|2|2,0:0|0:0|0:0|0:0,0:0:0:0:
265,147,118021,5,2,3:2:0:0:
349,198,118183,2,0,B|371:244|371:244|353:289,1,79,2|8,0:2|0:0,0:0:0:0:
386,377,118507,1,2,0:2:0:0:
449,285,118670,2,0,L|432:107,1,158,2|10,3:2|0:2,0:0:0:0:
365,48,119156,1,2,0:2:0:0:
251,81,119318,6,0,B|139:100|139:100|81:71,1,158,2|10,3:2|0:2,0:0:0:0:
31,155,119805,2,0,P|59:201|3:295,1,158,2|2,0:2|0:2,0:0:0:0:
108,346,120291,2,0,B|151:362|151:362|204:357,1,79,10|2,0:2|0:2,0:0:0:0:
302,293,120616,6,0,B|285:206|327:208|320:131,2,158,2|10|0,3:2|0:2|3:0,0:0:0:0:
420,369,121426,1,8,0:0:0:0:
470,257,121589,2,0,P|423:251|383:257,1,79,10|10,0:0|0:0,0:0:0:0:
318,154,121913,6,0,L|306:81,2,52.6666666666667,2|2|2,3:2|0:0|0:0,0:0:0:0:
236,139,122237,2,0,L|224:66,2,52.6666666666667,10|2|2,0:0|0:0|0:0,0:0:0:0:
200,213,122561,2,0,L|188:286,2,52.6666666666667,2|2|2,3:2|0:0|0:0,0:0:0:0:
117,222,122886,2,0,L|105:295,2,52.6666666666667,10|2|2,0:0|0:0|0:0,0:0:0:0:
84,148,123210,6,0,L|11:136,2,52.6666666666667,2|2|2,3:2|0:0|0:0,0:0:0:0:
72,71,123535,2,0,L|-1:59,2,52.6666666666667,10|2|2,0:0|0:0|0:0,0:0:0:0:
153,85,123859,2,0,L|226:73,2,52.6666666666667,2|2|2,3:2|0:0|0:0,0:0:0:0:
202,151,124184,2,0,L|275:139,2,52.6666666666667,10|2|2,0:0|0:0|0:0,0:0:0:0:
146,210,124507,6,0,P|130:262|190:349,2,158,2|8|2,3:2|0:0|3:2,0:0:0:0:
219,265,125318,1,0,0:0:0:0:
55,275,125480,1,10,0:0:0:0:
219,265,125643,1,8,0:0:0:0:
242,149,125805,6,0,P|262:151|286:154,3,39.5,8|8|8|8,0:2|0:0|0:0|0:0,0:0:0:0:
308,88,126129,2,0,P|327:85|347:83,3,39.5,8|8|8|8,0:2|0:0|0:0|0:0,0:0:0:0:
381,145,126453,2,0,P|401:147|425:150,3,39.5,8|8|8|8,0:2|0:0|0:0|0:0,0:0:0:0:
432,68,126777,2,0,P|451:65|471:63,3,39.5,8|8|8|8,0:2|0:0|0:0|0:0,0:0:0:0:
512,136,127102,6,0,P|503:203|499:243,1,79,4|2,3:2|0:2,0:0:0:0:
484,316,127426,1,10,0:2:0:0:
484,316,127589,1,2,0:2:0:0:
377,288,127751,2,0,P|324:300|292:308,1,79,2|2,3:2|0:2,0:0:0:0:
181,349,128075,1,10,0:2:0:0:
214,227,128237,1,2,0:2:0:0:
96,180,128399,6,0,P|111:233|122:273,1,79,2|2,3:2|0:2,0:0:0:0:
49,363,128724,1,10,0:2:0:0:
181,349,128886,2,0,P|242:362|273:373,1,79,2|0,0:2|0:0,0:0:0:0:
343,309,129210,1,2,0:2:0:0:
285,196,129372,2,0,P|264:151|263:115,1,79,10|2,0:2|0:2,0:0:0:0:
190,17,129697,6,0,L|168:186,1,158,2|10,3:2|0:2,0:0:0:0:
55,227,130183,1,2,0:2:0:0:
55,353,130345,2,0,P|99:349|147:344,1,79,2|0,3:2|0:0,0:0:0:0:
204,265,130670,2,0,P|248:269|296:274,1,79,10|0,0:0|0:0,0:0:0:0:
350,350,130994,2,0,P|361:278|389:168,1,158,2|10,3:2|0:2,0:0:0:0:
318,85,131480,2,0,P|277:69|229:74,1,79,2|0,3:2|3:2,0:0:0:0:
184,180,131805,5,8,0:0:0:0:
184,180,131886,1,8,0:0:0:0:
184,180,131967,2,0,P|179:224|179:235,3,39.5,8|8|8|8,0:3|0:3|0:0|0:0,0:0:0:0:
265,219,132291,6,0,P|332:208|395:191,1,118.5,6|0,3:2|0:0,0:0:0:0:
393,189,132616,2,0,P|390:144|377:105,1,79,10|0,0:2|0:0,0:0:0:0:
278,37,132940,2,0,L|158:53,1,118.5,2|0,3:2|0:0,0:0:0:0:
146,51,133264,2,0,L|38:49,1,79,10|0,0:2|0:0,0:0:0:0:
166,128,133589,6,0,P|215:87|210:-3,2,158,2|10|2,3:2|0:2|3:2,0:0:0:0:
45,186,134561,1,0,3:0:0:0:
45,186,134643,1,0,0:0:0:0:
45,186,134724,1,0,3:0:0:0:
45,186,134805,1,0,0:0:0:0:
45,186,134886,5,8,0:0:0:0:
90,303,135048,1,8,0:0:0:0:
225,90,135372,5,8,0:0:0:0:
180,207,135534,1,8,0:0:0:0:
433,213,135859,5,8,0:0:0:0:
478,96,136021,1,8,0:0:0:0:
236,21,136345,5,8,3:2:0:0:
281,138,136507,1,8,3:2:0:0:
281,138,136832,5,8,0:0:0:0:
478,96,137156,1,8,0:0:0:0:
396,323,137480,6,0,P|365:317|351:316,3,39.5,4|0|0|0,3:2|0:0|3:0|3:0,0:0:0:0:
324,243,137805,2,0,P|304:241|283:237,3,39.5,8|0|0|0,3:2|3:0|3:0|3:0,0:0:0:0:
388,191,138129,2,0,P|408:193|428:198,3,39.5,8|0|0|0,3:2|3:0|3:0|3:0,0:0:0:0:
320,143,138453,2,0,P|300:141|279:137,3,39.5,8|8|4|4,3:2|3:2|3:3|3:3,0:0:0:0:
317,66,138778,6,0,P|336:62|356:60,3,39.5,4|0|0|8,3:2|3:0|3:0|3:2,0:0:0:0:
236,56,139102,2,0,P|216:52|196:50,3,39.5,8|8|8|8,3:2|3:2|3:2|3:2,0:0:0:0:
199,128,139426,2,0,P|179:124|159:122,3,39.5,0|8|8|8,3:0|3:2|3:2|3:2,0:0:0:0:
168,196,139751,2,0,P|148:192|128:190,3,39.5,8|8|8|8,3:2|3:2|3:2|3:2,0:0:0:0:
146,266,140075,5,4,3:0:0:0:
136,278,140156,1,4,3:0:0:0:
119,288,140237,1,4,3:0:0:0:
100,298,140318,1,4,3:0:0:0:
78,310,140399,2,0,P|61:281|52:263,3,39.5,4|4|4|4,3:0|3:0|3:0|3:0,0:0:0:0:
12,212,140724,2,0,P|29:183|38:165,3,39.5,4|4|4|4,3:0|3:0|3:0|3:0,0:0:0:0:
67,109,141048,2,0,P|50:80|41:62,3,39.5,4|4|4|4,3:0|3:0|3:0|3:0,0:0:0:0:
85,10,141372,5,8,0:0:0:0:
191,71,141534,1,0,3:0:0:0:
191,71,141859,1,0,3:0:0:0:
363,272,142183,6,0,P|354:225|352:220,2,39.5,0|0|8,3:0|3:0|0:0,0:0:0:0:
363,272,142670,5,4,3:2:0:0:
142,300,143967,1,4,3:2:0:0:
365,108,145264,1,4,3:2:0:0:
384,255,146561,1,4,3:2:0:0:
277,332,147697,1,8,0:0:0:0:
277,332,147859,6,0,B|235:314|235:314|147:336,1,118.500004520416,0|2,3:2|3:2,0:0:0:0:
76,320,148345,1,2,0:2:0:0:
68,231,148507,2,0,P|74:185|79:157,1,59.2500022602082,2|2,3:2|0:2,0:0:0:0:
147,118,148832,2,0,P|141:72|136:44,1,59.2500022602082,2|2,3:2|0:2,0:0:0:0:
223,85,149156,6,0,P|265:98|289:111,1,59.2500022602082,2|2,3:2|0:2,0:0:0:0:
359,140,149480,2,0,P|401:127|425:114,1,59.2500022602082,2|2,3:2|0:2,0:0:0:0:
486,173,149805,2,0,P|470:219|465:244,1,59.2500022602082,2|2,3:2|0:2,0:0:0:0:
381,252,150129,2,0,P|397:298|402:323,1,59.2500022602082,2|0,3:2|0:0,0:0:0:0:
295,364,150453,5,2,3:2:0:0:
295,364,151102,1,0,3:0:0:0:
295,364,151183,1,0,3:0:0:0:
295,364,151264,1,8,0:0:0:0:
295,364,151345,1,8,0:0:0:0:
295,364,151426,2,0,P|250:359|243:359,4,39.5,8|8|8|8|4,0:0|0:0|0:3|0:3|0:0,0:0:0:0:
44,175,153048,5,6,3:2:0:0:
44,175,153372,6,0,B|41:130|41:130|66:87,1,79,10|2,0:2|0:2,0:0:0:0:
156,20,153697,2,0,B|179:60|179:60|178:108,1,79,2|2,3:2|0:2,0:0:0:0:
246,201,154021,2,0,B|245:158|245:158|268:113,1,79,10|2,0:2|0:2,0:0:0:0:
364,53,154345,2,0,B|387:94|387:94|386:141,1,79,2|2,3:2|0:2,0:0:0:0:
390,253,154670,5,10,0:2:0:0:
472,158,154832,1,2,0:2:0:0:
329,200,154994,2,0,P|285:211|243:218,1,79,2|2,3:2|0:0,0:0:0:0:
126,229,155318,1,10,0:2:0:0:
195,124,155480,1,2,0:2:0:0:
126,229,155643,1,2,3:2:0:0:
126,229,155967,6,0,B|166:243|223:222,1,79,10|2,0:2|0:2,0:0:0:0:
329,200,156291,2,0,B|369:186|426:207,1,79,2|2,3:2|0:2,0:0:0:0:
491,291,156616,2,0,B|505:251|484:194,1,79,10|2,0:2|0:2,0:0:0:0:
436,104,156940,2,0,B|422:64|443:7,1,79,2|2,3:2|0:2,0:0:0:0:
510,131,157264,5,10,0:2:0:0:
403,199,157426,1,2,0:2:0:0:
325,100,157588,1,2,3:2:0:0:
200,231,157751,5,8,0:0:0:0:
336,346,157913,1,10,0:2:0:0:
317,222,158075,1,2,0:2:0:0:
317,222,158237,1,2,3:2:0:0:
317,222,158561,6,0,P|285:198|248:165,1,79,10|2,0:2|0:2,0:0:0:0:
131,149,158886,2,0,P|172:119|200:92,1,79,2|2,3:2|0:2,0:0:0:0:
325,100,159210,2,0,P|284:68|256:43,1,79,10|2,0:2|0:2,0:0:0:0:
129,50,159535,2,0,P|170:17|198:-7,1,79,2|2,3:2|0:2,0:0:0:0:
161,123,159859,5,10,0:2:0:0:
39,89,160021,1,2,0:2:0:0:
98,201,160183,2,0,P|103:247|93:282,1,79,2|2,3:2|0:2,0:0:0:0:
21,381,160507,1,10,0:2:0:0:
146,361,160670,1,0,0:0:0:0:
21,381,160832,1,2,3:2:0:0:
21,381,161156,6,0,P|34:327|47:221,1,158,10|2,0:2|3:2,0:0:0:0:
13,103,161643,1,0,0:0:0:0:
13,103,161724,1,0,0:0:0:0:
13,103,161805,2,0,P|57:107|65:107,3,39.5,10|0|0|0,0:2|0:0|3:0|3:0,0:0:0:0:
68,24,162129,2,0,P|112:20|120:20,3,39.5,10|0|8|8,3:2|0:0|0:0|0:0,0:0:0:0:
150,82,162453,6,0,P|194:86|202:86,3,39.5,10|8|10|8,3:2|0:0|0:2|0:0,0:0:0:0:
204,16,162777,2,0,P|248:12|256:12,3,39.5,10|8|10|8,3:2|0:0|0:2|0:0,0:0:0:0:
288,78,163102,2,0,P|332:82|340:82,3,39.5,10|8|10|8,3:2|0:0|0:2|0:0,0:0:0:0:
355,96,163426,6,0,P|374:141|323:229,1,158,6|10,3:2|0:2,0:0:0:0:
226,311,163913,2,0,P|285:300|325:304,1,79,2|0,0:2|3:0,0:0:0:0:
208,217,164237,2,0,P|168:216|130:206,1,79,2|8,3:2|0:0,0:0:0:0:
30,129,164561,1,2,0:0:0:0:
104,26,164724,1,2,3:2:0:0:
104,26,165048,6,0,P|52:20|6:14,2,79,10|2|2,0:2|0:2|3:2,0:0:0:0:
229,38,165534,1,2,3:2:0:0:
171,151,165697,2,0,P|162:108|165:74,1,79,10|2,0:2|0:2,0:0:0:0:
289,97,166021,1,2,3:2:0:0:
289,97,166345,6,0,P|291:136|283:174,1,79,10|2,0:2|0:2,0:0:0:0:
241,300,166670,1,2,3:2:0:0:
370,273,166832,2,0,L|458:264,1,79,2|8,3:2|0:2,0:0:0:0:
379,159,167156,1,2,0:0:0:0:
285,244,167318,1,2,3:2:0:0:
285,244,167643,5,10,0:2:0:0:
163,279,167805,2,0,B|148:326|160:374,1,79,2|2,0:2|3:2,0:0:0:0:
49,289,168129,1,2,3:2:0:0:
98,172,168291,2,0,L|195:164,1,79,10|2,0:2|0:2,0:0:0:0:
266,75,168616,1,2,3:2:0:0:
266,75,168940,5,10,0:2:0:0:
161,3,169102,2,0,P|177:66|177:98,1,79,2|0,0:2|3:0,0:0:0:0:
258,176,169426,2,0,P|274:113|274:81,1,79,2|8,3:2|0:0,0:0:0:0:
373,19,169751,1,2,0:2:0:0:
458,111,169913,1,0,3:0:0:0:
458,111,170237,6,0,P|491:88|519:51,2,79,10|2|2,0:2|0:2|3:2,0:0:0:0:
380,211,170724,2,0,P|441:199|473:199,1,79,2|10,3:2|0:2,0:0:0:0:
500,317,171048,1,10,0:2:0:0:
382,363,171210,1,2,3:2:0:0:
382,363,171534,6,0,P|337:340|268:344,1,118.5,10|0,0:2|0:0,0:0:0:0:
260,347,171858,2,0,P|245:295|238:253,1,79,2|0,3:2|3:0,0:0:0:0:
122,228,172182,2,0,L|111:354,1,118.5,10|0,0:2|3:0,0:0:0:0:
105,356,172507,2,0,P|151:346|192:356,1,79,10|0,0:2|3:0,0:0:0:0:
266,257,172831,2,0,L|351:248,1,79,8|2,0:2|3:2,0:0:0:0:
456,244,173155,5,10,0:2:0:0:
456,244,173237,1,0,0:0:0:0:
456,244,173318,1,10,0:2:0:0:
456,244,173399,1,8,0:0:0:0:
456,244,173480,2,0,P|445:201|442:187,3,39.5,10|8|10|8,3:2|0:0|0:2|0:0,0:0:0:0:
427,184,173804,6,0,P|437:136|446:96,2,79,2|2|8,3:2|0:2|0:0,0:0:0:0:
340,92,174291,2,0,P|329:46|324:7,1,79,2|0,0:2|3:0,0:0:0:0:
240,109,174615,2,0,P|229:155|224:194,1,79,2|8,0:2|0:0,0:0:0:0:
229,313,174939,1,2,0:2:0:0:
117,371,175101,1,2,3:2:0:0:
117,371,175426,6,0,P|70:359|29:353,1,79,10|2,0:2|0:2,0:0:0:0:
140,277,175750,1,2,3:2:0:0:
48,191,175912,1,2,0:2:0:0:
142,107,176074,1,10,0:2:0:0:
48,191,176237,1,2,0:2:0:0:
140,277,176399,6,0,P|152:323|166:362,2,79,2|2|8,3:2|0:2|0:0,0:0:0:0:
247,209,176885,2,0,P|205:196|154:192,1,79,2|0,0:2|3:0,0:0:0:0:
249,292,177210,2,0,P|289:288|326:275,1,79,2|8,0:2|0:0,0:0:0:0:
439,210,177534,1,2,0:2:0:0:
416,334,177696,1,2,3:2:0:0:
416,334,178020,5,10,0:2:0:0:
366,219,178182,2,0,B|342:181|342:181|353:133,1,79,2|0,3:2|3:2,0:0:0:0:
444,58,178507,2,0,B|394:69|394:69|356:57,1,79,10|2,0:2|3:2,0:0:0:0:
199,31,178831,1,10,0:2:0:0:
267,138,178993,1,2,3:2:0:0:
267,138,179318,5,10,0:2:0:0:
186,235,179480,2,0,P|230:222|272:223,1,79,2|0,0:2|3:0,0:0:0:0:
218,342,179804,2,0,P|169:335|132:330,1,79,2|8,0:2|0:0,0:0:0:0:
52,241,180128,1,2,0:2:0:0:
121,135,180291,1,0,3:0:0:0:
121,135,180615,6,0,P|132:81|141:48,2,79,10|2|2,0:2|0:2|3:2,0:0:0:0:
247,119,181101,1,2,0:2:0:0:
326,220,181264,1,10,0:2:0:0:
242,315,181426,1,2,0:2:0:0:
156,224,181588,1,2,3:2:0:0:
156,224,181913,6,0,B|214:215|214:215|257:241|257:241|316:229,1,158,10|2,0:2|3:2,0:0:0:0:
429,290,182400,1,8,0:0:0:0:
429,290,182481,1,8,0:0:0:0:
429,290,182562,2,0,P|438:253|442:236,3,39.5,10|8|8|8,0:2|0:0|0:3|0:3,0:0:0:0:
372,200,182886,2,0,P|363:163|359:146,3,39.5,2|8|8|8,3:2|0:0|0:0|0:0,0:0:0:0:
452,168,183210,6,0,P|461:131|465:114,3,39.5,8|8|8|8,0:3|0:3|0:3|0:3,0:0:0:0:
392,88,183534,2,0,P|383:51|379:34,3,39.5,10|8|8|8,0:2|0:0|0:3|0:3,0:0:0:0:
308,60,183859,2,0,P|261:68|244:69,3,39.5,8|8|0|0,0:0|0:0|3:0|3:0,0:0:0:0:
264,136,184183,5,4,3:2:0:0:
256,192,184264,12,0,186778,3:0:0:0:
