osu file format v14

[General]
AudioFilename: audio.mp3
AudioLeadIn: 0
PreviewTime: 142264
Countdown: 0
SampleSet: Soft
StackLeniency: 0.2
Mode: 0
LetterboxInBreaks: 0
EpilepsyWarning: 1
WidescreenStoryboard: 1

[Editor]
Bookmarks: 2562,12940,22021,23318,33697,44075,49264,59643,67426,68724,69048,69372,69697,70021,77805,80399,88183,89480,90778,98561,101156,111534,116724,127102,137480,142670,147859,153048,184183
DistanceSpacing: 1
BeatDivisor: 4
GridSize: 4
TimelineZoom: 2.799999

[Metadata]
Title:Teo
TitleUnicode:テオ
Artist:Omoi
ArtistUnicode:Omoi
Creator:Shmiklak
Version:Sway Me Like Never Before
Source:osu!
Tags:marvollo m_a_r_v_o_l_l_o gero nymphe daycore wajinshu vocaloid hatsune miku synth rock first waltz japanese fa featured artist mappers' guild mpg 初音ミク j-rock ボーカロイド
BeatmapID:2647406
BeatmapSetID:1274098

[Difficulty]
HPDrainRate:7
CircleSize:4.5
OverallDifficulty:9
ApproachRate:9.7
SliderMultiplier:1.8
SliderTickRate:1

[Events]
//Background and Video events
0,0,"123.jpg",0,0
//Break Periods
2,13139,21526
//Storyboard Layer 0 (Background)
//Storyboard Layer 1 (Fail)
//Storyboard Layer 2 (Pass)
//Storyboard Layer 3 (Foreground)
Sprite,Foreground,Centre,"sb\credits\shmiklak.png",320,325 S,0,15534,,0.3 F,0,15534,15859,0,1 F,0,22021,23318,1,0
Sprite,Foreground,Centre,"sb\l.png",302,166 C,0,116724,,242,108,94 F,2,116724,116924,1,0 S,2,116724,116924,1.4,0.28
Sprite,Foreground,Centre,"sb\l.png",327,128 C,0,116805,,242,108,94 F,2,116805,117005,1,0 S,2,116805,117005,1.4,0.28
Sprite,Foreground,Centre,"sb\l.png",364,103 C,0,116886,,242,108,94 F,2,116886,117086,1,0 S,2,116886,117086,1.4,0.28
Sprite,Foreground,Centre,"sb\l.png",408,94 C,0,116967,,242,108,94 F,2,116967,117167,1,0 S,2,116967,117167,1.4,0.28
Sprite,Foreground,Centre,"sb\l.png",452,103 C,0,117048,,242,108,94 F,2,117048,117248,1,0 S,2,117048,117248,1.4,0.28
Sprite,Foreground,Centre,"sb\l.png",490,128 C,0,117129,,242,108,94 F,2,117129,117329,1,0 S,2,117129,117329,1.4,0.28
Sprite,Foreground,Centre,"sb\l.png",515,166 C,0,117210,,242,108,94 F,2,117210,117410,1,0 S,2,117210,117410,1.4,0.28
Sprite,Foreground,Centre,"sb\l.png",523,210 C,0,117291,,242,108,94 F,2,117291,117491,1,0 S,2,117291,117491,1.4,0.28
Sprite,Foreground,Centre,"sb\l.png",515,254 C,0,117372,,242,108,94 F,2,117372,117572,1,0 S,2,117372,117572,1.4,0.28
Sprite,Foreground,Centre,"sb\l.png",490,291 C,0,117453,,242,108,94 F,2,117453,117653,1,0 S,2,117453,117653,1.4,0.28
Sprite,Foreground,Centre,"sb\l.png",452,316 C,0,117534,,242,108,94 F,2,117534,117734,1,0 S,2,117534,117734,1.4,0.28
Sprite,Foreground,Centre,"sb\l.png",408,325 C,0,117616,,242,108,94 F,2,117616,117816,1,0 S,2,117616,117816,1.4,0.28
Sprite,Foreground,Centre,"sb\l.png",364,316 C,0,117697,,242,108,94 F,2,117697,117897,1,0 S,2,117697,117897,1.4,0.28
Sprite,Foreground,Centre,"sb\l.png",327,291 C,0,117778,,242,108,94 F,2,117778,117978,1,0 S,2,117778,117978,1.4,0.28
Sprite,Foreground,Centre,"sb\l.png",302,254 C,0,117859,,242,108,94 F,2,117859,118059,1,0 S,2,117859,118059,1.4,0.28
Sprite,Foreground,Centre,"sb\l.png",293,207 C,0,117940,,242,108,94 F,2,117940,118140,1,0 S,2,117940,118140,1.4,0.28
Sprite,Foreground,Centre,"sb\l.png",0,0 C,0,118021,,166,142,193 M,0,118021,118061,302,166,297.8309,143.9087 F,2,118021,118302,1,0 S,2,118021,118302,1.4,0.28 M,0,118061,118102,297.8309,143.9087,291.6336,122.2985
Sprite,Foreground,Centre,"sb\l.png",0,0 C,0,118183,,166,142,193 M,0,118183,118223,119,80,114.8309,102.0913 F,2,118183,118464,1,0 S,2,118183,118464,1.4,0.28 M,0,118223,118264,114.8309,102.0913,108.6336,123.7015
Sprite,Foreground,Centre,"sb\l.png",70,287 C,0,118345,,249,155,206 F,2,118345,118545,1,0 S,2,118345,118545,1.4,0.28
Sprite,Foreground,Centre,"sb\l.png",70,287 C,0,118426,,249,155,206 F,2,118426,118626,1,0 S,2,118426,118626,1.4,0.28
Sprite,Foreground,Centre,"sb\l.png",0,0 C,0,118507,,249,155,206 M,0,118507,118547,70,287,87.20742,272.7726 F,2,118507,118788,1,0 S,2,118507,118788,1.4,0.28 M,0,118547,118588,87.20742,272.7726,107.747,264.137
Sprite,Foreground,Centre,"sb\l.png",0,0 C,0,118670,,249,155,206 M,0,118670,118710,149,439,147.2407,416.5689 F,2,118670,119032,1,0 S,2,118670,119032,1.4,0.28 M,0,118710,118751,147.2407,416.5689,145.4814,394.1378 M,0,118751,118791,145.4814,394.1378,143.7221,371.7067 M,0,118791,118832,143.7221,371.7067,141.9628,349.2755
Sprite,Foreground,Centre,"sb\l.png",0,0 C,0,118994,,139,160,235 M,0,118994,119034,251,183,272.7283,178.5834 F,2,118994,119437,1,0 S,2,118994,119437,1.4,0.28 M,0,119034,119075,272.7283,178.5834,294.4899,182.8253 M,0,119075,119115,294.4899,182.8253,272.7283,178.5834 M,0,119115,119156,272.7283,178.5834,251,183 M,0,119156,119196,251,183,272.7283,178.5834 M,0,119196,119237,272.7283,178.5834,294.4899,182.8253
Sprite,Foreground,Centre,"sb\l.png",0,0 C,0,119318,,139,160,235 M,0,119318,119358,365,258,353.9072,238.4245 F,2,119318,119761,1,0 S,2,119318,119761,1.4,0.28 M,0,119358,119399,353.9072,238.4245,342.8144,218.849 M,0,119399,119439,342.8144,218.849,331.7216,199.2735 M,0,119439,119480,331.7216,199.2735,338.7175,178.4306 M,0,119480,119520,338.7175,178.4306,346.9721,157.4994 M,0,119520,119561,346.9721,157.4994,355.2266,136.5683
Sprite,Foreground,Centre,"sb\l.png",0,0 C,0,119643,,139,160,235 M,0,119643,119683,513,56,508.2055,77.97766 F,2,119643,119924,1,0 S,2,119643,119924,1.4,0.28 M,0,119683,119724,508.2055,77.97766,504.5311,100.1694
Sprite,Foreground,Centre,"sb\l.png",0,0 C,0,119805,,139,160,235 M,0,119805,119845,555,227,554.734,249.4959 F,2,119805,120167,1,0 S,2,119805,120167,1.4,0.28 M,0,119845,119886,554.734,249.4959,555.2773,271.986 M,0,119886,119926,555.2773,271.986,556.6857,294.439 M,0,119926,119967,556.6857,294.439,558.957,316.8219
Sprite,Foreground,Centre,"sb\l.png",0,0 C,0,120129,,139,160,235 M,0,120129,120169,360,352,337.7718,348.5132 F,2,120129,120410,1,0 S,2,120129,120410,1.4,0.28 M,0,120169,120210,337.7718,348.5132,315.5436,345.0265
Sprite,Foreground,Centre,"sb\l.png",424,433 C,0,120291,,139,160,235 F,2,120291,120491,1,0 S,2,120291,120491,1.4,0.28
Sprite,Foreground,Centre,"sb\l.png",0,0 C,0,120453,,242,108,94 M,0,120453,120493,523,203,501.1084,208.1362 F,2,120453,120977,1,0 S,2,120453,120977,1.4,0.28 M,0,120493,120534,501.1084,208.1362,478.7034,209.6496 M,0,120534,120574,478.7034,209.6496,456.8227,204.9154 M,0,120574,120615,456.8227,204.9154,437.5685,193.3949 M,0,120615,120655,437.5685,193.3949,419.1971,180.4307 M,0,120655,120696,419.1971,180.4307,398.2222,172.6265 M,0,120696,120736,398.2222,172.6265,375.8029,171.9266 M,0,120736,120777,375.8029,171.9266,353.6674,175.8343
Sprite,Foreground,Centre,"sb\l.png",0,0 C,0,120940,,242,108,94 M,0,120940,120980,286,361,301.2463,377.4779 F,2,120940,121302,1,0 S,2,120940,121302,1.4,0.28 M,0,120980,121021,301.2463,377.4779,313.7635,396.1058 M,0,121021,121061,313.7635,396.1058,322.6659,416.7063 M,0,121061,121102,322.6659,416.7063,328.2831,438.4378
Sprite,Foreground,Centre,"sb\l.png",137,288 C,0,121264,,242,108,94 F,2,121264,121464,1,0 S,2,121264,121464,1.4,0.28
Sprite,Foreground,Centre,"sb\l.png",0,0 C,0,121426,,242,108,94 M,0,121426,121466,337,253,359.181,256.7755 F,2,121426,121707,1,0 S,2,121426,121707,1.4,0.28 M,0,121466,121507,359.181,256.7755,381.3619,260.551
Sprite,Foreground,Centre,"sb\l.png",0,0 C,0,121589,,242,108,94 M,0,121589,121629,205,182,227.181,178.2245 F,2,121589,121870,1,0 S,2,121589,121870,1.4,0.28 M,0,121629,121670,227.181,178.2245,249.362,174.449
Sprite,Foreground,Centre,"sb\l.png",137,288 C,0,121751,,166,142,193 F,2,121751,121951,1,0 S,2,121751,121951,1.4,0.28
Sprite,Foreground,Centre,"sb\l.png",147,305 C,0,121832,,166,142,193 F,2,121832,122032,1,0 S,2,121832,122032,1.4,0.28
Sprite,Foreground,Centre,"sb\l.png",0,0 C,0,121913,,166,142,193 M,0,121913,121953,154,325,157.3995,347.1883 F,2,121913,122329,1,0 S,2,121913,122329,1.4,0.28 M,0,121953,121994,157.3995,347.1883,157.2585,369.6278 M,0,121994,122034,157.2585,369.6278,156.3589,377.0691 M,0,122034,122075,156.3589,377.0691,157.7791,354.6638 M,0,122075,122115,157.7791,354.6638,155.3679,332.3686 M,0,122115,122129,155.3679,332.3686,154,325
Sprite,Foreground,Centre,"sb\l.png",0,0 C,0,122237,,166,142,193 M,0,122237,122277,79,168,76.34436,145.7093 F,2,122237,122653,1,0 S,2,122237,122653,1.4,0.28 M,0,122277,122318,76.34436,145.7093,77.17915,123.2815 M,0,122318,122358,77.17915,123.2815,78.27704,115.8631 M,0,122358,122399,78.27704,115.8631,76.20221,138.225 M,0,122399,122439,76.20221,138.225,77.88592,160.5888 M,0,122439,122453,77.88592,160.5888,79,168
Sprite,Foreground,Centre,"sb\l.png",0,0 C,0,122561,,166,142,193 M,0,122561,122601,78,365,75.13633,387.2726 F,2,122561,122977,1,0 S,2,122561,122977,1.4,0.28 M,0,122601,122642,75.13633,387.2726,69.07114,408.8853 M,0,122642,122682,69.07114,408.8853,66.30255,415.8499 M,0,122682,122723,66.30255,415.8499,73.49366,394.5774 M,0,122723,122763,73.49366,394.5774,77.26352,372.4591 M,0,122763,122777,77.26352,372.4591,78,365
Sprite,Foreground,Centre,"sb\l.png",0,0 C,0,122885,,166,142,193 M,0,122885,122925,157,142,159.4583,119.7055 F,2,122885,123301,1,0 S,2,122885,123301,1.4,0.28 M,0,122925,122966,159.4583,119.7055,165.8883,98.2216 M,0,122966,123006,165.8883,98.2216,168.9467,91.37394 M,0,123006,123047,168.9467,91.37394,161.1305,112.414 M,0,123047,123087,161.1305,112.414,157.5587,134.5284 M,0,123087,123101,157.5587,134.5284,157,142
Sprite,Foreground,Centre,"sb\l.png",272,277 C,0,123210,,249,155,206 F,2,123210,123410,1,0 S,2,123210,123410,1.4,0.28
Sprite,Foreground,Centre,"sb\l.png",335,236 C,0,123318,,249,155,206 F,2,123318,123518,1,0 S,2,123318,123518,1.4,0.28
Sprite,Foreground,Centre,"sb\l.png",267,195 C,0,123426,,249,155,206 F,2,123426,123626,1,0 S,2,123426,123626,1.4,0.28
Sprite,Foreground,Centre,"sb\l.png",349,317 C,0,123534,,139,160,235 F,2,123534,123734,1,0 S,2,123534,123734,1.4,0.28
Sprite,Foreground,Centre,"sb\l.png",403,397 C,0,123642,,139,160,235 F,2,123642,123842,1,0 S,2,123642,123842,1.4,0.28
Sprite,Foreground,Centre,"sb\l.png",442,311 C,0,123750,,139,160,235 F,2,123750,123950,1,0 S,2,123750,123950,1.4,0.28
Sprite,Foreground,Centre,"sb\l.png",301,402 C,0,123859,,242,108,94 F,2,123859,124059,1,0 S,2,123859,124059,1.4,0.28
Sprite,Foreground,Centre,"sb\l.png",206,380 C,0,123967,,242,108,94 F,2,123967,124167,1,0 S,2,123967,124167,1.4,0.28
Sprite,Foreground,Centre,"sb\l.png",113,357 C,0,124075,,242,108,94 F,2,124075,124275,1,0 S,2,124075,124275,1.4,0.28
Sprite,Foreground,Centre,"sb\l.png",64,216 C,0,124183,,166,142,193 F,2,124183,124383,1,0 S,2,124183,124383,1.4,0.28
Sprite,Foreground,Centre,"sb\l.png",175,190 C,0,124291,,166,142,193 F,2,124291,124491,1,0 S,2,124291,124491,1.4,0.28
Sprite,Foreground,Centre,"sb\l.png",286,167 C,0,124399,,166,142,193 F,2,124399,124599,1,0 S,2,124399,124599,1.4,0.28
Sprite,Foreground,Centre,"sb\l.png",0,0 C,0,124507,,249,155,206 M,0,124507,124547,166,279,168.001,256.5892 F,2,124507,124869,1,0 S,2,124507,124869,1.4,0.28 M,0,124547,124588,168.001,256.5892,170.0019,234.1783 M,0,124588,124628,170.0019,234.1783,172.0029,211.7675 M,0,124628,124669,172.0029,211.7675,174.0039,189.3566
Sprite,Foreground,Centre,"sb\l.png",0,0 C,0,124832,,249,155,206 M,0,124832,124872,353,76,355.0143,98.40965 F,2,124832,125194,1,0 S,2,124832,125194,1.4,0.28 M,0,124872,124913,355.0143,98.40965,357.0287,120.8193 M,0,124913,124953,357.0287,120.8193,359.0431,143.2289 M,0,124953,124994,359.0431,143.2289,361,165
Sprite,Foreground,Centre,"sb\l.png",0,0 C,0,125156,,249,155,206 M,0,125156,125196,505,365,507.0092,342.5899 F,2,125156,125599,1,0 S,2,125156,125599,1.4,0.28 M,0,125196,125237,507.0092,342.5899,509.0184,320.1798 M,0,125237,125277,509.0184,320.1798,511.0276,297.7697 M,0,125277,125318,511.0276,297.7697,513.0367,275.3596 M,0,125318,125358,513.0367,275.3596,515.0459,252.9494 M,0,125358,125399,515.0459,252.9494,517.0551,230.5393
Sprite,Foreground,Centre,"sb\l.png",520,202 C,0,125480,,249,155,206 F,2,125480,125680,1,0 S,2,125480,125680,1.4,0.28
Sprite,Foreground,Centre,"sb\l.png",338,67 C,0,125643,,249,155,206 F,2,125643,125843,1,0 S,2,125643,125843,1.4,0.28
Sprite,Foreground,Centre,"sb\l.png",119,194 C,0,125805,,139,160,235 F,2,125805,126005,1,0 S,2,125805,126005,1.4,0.28
Sprite,Foreground,Centre,"sb\l.png",88,236 C,0,125886,,139,160,235 F,2,125886,126086,1,0 S,2,125886,126086,1.4,0.28
Sprite,Foreground,Centre,"sb\l.png",79,289 C,0,125967,,139,160,235 F,2,125967,126167,1,0 S,2,125967,126167,1.4,0.28
Sprite,Foreground,Centre,"sb\l.png",96,339 C,0,126048,,139,160,235 F,2,126048,126248,1,0 S,2,126048,126248,1.4,0.28
Sprite,Foreground,Centre,"sb\l.png",134,376 C,0,126129,,139,160,235 F,2,126129,126329,1,0 S,2,126129,126329,1.4,0.28
Sprite,Foreground,Centre,"sb\l.png",185,391 C,0,126210,,139,160,235 F,2,126210,126410,1,0 S,2,126210,126410,1.4,0.28
Sprite,Foreground,Centre,"sb\l.png",238,380 C,0,126291,,139,160,235 F,2,126291,126491,1,0 S,2,126291,126491,1.4,0.28
Sprite,Foreground,Centre,"sb\l.png",279,348 C,0,126372,,139,160,235 F,2,126372,126572,1,0 S,2,126372,126572,1.4,0.28
Sprite,Foreground,Centre,"sb\l.png",328,281 C,0,126453,,242,108,94 F,2,126453,126653,1,0 S,2,126453,126653,1.4,0.28
Sprite,Foreground,Centre,"sb\l.png",397,262 C,0,126534,,242,108,94 F,2,126534,126734,1,0 S,2,126534,126734,1.4,0.28
Sprite,Foreground,Centre,"sb\l.png",463,295 C,0,126615,,242,108,94 F,2,126615,126815,1,0 S,2,126615,126815,1.4,0.28
Sprite,Foreground,Centre,"sb\l.png",491,363 C,0,126696,,242,108,94 F,2,126696,126896,1,0 S,2,126696,126896,1.4,0.28
Sprite,Foreground,Centre,"sb\l.png",509,440 C,0,126778,,166,142,193 F,2,126778,126978,1,0 S,2,126778,126978,1.4,0.28
Sprite,Foreground,Centre,"sb\l.png",499,363 C,0,126859,,166,142,193 F,2,126859,127059,1,0 S,2,126859,127059,1.4,0.28
Sprite,Foreground,Centre,"sb\l.png",493,283 C,0,126940,,166,142,193 F,2,126940,127140,1,0 S,2,126940,127140,1.4,0.28
Sprite,Foreground,Centre,"sb\l.png",484,204 C,0,127021,,166,142,193 F,2,127021,127221,1,0 S,2,127021,127221,1.4,0.28
Sprite,Foreground,Centre,"sb\l.png",0,0 C,0,127102,,249,155,206 M,0,127102,127142,485,124,487.4489,101.6702 F,2,127102,127383,1,0 S,2,127102,127383,1.4,0.28 M,0,127142,127183,487.4489,101.6702,492.8102,79.8619
Sprite,Foreground,Centre,"sb\l.png",0,0 C,0,127264,,249,155,206 M,0,127264,127304,412,272,416.943,293.9111 F,2,127264,127545,1,0 S,2,127264,127545,1.4,0.28 M,0,127304,127345,416.943,293.9111,419,316
Sprite,Foreground,Centre,"sb\l.png",0,0 C,0,127426,,139,160,235 M,0,127426,127466,396,132,403.378,110.801 F,2,127426,127707,1,0 S,2,127426,127707,1.4,0.28 M,0,127466,127507,403.378,110.801,414.0362,91.05566
Sprite,Foreground,Centre,"sb\l.png",0,0 C,0,127588,,139,160,235 M,0,127588,127628,341,292,339.8317,314.455 F,2,127588,127869,1,0 S,2,127588,127869,1.4,0.28 M,0,127628,127669,339.8317,314.455,337,336
Sprite,Foreground,Centre,"sb\l.png",0,0 C,0,127751,,242,108,94 M,0,127751,127791,309,115,321.6782,96.49214 F,2,127751,128032,1,0 S,2,127751,128032,1.4,0.28 M,0,127791,127832,321.6782,96.49214,337.4386,80.54564
Sprite,Foreground,Centre,"sb\l.png",0,0 C,0,127913,,242,108,94 M,0,127913,127953,266,308,258.7684,329.2934 F,2,127913,128194,1,0 S,2,127913,128194,1.4,0.28 M,0,127953,127994,258.7684,329.2934,250,350
Sprite,Foreground,Centre,"sb\l.png",0,0 C,0,128075,,166,142,193 M,0,128075,128115,227,82,243.6646,67.01241 F,2,128075,128356,1,0 S,2,128075,128356,1.4,0.28 M,0,128115,128156,243.6646,67.01241,263.0342,55.77833
Sprite,Foreground,Centre,"sb\l.png",0,0 C,0,128237,,166,142,193 M,0,128237,128277,190,302,176.7847,320.2073 F,2,128237,128518,1,0 S,2,128237,128518,1.4,0.28 M,0,128277,128318,176.7847,320.2073,163.0059,337.9926
Sprite,Foreground,Centre,"sb\l.png",0,0 C,0,128399,,249,155,206 M,0,128399,128439,108,163,130.4382,162.3597 F,2,128399,128680,1,0 S,2,128399,128680,1.4,0.28 M,0,128439,128480,130.4382,162.3597,152.714,165.1714
Sprite,Foreground,Centre,"sb\l.png",0,0 C,0,128561,,249,155,206 M,0,128561,128601,385,220,362.5618,219.3597 F,2,128561,128842,1,0 S,2,128561,128842,1.4,0.28 M,0,128601,128642,362.5618,219.3597,340.286,222.1714
Sprite,Foreground,Centre,"sb\l.png",163,337 C,0,128724,,139,160,235 F,2,128724,128924,1,0 S,2,128724,128924,1.4,0.28
Sprite,Foreground,Centre,"sb\l.png",163,337 C,0,128805,,139,160,235 F,2,128805,129005,1,0 S,2,128805,129005,1.4,0.28
Sprite,Foreground,Centre,"sb\l.png",0,0 C,0,128886,,139,160,235 M,0,128886,128926,163,337,163.8212,359.4529 F,2,128886,129248,1,0 S,2,128886,129248,1.4,0.28 M,0,128926,128967,163.8212,359.4529,167.4845,381.61 M,0,128967,129007,167.4845,381.61,174.1325,403.0719 M,0,129007,129048,174.1325,403.0719,183.6897,423.4174
Sprite,Foreground,Centre,"sb\l.png",283,238 C,0,129210,,139,160,235 F,2,129210,129410,1,0 S,2,129210,129410,1.4,0.28
Sprite,Foreground,Centre,"sb\l.png",66,294 C,0,129372,,139,160,235 F,2,129372,129572,1,0 S,2,129372,129572,1.4,0.28
Sprite,Foreground,Centre,"sb\l.png",282,388 C,0,129534,,139,160,235 F,2,129534,129734,1,0 S,2,129534,129734,1.4,0.28
Sprite,Foreground,Centre,"sb\l.png",0,0 C,0,129697,,242,108,94 M,0,129697,129737,477,260,483.7618,238.5632 F,2,129697,130059,1,0 S,2,129697,130059,1.4,0.28 M,0,129737,129778,483.7618,238.5632,488.2683,216.5466 M,0,129778,129818,488.2683,216.5466,490.1099,194.1481 M,0,129818,129859,490.1099,194.1481,489.5075,171.6889
Sprite,Foreground,Centre,"sb\l.png",363,74 C,0,130021,,242,108,94 F,2,130021,130221,1,0 S,2,130021,130221,1.4,0.28
Sprite,Foreground,Centre,"sb\l.png",263,233 C,0,130183,,242,108,94 F,2,130183,130383,1,0 S,2,130183,130383,1.4,0.28
Sprite,Foreground,Centre,"sb\l.png",0,0 C,0,130345,,242,108,94 M,0,130345,130385,140,70,137.9832,92.40942 F,2,130345,130707,1,0 S,2,130345,130707,1.4,0.28 M,0,130385,130426,137.9832,92.40942,135.9663,114.8188 M,0,130426,130466,135.9663,114.8188,133.9495,137.2283 M,0,130466,130507,133.9495,137.2283,131.9326,159.6377
Sprite,Foreground,Centre,"sb\l.png",0,0 C,0,130670,,242,108,94 M,0,130670,130710,66,337,68.01685,359.4094 F,2,130670,131032,1,0 S,2,130670,131032,1.4,0.28 M,0,130710,130751,68.01685,359.4094,70.0337,381.8188 M,0,130751,130791,70.0337,381.8188,72.05054,404.2283 M,0,130791,130832,72.05054,404.2283,74.06739,426.6377
Sprite,Foreground,Centre,"sb\l.png",0,0 C,0,130994,,166,142,193 M,0,130994,131034,281,366,294.0214,347.7717 F,2,130994,131356,1,0 S,2,130994,131356,1.4,0.28 M,0,131034,131075,294.0214,347.7717,302.674,327.142 M,0,131075,131115,302.674,327.142,306.1931,305.0179 M,0,131115,131156,306.1931,305.0179,303.9422,282.7393
Sprite,Foreground,Centre,"sb\l.png",252,118 C,0,131318,,166,142,193 F,2,131318,131518,1,0 S,2,131318,131518,1.4,0.28
Sprite,Foreground,Centre,"sb\l.png",0,0 C,0,131480,,166,142,193 M,0,131480,131520,430,208,407.6288,205.5965 F,2,131480,131842,1,0 S,2,131480,131842,1.4,0.28 M,0,131520,131561,407.6288,205.5965,385.2575,203.1929 M,0,131561,131601,385.2575,203.1929,362.8862,200.7894 M,0,131601,131642,362.8862,200.7894,340.515,198.3859
Sprite,Foreground,Centre,"sb\l.png",91,240 C,0,131805,,166,142,193 F,2,131805,132005,1,0 S,2,131805,132005,1.4,0.28
Sprite,Foreground,Centre,"sb\l.png",128,235 C,0,131886,,166,142,193 F,2,131886,132086,1,0 S,2,131886,132086,1.4,0.28
Sprite,Foreground,Centre,"sb\l.png",168,241 C,0,131967,,166,142,193 F,2,131967,132167,1,0 S,2,131967,132167,1.4,0.28
Sprite,Foreground,Centre,"sb\l.png",203,257 C,0,132048,,166,142,193 F,2,132048,132248,1,0 S,2,132048,132248,1.4,0.28
Sprite,Foreground,Centre,"sb\l.png",234,282 C,0,132129,,166,142,193 F,2,132129,132329,1,0 S,2,132129,132329,1.4,0.28
Sprite,Foreground,Centre,"sb\l.png",257,314 C,0,132210,,166,142,193 F,2,132210,132410,1,0 S,2,132210,132410,1.4,0.28
Sprite,Foreground,Centre,"sb\l.png",0,0 C,0,132291,,249,155,206 M,0,132291,132331,277,349,275.0098,371.3805 F,2,132291,132653,1,0 S,2,132291,132653,1.4,0.28 M,0,132331,132372,275.0098,371.3805,270.3138,393.3483 M,0,132372,132412,270.3138,393.3483,262.5194,414.4167 M,0,132412,132453,262.5194,414.4167,252.2195,434.3829
Sprite,Foreground,Centre,"sb\l.png",0,0 C,0,132616,,249,155,206 M,0,132616,132656,372,230,361.395,210.1953 F,2,132616,132978,1,0 S,2,132616,132978,1.4,0.28 M,0,132656,132697,361.395,210.1953,353.4975,189.1754 M,0,132697,132737,353.4975,189.1754,348.6495,167.2387 M,0,132737,132778,348.6495,167.2387,347.0164,144.8214
Sprite,Foreground,Centre,"sb\l.png",0,0 C,0,132940,,249,155,206 M,0,132940,132980,463,355,461.0098,377.3805 F,2,132940,133302,1,0 S,2,132940,133302,1.4,0.28 M,0,132980,133021,461.0098,377.3805,456.3139,399.3483 M,0,133021,133061,456.3139,399.3483,448.5194,420.4167 M,0,133061,133102,448.5194,420.4167,438.2195,440.3829
Sprite,Foreground,Centre,"sb\l.png",0,0 C,0,133265,,249,155,206 M,0,133265,133305,558,217,547.395,197.1953 F,2,133265,133627,1,0 S,2,133265,133627,1.4,0.28 M,0,133305,133346,547.395,197.1953,539.4976,176.1754 M,0,133346,133386,539.4976,176.1754,534.6495,154.2387 M,0,133386,133427,534.6495,154.2387,533.0164,131.8214
Sprite,Foreground,Centre,"sb\l.png",0,0 C,0,133589,,139,160,235 M,0,133589,133629,363,70,342.2813,78.7359 F,2,133589,133951,1,0 S,2,133589,133951,1.4,0.28 M,0,133629,133670,342.2813,78.7359,320.896,85.67043 M,0,133670,133710,320.896,85.67043,298.9573,90.61317 M,0,133710,133751,298.9573,90.61317,276.6324,93.28993
Sprite,Foreground,Centre,"sb\l.png",0,0 C,0,133913,,139,160,235 M,0,133913,133953,64,178,86.33806,180.5409 F,2,133913,134275,1,0 S,2,133913,134275,1.4,0.28 M,0,133953,133994,86.33806,180.5409,108.324,185.2085 M,0,133994,134034,108.324,185.2085,129.7194,192.1072 M,0,134034,134075,129.7194,192.1072,150,201
Sprite,Foreground,Centre,"sb\l.png",0,0 C,0,134237,,139,160,235 M,0,134237,134277,345,292,324.2813,300.7359 F,2,134237,134599,1,0 S,2,134237,134599,1.4,0.28 M,0,134277,134318,324.2813,300.7359,302.8961,307.6704 M,0,134318,134358,302.8961,307.6704,280.9573,312.6132 M,0,134358,134399,280.9573,312.6132,258.6324,315.2899
Sprite,Foreground,Centre,"sb\l.png",102,384 C,0,134561,,139,160,235 F,2,134561,134761,1,0 S,2,134561,134761,1.4,0.28
Sprite,Foreground,Centre,"sb\l.png",89,389 C,0,134643,,139,160,235 F,2,134643,134843,1,0 S,2,134643,134843,1.4,0.28
Sprite,Foreground,Centre,"sb\l.png",89,402 C,0,134724,,139,160,235 F,2,134724,134924,1,0 S,2,134724,134924,1.4,0.28
Sprite,Foreground,Centre,"sb\l.png",102,406 C,0,134805,,139,160,235 F,2,134805,135005,1,0 S,2,134805,135005,1.4,0.28
Sprite,Foreground,Centre,"sb\l.png",109,395 C,0,134886,,242,108,94 F,2,134886,135086,1,0 S,2,134886,135086,1.4,0.28
Sprite,Foreground,Centre,"sb\l.png",0,0 C,0,135048,,242,108,94 M,0,135048,135088,190,62,192.9461,84.30629 F,2,135048,135410,1,0 S,2,135048,135410,1.4,0.28 M,0,135088,135129,192.9461,84.30629,195.8922,106.6126 M,0,135129,135169,195.8922,106.6126,198.8383,128.9189 M,0,135169,135210,198.8383,128.9189,201.7845,151.2251
Sprite,Foreground,Centre,"sb\l.png",216,417 C,0,135372,,166,142,193 F,2,135372,135572,1,0 S,2,135372,135572,1.4,0.28
Sprite,Foreground,Centre,"sb\l.png",0,0 C,0,135534,,166,142,193 M,0,135534,135574,298,59,300.9461,81.30629 F,2,135534,135896,1,0 S,2,135534,135896,1.4,0.28 M,0,135574,135615,300.9461,81.30629,303.8922,103.6126 M,0,135615,135655,303.8922,103.6126,306.8383,125.9189 M,0,135655,135696,306.8383,125.9189,309.7845,148.2251
Sprite,Foreground,Centre,"sb\l.png",325,420 C,0,135859,,249,155,206 F,2,135859,136059,1,0 S,2,135859,136059,1.4,0.28
Sprite,Foreground,Centre,"sb\l.png",0,0 C,0,136021,,249,155,206 M,0,136021,136061,408,61,410.9461,83.30629 F,2,136021,136383,1,0 S,2,136021,136383,1.4,0.28 M,0,136061,136102,410.9461,83.30629,413.8922,105.6126 M,0,136102,136142,413.8922,105.6126,416.8383,127.9189 M,0,136142,136183,416.8383,127.9189,419.7845,150.2251
Sprite,Foreground,Centre,"sb\l.png",433,429 C,0,136345,,139,160,235 F,2,136345,136545,1,0 S,2,136345,136545,1.4,0.28
Sprite,Foreground,Centre,"sb\l.png",0,0 C,0,136507,,139,160,235 M,0,136507,136547,525,65,527.9461,87.30629 F,2,136507,136869,1,0 S,2,136507,136869,1.4,0.28 M,0,136547,136588,527.9461,87.30629,530.8922,109.6126 M,0,136588,136628,530.8922,109.6126,533.8384,131.9189 M,0,136628,136669,533.8384,131.9189,536.7844,154.2251
Sprite,Foreground,Centre,"sb\l.png",0,0 C,0,136832,,242,108,94 M,0,136832,136872,184,295,162.8424,287.461 F,2,136832,137194,1,0 S,2,136832,137194,1.4,0.28 M,0,136872,136913,162.8424,287.461,140.858,282.8956 M,0,136913,136953,140.858,282.8956,118.4254,281.9083 M,0,136953,136994,118.4254,281.9083,96.09412,284.1425
Sprite,Foreground,Centre,"sb\l.png",0,0 C,0,137156,,242,108,94 M,0,137156,137196,381,200,402.1576,207.539 F,2,137156,137518,1,0 S,2,137156,137518,1.4,0.28 M,0,137196,137237,402.1576,207.539,424.142,212.1044 M,0,137237,137277,424.142,212.1044,446.5746,213.0918 M,0,137277,137318,446.5746,213.0918,468.9059,210.8575
Sprite,Foreground,Centre,"sb\ring.png",496,439 C,0,142670,,242,108,94 F,2,142670,143670,1,0 S,2,142670,143670,0,3
Sprite,Foreground,Centre,"sb\ring.png",197,399 C,0,143967,,166,142,193 F,2,143967,144967,1,0 S,2,143967,144967,0,3
Sprite,Foreground,Centre,"sb\ring.png",397,250 C,0,145264,,249,155,206 F,2,145264,146264,1,0 S,2,145264,146264,0,3
Sprite,Foreground,Centre,"sb\ring.png",378,408 C,0,146561,,139,160,235 F,2,146561,147561,1,0 S,2,146561,147561,0,3
Sprite,Foreground,Centre,"sb\line.png",172,372 C,0,2562,,76,26,138 F,0,2562,3724,0.6,0 R,0,2562,3724,-0.06787298 V,0,2562,3724,5,3,1,1
Sprite,Foreground,Centre,"sb\line.png",245,169 C,0,2886,,76,26,138 F,0,2886,4210,0.6,0 R,0,2886,4210,-0.09519761 V,0,2886,4210,5,3,1,1
Sprite,Foreground,Centre,"sb\line.png",309,413 C,0,3372,,76,26,138 F,0,3372,4372,0.6,0 R,0,3372,4372,-0.08040681 V,0,3372,4372,5,3,1,1
Sprite,Foreground,Centre,"sb\line.png",402,354 C,0,3534,,76,26,138 F,0,3534,4858,0.6,0 R,0,3534,4858,-0.01744836 V,0,3534,4858,5,3,1,1
Sprite,Foreground,Centre,"sb\line.png",453,220 C,0,4021,,76,26,138 F,0,4021,5021,0.6,0 R,0,4021,5021,0.08819006 V,0,4021,5021,5,3,1,1
Sprite,Foreground,Centre,"sb\line.png",502,292 C,0,4183,,76,26,138 F,0,4183,5507,0.6,0 R,0,4183,5507,-0.01766544 V,0,4183,5507,5,3,1,1
Sprite,Foreground,Centre,"sb\line.png",353,426 C,0,4670,,76,26,138 F,0,4670,5670,0.6,0 R,0,4670,5670,-0.1218081 V,0,4670,5670,5,3,1,1
Sprite,Foreground,Centre,"sb\line.png",402,354 C,0,4832,,76,26,138 F,0,4832,6156,0.6,0 R,0,4832,6156,0.01734664 V,0,4832,6156,5,3,1,1
Sprite,Foreground,Centre,"sb\line.png",323,135 C,0,5318,,76,26,138 F,0,5318,6318,0.6,0 R,0,5318,6318,-0.1432649 V,0,5318,6318,5,3,1,1
Sprite,Foreground,Centre,"sb\line.png",259,211 C,0,5480,,76,26,138 F,0,5480,6804,0.6,0 R,0,5480,6804,0.06788866 V,0,5480,6804,5,3,1,1
Sprite,Foreground,Centre,"sb\line.png",234,314 C,0,5967,,76,26,138 F,0,5967,6967,0.6,0 R,0,5967,6967,0.06242811 V,0,5967,6967,5,3,1,1
Sprite,Foreground,Centre,"sb\line.png",133,374 C,0,6129,,76,26,138 F,0,6129,7453,0.6,0 R,0,6129,7453,0.00980559 V,0,6129,7453,5,3,1,1
Sprite,Foreground,Centre,"sb\line.png",239,132 C,0,6616,,76,26,138 F,0,6616,7616,0.6,0 R,0,6616,7616,-0.03979772 V,0,6616,7616,5,3,1,1
Sprite,Foreground,Centre,"sb\line.png",301,206 C,0,6778,,76,26,138 F,0,6778,8102,0.6,0 R,0,6778,8102,0.009146436 V,0,6778,8102,5,3,1,1
Sprite,Foreground,Centre,"sb\line.png",412,440 C,0,7264,,76,26,138 F,0,7264,8264,0.6,0 R,0,7264,8264,-0.1446454 V,0,7264,8264,5,3,1,1
Sprite,Foreground,Centre,"sb\line.png",218,365 C,0,7426,,76,26,138 F,0,7426,8426,0.6,0 R,0,7426,8426,0.1408899 V,0,7426,8426,5,3,1,1
Sprite,Foreground,Centre,"sb\line.png",443,304 C,0,7589,,76,26,138 F,0,7589,8589,0.6,0 R,0,7589,8589,-0.108711 V,0,7589,8589,5,3,1,1
Sprite,Foreground,Centre,"sb\line.png",443,304 C,0,7670,,76,26,138 F,0,7670,8670,0.6,0 R,0,7670,8670,-0.1486041 V,0,7670,8670,5,3,1,1
Sprite,Foreground,Centre,"sb\line.png",443,304 C,0,7751,,76,26,138 F,0,7751,8913,0.6,0 R,0,7751,8913,-0.05315435 V,0,7751,8913,5,3,1,1
Sprite,Foreground,Centre,"sb\line.png",566,172 C,0,8075,,76,26,138 F,0,8075,9237,0.6,0 R,0,8075,9237,0.05562246 V,0,8075,9237,5,3,1,1
Sprite,Foreground,Centre,"sb\line.png",432,290 C,0,8399,,76,26,138 F,0,8399,9561,0.6,0 R,0,8399,9561,-0.09507237 V,0,8399,9561,5,3,1,1
Sprite,Foreground,Centre,"sb\line.png",555,158 C,0,8723,,76,26,138 F,0,8723,9885,0.6,0 R,0,8723,9885,-0.1044155 V,0,8723,9885,5,3,1,1
Sprite,Foreground,Centre,"sb\line.png",313,229 C,0,9048,,76,26,138 F,0,9048,10210,0.6,0 R,0,9048,10210,-0.1475707 V,0,9048,10210,5,3,1,1
Sprite,Foreground,Centre,"sb\line.png",92,266 C,0,9372,,76,26,138 F,0,9372,10534,0.6,0 R,0,9372,10534,0.1402124 V,0,9372,10534,5,3,1,1
Sprite,Foreground,Centre,"sb\line.png",243,367 C,0,9697,,76,26,138 F,0,9697,10697,0.6,0 R,0,9697,10697,-0.05998259 V,0,9697,10697,5,3,1,1
Sprite,Foreground,Centre,"sb\line.png",136,332 C,0,9859,,76,26,138 F,0,9859,10859,0.6,0 R,0,9859,10859,-0.007885243 V,0,9859,10859,5,3,1,1
Sprite,Foreground,Centre,"sb\line.png",307,302 C,0,10021,,76,26,138 F,0,10021,11021,0.6,0 R,0,10021,11021,-0.1302056 V,0,10021,11021,5,3,1,1
Sprite,Foreground,Centre,"sb\line.png",234,375 C,0,10183,,76,26,138 F,0,10183,11183,0.6,0 R,0,10183,11183,-0.05628609 V,0,10183,11183,5,3,1,1
Sprite,Foreground,Centre,"sb\line.png",172,245 C,0,10345,,76,26,138 F,0,10345,11507,0.6,0 R,0,10345,11507,-0.01404463 V,0,10345,11507,5,3,1,1
Sprite,Foreground,Centre,"sb\line.png",268,93 C,0,10670,,76,26,138 F,0,10670,11832,0.6,0 R,0,10670,11832,0.125667 V,0,10670,11832,5,3,1,1
Sprite,Foreground,Centre,"sb\line.png",363,247 C,0,10994,,76,26,138 F,0,10994,12156,0.6,0 R,0,10994,12156,0.09386263 V,0,10994,12156,5,3,1,1
Sprite,Foreground,Centre,"sb\line.png",456,87 C,0,11318,,76,26,138 F,0,11318,12318,0.6,0 R,0,11318,12318,0.01400184 V,0,11318,12318,5,3,1,1
Sprite,Foreground,Centre,"sb\line.png",457,100 C,0,11399,,76,26,138 F,0,11399,12399,0.6,0 R,0,11399,12399,0.06084844 V,0,11399,12399,5,3,1,1
Sprite,Foreground,Centre,"sb\line.png",459,113 C,0,11480,,76,26,138 F,0,11480,12480,0.6,0 R,0,11480,12480,-0.1465631 V,0,11480,12480,5,3,1,1
Sprite,Foreground,Centre,"sb\line.png",461,127 C,0,11561,,76,26,138 F,0,11561,12561,0.6,0 R,0,11561,12561,-0.04280924 V,0,11561,12561,5,3,1,1
Sprite,Foreground,Centre,"sb\line.png",463,140 C,0,11642,,76,26,138 F,0,11642,12642,0.6,0 R,0,11642,12642,-0.07888908 V,0,11642,12642,5,3,1,1
Sprite,Foreground,Centre,"sb\line.png",537,220 C,0,11886,,76,26,138 F,0,11886,12886,0.6,0 R,0,11886,12886,0.1408817 V,0,11886,12886,5,3,1,1
Sprite,Foreground,Centre,"sb\line.png",452,278 C,0,12129,,76,26,138 F,0,12129,13129,0.6,0 R,0,12129,13129,0.03569865 V,0,12129,13129,5,3,1,1
Sprite,Foreground,Centre,"sb\line.png",452,278 C,0,12453,,76,26,138 F,0,12453,13453,0.6,0 R,0,12453,13453,0.04705745 V,0,12453,13453,5,3,1,1
Sprite,Foreground,Centre,"sb\line.png",411,264 C,0,12534,,76,26,138 F,0,12534,13534,0.6,0 R,0,12534,13534,-0.1372366 V,0,12534,13534,5,3,1,1
Sprite,Foreground,Centre,"sb\line.png",369,265 C,0,12615,,76,26,138 F,0,12615,13615,0.6,0 R,0,12615,13615,-0.001538764 V,0,12615,13615,5,3,1,1
Sprite,Foreground,Centre,"sb\line.png",331,284 C,0,12696,,76,26,138 F,0,12696,13696,0.6,0 R,0,12696,13696,-0.06479175 V,0,12696,13696,5,3,1,1
Sprite,Foreground,Centre,"sb\line.png",303,314 C,0,12777,,76,26,138 F,0,12777,13777,0.6,0 R,0,12777,13777,0.1143127 V,0,12777,13777,5,3,1,1
Sprite,Foreground,Centre,"sb\line.png",288,354 C,0,12858,,76,26,138 F,0,12858,13858,0.6,0 R,0,12858,13858,0.06796455 V,0,12858,13858,5,3,1,1
Sprite,Foreground,Centre,"sb\line.png",368,180 C,0,44075,,76,26,138 F,0,44075,45237,0.6,0 R,0,44075,45237,-0.06787298 V,0,44075,45237,5,3,1,1
Sprite,Foreground,Centre,"sb\line.png",376,379 C,0,44399,,76,26,138 F,0,44399,45399,0.6,0 R,0,44399,45399,-0.09519761 V,0,44399,45399,5,3,1,1
Sprite,Foreground,Centre,"sb\line.png",363,368 C,0,44561,,76,26,138 F,0,44561,45561,0.6,0 R,0,44561,45561,-0.08040681 V,0,44561,45561,5,3,1,1
Sprite,Foreground,Centre,"sb\line.png",280,153 C,0,44724,,76,26,138 F,0,44724,45886,0.6,0 R,0,44724,45886,-0.01744836 V,0,44724,45886,5,3,1,1
Sprite,Foreground,Centre,"sb\line.png",288,352 C,0,45048,,76,26,138 F,0,45048,46048,0.6,0 R,0,45048,46048,0.08819006 V,0,45048,46048,5,3,1,1
Sprite,Foreground,Centre,"sb\line.png",275,341 C,0,45210,,76,26,138 F,0,45210,46210,0.6,0 R,0,45210,46210,-0.01766544 V,0,45210,46210,5,3,1,1
Sprite,Foreground,Centre,"sb\line.png",189,109 C,0,45372,,76,26,138 F,0,45372,46534,0.6,0 R,0,45372,46534,-0.1218081 V,0,45372,46534,5,3,1,1
Sprite,Foreground,Centre,"sb\line.png",197,308 C,0,45696,,76,26,138 F,0,45696,46696,0.6,0 R,0,45696,46696,0.01734664 V,0,45696,46696,5,3,1,1
Sprite,Foreground,Centre,"sb\line.png",184,297 C,0,45858,,76,26,138 F,0,45858,46858,0.6,0 R,0,45858,46858,-0.1432649 V,0,45858,46858,5,3,1,1
Sprite,Foreground,Centre,"sb\line.png",294,139 C,0,46021,,76,26,138 F,0,46021,47021,0.6,0 R,0,46021,47021,0.06788866 V,0,46021,47021,5,3,1,1
Sprite,Foreground,Centre,"sb\line.png",294,139 C,0,46102,,76,26,138 F,0,46102,47102,0.6,0 R,0,46102,47102,0.06242811 V,0,46102,47102,5,3,1,1
Sprite,Foreground,Centre,"sb\line.png",294,139 C,0,46183,,76,26,138 F,0,46183,47183,0.6,0 R,0,46183,47183,0.00980559 V,0,46183,47183,5,3,1,1
Sprite,Foreground,Centre,"sb\line.png",105,241 C,0,46345,,76,26,138 F,0,46345,47345,0.6,0 R,0,46345,47345,-0.03979772 V,0,46345,47345,5,3,1,1
Sprite,Foreground,Centre,"sb\line.png",266,306 C,0,46507,,76,26,138 F,0,46507,47507,0.6,0 R,0,46507,47507,0.009146436 V,0,46507,47507,5,3,1,1
Sprite,Foreground,Centre,"sb\line.png",115,436 C,0,46670,,76,26,138 F,0,46670,47832,0.6,0 R,0,46670,47832,-0.1446454 V,0,46670,47832,5,3,1,1
Sprite,Foreground,Centre,"sb\line.png",85,224 C,0,46994,,76,26,138 F,0,46994,47994,0.6,0 R,0,46994,47994,0.1408899 V,0,46994,47994,5,3,1,1
Sprite,Foreground,Centre,"sb\line.png",120,350 C,0,47156,,76,26,138 F,0,47156,48156,0.6,0 R,0,47156,48156,-0.108711 V,0,47156,48156,5,3,1,1
Sprite,Foreground,Centre,"sb\line.png",261,236 C,0,47318,,76,26,138 F,0,47318,48480,0.6,0 R,0,47318,48480,-0.1486041 V,0,47318,48480,5,3,1,1
Sprite,Foreground,Centre,"sb\line.png",459,303 C,0,47643,,76,26,138 F,0,47643,48643,0.6,0 R,0,47643,48643,-0.05315435 V,0,47643,48643,5,3,1,1
Sprite,Foreground,Centre,"sb\line.png",320,406 C,0,47805,,76,26,138 F,0,47805,48805,0.6,0 R,0,47805,48805,0.05562246 V,0,47805,48805,5,3,1,1
Sprite,Foreground,Centre,"sb\line.png",320,406 C,0,47886,,76,26,138 F,0,47886,48886,0.6,0 R,0,47886,48886,-0.09507237 V,0,47886,48886,5,3,1,1
Sprite,Foreground,Centre,"sb\line.png",320,406 C,0,47967,,76,26,138 F,0,47967,49048,0.6,0 R,0,47967,49048,-0.1044155 V,0,47967,49048,5,3,1,1
Sprite,Foreground,Centre,"sb\line.png",263,253 C,0,48129,,76,26,138 F,0,48129,49129,0.6,0 R,0,48129,49129,-0.1475707 V,0,48129,49129,5,3,1,1
Sprite,Foreground,Centre,"sb\line.png",263,253 C,0,48210,,76,26,138 F,0,48210,49210,0.6,0 R,0,48210,49210,0.1402124 V,0,48210,49210,5,3,1,1
Sprite,Foreground,Centre,"sb\line.png",263,254 C,0,48291,,76,26,138 F,0,48291,49372,0.6,0 R,0,48291,49372,-0.05998259 V,0,48291,49372,5,3,1,1
Sprite,Foreground,Centre,"sb\line.png",173,121 C,0,48453,,76,26,138 F,0,48453,49534,0.6,0 R,0,48453,49534,-0.007885243 V,0,48453,49534,5,3,1,1
Sprite,Foreground,Centre,"sb\line.png",64,194 C,0,48616,,76,26,138 F,0,48616,49616,0.6,0 R,0,48616,49616,-0.1302056 V,0,48616,49616,5,3,1,1
Sprite,Foreground,Centre,"sb\line.png",92,198 C,0,48697,,76,26,138 F,0,48697,49697,0.6,0 R,0,48697,49697,-0.05628609 V,0,48697,49697,5,3,1,1
Sprite,Foreground,Centre,"sb\line.png",117,211 C,0,48778,,76,26,138 F,0,48778,49778,0.6,0 R,0,48778,49778,-0.01404463 V,0,48778,49778,5,3,1,1
Sprite,Foreground,Centre,"sb\line.png",138,232 C,0,48859,,76,26,138 F,0,48859,49859,0.6,0 R,0,48859,49859,0.125667 V,0,48859,49859,5,3,1,1
Sprite,Foreground,Centre,"sb\line.png",151,257 C,0,48940,,76,26,138 F,0,48940,49940,0.6,0 R,0,48940,49940,0.09386263 V,0,48940,49940,5,3,1,1
Sprite,Foreground,Centre,"sb\line.png",156,285 C,0,49021,,76,26,138 F,0,49021,50021,0.6,0 R,0,49021,50021,0.01400184 V,0,49021,50021,5,3,1,1
Sprite,Foreground,Centre,"sb\line.png",151,314 C,0,49102,,76,26,138 F,0,49102,50102,0.6,0 R,0,49102,50102,0.06084844 V,0,49102,50102,5,3,1,1
Sprite,Foreground,Centre,"sb\line.png",139,340 C,0,49183,,76,26,138 F,0,49183,50183,0.6,0 R,0,49183,50183,-0.1465631 V,0,49183,50183,5,3,1,1
//Storyboard Layer 4 (Overlay)
//Storyboard Sound Samples

[TimingPoints]
2562,324.324324324324,4,2,1,50,1,0
2562,-166.666666666667,4,2,1,50,0,0
12453,-166.666666666667,4,2,1,75,0,0
12940,-100,4,2,1,90,0,0
23318,-125,4,2,1,80,0,0
24859,-125,4,2,1,5,0,0
24940,-125,4,2,1,80,0,0
27129,-125,4,2,1,5,0,0
27210,-125,4,2,1,80,0,0
36534,-125,4,2,1,5,0,0
36616,-125,4,2,1,80,0,0
37507,-125,4,2,1,5,0,0
37589,-125,4,2,1,80,0,0
39778,-125,4,2,1,5,0,0
39859,-125,4,2,1,80,0,0
40426,-125,4,2,1,5,0,0
40507,-125,4,2,1,80,0,0
41075,-125,4,2,1,5,0,0
41156,-125,4,2,1,80,0,0
41724,-125,4,2,1,5,0,0
41805,-125,4,2,1,80,0,0
42048,-125,4,2,1,5,0,0
42129,-125,4,2,1,80,0,0
42372,-125,4,2,1,5,0,0
42453,-125,4,2,1,80,0,0
42697,-125,4,2,1,5,0,0
42778,-125,4,2,1,80,0,0
44075,-125,4,2,1,90,0,0
49264,-125,4,2,1,80,0,0
50805,-125,4,2,1,5,0,0
50886,-125,4,2,1,80,0,0
53075,-125,4,2,1,5,0,0
53156,-125,4,2,1,80,0,0
62480,-125,4,2,1,5,0,0
62561,-125,4,2,1,80,0,0
63453,-125,4,2,1,5,0,0
63534,-125,4,2,1,80,0,0
66372,-125,4,2,1,5,0,0
66453,-125,4,2,1,80,0,0
66697,-125,4,2,1,5,0,0
66778,-125,4,2,1,80,0,0
67021,-125,4,2,1,5,0,0
67102,-125,4,2,1,80,0,0
69697,-500,4,2,1,80,0,0
69940,-500,4,2,1,5,0,0
70021,-43.4782608695652,4,2,1,95,0,1
70264,-43.4782608695652,4,2,1,5,0,1
70345,-100,4,2,1,95,0,1
70426,-100,4,2,1,5,0,1
70507,-100,4,2,1,95,0,1
70589,-100,4,2,1,5,0,1
70670,-100,4,2,1,95,0,1
70751,-100,4,2,1,5,0,1
70832,-100,4,2,1,95,0,1
70913,-100,4,2,1,5,0,1
70994,-100,4,2,1,95,0,1
71075,-100,4,2,1,5,0,1
71156,-100,4,2,1,95,0,1
71237,-100,4,2,1,5,0,1
71318,-100,4,2,1,95,0,1
71399,-100,4,2,1,5,0,1
71480,-100,4,2,1,95,0,1
71561,-100,4,2,1,5,0,1
71643,-100,4,2,1,95,0,1
72616,-43.4782608695652,4,2,1,95,0,1
72859,-43.4782608695652,4,2,1,5,0,1
72940,-100,4,2,1,95,0,1
73021,-100,4,2,1,5,0,1
73102,-100,4,2,1,95,0,1
73183,-100,4,2,1,5,0,1
73264,-100,4,2,1,95,0,1
73345,-100,4,2,1,5,0,1
73426,-100,4,2,1,95,0,1
73507,-100,4,2,1,5,0,1
73589,-100,4,2,1,95,0,1
73670,-100,4,2,1,5,0,1
73751,-100,4,2,1,95,0,1
73832,-100,4,2,1,5,0,1
73913,-100,4,2,1,95,0,1
73994,-100,4,2,1,5,0,1
74075,-100,4,2,1,95,0,1
74156,-100,4,2,1,5,0,1
74237,-100,4,2,1,95,0,1
75210,-43.4782608695652,4,2,1,95,0,1
75453,-43.4782608695652,4,2,1,5,0,1
75534,-100,4,2,1,95,0,1
75616,-100,4,2,1,5,0,1
75697,-100,4,2,1,95,0,1
75778,-100,4,2,1,5,0,1
75859,-100,4,2,1,95,0,1
75940,-100,4,2,1,5,0,1
76021,-100,4,2,1,95,0,1
76102,-100,4,2,1,5,0,1
76183,-100,4,2,1,95,0,1
76264,-100,4,2,1,5,0,1
76345,-100,4,2,1,95,0,1
76426,-100,4,2,1,5,0,1
76507,-100,4,2,1,95,0,1
76589,-100,4,2,1,5,0,1
76670,-100,4,2,1,95,0,1
76751,-100,4,2,1,5,0,1
76832,-100,4,2,1,95,0,1
77805,-83.3333333333333,4,2,1,95,0,0
78048,-83.3333333333333,4,2,1,5,0,0
78129,-83.3333333333333,4,2,1,95,0,0
80399,-43.4782608695652,4,2,1,95,0,1
80643,-43.4782608695652,4,2,1,5,0,1
80724,-100,4,2,1,95,0,1
80805,-100,4,2,1,5,0,1
80886,-100,4,2,1,95,0,1
80967,-100,4,2,1,5,0,1
81048,-100,4,2,1,95,0,1
81129,-100,4,2,1,5,0,1
81210,-100,4,2,1,95,0,1
81291,-100,4,2,1,5,0,1
81372,-100,4,2,1,95,0,1
81453,-100,4,2,1,5,0,1
81534,-100,4,2,1,95,0,1
81616,-100,4,2,1,5,0,1
81697,-100,4,2,1,95,0,1
82994,-43.4782608695652,4,2,1,95,0,1
83237,-43.4782608695652,4,2,1,5,0,1
83318,-100,4,2,1,95,0,1
83399,-100,4,2,1,5,0,1
83480,-100,4,2,1,95,0,1
83561,-100,4,2,1,5,0,1
83643,-100,4,2,1,95,0,1
83724,-100,4,2,1,5,0,1
83805,-100,4,2,1,95,0,1
83886,-100,4,2,1,5,0,1
83967,-100,4,2,1,95,0,1
84048,-100,4,2,1,5,0,1
84129,-100,4,2,1,95,0,1
84210,-100,4,2,1,5,0,1
84291,-100,4,2,1,95,0,1
85589,-43.4782608695652,4,2,1,95,0,1
85832,-43.4782608695652,4,2,1,5,0,1
85913,-100,4,2,1,95,0,1
85994,-100,4,2,1,5,0,1
86075,-100,4,2,1,95,0,1
86156,-100,4,2,1,5,0,1
86237,-100,4,2,1,95,0,1
86318,-100,4,2,1,5,0,1
86399,-100,4,2,1,95,0,1
86480,-100,4,2,1,5,0,1
86561,-100,4,2,1,95,0,1
86643,-100,4,2,1,5,0,1
86724,-100,4,2,1,95,0,1
86805,-100,4,2,1,5,0,1
86886,-100,4,2,1,95,0,1
88183,-83.3333333333333,4,2,1,95,0,0
88426,-83.3333333333333,4,2,1,5,0,0
88507,-83.3333333333333,4,2,1,95,0,0
88751,-83.3333333333333,4,2,1,5,0,0
88832,-83.3333333333333,4,2,1,95,0,0
89075,-83.3333333333333,4,2,1,5,0,0
89156,-83.3333333333333,4,2,1,95,0,0
89399,-83.3333333333333,4,2,1,5,0,0
89480,-83.3333333333333,4,2,1,95,0,0
90778,-100,4,2,1,95,0,1
98561,-100,4,2,1,95,0,0
99129,-100,4,2,1,5,0,0
99210,-100,4,2,1,95,0,0
101156,-100,4,2,1,95,0,1
108940,-100,4,2,1,95,0,0
109507,-100,4,2,1,5,0,0
109589,-100,4,2,1,95,0,0
111534,-100,4,2,1,70,0,0
112183,-100,4,2,1,67,0,0
112832,-100,4,2,1,64,0,0
113480,-100,4,2,1,61,0,0
114129,-100,4,2,1,58,0,0
114778,-100,4,2,1,55,0,0
115426,-100,4,2,1,50,0,0
116237,-100,4,2,1,70,0,0
116399,-500,4,2,1,70,0,0
116643,-500,4,2,1,5,0,0
116724,-100,4,2,1,90,0,0
119561,-100,4,2,1,5,0,0
119643,-100,4,2,1,90,0,0
125399,-100,4,2,1,5,0,0
125480,-100,4,2,1,90,0,0
142670,-200,4,2,1,70,0,0
143805,-200,4,2,1,5,0,0
143967,-200,4,2,1,70,0,0
145102,-200,4,2,1,5,0,0
145264,-200,4,2,1,70,0,0
146399,-200,4,2,1,5,0,0
146561,-200,4,2,1,70,0,0
147859,-125,4,2,1,70,0,0
150453,-1000,4,2,1,70,0,0
151021,-1000,4,2,1,5,0,0
151102,-1000,4,2,1,70,0,0
153048,-40,4,2,1,90,0,1
153291,-40,4,2,1,5,0,1
153372,-83.3333333333333,4,2,1,90,0,1
153453,-83.3333333333333,4,2,1,5,0,1
153534,-83.3333333333333,4,2,1,90,0,1
153616,-83.3333333333333,4,2,1,5,0,1
153697,-83.3333333333333,4,2,1,90,0,1
153778,-83.3333333333333,4,2,1,5,0,1
153859,-83.3333333333333,4,2,1,90,0,1
153940,-83.3333333333333,4,2,1,5,0,1
154021,-83.3333333333333,4,2,1,90,0,1
154102,-83.3333333333333,4,2,1,5,0,1
154183,-83.3333333333333,4,2,1,90,0,1
154264,-83.3333333333333,4,2,1,5,0,1
154345,-83.3333333333333,4,2,1,90,0,1
154426,-83.3333333333333,4,2,1,5,0,1
154507,-83.3333333333333,4,2,1,90,0,1
154589,-83.3333333333333,4,2,1,5,0,1
154670,-83.3333333333333,4,2,1,90,0,1
155643,-40,4,2,1,90,0,1
155886,-40,4,2,1,5,0,1
155967,-83.3333333333333,4,2,1,90,0,1
156048,-83.3333333333333,4,2,1,5,0,1
156129,-83.3333333333333,4,2,1,90,0,1
156210,-83.3333333333333,4,2,1,5,0,1
156291,-83.3333333333333,4,2,1,90,0,1
156372,-83.3333333333333,4,2,1,5,0,1
156453,-83.3333333333333,4,2,1,90,0,1
156534,-83.3333333333333,4,2,1,5,0,1
156616,-83.3333333333333,4,2,1,90,0,1
156697,-83.3333333333333,4,2,1,5,0,1
156778,-83.3333333333333,4,2,1,90,0,1
156859,-83.3333333333333,4,2,1,5,0,1
156940,-83.3333333333333,4,2,1,90,0,1
157021,-83.3333333333333,4,2,1,5,0,1
157102,-83.3333333333333,4,2,1,90,0,1
157183,-83.3333333333333,4,2,1,5,0,1
157264,-83.3333333333333,4,2,1,90,0,1
158237,-40,4,2,1,90,0,1
158480,-40,4,2,1,5,0,1
158561,-83.3333333333333,4,2,1,90,0,1
158643,-83.3333333333333,4,2,1,5,0,1
158724,-83.3333333333333,4,2,1,90,0,1
158805,-83.3333333333333,4,2,1,5,0,1
158886,-83.3333333333333,4,2,1,90,0,1
158967,-83.3333333333333,4,2,1,5,0,1
159048,-83.3333333333333,4,2,1,90,0,1
159129,-83.3333333333333,4,2,1,5,0,1
159210,-83.3333333333333,4,2,1,90,0,1
159291,-83.3333333333333,4,2,1,5,0,1
159372,-83.3333333333333,4,2,1,90,0,1
159453,-83.3333333333333,4,2,1,5,0,1
159534,-83.3333333333333,4,2,1,90,0,1
159616,-83.3333333333333,4,2,1,5,0,1
159697,-83.3333333333333,4,2,1,90,0,1
159778,-83.3333333333333,4,2,1,5,0,1
159859,-83.3333333333333,4,2,1,90,0,1
160832,-66.6666666666667,4,2,1,90,0,0
161075,-66.6666666666667,4,2,1,5,0,0
161156,-66.6666666666667,4,2,1,90,0,0
161399,-66.6666666666667,4,2,1,5,0,0
161480,-66.6666666666667,4,2,1,90,0,0
161724,-66.6666666666667,4,2,1,5,0,0
161805,-66.6666666666667,4,2,1,90,0,0
162048,-66.6666666666667,4,2,1,90,0,0
162129,-66.6666666666667,4,2,1,90,0,0
163426,-83.3333333333333,4,2,1,90,0,1
171210,-83.3333333333333,4,2,1,90,0,0
171778,-83.3333333333333,4,2,1,5,0,0
171859,-83.3333333333333,4,2,1,90,0,0
173805,-83.3333333333333,4,2,1,90,0,1
181589,-83.3333333333333,4,2,1,90,0,0
182156,-83.3333333333333,4,2,1,5,0,0
182237,-83.3333333333333,4,2,1,90,0,0
184183,-100,4,2,1,90,0,0
204940,-100,4,2,1,10,0,0

[Colours]
Combo1 : 242,108,94
Combo2 : 166,142,193
Combo3 : 249,155,206
Combo4 : 139,160,235
SliderTrackOverride : 35,4,81
SliderBorder : 255,255,255

[HitObjects]
105,313,2399,5,4,0:3:0:0:
105,313,2480,1,4,0:3:0:0:
108,316,2562,2,0,P|99:279|83:250,1,53.9999983520508,4|2,3:2|0:3,0:0:0:0:
181,113,2886,2,0,P|171:205|169:226,1,107.999996704102,8|0,0:0|3:0,0:0:0:0:
245,357,3372,1,2,0:3:0:0:
338,298,3534,2,0,P|284:251|232:250,1,107.999996704102,8|0,0:0|3:0,0:0:0:0:
389,164,4021,5,2,0:3:0:0:
438,236,4183,2,0,P|428:295|419:367,1,107.999996704102,8|0,0:0|3:0,0:0:0:0:
289,370,4670,1,2,0:3:0:0:
338,298,4832,2,0,P|328:238|319:167,1,107.999996704102,8|0,0:0|3:0,0:0:0:0:
259,79,5318,5,2,0:3:0:0:
195,155,5480,2,0,P|150:156|100:112,1,107.999996704102,8|0,0:0|3:0,0:0:0:0:
170,258,5967,1,2,0:3:0:0:
69,318,6129,2,0,P|74:258|78:203,1,107.999996704102,8|0,0:0|3:0,0:0:0:0:
175,76,6616,5,2,0:3:0:0:
237,150,6778,2,0,P|240:203|245:257,1,107.999996704102,8|0,0:0|3:0,0:0:0:0:
348,384,7264,5,8,0:2:0:0:
154,309,7426,1,8,0:2:0:0:
379,248,7589,1,8,0:2:0:0:
379,248,7670,1,8,0:2:0:0:
379,248,7751,6,0,P|404:250|436:256,1,53.9999983520508,0|2,3:0|0:0,0:0:0:0:
502,116,8075,2,0,P|475:120|448:123,1,53.9999983520508,8|2,0:0|0:0,0:0:0:0:
368,234,8399,2,0,P|393:236|425:242,1,53.9999983520508,0|2,3:0|0:0,0:0:0:0:
491,102,8723,2,0,P|464:106|437:109,1,53.9999983520508,8|2,0:0|0:0,0:0:0:0:
249,173,9048,6,0,P|199:165|176:152,1,53.9999983520508,0|2,3:0|0:0,0:0:0:0:
28,210,9372,2,0,P|53:202|80:200,1,53.9999983520508,8|2,0:0|0:0,0:0:0:0:
179,311,9697,1,0,3:0:0:0:
72,276,9859,1,2,0:0:0:0:
243,246,10021,1,8,0:0:0:0:
170,319,10183,1,2,0:0:0:0:
108,189,10345,6,0,P|103:147|108:124,1,53.9999983520508,0|2,3:0|0:0,0:0:0:0:
204,37,10670,2,0,P|206:63|200:90,1,53.9999983520508,8|2,0:0|0:0,0:0:0:0:
299,191,10994,2,0,P|294:149|299:126,1,53.9999983520508,0|2,3:0|0:0,0:0:0:0:
392,31,11318,1,8,0:0:0:0:
393,44,11399,1,8,0:0:0:0:
395,57,11480,1,0,3:0:0:0:
397,71,11561,1,0,3:0:0:0:
399,84,11642,5,2,0:2:0:0:
473,164,11886,1,2,0:0:0:0:
388,222,12129,1,2,0:0:0:0:
388,222,12453,5,8,0:0:0:0:
347,208,12534,1,8,0:0:0:0:
305,209,12615,1,8,0:0:0:0:
267,228,12696,1,8,0:0:0:0:
239,258,12777,1,8,0:0:0:0:
224,298,12858,1,8,0:0:0:0:
224,340,12939,1,4,3:2:0:0:
494,127,22021,5,8,0:0:0:0:
474,129,22102,1,8,0:0:0:0:
456,131,22183,1,8,0:0:0:0:
436,132,22264,1,8,0:0:0:0:
397,142,22345,6,0,P|358:134|343:128,1,45,8|8,0:3|0:3,0:0:0:0:
258,222,22507,2,0,P|297:214|312:208,1,45,8|8,0:3|0:3,0:0:0:0:
149,108,22670,5,8,0:0:0:0:
149,108,22751,1,8,0:0:0:0:
149,108,22832,2,0,P|135:145|133:161,1,45,8|8,0:0|0:0,0:0:0:0:
246,343,22994,1,8,0:0:0:0:
265,318,23075,1,8,0:0:0:0:
272,287,23156,1,8,0:3:0:0:
265,257,23237,1,4,0:3:0:0:
247,232,23318,6,0,B|170:217|195:265|101:244,1,144,4|8,3:2|0:0,0:0:0:0:
0,179,23805,1,2,0:0:0:0:
150,99,23967,2,0,P|146:138|133:181,1,72,2|2,3:2|3:2,0:0:0:0:
265,257,24291,2,0,P|255:222|252:186,1,72,10|2,0:0|0:0,0:0:0:0:
323,33,24616,6,0,L|440:47,1,108,2|0,3:2|0:0,0:0:0:0:
460,54,24940,1,10,0:0:0:0:
357,203,25102,2,0,P|347:172|342:112,1,72,2|0,0:0|3:2,0:0:0:0:
464,212,25426,1,0,3:2:0:0:
340,289,25589,1,8,3:2:0:0:
484,360,25751,1,2,0:0:0:0:
301,378,25913,6,0,P|259:367|215:365,1,72,2|0,3:2|3:2,0:0:0:0:
92,366,26237,1,10,0:0:0:0:
222,265,26399,1,2,0:0:0:0:
107,166,26561,2,0,P|110:210|119:263,1,72,0|2,3:2|3:2,0:0:0:0:
6,361,26886,2,0,P|14:290|11:231,1,108,10|0,0:0|0:0,0:0:0:0:
0,223,27210,6,0,P|11:191|14:143,1,72,2|0,3:2|3:2,0:0:0:0:
99,13,27534,2,0,P|101:53|111:93,1,72,10|2,0:0|0:0,0:0:0:0:
211,191,27859,1,0,3:0:0:0:
281,57,28021,1,8,0:0:0:0:
121,159,28183,1,0,3:0:0:0:
272,273,28345,5,2,0:2:0:0:
272,273,28426,1,0,0:0:0:0:
272,273,28507,2,0,L|361:258,1,72,6|2,3:2|0:2,0:0:0:0:
512,325,28832,1,10,0:2:0:0:
424,214,28994,1,2,0:2:0:0:
503,57,29156,2,0,P|493:99|489:148,1,72,2|0,3:2|0:0,0:0:0:0:
355,9,29480,2,0,P|365:51|369:100,1,72,10|2,0:2|0:2,0:0:0:0:
300,212,29805,6,0,B|226:240|226:240|145:199,1,144,2|10,3:2|0:2,0:0:0:0:
44,146,30291,1,2,0:2:0:0:
151,218,30453,1,2,3:2:0:0:
90,71,30616,1,2,0:3:0:0:
12,236,30778,2,0,B|93:255|74:199|163:220,1,144,10|0,0:2|3:2,0:0:0:0:
466,343,31426,5,10,0:2:0:0:
390,262,31589,2,0,L|397:174,1,72,2|0,0:2|3:0,0:0:0:0:
404,38,31913,1,2,0:2:0:0:
404,38,31994,1,0,0:0:0:0:
404,38,32075,1,8,0:0:0:0:
480,114,32237,1,2,0:2:0:0:
307,183,32399,2,0,P|233:178|196:112,1,144,2|8,3:2|0:0,0:0:0:0:
188,113,33048,6,0,L|103:121,1,72,2|2,3:2|0:0,0:0:0:0:
248,35,33372,1,10,0:2:0:0:
273,36,33453,1,8,0:0:0:0:
298,38,33534,1,8,0:3:0:0:
323,40,33615,1,4,0:3:0:0:
346,41,33697,6,0,L|508:22,1,144,4|8,3:2|0:0,0:0:0:0:
400,125,34183,1,2,0:0:0:0:
512,228,34345,2,0,P|500:187|498:151,1,72,2|2,3:2|3:2,0:0:0:0:
401,258,34670,1,10,0:0:0:0:
512,330,34832,1,2,0:0:0:0:
359,368,34994,6,0,P|303:317|228:327,1,144,2|10,3:2|0:0,0:0:0:0:
123,364,35480,2,0,L|132:276,1,72,2|0,0:0|3:2,0:0:0:0:
143,166,35805,1,0,3:2:0:0:
38,39,35967,2,0,L|45:110,1,72,10|2,3:2|0:0,0:0:0:0:
192,223,36291,6,0,B|254:207|254:207|304:228,1,108,2|0,3:2|0:0,0:0:0:0:
316,240,36616,1,10,0:0:0:0:
281,126,36778,1,2,0:0:0:0:
379,27,36940,2,0,L|391:111,1,72,2|0,3:2|3:2,0:0:0:0:
503,279,37264,2,0,L|513:164,1,108,10|0,0:0|0:0,0:0:0:0:
505,154,37589,6,0,B|430:139|449:201|363:179,1,144,2|10,3:2|0:0,0:0:0:0:
265,138,38075,1,2,0:0:0:0:
308,264,38237,1,0,3:0:0:0:
389,98,38399,1,8,0:0:0:0:
304,272,38561,1,0,3:0:0:0:
174,170,38724,5,2,0:2:0:0:
174,170,38805,1,0,0:0:0:0:
174,170,38886,2,0,P|184:117|202:89,1,72,6|2,3:2|0:2,0:0:0:0:
41,41,39210,2,0,P|55:73|59:109,1,72,10|2,0:2|0:2,0:0:0:0:
0,256,39534,2,0,B|53:236|53:236|109:258,1,108,2|0,3:2|0:0,0:0:0:0:
121,269,39859,1,10,0:2:0:0:
49,375,40021,1,2,0:2:0:0:
217,346,40183,6,0,L|349:359,1,108,2|0,3:2|0:0,0:0:0:0:
342,363,40507,2,0,L|328:279,1,72,10|2,0:2|0:2,0:0:0:0:
296,160,40832,2,0,L|428:147,1,108,2|0,3:2|0:0,0:0:0:0:
421,143,41156,2,0,L|407:227,1,72,10|2,0:2|0:3,0:0:0:0:
512,31,41480,6,0,P|448:46|408:1,1,108,0|0,3:2|0:0,0:0:0:0:
398,14,41805,2,0,P|350:58|292:40,1,108,10|0,0:2|0:0,0:0:0:0:
295,46,42129,2,0,P|275:108|217:121,1,108,0|0,3:0|0:0,0:0:0:0:
220,126,42453,2,0,P|234:190|189:230,1,108,8|0,0:0|0:0,0:0:0:0:
182,239,42778,5,2,3:2:0:0:
259,355,42940,1,8,0:2:0:0:
410,265,43102,1,8,3:2:0:0:
410,265,43183,1,8,0:2:0:0:
410,265,43264,2,0,P|415:247|416:229,1,36,8|8,0:2|0:2,0:0:0:0:
427,32,43427,5,10,3:2:0:0:
427,32,43508,1,8,0:2:0:0:
427,32,43589,2,0,P|393:21|377:18,1,36,10|8,0:2|0:2,0:0:0:0:
192,129,43751,1,10,3:2:0:0:
217,148,43832,1,8,0:2:0:0:
248,155,43913,1,8,0:2:0:0:
278,148,43994,1,8,0:2:0:0:
304,124,44075,6,0,L|308:212,1,72,6|2,3:2|0:0,0:0:0:0:
312,323,44399,1,8,0:0:0:0:
299,312,44561,1,2,0:0:0:0:
216,97,44724,6,0,L|220:185,1,72,0|2,3:0|0:0,0:0:0:0:
224,296,45048,1,8,0:0:0:0:
211,285,45210,1,2,0:0:0:0:
125,53,45372,6,0,L|129:141,1,72,0|2,3:0|0:0,0:0:0:0:
133,252,45696,1,8,0:0:0:0:
120,241,45858,1,2,0:0:0:0:
230,83,46021,5,2,3:2:0:0:
230,83,46102,1,2,0:0:0:0:
230,83,46183,1,2,0:0:0:0:
41,185,46345,1,8,0:0:0:0:
202,250,46507,1,2,0:0:0:0:
51,380,46670,6,0,P|60:342|57:294,1,72,0|2,3:0|0:0,0:0:0:0:
21,168,46994,1,8,0:0:0:0:
56,294,47156,1,2,0:0:0:0:
197,180,47318,6,0,P|221:172|282:176,1,72,0|2,3:0|0:0,0:0:0:0:
395,247,47643,1,8,0:0:0:0:
256,350,47805,5,2,3:2:0:0:
256,350,47886,1,0,3:2:0:0:
256,350,47967,2,0,L|259:300,1,36,8|0,0:0|0:0,0:0:0:0:
199,197,48129,1,8,0:0:0:0:
199,197,48210,1,8,0:0:0:0:
199,197,48291,2,0,L|196:161,1,36,8|8,0:3|0:3,0:0:0:0:
109,65,48453,2,0,L|111:29,1,36,8|0,0:0|0:0,0:0:0:0:
0,138,48616,1,8,0:0:0:0:
28,142,48697,1,8,0:3:0:0:
53,155,48778,1,8,0:3:0:0:
74,176,48859,1,4,0:3:0:0:
87,201,48940,1,8,0:0:0:0:
92,229,49021,1,8,0:0:0:0:
87,258,49102,1,8,0:0:0:0:
75,284,49183,1,8,0:0:0:0:
63,310,49264,6,0,B|140:325|115:277|209:298,1,144,4|8,3:2|0:0,0:0:0:0:
321,360,49751,1,2,0:0:0:0:
409,262,49913,2,0,P|413:223|426:180,1,72,2|2,3:2|3:2,0:0:0:0:
317,76,50237,2,0,P|327:111|330:147,1,72,10|2,0:0|0:0,0:0:0:0:
203,323,50562,6,0,L|86:309,1,108,2|0,3:2|0:0,0:0:0:0:
71,315,50886,1,10,0:0:0:0:
133,202,51048,2,0,P|128:166|117:132,1,72,2|0,0:0|3:2,0:0:0:0:
28,24,51372,1,0,3:2:0:0:
195,52,51535,1,10,0:2:0:0:
25,132,51697,1,2,0:0:0:0:
202,195,51859,6,0,P|244:184|288:182,1,72,0|0,3:2|3:2,0:0:0:0:
439,227,52183,1,10,0:0:0:0:
293,166,52345,1,2,0:0:0:0:
365,343,52507,2,0,P|362:299|353:246,1,72,0|2,3:2|3:2,0:0:0:0:
446,119,52832,2,0,P|438:190|441:249,1,108,10|0,0:0|0:0,0:0:0:0:
443,244,53156,6,0,P|475:255|523:258,1,72,2|0,3:2|3:2,0:0:0:0:
373,327,53480,2,0,P|337:330|303:341,1,72,10|2,0:0|0:0,0:0:0:0:
142,384,53805,1,0,3:0:0:0:
223,250,53967,1,8,0:0:0:0:
148,373,54129,1,0,3:0:0:0:
53,237,54291,5,2,0:2:0:0:
53,237,54372,1,0,0:0:0:0:
53,237,54453,2,0,L|68:148,1,72,6|2,3:2|0:2,0:0:0:0:
97,28,54778,1,10,0:2:0:0:
163,167,54940,1,2,0:2:0:0:
66,341,55102,2,0,P|108:331|157:327,1,72,2|0,3:2|0:0,0:0:0:0:
264,283,55426,2,0,P|306:293|355:297,1,72,10|2,0:2|0:2,0:0:0:0:
473,257,55751,6,0,B|501:183|501:183|460:102,1,144,2|10,3:2|0:2,0:0:0:0:
407,1,56237,1,2,0:2:0:0:
479,108,56399,1,2,3:2:0:0:
332,47,56562,1,2,0:3:0:0:
188,126,56724,2,0,B|107:145|126:89|37:110,1,144,10|0,0:2|3:2,0:0:0:0:
49,107,57372,5,10,0:2:0:0:
143,286,57535,2,0,L|136:198,1,72,2|0,0:2|3:0,0:0:0:0:
241,350,57859,1,2,0:2:0:0:
241,350,57940,1,0,0:0:0:0:
241,350,58021,1,8,0:0:0:0:
33,293,58183,1,2,0:2:0:0:
233,202,58345,2,0,P|297:193|381:218,1,144,2|8,3:2|0:0,0:0:0:0:
372,213,58994,6,0,L|457:205,1,72,2|2,3:2|0:0,0:0:0:0:
332,301,59318,1,10,0:2:0:0:
307,302,59399,1,8,0:0:0:0:
282,304,59480,1,8,0:3:0:0:
257,306,59561,1,4,0:3:0:0:
234,307,59643,6,0,L|72:288,1,144,4|8,3:2|0:0,0:0:0:0:
0,187,60129,1,2,0:0:0:0:
105,86,60291,2,0,P|117:127|119:163,1,72,2|2,3:2|3:2,0:0:0:0:
76,292,60616,1,10,0:0:0:0:
0,173,60778,1,2,0:0:0:0:
117,70,60940,6,0,P|191:84|278:96,1,144,2|10,3:2|0:0,0:0:0:0:
423,6,61426,2,0,P|426:54|432:94,1,72,2|0,0:0|3:2,0:0:0:0:
495,200,61751,1,0,3:2:0:0:
408,300,61913,2,0,P|372:300|336:293,1,72,10|2,3:2|0:0,0:0:0:0:
189,174,62237,6,0,B|173:112|173:112|194:62,1,108,2|0,3:2|0:0,0:0:0:0:
206,50,62562,1,10,0:0:0:0:
303,143,62724,1,2,0:0:0:0:
123,213,62886,2,0,L|39:201,1,72,0|2,3:2|3:2,0:0:0:0:
181,308,63210,2,0,L|300:301,1,108,10|0,0:0|0:0,0:0:0:0:
306,283,63535,6,0,B|381:298|362:236|448:258,1,144,2|10,3:2|0:0,0:0:0:0:
318,191,64021,1,2,0:0:0:0:
424,358,64183,1,0,3:0:0:0:
488,116,64345,1,8,0:0:0:0:
418,351,64507,1,0,3:0:0:0:
318,191,64670,5,2,0:2:0:0:
310,178,64751,1,0,0:0:0:0:
302,165,64832,2,0,L|311:79,1,72,6|2,3:2|0:2,0:0:0:0:
218,218,65156,2,0,L|209:132,1,72,10|2,0:2|0:2,0:0:0:0:
129,284,65480,2,0,L|138:198,1,72,2|2,3:2|0:0,0:0:0:0:
45,337,65804,2,0,L|36:251,1,72,10|2,0:2|0:2,0:0:0:0:
13,101,66129,6,0,P|64:117|142:113,1,108,2|0,3:2|0:0,0:0:0:0:
148,105,66453,2,0,P|199:89|277:93,1,108,10|0,0:2|0:0,0:0:0:0:
273,102,66778,2,0,P|289:153|285:231,1,108,2|0,3:2|0:0,0:0:0:0:
265,292,67102,5,10,0:2:0:0:
263,314,67183,1,8,0:3:0:0:
261,336,67264,1,8,0:3:0:0:
259,358,67345,1,4,0:3:0:0:
258,379,67426,5,10,3:2:0:0:
302,365,67507,1,0,0:0:0:0:
340,336,67589,1,8,0:0:0:0:
362,295,67670,1,8,0:0:0:0:
370,248,67751,1,10,3:2:0:0:
359,202,67832,1,8,0:0:0:0:
333,164,67913,1,10,0:2:0:0:
295,137,67994,1,8,0:0:0:0:
250,126,68075,1,10,3:2:0:0:
204,132,68156,1,8,0:0:0:0:
162,154,68237,1,8,0:0:0:0:
131,189,68318,1,8,0:0:0:0:
116,234,68399,1,10,3:2:0:0:
118,281,68480,1,8,0:0:0:0:
136,324,68561,1,10,0:2:0:0:
169,357,68643,1,0,3:0:0:0:
211,376,68724,1,10,3:2:0:0:
452,196,69048,5,8,3:2:0:0:
99,59,69372,5,8,3:2:0:0:
135,98,69453,1,0,0:0:0:0:
185,108,69534,1,0,3:0:0:0:
232,86,69615,1,0,3:0:0:0:
262,50,69697,6,0,L|260:22,1,27,10|0,3:2|0:0,0:0:0:0:
370,133,70021,6,0,B|301:135|253:222|253:222|220:122|149:113,1,310.500005922318,6|0,3:2|0:0,0:0:0:0:
55,312,70345,6,0,P|64:295|66:269,1,45,10|0,0:2|0:0,0:0:0:0:
150,241,70507,2,0,P|144:222|127:202,1,45,2|0,0:2|0:0,0:0:0:0:
428,353,70670,6,0,P|422:334|425:308,1,45,2|0,3:2|0:0,0:0:0:0:
348,265,70832,2,0,P|357:248|377:231,1,45,2|0,0:2|0:0,0:0:0:0:
211,19,70994,6,0,P|220:36|222:62,1,45,10|0,0:2|0:0,0:0:0:0:
309,105,71156,2,0,P|303:123|286:143,1,45,2|0,0:2|0:0,0:0:0:0:
104,233,71319,6,0,P|98:251|101:277,1,45,2|0,3:2|0:0,0:0:0:0:
24,321,71481,2,0,P|33:337|53:354,1,45,2|0,0:2|0:0,0:0:0:0:
267,384,71643,5,10,0:2:0:0:
205,165,71805,1,2,0:2:0:0:
373,272,71967,1,2,3:2:0:0:
373,272,72048,1,2,0:0:0:0:
373,272,72129,1,2,0:0:0:0:
198,295,72291,1,10,0:2:0:0:
257,93,72453,1,2,0:2:0:0:
83,219,72616,6,0,P|48:305|203:285,1,310.500005922318,2|0,3:2|0:0,0:0:0:0:
257,93,72940,6,0,P|251:67|236:46,1,45,10|0,0:2|0:0,0:0:0:0:
316,146,73102,2,0,P|330:123|334:97,1,45,2|0,0:2|0:0,0:0:0:0:
201,302,73264,6,0,P|207:328|222:349,1,45,2|0,3:2|0:0,0:0:0:0:
142,249,73426,2,0,P|127:271|123:297,1,45,2|0,0:2|0:0,0:0:0:0:
363,225,73589,6,0,P|389:219|410:204,1,45,10|0,0:2|0:0,0:0:0:0:
312,284,73751,2,0,P|334:298|360:302,1,45,2|0,0:2|0:0,0:0:0:0:
122,173,73913,6,0,P|96:179|75:194,1,45,2|0,3:2|0:0,0:0:0:0:
175,114,74075,2,0,P|152:99|126:95,1,45,2|0,0:2|0:0,0:0:0:0:
14,263,74237,5,10,0:2:0:0:
211,353,74399,1,2,0:2:0:0:
4,258,74561,1,2,3:2:0:0:
123,384,74724,5,8,0:0:0:0:
298,247,74886,1,10,0:2:0:0:
487,377,75048,1,2,0:2:0:0:
481,110,75210,6,0,B|417:175|293:190|271:42|374:10|408:78|421:117|401:148,1,310.500005922318,6|0,3:2|0:0,0:0:0:0:
299,12,75534,6,0,P|279:38|273:58,1,45,10|0,0:2|0:0,0:0:0:0:
220,145,75697,2,0,P|224:177|234:195,1,45,2|0,0:2|0:0,0:0:0:0:
410,327,75859,6,0,P|430:301|436:281,1,45,2|0,3:2|0:0,0:0:0:0:
489,194,76022,2,0,P|484:161|474:143,1,45,2|0,0:2|0:0,0:0:0:0:
174,80,76183,6,0,P|154:106|148:126,1,45,10|0,0:2|0:0,0:0:0:0:
95,213,76346,2,0,P|99:245|109:263,1,45,2|0,0:2|0:0,0:0:0:0:
294,370,76507,6,0,P|314:344|320:324,1,45,2|0,3:2|0:0,0:0:0:0:
373,237,76670,2,0,P|368:204|358:186,1,45,2|0,0:2|0:0,0:0:0:0:
245,45,76832,5,10,0:2:0:0:
174,213,76994,1,2,0:2:0:0:
336,356,77156,2,0,L|350:246,1,90,2|2,3:2|0:0,0:0:0:0:
433,92,77480,1,10,0:2:0:0:
512,215,77643,1,2,0:2:0:0:
238,371,77805,6,0,P|160:377|93:332,1,161.999995056153,6|0,3:2|0:0,0:0:0:0:
44,283,78129,2,0,P|40:194|38:176,1,107.999996704102,10|0,0:2|0:0,0:0:0:0:
0,39,78453,1,2,3:2:0:0:
162,142,78616,5,8,0:0:0:0:
188,136,78697,1,8,0:0:0:0:
211,123,78778,1,10,0:0:0:0:
229,103,78859,1,8,0:0:0:0:
260,60,78940,5,8,0:3:0:0:
260,60,79021,1,8,0:3:0:0:
260,60,79102,1,10,0:0:0:0:
316,31,79183,1,8,0:0:0:0:
375,52,79264,1,8,0:0:0:0:
397,111,79345,1,8,0:0:0:0:
381,165,79426,5,8,0:3:0:0:
361,206,79508,1,8,0:3:0:0:
377,248,79589,1,8,0:3:0:0:
418,267,79670,1,8,0:3:0:0:
461,250,79751,1,8,0:0:0:0:
480,209,79832,1,8,0:0:0:0:
464,167,79913,1,8,0:3:0:0:
423,149,79994,1,8,0:3:0:0:
378,142,80075,2,0,P|350:149|321:169,1,53.9999983520508,10|8,0:0|0:0,0:0:0:0:
252,337,80237,2,0,P|276:324|293:302,1,53.9999983520508,8|4,0:3|0:3,0:0:0:0:
136,171,80399,6,0,P|124:286|213:196,1,310.500005922318,6|0,3:2|0:0,0:0:0:0:
133,90,80724,6,0,P|101:96|76:113,1,45,10|0,0:2|0:0,0:0:0:0:
201,36,80886,2,0,P|174:17|144:11,1,45,2|0,0:2|0:0,0:0:0:0:
348,201,81048,6,0,P|380:195|405:178,1,45,2|0,3:2|0:0,0:0:0:0:
280,255,81210,2,0,P|306:273|336:279,1,45,2|0,0:2|0:0,0:0:0:0:
294,42,81372,6,0,P|288:10|271:-15,1,45,10|0,0:2|0:0,0:0:0:0:
348,110,81534,2,0,P|366:83|372:53,1,45,2|0,0:2|0:0,0:0:0:0:
501,336,81697,6,0,P|444:333|388:344,1,90,2|2,3:2|0:2,0:0:0:0:
221,384,82021,1,10,0:2:0:0:
168,222,82183,1,2,0:2:0:0:
106,371,82345,2,0,P|151:365|217:359,1,90,2|0,3:2|0:0,0:0:0:0:
398,330,82670,1,10,0:2:0:0:
256,263,82832,1,2,0:2:0:0:
312,147,82994,6,0,B|165:78|210:258|22:154|138:31|191:108,1,310.500005922318,2|0,3:2|0:0,0:0:0:0:
149,236,83318,6,0,P|126:237|106:229,1,45,10|0,0:2|0:0,0:0:0:0:
44,298,83480,2,0,P|27:282|18:262,1,45,2|0,0:2|0:0,0:0:0:0:
263,219,83643,6,0,P|263:241|255:262,1,45,2|0,3:2|0:0,0:0:0:0:
325,324,83805,2,0,P|309:340|289:349,1,45,2|0,0:2|0:0,0:0:0:0:
259,109,83967,6,0,P|281:108|302:116,1,45,10|0,0:2|0:0,0:0:0:0:
364,47,84129,2,0,P|380:62|389:82,1,45,2|0,0:2|0:0,0:0:0:0:
412,275,84291,6,0,L|401:377,1,90,2|2,3:2|0:2,0:0:0:0:
509,185,84616,1,10,0:2:0:0:
303,244,84778,1,2,0:2:0:0:
512,304,84940,1,2,3:2:0:0:
396,48,85102,5,8,0:0:0:0:
312,260,85264,1,10,0:2:0:0:
254,124,85426,1,2,0:2:0:0:
79,352,85589,6,0,B|148:350|196:263|196:263|229:363|300:372,1,310.500005922318,2|0,3:2|0:0,0:0:0:0:
0,176,85913,6,0,P|17:185|43:187,1,45,10|0,0:2|0:0,0:0:0:0:
71,271,86075,2,0,P|90:265|110:248,1,45,2|0,0:2|0:0,0:0:0:0:
397,198,86237,6,0,P|380:207|354:209,1,45,2|0,3:2|0:0,0:0:0:0:
326,293,86399,2,0,P|307:287|287:270,1,45,2|0,0:2|0:0,0:0:0:0:
197,96,86561,6,0,P|187:64|189:37,1,45,10|0,0:2|0:0,0:0:0:0:
325,52,86724,2,0,P|323:75|315:96,1,45,2|0,0:2|0:0,0:0:0:0:
208,256,86886,6,0,L|218:352,1,90,2|2,3:2|0:2,0:0:0:0:
107,144,87210,2,0,L|115:40,1,90,10|2,0:2|0:2,0:0:0:0:
9,260,87534,1,2,3:2:0:0:
23,255,87616,1,2,0:0:0:0:
37,250,87697,1,2,0:2:0:0:
208,357,87859,2,0,P|253:368|315:348,1,90,10|0,0:2|0:0,0:0:0:0:
466,208,88183,6,0,B|384:193|408:261|308:239,1,161.999995056153,2|0,3:2|0:0,0:0:0:0:
241,179,88507,6,0,P|253:121|315:188,1,161.999995056153,10|0,0:2|0:0,0:0:0:0:
180,231,88832,6,0,P|159:148|208:62,1,161.999995056153,2|0,3:2|0:0,0:0:0:0:
2,21,89156,6,0,P|17:34|85:172,1,161.999995056153,10|0,0:2|0:0,0:0:0:0:
191,351,89480,6,0,L|133:336,1,53.9999983520508,2|0,3:2|0:0,0:0:0:0:
22,247,89643,1,8,0:0:0:0:
68,271,89724,1,8,0:0:0:0:
120,260,89805,1,10,3:2:0:0:
152,218,89886,1,8,0:0:0:0:
149,165,89967,1,10,0:2:0:0:
113,127,90048,1,8,0:0:0:0:
68,118,90129,5,10,3:2:0:0:
88,135,90210,1,8,0:0:0:0:
112,146,90291,1,10,0:2:0:0:
139,150,90372,1,8,0:0:0:0:
166,146,90453,1,10,3:2:0:0:
190,135,90534,1,8,0:0:0:0:
210,118,90615,1,10,0:2:0:0:
225,95,90696,1,8,0:0:0:0:
254,29,90778,6,0,L|363:19,1,90,6|0,3:2|3:0,0:0:0:0:
486,137,91102,1,10,0:2:0:0:
274,245,91264,2,0,L|279:142,1,90,2|0,0:2|3:0,0:0:0:0:
468,237,91589,2,0,L|472:326,1,90,2|8,3:2|0:0,0:0:0:0:
314,384,91913,1,2,0:0:0:0:
166,257,92075,6,0,P|159:202|183:150,1,90,2|0,3:2|3:0,0:0:0:0:
290,18,92399,1,10,0:2:0:0:
121,92,92561,1,2,0:2:0:0:
347,126,92724,1,2,3:2:0:0:
198,21,92886,1,2,3:2:0:0:
119,206,93048,1,10,0:2:0:0:
199,39,93210,1,2,0:2:0:0:
301,239,93372,6,0,L|316:332,1,90,2|0,3:2|3:0,0:0:0:0:
450,144,93697,1,10,0:2:0:0:
484,314,93859,1,2,0:2:0:0:
333,131,94021,1,2,3:2:0:0:
235,312,94183,2,0,P|226:274|206:223,1,90,2|8,3:2|0:2,0:0:0:0:
106,121,94507,1,2,0:0:0:0:
59,319,94670,6,0,P|135:304|162:305,1,90,2|0,3:2|3:0,0:0:0:0:
346,358,94994,1,10,0:2:0:0:
440,212,95156,2,0,P|426:164|420:101,1,90,2|2,0:2|3:2,0:0:0:0:
259,25,95480,1,2,3:2:0:0:
350,182,95643,1,10,0:2:0:0:
365,30,95805,1,2,0:2:0:0:
185,179,95967,6,0,P|144:184|86:173,1,90,2|0,3:2|3:0,0:0:0:0:
0,314,96291,1,10,0:2:0:0:
177,368,96453,2,0,L|167:268,1,90,2|0,0:2|3:0,0:0:0:0:
24,136,96778,2,0,L|34:36,1,90,2|8,3:2|0:0,0:0:0:0:
117,186,97102,2,0,P|77:232|26:238,1,90,2|0,0:2|3:0,0:0:0:0:
186,377,97426,5,0,3:0:0:0:
349,283,97589,1,10,0:2:0:0:
131,213,97751,1,2,0:2:0:0:
319,356,97913,1,2,3:2:0:0:
253,131,98075,1,2,3:2:0:0:
133,327,98237,1,10,0:2:0:0:
102,334,98318,1,0,0:0:0:0:
71,333,98399,1,10,0:2:0:0:
41,324,98480,1,8,0:0:0:0:
14,307,98561,6,0,L|29:185,1,90,2|0,3:2|3:0,0:0:0:0:
57,22,98886,2,0,P|94:55|191:58,1,135,10|0,0:2|0:0,0:0:0:0:
209,58,99210,2,0,L|194:147,1,90,2|0,3:2|3:0,0:0:0:0:
326,338,99534,5,10,0:2:0:0:
322,306,99615,1,0,0:0:0:0:
318,275,99696,1,0,3:0:0:0:
315,244,99777,1,0,3:0:0:0:
311,212,99858,1,10,0:2:0:0:
454,139,100021,5,0,3:0:0:0:
446,162,100102,1,0,3:0:0:0:
439,185,100183,1,8,0:2:0:0:
294,109,100345,6,0,P|278:98|238:88,1,45,2|0,3:2|3:0,0:0:0:0:
113,131,100507,1,10,0:2:0:0:
81,162,100588,1,0,0:0:0:0:
71,205,100669,1,10,0:2:0:0:
86,247,100750,1,8,0:0:0:0:
121,273,100831,1,10,3:2:0:0:
166,277,100912,1,8,0:0:0:0:
205,256,100993,1,10,0:2:0:0:
226,217,101074,1,8,0:0:0:0:
223,173,101155,5,2,3:2:0:0:
94,72,101318,2,0,L|78:179,1,90,2|8,0:2|0:0,0:0:0:0:
265,0,101643,2,0,L|281:107,1,90,2|0,0:2|3:0,0:0:0:0:
455,187,101967,2,0,L|468:97,1,90,2|8,0:2|0:0,0:0:0:0:
310,197,102291,1,2,0:2:0:0:
424,334,102453,6,0,P|480:345|524:341,1,90,2|0,3:2|0:0,0:0:0:0:
297,372,102778,1,10,0:2:0:0:
329,183,102940,1,2,0:2:0:0:
219,299,103102,1,2,3:2:0:0:
461,225,103264,1,2,0:2:0:0:
221,216,103426,1,10,0:2:0:0:
409,340,103589,1,2,0:2:0:0:
337,151,103751,5,2,3:2:0:0:
144,251,103913,2,0,P|97:243|43:240,1,90,2|8,0:2|0:0,0:0:0:0:
278,358,104237,2,0,P|322:354|367:347,1,90,2|0,0:2|3:0,0:0:0:0:
465,206,104561,2,0,P|457:165|449:99,1,90,2|8,0:2|0:0,0:0:0:0:
320,22,104886,1,2,0:2:0:0:
234,202,105048,6,0,P|286:192|337:188,1,90,2|0,3:2|0:0,0:0:0:0:
172,314,105372,1,10,0:2:0:0:
83,184,105534,2,0,P|78:138|79:89,1,90,2|0,3:2|3:2,0:0:0:0:
22,287,105859,1,10,0:2:0:0:
184,184,106021,1,2,3:2:0:0:
0,128,106183,1,10,0:2:0:0:
163,293,106345,6,0,P|205:293|269:280,1,90,2|0,3:2|0:0,0:0:0:0:
440,212,106670,1,10,0:2:0:0:
340,376,106832,2,0,L|331:276,1,90,2|0,0:2|3:0,0:0:0:0:
244,157,107156,2,0,L|253:57,1,90,2|8,0:2|0:0,0:0:0:0:
68,11,107480,2,0,P|90:61|117:86,1,90,2|0,0:2|3:0,0:0:0:0:
355,90,107805,5,0,0:0:0:0:
155,175,107967,1,10,0:2:0:0:
395,212,108129,1,2,0:2:0:0:
233,59,108291,1,2,3:2:0:0:
301,254,108453,1,2,0:2:0:0:
403,7,108616,1,10,0:2:0:0:
221,67,108778,1,2,0:2:0:0:
408,235,108940,6,0,P|447:237|506:213,1,90,2|0,3:2|0:0,0:0:0:0:
326,342,109264,2,0,P|289:309|192:306,1,135,10|0,0:2|0:0,0:0:0:0:
177,311,109589,2,0,L|164:240,1,45,2|0,3:2|0:0,0:0:0:0:
143,118,109751,5,8,0:0:0:0:
125,77,109832,1,8,0:0:0:0:
86,56,109913,1,10,0:2:0:0:
42,64,109994,1,8,0:0:0:0:
13,96,110075,1,8,0:3:0:0:
10,140,110156,1,8,0:3:0:0:
18,198,110237,5,2,3:2:0:0:
46,249,110318,1,8,0:0:0:0:
91,286,110399,1,8,0:0:0:0:
147,302,110480,1,8,0:0:0:0:
204,294,110561,1,8,0:3:0:0:
254,265,110642,1,8,0:3:0:0:
289,218,110723,1,8,0:3:0:0:
303,162,110804,1,8,0:3:0:0:
300,89,110886,5,10,0:2:0:0:
262,33,110967,1,8,0:0:0:0:
201,6,111048,1,8,0:3:0:0:
135,14,111129,1,8,0:3:0:0:
83,55,111210,1,8,0:0:0:0:
68,135,111291,5,8,0:0:0:0:
80,205,111372,1,0,3:0:0:0:
128,258,111453,1,0,3:0:0:0:
204,269,111534,1,6,3:2:0:0:
256,192,111616,12,2,115426,0:0:0:0:
152,358,116237,5,0,3:0:0:0:
158,347,116318,1,0,3:0:0:0:
161,335,116399,2,0,L|156:305,1,27,8|0,0:0|0:0,0:0:0:0:
238,110,116724,5,0,3:0:0:0:
263,72,116805,1,2,0:0:0:0:
300,47,116886,1,2,0:0:0:0:
344,38,116967,1,2,0:0:0:0:
388,47,117048,1,8,0:0:0:0:
426,72,117129,1,2,0:0:0:0:
451,110,117210,1,2,0:0:0:0:
459,154,117291,1,2,0:0:0:0:
451,198,117372,1,0,3:0:0:0:
426,235,117453,1,2,0:0:0:0:
388,260,117534,1,2,0:0:0:0:
344,269,117616,1,2,0:0:0:0:
300,260,117697,1,8,0:0:0:0:
263,235,117778,1,2,0:0:0:0:
238,198,117859,1,2,0:0:0:0:
229,151,117940,1,2,0:0:0:0:
238,110,118021,6,0,P|234:88|218:43,1,45,2|0,3:2|0:0,0:0:0:0:
55,24,118183,2,0,P|51:46|35:91,1,45,2|0,0:2|0:0,0:0:0:0:
6,231,118345,5,8,0:0:0:0:
6,231,118426,1,0,0:0:0:0:
6,231,118507,2,0,P|43:208|57:206,1,45,2|0,0:2|0:0,0:0:0:0:
85,383,118670,2,0,L|77:281,1,90,2|0,3:2|0:0,0:0:0:0:
187,127,118994,6,0,P|211:122|235:129,3,45,10|0|2|0,0:2|0:0|0:2|0:0,0:0:0:0:
301,202,119318,2,0,B|267:142|267:142|295:71,1,135,2|0,3:2|0:0,0:0:0:0:
449,0,119643,2,0,P|442:34|438:68,1,45,10|0,0:2|0:0,0:0:0:0:
491,171,119805,2,0,P|491:210|497:276,1,90,2|0,0:2|3:0,0:0:0:0:
296,296,120129,2,0,L|245:288,1,45,2|0,0:2|0:0,0:0:0:0:
360,377,120291,1,10,0:2:0:0:
459,147,120453,6,0,B|357:177|384:96|289:120,1,180,2|0,0:2|0:0,0:0:0:0:
222,305,120940,2,0,P|258:358|265:387,1,90,10|2,0:2|0:2,0:0:0:0:
73,232,121264,1,0,3:0:0:0:
273,197,121426,2,0,L|320:205,1,45,8|0,0:0|0:0,0:0:0:0:
141,126,121589,2,0,L|188:118,1,45,10|0,0:0|0:0,0:0:0:0:
73,232,121751,5,10,0:0:0:0:
83,249,121832,1,8,0:0:0:0:
90,269,121913,2,0,P|93:317|83:353,2,60,2|2|2,3:2|0:0|0:0,0:0:0:0:
15,112,122237,2,0,P|12:82|16:52,2,60,10|2|2,0:0|0:0|0:0,0:0:0:0:
14,309,122561,2,0,P|4:356|-14:388,2,60,2|2|2,3:2|0:0|0:0,0:0:0:0:
93,86,122885,2,0,P|97:56|109:28,2,60,10|2|2,0:0|0:0|0:0,0:0:0:0:
208,221,123210,5,2,3:2:0:0:
271,180,123318,1,2,0:0:0:0:
203,139,123426,1,2,0:0:0:0:
285,261,123534,5,10,0:0:0:0:
339,341,123642,1,2,0:0:0:0:
378,255,123750,1,2,0:0:0:0:
237,346,123859,5,2,3:2:0:0:
142,324,123967,1,2,0:0:0:0:
49,301,124075,1,2,0:0:0:0:
0,160,124183,5,10,0:0:0:0:
111,134,124291,1,2,0:0:0:0:
222,111,124399,1,2,0:0:0:0:
102,223,124507,6,0,L|112:111,1,90,2|0,3:2|0:0,0:0:0:0:
289,20,124832,2,0,L|297:109,1,90,8|0,0:0|0:0,0:0:0:0:
441,309,125156,2,0,L|454:164,1,135,2|0,3:2|0:0,0:0:0:0:
456,146,125480,1,10,0:0:0:0:
274,11,125643,1,8,0:0:0:0:
55,138,125805,5,8,0:2:0:0:
24,180,125886,1,8,0:0:0:0:
15,233,125967,1,8,0:0:0:0:
32,283,126048,1,8,0:0:0:0:
70,320,126129,1,8,0:2:0:0:
121,335,126210,1,8,0:0:0:0:
174,324,126291,1,8,0:0:0:0:
215,292,126372,1,8,0:0:0:0:
264,225,126453,5,8,0:2:0:0:
333,206,126534,1,8,0:0:0:0:
399,239,126615,1,8,0:0:0:0:
427,307,126696,1,8,0:0:0:0:
445,384,126778,5,8,0:2:0:0:
435,307,126859,1,8,0:0:0:0:
429,227,126940,1,8,0:0:0:0:
420,148,127021,1,8,0:0:0:0:
421,68,127102,6,0,P|426:33|434:10,1,45,4|0,3:2|0:0,0:0:0:0:
348,216,127264,2,0,P|353:237|355:260,1,45,2|0,0:2|0:0,0:0:0:0:
332,76,127426,6,0,P|345:43|359:23,1,45,10|0,0:2|0:0,0:0:0:0:
277,236,127588,2,0,P|276:258|273:280,1,45,2|0,0:2|0:0,0:0:0:0:
245,59,127751,6,0,P|266:31|285:16,1,45,2|0,3:2|0:0,0:0:0:0:
202,252,127913,2,0,P|195:273|186:294,1,45,2|0,0:2|0:0,0:0:0:0:
163,26,128075,6,0,P|190:4|212:-5,1,45,10|0,0:2|0:0,0:0:0:0:
126,246,128237,2,0,P|113:264|99:282,1,45,2|0,0:2|0:0,0:0:0:0:
44,107,128399,6,0,P|63:106|96:111,1,45,2|0,3:2|0:0,0:0:0:0:
321,164,128561,2,0,P|302:163|269:168,1,45,2|0,0:2|0:0,0:0:0:0:
99,281,128724,5,10,0:2:0:0:
99,281,128805,1,0,0:0:0:0:
99,281,128886,2,0,P|101:314|120:368,1,90,2|0,0:2|0:0,0:0:0:0:
219,182,129210,1,2,0:2:0:0:
2,238,129372,1,10,0:2:0:0:
218,332,129534,1,2,0:2:0:0:
413,204,129697,6,0,P|424:163|423:96,1,90,2|0,3:2|0:0,0:0:0:0:
299,18,130021,1,10,0:2:0:0:
199,177,130183,1,2,0:2:0:0:
76,14,130345,2,0,L|67:114,1,90,2|0,3:2|0:0,0:0:0:0:
2,281,130670,2,0,L|11:381,1,90,10|0,0:0|0:0,0:0:0:0:
217,310,130994,6,0,P|241:262|238:218,1,90,2|0,3:2|0:0,0:0:0:0:
188,62,131318,1,10,0:2:0:0:
366,152,131480,2,0,L|245:139,1,90,2|0,3:2|3:2,0:0:0:0:
27,184,131805,1,8,0:0:0:0:
64,179,131886,1,8,0:0:0:0:
104,185,131967,1,8,0:3:0:0:
139,201,132048,1,8,0:3:0:0:
170,226,132129,1,8,0:0:0:0:
193,258,132210,1,8,0:0:0:0:
213,293,132291,6,0,P|204:345|186:382,1,90,6|0,3:2|0:0,0:0:0:0:
308,174,132616,2,0,P|289:132|283:88,1,90,10|0,0:2|0:0,0:0:0:0:
399,299,132940,2,0,P|390:351|372:388,1,90,2|0,3:2|0:0,0:0:0:0:
494,161,133265,2,0,P|475:119|469:75,1,90,10|0,0:2|0:0,0:0:0:0:
299,14,133589,6,0,P|256:30|185:38,1,90,2|0,3:2|0:0,0:0:0:0:
0,122,133913,2,0,P|44:129|86:145,1,90,10|0,0:2|0:0,0:0:0:0:
281,236,134237,2,0,P|238:252|167:260,1,90,2|0,3:2|0:0,0:0:0:0:
38,328,134561,1,0,3:0:0:0:
25,333,134643,1,0,0:0:0:0:
25,346,134724,1,0,3:0:0:0:
38,350,134805,1,0,0:0:0:0:
45,339,134886,5,8,0:0:0:0:
126,6,135048,2,0,L|140:112,1,90,8|0,0:0|3:0,0:0:0:0:
152,361,135372,5,8,0:0:0:0:
234,3,135534,2,0,L|248:109,1,90,8|0,0:0|3:0,0:0:0:0:
261,364,135859,5,8,0:0:0:0:
344,5,136021,2,0,L|358:111,1,90,8|0,0:0|3:0,0:0:0:0:
369,373,136345,5,8,3:2:0:0:
461,9,136507,2,0,L|475:115,1,90,8|0,3:2|3:0,0:0:0:0:
120,239,136832,6,0,P|69:226|12:233,1,90,8|0,0:0|3:0,0:0:0:0:
317,144,137156,2,0,P|368:157|425:150,1,90,8|2,0:0|0:0,0:0:0:0:
153,58,137480,5,4,3:2:0:0:
264,237,137643,1,0,3:0:0:0:
264,237,137724,1,0,3:0:0:0:
264,237,137805,2,0,P|260:267|247:294,1,45,8|0,3:2|3:0,0:0:0:0:
134,374,137967,1,0,3:0:0:0:
134,374,138048,1,0,3:0:0:0:
134,374,138129,2,0,P|138:344|151:317,1,45,8|0,3:2|3:0,0:0:0:0:
122,156,138291,1,0,3:0:0:0:
122,156,138372,1,0,3:0:0:0:
122,156,138453,2,0,P|118:186|105:213,1,45,8|8,3:2|3:2,0:0:0:0:
0,312,138615,1,4,3:3:0:0:
0,312,138696,1,4,3:3:0:0:
0,312,138777,6,0,P|4:282|17:255,3,45,4|0|0|8,3:2|3:0|3:0|3:2,0:0:0:0:
67,117,139102,2,0,P|64:94|57:73,3,45,8|8|8|8,3:2|3:2|3:2|3:2,0:0:0:0:
200,41,139426,2,0,P|214:23|224:3,3,45,0|8|8|8,3:0|3:2|3:2|3:2,0:0:0:0:
242,245,139751,5,8,3:2:0:0:
246,271,139832,1,8,3:2:0:0:
247,300,139913,1,8,3:2:0:0:
249,328,139994,1,8,3:2:0:0:
286,356,140075,5,4,3:0:0:0:
344,353,140156,1,4,3:0:0:0:
400,329,140237,1,4,3:0:0:0:
440,282,140318,1,4,3:0:0:0:
458,222,140399,1,4,3:0:0:0:
451,163,140480,1,4,3:0:0:0:
421,109,140561,1,4,3:0:0:0:
372,73,140642,1,4,3:0:0:0:
311,58,140723,1,4,3:0:0:0:
251,71,140804,1,4,3:0:0:0:
199,107,140885,1,4,3:0:0:0:
168,157,140966,1,4,3:0:0:0:
160,219,141048,1,4,3:0:0:0:
117,261,141129,1,4,3:0:0:0:
58,266,141210,1,4,3:0:0:0:
13,227,141291,1,4,3:0:0:0:
0,154,141372,5,8,0:0:0:0:
327,203,141534,1,0,3:0:0:0:
327,203,141859,5,0,3:0:0:0:
107,37,142183,5,0,3:0:0:0:
107,37,142264,1,0,3:0:0:0:
107,37,142345,1,8,0:0:0:0:
432,383,142670,6,0,B|465:338|470:258|380:231|366:189|401:141|480:138|496:184|477:211|435:221,1,315,4|0,3:2|0:0,0:0:0:0:
133,343,143967,6,0,P|74:355|117:202,1,315,4|0,3:2|0:0,0:0:0:0:
333,194,145264,6,0,B|416:229|524:220|555:144|510:90|438:110|414:153|420:181|430:191,1,315,4|0,3:2|0:0,0:0:0:0:
314,352,146561,6,0,B|209:379|247:302|140:328,1,180,4|2,3:2|0:3,0:0:0:0:
143,327,147534,5,0,0:0:0:0:
46,120,147697,1,8,0:0:0:0:
0,369,147859,2,0,L|75:360,1,72,0|0,3:2|0:0,0:0:0:0:
292,311,148183,5,2,3:2:0:0:
366,96,148345,1,2,0:2:0:0:
418,324,148507,1,2,3:2:0:0:
249,176,148670,1,2,0:2:0:0:
449,193,148832,1,2,3:2:0:0:
292,311,148994,1,2,0:2:0:0:
139,136,149156,5,2,3:2:0:0:
343,217,149318,1,2,0:2:0:0:
120,265,149480,1,2,3:2:0:0:
284,71,149643,1,2,0:2:0:0:
255,322,149805,1,2,3:2:0:0:
139,136,149967,1,2,0:2:0:0:
378,161,150129,2,0,P|416:156|460:143,1,72,2|0,3:2|0:0,0:0:0:0:
368,300,150453,6,0,L|363:269,1,31.5,2|0,3:2|0:0,0:0:0:0:
273,179,151102,5,0,3:0:0:0:
229,171,151183,1,0,3:0:0:0:
187,187,151264,1,8,0:0:0:0:
160,222,151345,1,8,0:0:0:0:
137,287,151426,5,8,0:0:0:0:
91,333,151507,1,8,0:0:0:0:
27,322,151588,1,8,0:3:0:0:
0,264,151669,1,8,0:3:0:0:
17,192,151751,6,0,P|32:174|59:160,1,54,4|2,0:0|0:0,0:0:0:0:
416,280,153048,6,0,B|360:325|273:330|257:229|197:214|119:319|213:414|285:352|248:274,1,337.5,6|0,3:2|0:0,0:0:0:0:
326,154,153372,6,0,P|342:180|347:221,1,53.9999983520508,10|0,0:2|0:0,0:0:0:0:
259,73,153534,2,0,P|243:99|238:140,1,53.9999983520508,2|0,0:2|0:0,0:0:0:0:
96,293,153697,6,0,P|112:267|117:226,1,53.9999983520508,2|0,3:2|0:0,0:0:0:0:
29,374,153859,2,0,P|13:348|8:307,1,53.9999983520508,2|0,0:2|0:0,0:0:0:0:
118,87,154021,6,0,P|134:113|139:154,1,53.9999983520508,10|0,0:2|0:0,0:0:0:0:
51,6,154183,2,0,P|35:32|30:73,1,53.9999983520508,2|0,0:2|0:0,0:0:0:0:
274,288,154345,6,0,P|290:262|295:221,1,53.9999983520508,2|0,3:2|0:0,0:0:0:0:
207,369,154507,2,0,P|191:343|186:302,1,53.9999983520508,2|0,0:2|0:0,0:0:0:0:
246,43,154670,5,10,0:2:0:0:
382,209,154832,1,2,0:2:0:0:
141,120,154994,1,2,3:2:0:0:
141,120,155075,1,2,0:0:0:0:
141,120,155156,1,2,0:0:0:0:
376,193,155318,1,10,0:2:0:0:
110,258,155480,1,2,0:2:0:0:
356,321,155643,6,0,P|442:334|366:198,1,337.5,2|0,3:2|0:0,0:0:0:0:
276,343,155967,6,0,P|287:367|308:384,1,53.9999983520508,10|0,0:2|0:0,0:0:0:0:
200,306,156129,2,0,P|190:331|193:357,1,53.9999983520508,2|0,0:2|0:0,0:0:0:0:
164,149,156291,6,0,P|152:124|131:107,1,53.9999983520508,2|0,3:2|0:0,0:0:0:0:
240,186,156453,2,0,P|249:160|246:134,1,53.9999983520508,2|0,0:2|0:0,0:0:0:0:
55,312,156616,6,0,P|30:323|13:344,1,53.9999983520508,10|0,0:2|0:0,0:0:0:0:
92,236,156778,2,0,P|66:226|40:229,1,53.9999983520508,2|0,0:2|0:0,0:0:0:0:
357,200,156940,6,0,P|381:188|398:167,1,53.9999983520508,2|0,3:2|0:0,0:0:0:0:
320,276,157102,2,0,P|345:285|371:282,1,53.9999983520508,2|0,0:2|0:0,0:0:0:0:
480,83,157264,5,10,0:2:0:0:
235,145,157426,1,2,0:2:0:0:
512,215,157588,1,2,3:2:0:0:
320,9,157751,1,8,0:0:0:0:
407,328,157913,1,10,0:2:0:0:
476,115,158075,1,2,0:2:0:0:
323,341,158237,6,0,B|244:341|195:243|195:243|163:357|81:362,1,337.5,2|0,3:2|0:0,0:0:0:0:
0,175,158561,6,0,P|17:184|60:186,1,53.9999983520508,10|0,0:2|0:0,0:0:0:0:
68,276,158723,2,0,P|87:270|117:242,1,53.9999983520508,2|0,0:2|0:0,0:0:0:0:
392,159,158886,6,0,P|375:168|332:170,1,53.9999983520508,2|0,3:2|0:0,0:0:0:0:
324,260,159048,2,0,P|305:254|275:226,1,53.9999983520508,2|0,0:2|0:0,0:0:0:0:
152,20,159210,6,0,P|161:37|163:80,1,53.9999983520508,10|0,0:2|0:0,0:0:0:0:
253,88,159372,2,0,P|247:107|219:137,1,53.9999983520508,2|0,0:2|0:0,0:0:0:0:
101,339,159534,6,0,P|92:322|90:279,1,53.9999983520508,2|0,3:2|0:0,0:0:0:0:
0,271,159696,2,0,P|6:252|34:222,1,53.9999983520508,2|0,0:2|0:0,0:0:0:0:
203,138,159859,5,10,0:2:0:0:
392,200,160021,1,2,0:2:0:0:
232,361,160183,2,0,L|219:240,1,107.999996704102,2|2,3:2|0:2,0:0:0:0:
297,43,160507,1,10,0:2:0:0:
121,116,160670,1,0,0:0:0:0:
323,277,160832,6,0,B|427:296|396:209|516:234,1,202.500007724762,2|0,3:2|0:0,0:0:0:0:
355,364,161156,6,0,P|269:348|250:220,1,202.500007724762,10|0,0:2|0:0,0:0:0:0:
281,75,161480,6,0,B|190:56|187:150|111:79|124:11|207:95,1,202.500007724762,2|0,3:2|0:0,0:0:0:0:
129,240,161805,6,0,P|35:260|90:173,1,202.500007724762,10|0,0:2|3:0,0:0:0:0:
351,13,162129,6,0,P|387:19|429:33,1,67.5000025749208,10|0,3:2|0:0,0:0:0:0:
507,157,162292,1,8,0:0:0:0:
456,130,162373,1,8,0:0:0:0:
398,142,162454,1,10,3:2:0:0:
363,189,162535,1,8,0:0:0:0:
366,247,162616,1,10,0:2:0:0:
406,289,162697,1,8,0:0:0:0:
456,299,162778,5,10,3:2:0:0:
434,280,162859,1,8,0:0:0:0:
407,268,162940,1,10,0:2:0:0:
377,264,163021,1,8,0:0:0:0:
347,268,163102,1,10,3:2:0:0:
321,280,163183,1,8,0:0:0:0:
299,299,163264,1,10,0:2:0:0:
282,325,163345,1,8,0:0:0:0:
272,358,163427,6,0,P|228:337|164:333,1,107.999996704102,6|0,3:2|3:0,0:0:0:0:
16,344,163751,1,10,0:2:0:0:
160,146,163913,2,0,L|167:259,1,107.999996704102,2|0,0:2|3:0,0:0:0:0:
6,81,164237,2,0,L|0:188,1,107.999996704102,2|8,3:2|0:0,0:0:0:0:
178,32,164562,1,2,0:0:0:0:
349,160,164724,6,0,P|393:166|450:140,1,107.999996704102,2|0,3:2|3:0,0:0:0:0:
296,236,165048,1,10,0:2:0:0:
384,64,165210,1,2,0:2:0:0:
431,273,165373,1,2,3:2:0:0:
266,135,165534,1,2,3:2:0:0:
512,177,165697,1,10,0:2:0:0:
332,324,165859,1,2,0:2:0:0:
75,350,166021,6,0,P|19:333|2:267,1,107.999996704102,2|0,3:2|3:0,0:0:0:0:
107,97,166346,1,10,0:2:0:0:
195,274,166508,1,2,0:2:0:0:
35,178,166670,1,2,3:2:0:0:
227,117,166832,2,0,P|280:115|349:126,1,107.999996704102,2|8,3:2|0:2,0:0:0:0:
475,245,167156,1,2,0:0:0:0:
295,347,167319,6,0,L|287:240,1,107.999996704102,2|0,3:2|3:0,0:0:0:0:
188,38,167643,1,10,0:2:0:0:
96,199,167805,2,0,P|109:243|121:322,1,107.999996704102,2|2,0:2|3:2,0:0:0:0:
2,131,168129,1,2,3:2:0:0:
210,210,168292,1,10,0:2:0:0:
2,266,168454,1,2,0:2:0:0:
215,361,168616,6,0,P|257:348|328:345,1,107.999996704102,2|0,3:2|3:0,0:0:0:0:
505,370,168940,1,10,0:2:0:0:
425,226,169102,2,0,P|421:176|439:106,1,107.999996704102,2|0,0:2|3:0,0:0:0:0:
284,14,169426,2,0,P|295:66|292:120,1,107.999996704102,2|8,3:2|0:0,0:0:0:0:
168,283,169751,2,0,P|193:247|254:226,1,107.999996704102,2|0,0:2|3:0,0:0:0:0:
480,346,170075,5,0,3:0:0:0:
251,318,170238,1,10,0:2:0:0:
512,252,170400,1,2,0:2:0:0:
308,380,170562,1,2,3:2:0:0:
416,204,170724,1,2,3:2:0:0:
264,79,170886,1,10,0:2:0:0:
233,72,170967,1,0,0:0:0:0:
202,73,171048,1,10,0:2:0:0:
172,82,171129,1,8,0:0:0:0:
145,99,171210,6,0,L|160:210,1,107.999996704102,2|0,3:2|3:0,0:0:0:0:
356,357,171535,2,0,P|303:316|201:323,1,161.999995056153,10|0,0:2|0:0,0:0:0:0:
186,340,171859,2,0,L|63:324,1,107.999996704102,2|0,3:2|3:0,0:0:0:0:
0,201,172183,5,10,0:2:0:0:
32,197,172264,1,0,0:0:0:0:
63,193,172345,1,0,3:0:0:0:
94,190,172426,1,0,3:0:0:0:
126,186,172507,1,10,0:2:0:0:
247,97,172670,5,0,3:0:0:0:
222,94,172751,1,0,3:0:0:0:
198,92,172832,1,8,0:2:0:0:
283,319,172994,6,0,P|302:332|340:338,1,53.9999983520508,2|0,3:2|3:0,0:0:0:0:
465,298,173156,1,10,0:2:0:0:
497,267,173237,1,0,0:0:0:0:
507,224,173318,1,10,0:2:0:0:
492,182,173399,1,8,0:0:0:0:
457,156,173480,1,10,3:2:0:0:
412,152,173561,1,8,0:0:0:0:
373,173,173642,1,10,0:2:0:0:
352,212,173723,1,8,0:0:0:0:
355,256,173804,5,2,3:2:0:0:
150,347,173967,2,0,P|95:342|32:336,1,107.999996704102,2|8,0:2|0:0,0:0:0:0:
248,211,174291,2,0,P|193:216|130:222,1,107.999996704102,2|0,0:2|3:0,0:0:0:0:
351,90,174616,2,0,P|296:85|233:79,1,107.999996704102,2|8,0:2|0:0,0:0:0:0:
53,64,174940,1,2,0:2:0:0:
201,293,175102,6,0,P|279:288|325:270,1,107.999996704102,2|0,3:2|0:0,0:0:0:0:
435,154,175427,1,10,0:2:0:0:
393,354,175589,1,2,0:2:0:0:
329,121,175751,1,2,3:2:0:0:
478,271,175913,1,2,0:2:0:0:
284,206,176075,1,10,0:2:0:0:
512,144,176238,1,2,0:2:0:0:
319,303,176400,5,2,3:2:0:0:
406,119,176561,2,0,L|411:6,1,107.999996704102,2|8,0:2|0:0,0:0:0:0:
271,195,176886,2,0,L|266:82,1,107.999996704102,2|0,0:2|3:0,0:0:0:0:
129,295,177210,2,0,L|134:182,1,107.999996704102,2|8,0:2|0:0,0:0:0:0:
258,359,177535,1,2,0:2:0:0:
387,206,177697,6,0,P|432:197|495:191,1,107.999996704102,2|0,3:2|0:0,0:0:0:0:
301,91,178021,1,10,0:2:0:0:
229,247,178183,2,0,P|238:292|244:355,1,107.999996704102,2|0,3:2|3:2,0:0:0:0:
143,162,178508,1,10,0:2:0:0:
349,252,178670,1,2,3:2:0:0:
156,350,178832,1,10,0:2:0:0:
34,162,178994,6,0,L|38:47,1,107.999996704102,2|0,3:2|0:0,0:0:0:0:
152,186,179319,1,10,0:2:0:0:
273,15,179480,2,0,L|276:122,1,107.999996704102,2|0,0:2|3:0,0:0:0:0:
368,274,179805,2,0,L|364:381,1,107.999996704102,2|8,0:2|0:0,0:0:0:0:
496,224,180129,2,0,P|483:182|437:117,1,107.999996704102,2|0,0:2|3:0,0:0:0:0:
225,32,180454,5,0,0:0:0:0:
243,336,180616,1,10,0:2:0:0:
113,113,180778,1,2,0:2:0:0:
368,173,180940,1,2,3:2:0:0:
97,267,181102,1,2,0:2:0:0:
382,169,181265,1,10,0:2:0:0:
100,114,181427,1,2,0:2:0:0:
251,354,181589,6,0,P|315:358|361:328,1,107.999996704102,2|0,3:2|0:0,0:0:0:0:
512,167,181913,2,0,L|498:333,1,161.999995056153,10|0,0:2|0:0,0:0:0:0:
482,354,182238,2,0,P|453:352|431:338,1,53.9999983520508,2|0,3:2|0:0,0:0:0:0:
333,111,182399,5,8,0:0:0:0:
307,64,182480,1,8,0:0:0:0:
258,46,182561,1,10,0:2:0:0:
209,65,182642,1,8,0:0:0:0:
185,113,182723,1,8,0:3:0:0:
199,164,182804,1,8,0:3:0:0:
227,222,182886,5,2,3:2:0:0:
235,286,182967,1,8,0:0:0:0:
208,343,183048,1,8,0:0:0:0:
153,377,183129,1,8,0:0:0:0:
89,375,183210,1,8,0:3:0:0:
36,339,183291,1,8,0:3:0:0:
12,280,183372,1,8,0:3:0:0:
23,217,183453,1,8,0:3:0:0:
68,156,183534,5,10,0:2:0:0:
38,225,183615,1,8,0:0:0:0:
47,299,183696,1,8,0:3:0:0:
104,347,183777,1,8,0:3:0:0:
190,361,183859,5,8,0:0:0:0:
273,343,183940,1,8,0:0:0:0:
331,282,184021,1,0,3:0:0:0:
344,198,184102,1,0,3:0:0:0:
307,121,184183,1,4,3:2:0:0:
256,192,184264,12,0,186778,3:0:0:0:
