osu file format v14

[General]
AudioFilename: audio.mp3
AudioLeadIn: 0
PreviewTime: 142264
Countdown: 0
SampleSet: Soft
StackLeniency: 0.7
Mode: 0
LetterboxInBreaks: 0
EpilepsyWarning: 1
WidescreenStoryboard: 1

[Editor]
Bookmarks: 2562,12940,22021,23318,33697,44075,49264,59643,67426,68724,69048,69372,69697,70021,77805,80399,89480,90778,98561,101156,111534,153048,184183
DistanceSpacing: 0.8
BeatDivisor: 4
GridSize: 32
TimelineZoom: 5.599997

[Metadata]
Title:Teo
TitleUnicode:テオ
Artist:Omoi
ArtistUnicode:Omoi
Creator:Shmiklak
Version:Nymphe's Insane
Source:osu!
Tags:marvollo m_a_r_v_o_l_l_o gero nymphe daycore wajinshu vocaloid hatsune miku synth rock first waltz japanese fa featured artist mappers' guild mpg 初音ミク j-rock ボーカロイド
BeatmapID:2733250
BeatmapSetID:1274098

[Difficulty]
HPDrainRate:5
CircleSize:4.4
OverallDifficulty:7.5
ApproachRate:9
SliderMultiplier:1.75
SliderTickRate:1

[Events]
//Background and Video events
0,0,"123.jpg",0,0
//Break Periods
2,13140,21421
2,111734,114502
//Storyboard Layer 0 (Background)
//Storyboard Layer 1 (Fail)
//Storyboard Layer 2 (Pass)
//Storyboard Layer 3 (Foreground)
Sprite,Foreground,Centre,"sb\credits\nymphe.png",320,325 S,0,15534,,0.3 F,0,15534,15859,0,1 F,0,22021,23318,1,0
Sprite,Foreground,Centre,"sb\l.png",0,0 C,0,116724,,166,142,193 M,0,116724,116764,440,414,450.1505,397.249 F,2,116724,117086,1,0 S,2,116724,117086,1.4,0.28 M,0,116764,116805,450.1505,397.249,455.6584,378.4955 M,0,116805,116845,455.6584,378.4955,456.1746,358.9806 M,0,116845,116886,456.1746,358.9806,451.9734,339.8947
Sprite,Foreground,Centre,"sb\l.png",409,287 C,0,116967,,166,142,193 F,2,116967,117167,1,0 S,2,116967,117167,1.4,0.28
Sprite,Foreground,Centre,"sb\l.png",0,0 C,0,117048,,166,142,193 M,0,117048,117088,402,280,390.5119,264.2655 F,2,117048,117410,1,0 S,2,117048,117410,1.4,0.28 M,0,117088,117129,390.5119,264.2655,385.3207,245.5691 M,0,117129,117169,385.3207,245.5691,386.6202,226.1791 M,0,117169,117210,386.6202,226.1791,395.4889,208.8754
Sprite,Foreground,Centre,"sb\l.png",440,155 C,0,117291,,166,142,193 F,2,117291,117491,1,0 S,2,117291,117491,1.4,0.28
Sprite,Foreground,Centre,"sb\l.png",0,0 C,0,117372,,166,142,193 M,0,117372,117412,449,144,460.4599,128.3502 F,2,117372,117734,1,0 S,2,117372,117734,1.4,0.28 M,0,117412,117453,460.4599,128.3502,464.3411,109.4595 M,0,117453,117493,464.3411,109.4595,460.5338,90.49654 M,0,117493,117534,460.5338,90.49654,448.2875,75.51312
Sprite,Foreground,Centre,"sb\l.png",384,56 C,0,117616,,166,142,193 F,2,117616,117816,1,0 S,2,117616,117816,1.4,0.28
Sprite,Foreground,Centre,"sb\l.png",372,58 C,0,117697,,166,142,193 F,2,117697,117897,1,0 S,2,117697,117897,1.4,0.28
Sprite,Foreground,Centre,"sb\l.png",315,152 C,0,117859,,166,142,193 F,2,117859,118059,1,0 S,2,117859,118059,1.4,0.28
Sprite,Foreground,Centre,"sb\l.png",208,66 C,0,118021,,249,155,206 F,2,118021,118221,1,0 S,2,118021,118221,1.4,0.28
Sprite,Foreground,Centre,"sb\l.png",0,0 C,0,118183,,249,155,206 M,0,118183,118223,160,126,162.3273,145.5495 F,2,118183,118545,1,0 S,2,118183,118545,1.4,0.28 M,0,118223,118264,162.3273,145.5495,164.6546,165.0989 M,0,118264,118304,164.6546,165.0989,166.9819,184.6484 M,0,118304,118345,166.9819,184.6484,169.3093,204.1978
Sprite,Foreground,Centre,"sb\l.png",247,379 C,0,118507,,249,155,206 F,2,118507,118707,1,0 S,2,118507,118707,1.4,0.28
Sprite,Foreground,Centre,"sb\l.png",0,0 C,0,118669,,249,155,206 M,0,118669,118709,295,319,292.6727,299.4506 F,2,118669,119031,1,0 S,2,118669,119031,1.4,0.28 M,0,118709,118750,292.6727,299.4506,290.3454,279.9011 M,0,118750,118790,290.3454,279.9011,288.0181,260.3516 M,0,118790,118831,288.0181,260.3516,285.6907,240.8022
Sprite,Foreground,Centre,"sb\l.png",0,0 C,0,118994,,249,155,206 M,0,118994,119034,154,361,148.4216,379.8807 F,2,118994,119356,1,0 S,2,118994,119356,1.4,0.28 M,0,119034,119075,148.4216,379.8807,142.8432,398.7613 M,0,119075,119115,142.8432,398.7613,148.2501,416.0094 M,0,119115,119156,148.2501,416.0094,159.078,432.4518
Sprite,Foreground,Centre,"sb\l.png",0,0 C,0,119318,,139,160,235 M,0,119318,119358,310,431,329.1383,435.1349 F,2,119318,119842,1,0 S,2,119318,119842,1.4,0.28 M,0,119358,119399,329.1383,435.1349,348.2783,431.2963 M,0,119399,119439,348.2783,431.2963,364.2195,419.9386 M,0,119439,119480,364.2195,419.9386,376.7632,404.7872 M,0,119480,119520,376.7632,404.7872,388.9872,389.365 M,0,119520,119561,388.9872,389.365,403.877,376.5846 M,0,119561,119601,403.877,376.5846,422.0039,369.1722 M,0,119601,119642,422.0039,369.1722,441.5798,368.2167
Sprite,Foreground,Centre,"sb\l.png",529,242 C,0,119805,,139,160,235 F,2,119805,120005,1,0 S,2,119805,120005,1.4,0.28
Sprite,Foreground,Centre,"sb\l.png",0,0 C,0,119967,,139,160,235 M,0,119967,120007,441,368,421.4472,368.0466 F,2,119967,120329,1,0 S,2,119967,120329,1.4,0.28 M,0,120007,120048,421.4472,368.0466,402.7901,362.3795 M,0,120048,120088,402.7901,362.3795,386.6375,351.5102 M,0,120088,120129,386.6375,351.5102,374.0302,336.6092
Sprite,Foreground,Centre,"sb\l.png",386,170 C,0,120291,,139,160,235 F,2,120291,120491,1,0 S,2,120291,120491,1.4,0.28
Sprite,Foreground,Centre,"sb\l.png",436,253 C,0,120453,,139,160,235 F,2,120453,120653,1,0 S,2,120453,120653,1.4,0.28
Sprite,Foreground,Centre,"sb\l.png",0,0 C,0,120616,,242,108,94 M,0,120616,120656,550,67,531.2183,72.90283 F,2,120616,121140,1,0 S,2,120616,121140,1.4,0.28 M,0,120656,120697,531.2183,72.90283,512.4365,78.80567 M,0,120697,120737,512.4365,78.80567,493.6548,84.70851 M,0,120737,120778,493.6548,84.70851,477.445,93.72755 M,0,120778,120818,477.445,93.72755,470.2672,112.0186 M,0,120818,120859,470.2672,112.0186,468.3137,131.5149 M,0,120859,120899,468.3137,131.5149,473.7625,150.2898 M,0,120899,120940,473.7625,150.2898,485.7295,165.814
Sprite,Foreground,Centre,"sb\l.png",510,323 C,0,121102,,242,108,94 F,2,121102,121302,1,0 S,2,121102,121302,1.4,0.28
Sprite,Foreground,Centre,"sb\l.png",0,0 C,0,121264,,242,108,94 M,0,121264,121304,574,229,583.3596,211.8314 F,2,121264,121626,1,0 S,2,121264,121626,1.4,0.28 M,0,121304,121345,583.3596,211.8314,587.3994,192.7517 M,0,121345,121385,587.3994,192.7517,586.1877,173.2599 M,0,121385,121426,586.1877,173.2599,578.7256,155.2078
Sprite,Foreground,Centre,"sb\l.png",436,253 C,0,121589,,242,108,94 F,2,121589,121789,1,0 S,2,121589,121789,1.4,0.28
Sprite,Foreground,Centre,"sb\l.png",369,343 C,0,121751,,242,108,94 F,2,121751,121951,1,0 S,2,121751,121951,1.4,0.28
Sprite,Foreground,Centre,"sb\l.png",373,355 C,0,121832,,242,108,94 F,2,121832,122032,1,0 S,2,121832,122032,1.4,0.28
Sprite,Foreground,Centre,"sb\l.png",0,0 C,0,121913,,166,142,193 M,0,121913,121953,375,366,394.3879,362.5786 F,2,121913,122329,1,0 S,2,121913,122329,1.4,0.28 M,0,121953,121994,394.3879,362.5786,413.7758,359.1572 M,0,121994,122034,413.7758,359.1572,420.2385,358.0167 M,0,122034,122075,420.2385,358.0167,400.8506,361.4381 M,0,122075,122115,400.8506,361.4381,381.4626,364.8595 M,0,122115,122129,381.4626,364.8595,375,366
Sprite,Foreground,Centre,"sb\l.png",0,0 C,0,122237,,166,142,193 M,0,122237,122277,321,415,301.4827,412.4168 F,2,122237,122653,1,0 S,2,122237,122653,1.4,0.28 M,0,122277,122318,301.4827,412.4168,281.9654,409.8336 M,0,122318,122358,281.9654,409.8336,275.4597,408.9726 M,0,122358,122399,275.4597,408.9726,294.9769,411.5558 M,0,122399,122439,294.9769,411.5558,314.4942,414.1389 M,0,122439,122453,314.4942,414.1389,321,415
Sprite,Foreground,Centre,"sb\l.png",208,371 C,0,122561,,249,155,206 F,2,122561,122761,1,0 S,2,122561,122761,1.4,0.28
Sprite,Foreground,Centre,"sb\l.png",277,268 C,0,122724,,249,155,206 F,2,122724,122924,1,0 S,2,122724,122924,1.4,0.28
Sprite,Foreground,Centre,"sb\l.png",101,176 C,0,122886,,249,155,206 F,2,122886,123086,1,0 S,2,122886,123086,1.4,0.28
Sprite,Foreground,Centre,"sb\l.png",147,303 C,0,123048,,249,155,206 F,2,123048,123248,1,0 S,2,123048,123248,1.4,0.28
Sprite,Foreground,Centre,"sb\l.png",0,0 C,0,123210,,139,160,235 M,0,123210,123250,245,138,230.7542,124.5965 F,2,123210,123626,1,0 S,2,123210,123626,1.4,0.28 M,0,123250,123291,230.7542,124.5965,213.3031,115.8765 M,0,123291,123331,213.3031,115.8765,207.0662,113.9698 M,0,123331,123372,207.0662,113.9698,225.357,120.8694 M,0,123372,123412,225.357,120.8694,240.3825,133.3626 M,0,123412,123426,240.3825,133.3626,245,138
Sprite,Foreground,Centre,"sb\l.png",0,0 C,0,123534,,139,160,235 M,0,123534,123574,277,268,295.6571,262.9514 F,2,123534,123950,1,0 S,2,123534,123950,1.4,0.28 M,0,123574,123615,295.6571,262.9514,309.8964,250.0717 M,0,123615,123655,309.8964,250.0717,313.1485,244.5416 M,0,123655,123696,313.1485,244.5416,301.2502,259.6617 M,0,123696,123736,301.2502,259.6617,283.3989,266.7531 M,0,123736,123750,283.3989,266.7531,277,268
Sprite,Foreground,Centre,"sb\l.png",345,173 C,0,123859,,242,108,94 F,2,123859,124059,1,0 S,2,123859,124059,1.4,0.28
Sprite,Foreground,Centre,"sb\l.png",420,296 C,0,124021,,242,108,94 F,2,124021,124221,1,0 S,2,124021,124221,1.4,0.28
Sprite,Foreground,Centre,"sb\l.png",521,84 C,0,124183,,242,108,94 F,2,124183,124383,1,0 S,2,124183,124383,1.4,0.28
Sprite,Foreground,Centre,"sb\l.png",480,211 C,0,124345,,242,108,94 F,2,124345,124545,1,0 S,2,124345,124545,1.4,0.28
Sprite,Foreground,Centre,"sb\l.png",0,0 C,0,124507,,166,142,193 M,0,124507,124547,330,82,310.7976,77.6566 F,2,124507,125031,1,0 S,2,124507,125031,1.4,0.28 M,0,124547,124588,310.7976,77.6566,291.5952,73.31319 M,0,124588,124628,291.5952,73.31319,272.3928,68.9698 M,0,124628,124669,272.3928,68.9698,253.1904,64.62639 M,0,124669,124709,253.1904,64.62639,234.893,68.29044 M,0,124709,124750,234.893,68.29044,219.9398,80.91814 M,0,124750,124790,219.9398,80.91814,211.5307,98.53691 M,0,124790,124831,211.5307,98.53691,210.5198,118.111
Sprite,Foreground,Centre,"sb\l.png",260,229 C,0,124994,,166,142,193 F,2,124994,125194,1,0 S,2,124994,125194,1.4,0.28
Sprite,Foreground,Centre,"sb\l.png",0,0 C,0,125156,,166,142,193 M,0,125156,125196,130,157,119.8447,140.2756 F,2,125156,125518,1,0 S,2,125156,125518,1.4,0.28 M,0,125196,125237,119.8447,140.2756,114.7958,121.423 M,0,125237,125277,114.7958,121.423,115.2342,101.9395 M,0,125277,125318,115.2342,101.9395,120.7966,83.23554
Sprite,Foreground,Centre,"sb\l.png",200,300 C,0,125480,,166,142,193 F,2,125480,125680,1,0 S,2,125480,125680,1.4,0.28
Sprite,Foreground,Centre,"sb\l.png",85,238 C,0,125643,,166,142,193 F,2,125643,125843,1,0 S,2,125643,125843,1.4,0.28
Sprite,Foreground,Centre,"sb\l.png",0,0 C,0,125805,,249,155,206 M,0,125805,125845,222,155,241.467,152.0616 F,2,125805,126248,1,0 S,2,125805,126248,1.4,0.28 M,0,125845,125886,241.467,152.0616,260.934,149.1232 M,0,125886,125926,260.934,149.1232,241.467,152.0616 M,0,125926,125967,241.467,152.0616,222,155 M,0,125967,126007,222,155,241.467,152.0616 M,0,126007,126048,241.467,152.0616,260.934,149.1232
Sprite,Foreground,Centre,"sb\l.png",0,0 C,0,126129,,249,155,206 M,0,126129,126169,331,249,311.533,246.0616 F,2,126129,126572,1,0 S,2,126129,126572,1.4,0.28 M,0,126169,126210,311.533,246.0616,292.066,243.1232 M,0,126210,126250,292.066,243.1232,311.533,246.0616 M,0,126250,126291,311.533,246.0616,331,249 M,0,126291,126331,331,249,311.533,246.0616 M,0,126331,126372,311.533,246.0616,292.066,243.1232
Sprite,Foreground,Centre,"sb\l.png",421,191 C,0,126453,,249,155,206 F,2,126453,126653,1,0 S,2,126453,126653,1.4,0.28
Sprite,Foreground,Centre,"sb\l.png",425,203 C,0,126534,,249,155,206 F,2,126534,126734,1,0 S,2,126534,126734,1.4,0.28
Sprite,Foreground,Centre,"sb\l.png",429,217 C,0,126616,,249,155,206 F,2,126616,126816,1,0 S,2,126616,126816,1.4,0.28
Sprite,Foreground,Centre,"sb\l.png",433,231 C,0,126697,,249,155,206 F,2,126697,126897,1,0 S,2,126697,126897,1.4,0.28
Sprite,Foreground,Centre,"sb\l.png",0,0 C,0,126778,,249,155,206 M,0,126778,126818,438,244,435.2158,263.4896 F,2,126778,127059,1,0 S,2,126778,127059,1.4,0.28 M,0,126818,126859,435.2158,263.4896,432.4315,282.9792
Sprite,Foreground,Centre,"sb\l.png",0,0 C,0,126940,,249,155,206 M,0,126940,126980,504,392,506.7842,372.5104 F,2,126940,127221,1,0 S,2,126940,127221,1.4,0.28 M,0,126980,127021,506.7842,372.5104,509.5685,353.0208
Sprite,Foreground,Centre,"sb\l.png",0,0 C,0,127102,,139,160,235 M,0,127102,127142,401,416,382.2089,421.3257 F,2,127102,127464,1,0 S,2,127102,127464,1.4,0.28 M,0,127142,127183,382.2089,421.3257,362.7614,420.4325 M,0,127183,127223,362.7614,420.4325,344.6317,413.4391 M,0,127223,127264,344.6317,413.4391,329.2968,401.4012
Sprite,Foreground,Centre,"sb\l.png",0,0 C,0,127426,,139,160,235 M,0,127426,127466,260,237,278.7911,231.6743 F,2,127426,127788,1,0 S,2,127426,127788,1.4,0.28 M,0,127466,127507,278.7911,231.6743,298.2386,232.5675 M,0,127507,127547,298.2386,232.5675,316.3682,239.5609 M,0,127547,127588,316.3682,239.5609,331.7032,251.5988
Sprite,Foreground,Centre,"sb\l.png",214,396 C,0,127751,,139,160,235 F,2,127751,127951,1,0 S,2,127751,127951,1.4,0.28
Sprite,Foreground,Centre,"sb\l.png",284,339 C,0,127913,,139,160,235 F,2,127913,128113,1,0 S,2,127913,128113,1.4,0.28
Sprite,Foreground,Centre,"sb\l.png",110,259 C,0,128075,,139,160,235 F,2,128075,128275,1,0 S,2,128075,128275,1.4,0.28
Sprite,Foreground,Centre,"sb\l.png",156,329 C,0,128237,,139,160,235 F,2,128237,128437,1,0 S,2,128237,128437,1.4,0.28
Sprite,Foreground,Centre,"sb\l.png",0,0 C,0,128399,,242,108,94 M,0,128399,128439,173,194,159.1555,180.2193 F,2,128399,128761,1,0 S,2,128399,128761,1.4,0.28 M,0,128439,128480,159.1555,180.2193,141.7144,171.5616 M,0,128480,128520,141.7144,171.5616,122.4672,168.8836 M,0,128520,128561,122.4672,168.8836,103.1948,171.9113
Sprite,Foreground,Centre,"sb\l.png",0,0 C,0,128724,,242,108,94 M,0,128724,128764,308,245,320.4335,229.9309 F,2,128724,129086,1,0 S,2,128724,129086,1.4,0.28 M,0,128764,128805,320.4335,229.9309,327.3727,211.7341 M,0,128805,128845,327.3727,211.7341,328.1227,192.3159 M,0,128845,128886,328.1227,192.3159,323.1741,173.4314
Sprite,Foreground,Centre,"sb\l.png",0,0 C,0,129048,,242,108,94 M,0,129048,129088,214,396,228.2491,409.3759 F,2,129048,129410,1,0 S,2,129048,129410,1.4,0.28 M,0,129088,129129,228.2491,409.3759,245.8423,417.7522 M,0,129129,129169,245.8423,417.7522,265.1174,420.3651 M,0,129169,129210,265.1174,420.3651,283,418
Sprite,Foreground,Centre,"sb\l.png",461,316 C,0,129372,,242,108,94 F,2,129372,129572,1,0 S,2,129372,129572,1.4,0.28
Sprite,Foreground,Centre,"sb\l.png",399,273 C,0,129534,,242,108,94 F,2,129534,129734,1,0 S,2,129534,129734,1.4,0.28
Sprite,Foreground,Centre,"sb\l.png",0,0 C,0,129697,,166,142,193 M,0,129697,129737,567,440,554.1425,425.1074 F,2,129697,130221,1,0 S,2,129697,130221,1.4,0.28 M,0,129737,129778,554.1425,425.1074,539.2239,412.3013 M,0,129778,129818,539.2239,412.3013,521.9258,403.0149 M,0,129818,129859,521.9258,403.0149,523.7037,386.0904 M,0,129859,129899,523.7037,386.0904,529.2855,367.2107 M,0,129899,129940,529.2855,367.2107,534.8673,348.3311 M,0,129940,129980,534.8673,348.3311,540.4492,329.4514 M,0,129980,130021,540.4492,329.4514,546.0309,310.5718
Sprite,Foreground,Centre,"sb\l.png",464,215 C,0,130183,,166,142,193 F,2,130183,130383,1,0 S,2,130183,130383,1.4,0.28
Sprite,Foreground,Centre,"sb\l.png",0,0 C,0,130345,,166,142,193 M,0,130345,130385,554,143,567.6027,157.0159 F,2,130345,130707,1,0 S,2,130345,130707,1.4,0.28 M,0,130385,130426,567.6027,157.0159,576.2593,174.4617 M,0,130426,130466,576.2593,174.4617,579.3708,193.677 M,0,130466,130507,579.3708,193.677,575.8344,212.8398
Sprite,Foreground,Centre,"sb\l.png",0,0 C,0,130670,,166,142,193 M,0,130670,130710,381,135,377.5798,115.7547 F,2,130670,131032,1,0 S,2,130670,131032,1.4,0.28 M,0,130710,130751,377.5798,115.7547,380.3183,96.45782 M,0,130751,130791,380.3183,96.45782,388.9173,79.01263 M,0,130791,130832,388.9173,79.01263,402.1827,64.67944
Sprite,Foreground,Centre,"sb\l.png",0,0 C,0,130994,,249,155,206 M,0,130994,131034,384,269,367.8185,257.926 F,2,130994,131518,1,0 S,2,130994,131518,1.4,0.28 M,0,131034,131075,367.8185,257.926,349.0337,252.3342 M,0,131075,131115,349.0337,252.3342,329.4866,253.3941 M,0,131115,131156,329.4866,253.3941,311.4329,261.0503 M,0,131156,131196,311.4329,261.0503,295.034,271.9379 M,0,131196,131237,295.034,271.9379,277.661,281.0914 M,0,131237,131277,277.661,281.0914,258.3475,284.2921 M,0,131277,131318,258.3475,284.2921,239.0168,280.959
Sprite,Foreground,Centre,"sb\l.png",0,0 C,0,131480,,249,155,206 M,0,131480,131520,118,117,136.9003,112.2025 F,2,131480,131923,1,0 S,2,131480,131923,1.4,0.28 M,0,131520,131561,136.9003,112.2025,156.2534,113.9659 M,0,131561,131601,156.2534,113.9659,173.9693,121.9097 M,0,131601,131642,173.9693,121.9097,187.5741,135.8002 M,0,131642,131682,187.5741,135.8002,196.0312,153.3049 M,0,131682,131723,196.0312,153.3049,197.3933,172.7129
Sprite,Foreground,Centre,"sb\l.png",158,231 C,0,131805,,249,155,206 F,2,131805,132005,1,0 S,2,131805,132005,1.4,0.28
Sprite,Foreground,Centre,"sb\l.png",155,242 C,0,131886,,249,155,206 F,2,131886,132086,1,0 S,2,131886,132086,1.4,0.28
Sprite,Foreground,Centre,"sb\l.png",0,0 C,0,131967,,249,155,206 M,0,131967,132007,152,256,155.3937,275.3928 F,2,131967,132410,1,0 S,2,131967,132410,1.4,0.28 M,0,132007,132048,155.3937,275.3928,158.7875,294.7856 M,0,132048,132088,158.7875,294.7856,155.3937,275.3928 M,0,132088,132129,155.3937,275.3928,152,256 M,0,132129,132169,152,256,155.3937,275.3928 M,0,132169,132210,155.3937,275.3928,158.7875,294.7856
Sprite,Foreground,Centre,"sb\l.png",0,0 C,0,132291,,139,160,235 M,0,132291,132331,258,393,246.7245,376.9087 F,2,132291,133139,1,0 S,2,132291,133139,1.4,0.28 M,0,132331,132372,246.7245,376.9087,231.3037,364.8702 M,0,132372,132412,231.3037,364.8702,212.2071,361.0629 M,0,132412,132453,212.2071,361.0629,193.2398,365.9229 M,0,132453,132493,193.2398,365.9229,182.679,380.9458 M,0,132493,132534,182.679,380.9458,170.4722,396.1813 M,0,132534,132574,170.4722,396.1813,152.9074,404.7761 M,0,132574,132615,152.9074,404.7761,133.4437,407.3782 M,0,132615,132655,133.4437,407.3782,152.9074,404.7761 M,0,132655,132696,152.9074,404.7761,170.4722,396.1813 M,0,132696,132736,170.4722,396.1813,182.679,380.9458 M,0,132736,132777,182.679,380.9458,193.2398,365.9229 M,0,132777,132818,193.2398,365.9229,212.2071,361.0629 M,0,132818,132858,212.2071,361.0629,231.3037,364.8702 M,0,132858,132899,231.3037,364.8702,246.7245,376.9087 M,0,132899,132939,246.7245,376.9087,258,393
Sprite,Foreground,Centre,"sb\l.png",347,432 C,0,133102,,139,160,235 F,2,133102,133302,1,0 S,2,133102,133302,1.4,0.28
Sprite,Foreground,Centre,"sb\l.png",0,0 C,0,133264,,139,160,235 M,0,133264,133304,412,341,395.6872,329.9778 F,2,133264,133626,1,0 S,2,133264,133626,1.4,0.28 M,0,133304,133345,395.6872,329.9778,379.3743,318.9556 M,0,133345,133385,379.3743,318.9556,360.9348,319.1256 M,0,133385,133426,360.9348,319.1256,341.7162,323.3964
Sprite,Foreground,Centre,"sb\l.png",0,0 C,0,133589,,242,108,94 M,0,133589,133629,508,428,510.6101,408.4863 F,2,133589,134437,1,0 S,2,133589,134437,1.4,0.28 M,0,133629,133670,510.6101,408.4863,513.2202,388.9726 M,0,133670,133710,513.2202,388.9726,515.8303,369.4589 M,0,133710,133751,515.8303,369.4589,518.4404,349.9452 M,0,133751,133791,518.4404,349.9452,521.0505,330.4315 M,0,133791,133832,521.0505,330.4315,523.6606,310.9177 M,0,133832,133872,523.6606,310.9177,526.2708,291.404 M,0,133872,133913,526.2708,291.404,528.8809,271.8903 M,0,133913,133953,528.8809,271.8903,526.2708,291.404 M,0,133953,133994,526.2708,291.404,523.6606,310.9178 M,0,133994,134034,523.6606,310.9178,521.0505,330.4315 M,0,134034,134075,521.0505,330.4315,518.4404,349.9452 M,0,134075,134116,518.4404,349.9452,515.8303,369.4589 M,0,134116,134156,515.8303,369.4589,513.2202,388.9726 M,0,134156,134197,513.2202,388.9726,510.6101,408.4863 M,0,134197,134237,510.6101,408.4863,508,428
Sprite,Foreground,Centre,"sb\l.png",565,347 C,0,134399,,242,108,94 F,2,134399,134599,1,0 S,2,134399,134599,1.4,0.28
Sprite,Foreground,Centre,"sb\l.png",0,0 C,0,134561,,242,108,94 M,0,134561,134601,430,213,431.3782,232.6392 F,2,134561,135004,1,0 S,2,134561,135004,1.4,0.28 M,0,134601,134642,431.3782,232.6392,432.7564,252.2784 M,0,134642,134682,432.7564,252.2784,431.3782,232.6392 M,0,134682,134723,431.3782,232.6392,430,213 M,0,134723,134763,430,213,431.3782,232.6392 M,0,134763,134804,431.3782,232.6392,432.7564,252.2784
Sprite,Foreground,Centre,"sb\l.png",473,147 C,0,134886,,166,142,193 F,2,134886,135086,1,0 S,2,134886,135086,1.4,0.28
Sprite,Foreground,Centre,"sb\l.png",0,0 C,0,135048,,166,142,193 M,0,135048,135088,314,238,312.1765,218.3971 F,2,135048,135410,1,0 S,2,135048,135410,1.4,0.28 M,0,135088,135129,312.1765,218.3971,310.353,198.7943 M,0,135129,135169,310.353,198.7943,308.5294,179.1914 M,0,135169,135210,308.5294,179.1914,306.7059,159.5885
Sprite,Foreground,Centre,"sb\l.png",211,234 C,0,135372,,249,155,206 F,2,135372,135572,1,0 S,2,135372,135572,1.4,0.28
Sprite,Foreground,Centre,"sb\l.png",0,0 C,0,135534,,249,155,206 M,0,135534,135574,385,321,386.8235,301.3971 F,2,135534,135896,1,0 S,2,135534,135896,1.4,0.28 M,0,135574,135615,386.8235,301.3971,388.647,281.7943 M,0,135615,135655,388.647,281.7943,390.4706,262.1914 M,0,135655,135696,390.4706,262.1914,392.2941,242.5885
Sprite,Foreground,Centre,"sb\l.png",473,325 C,0,135859,,139,160,235 F,2,135859,136059,1,0 S,2,135859,136059,1.4,0.28
Sprite,Foreground,Centre,"sb\l.png",0,0 C,0,136021,,139,160,235 M,0,136021,136061,314,416,312.1765,396.3971 F,2,136021,136383,1,0 S,2,136021,136383,1.4,0.28 M,0,136061,136102,312.1765,396.3971,310.353,376.7943 M,0,136102,136142,310.353,376.7943,308.5294,357.1914 M,0,136142,136183,308.5294,357.1914,306.7059,337.5885
Sprite,Foreground,Centre,"sb\l.png",416,258 C,0,136345,,242,108,94 F,2,136345,136545,1,0 S,2,136345,136545,1.4,0.28
Sprite,Foreground,Centre,"sb\l.png",0,0 C,0,136507,,242,108,94 M,0,136507,136547,552,436,553.2973,416.3553 F,2,136507,136869,1,0 S,2,136507,136869,1.4,0.28 M,0,136547,136588,553.2973,416.3553,554.5946,396.7106 M,0,136588,136628,554.5946,396.7106,555.8918,377.0659 M,0,136628,136669,555.8918,377.0659,557.1892,357.4211
Sprite,Foreground,Centre,"sb\l.png",0,0 C,0,136832,,242,108,94 M,0,136832,136872,371,130,390.2817,126.9327 F,2,136832,137275,1,0 S,2,136832,137275,1.4,0.28 M,0,136872,136913,390.2817,126.9327,409.4792,130.1225 M,0,136913,136953,409.4792,130.1225,426.9256,138.8379 M,0,136953,136994,426.9256,138.8379,440.0757,153.2426 M,0,136994,137034,440.0757,153.2426,447.9608,171.0228 M,0,137034,137075,447.9608,171.0228,450.1633,190.3689
Sprite,Foreground,Centre,"sb\l.png",0,0 C,0,137156,,242,108,94 M,0,137156,137196,416,258,397.0545,252.6458 F,2,137156,137518,1,0 S,2,137156,137518,1.4,0.28 M,0,137196,137237,397.0545,252.6458,378.1091,247.2917 M,0,137237,137277,378.1091,247.2917,359.1636,241.9375 M,0,137277,137318,359.1636,241.9375,340.2181,236.5834
Sprite,Foreground,Centre,"sb\ring.png",491,436 C,0,142670,,139,160,235 F,2,142670,143670,1,0 S,2,142670,143670,0,3
Sprite,Foreground,Centre,"sb\ring.png",126,251 C,0,143967,,242,108,94 F,2,143967,144967,1,0 S,2,143967,144967,0,3
Sprite,Foreground,Centre,"sb\ring.png",500,106 C,0,145264,,166,142,193 F,2,145264,146264,1,0 S,2,145264,146264,0,3
Sprite,Foreground,Centre,"sb\ring.png",85,66 C,0,146561,,249,155,206 F,2,146561,147561,1,0 S,2,146561,147561,0,3
Sprite,Foreground,Centre,"sb\line.png",545,99 C,0,2562,,76,26,138 F,0,2562,3724,0.6,0 R,0,2562,3724,-0.06787298 V,0,2562,3724,5,3,1,1
Sprite,Foreground,Centre,"sb\line.png",335,63 C,0,2886,,76,26,138 F,0,2886,4210,0.6,0 R,0,2886,4210,-0.09519761 V,0,2886,4210,5,3,1,1
Sprite,Foreground,Centre,"sb\line.png",488,252 C,0,3372,,76,26,138 F,0,3372,4372,0.6,0 R,0,3372,4372,-0.08040681 V,0,3372,4372,5,3,1,1
Sprite,Foreground,Centre,"sb\line.png",434,301 C,0,3534,,76,26,138 F,0,3534,4858,0.6,0 R,0,3534,4858,-0.01744836 V,0,3534,4858,5,3,1,1
Sprite,Foreground,Centre,"sb\line.png",230,440 C,0,4021,,76,26,138 F,0,4021,5021,0.6,0 R,0,4021,5021,0.08819006 V,0,4021,5021,5,3,1,1
Sprite,Foreground,Centre,"sb\line.png",169,393 C,0,4183,,76,26,138 F,0,4183,5507,0.6,0 R,0,4183,5507,-0.01766544 V,0,4183,5507,5,3,1,1
Sprite,Foreground,Centre,"sb\line.png",161,61 C,0,4670,,76,26,138 F,0,4670,5670,0.6,0 R,0,4670,5670,-0.1218081 V,0,4670,5670,5,3,1,1
Sprite,Foreground,Centre,"sb\line.png",97,107 C,0,4832,,76,26,138 F,0,4832,6156,0.6,0 R,0,4832,6156,0.01734664 V,0,4832,6156,5,3,1,1
Sprite,Foreground,Centre,"sb\line.png",387,110 C,0,5318,,76,26,138 F,0,5318,6318,0.6,0 R,0,5318,6318,-0.1432649 V,0,5318,6318,5,3,1,1
Sprite,Foreground,Centre,"sb\line.png",332,61 C,0,5480,,76,26,138 F,0,5480,6804,0.6,0 R,0,5480,6804,0.06788866 V,0,5480,6804,5,3,1,1
Sprite,Foreground,Centre,"sb\line.png",550,247 C,0,5967,,76,26,138 F,0,5967,6967,0.6,0 R,0,5967,6967,0.06242811 V,0,5967,6967,5,3,1,1
Sprite,Foreground,Centre,"sb\line.png",496,300 C,0,6129,,76,26,138 F,0,6129,7453,0.6,0 R,0,6129,7453,0.00980559 V,0,6129,7453,5,3,1,1
Sprite,Foreground,Centre,"sb\line.png",214,440 C,0,6616,,76,26,138 F,0,6616,7616,0.6,0 R,0,6616,7616,-0.03979772 V,0,6616,7616,5,3,1,1
Sprite,Foreground,Centre,"sb\line.png",164,384 C,0,6778,,76,26,138 F,0,6778,8102,0.6,0 R,0,6778,8102,0.009146436 V,0,6778,8102,5,3,1,1
Sprite,Foreground,Centre,"sb\line.png",465,437 C,0,7264,,76,26,138 F,0,7264,8264,0.6,0 R,0,7264,8264,-0.1446454 V,0,7264,8264,5,3,1,1
Sprite,Foreground,Centre,"sb\line.png",489,351 C,0,7426,,76,26,138 F,0,7426,8426,0.6,0 R,0,7426,8426,0.1408899 V,0,7426,8426,5,3,1,1
Sprite,Foreground,Centre,"sb\line.png",513,265 C,0,7589,,76,26,138 F,0,7589,8589,0.6,0 R,0,7589,8589,-0.108711 V,0,7589,8589,5,3,1,1
Sprite,Foreground,Centre,"sb\line.png",517,253 C,0,7670,,76,26,138 F,0,7670,8670,0.6,0 R,0,7670,8670,-0.1486041 V,0,7670,8670,5,3,1,1
Sprite,Foreground,Centre,"sb\line.png",520,244 C,0,7751,,76,26,138 F,0,7751,8913,0.6,0 R,0,7751,8913,-0.05315435 V,0,7751,8913,5,3,1,1
Sprite,Foreground,Centre,"sb\line.png",404,196 C,0,8075,,76,26,138 F,0,8075,9237,0.6,0 R,0,8075,9237,0.05562246 V,0,8075,9237,5,3,1,1
Sprite,Foreground,Centre,"sb\line.png",332,372 C,0,8399,,76,26,138 F,0,8399,9399,0.6,0 R,0,8399,9399,-0.09507237 V,0,8399,9399,5,3,1,1
Sprite,Foreground,Centre,"sb\line.png",412,335 C,0,8561,,76,26,138 F,0,8561,9561,0.6,0 R,0,8561,9561,-0.1044155 V,0,8561,9561,5,3,1,1
Sprite,Foreground,Centre,"sb\line.png",327,387 C,0,8724,,76,26,138 F,0,8724,9724,0.6,0 R,0,8724,9724,-0.1475707 V,0,8724,9724,5,3,1,1
Sprite,Foreground,Centre,"sb\line.png",407,350 C,0,8886,,76,26,138 F,0,8886,9886,0.6,0 R,0,8886,9886,0.1402124 V,0,8886,9886,5,3,1,1
Sprite,Foreground,Centre,"sb\line.png",315,280 C,0,9048,,76,26,138 F,0,9048,10210,0.6,0 R,0,9048,10210,-0.05998259 V,0,9048,10210,5,3,1,1
Sprite,Foreground,Centre,"sb\line.png",230,340 C,0,9372,,76,26,138 F,0,9372,10534,0.6,0 R,0,9372,10534,-0.007885243 V,0,9372,10534,5,3,1,1
Sprite,Foreground,Centre,"sb\line.png",89,247 C,0,9697,,76,26,138 F,0,9697,10697,0.6,0 R,0,9697,10697,-0.1302056 V,0,9697,10697,5,3,1,1
Sprite,Foreground,Centre,"sb\line.png",64,343 C,0,9859,,76,26,138 F,0,9859,10859,0.6,0 R,0,9859,10859,-0.05628609 V,0,9859,10859,5,3,1,1
Sprite,Foreground,Centre,"sb\line.png",93,232 C,0,10021,,76,26,138 F,0,10021,11021,0.6,0 R,0,10021,11021,-0.01404463 V,0,10021,11021,5,3,1,1
Sprite,Foreground,Centre,"sb\line.png",68,328 C,0,10183,,76,26,138 F,0,10183,11183,0.6,0 R,0,10183,11183,0.125667 V,0,10183,11183,5,3,1,1
Sprite,Foreground,Centre,"sb\line.png",180,218 C,0,10345,,76,26,138 F,0,10345,11507,0.6,0 R,0,10345,11507,0.09386263 V,0,10345,11507,5,3,1,1
Sprite,Foreground,Centre,"sb\line.png",228,277 C,0,10670,,76,26,138 F,0,10670,11832,0.6,0 R,0,10670,11832,0.01400184 V,0,10670,11832,5,3,1,1
Sprite,Foreground,Centre,"sb\line.png",161,367 C,0,10994,,76,26,138 F,0,10994,11994,0.6,0 R,0,10994,11994,0.06084844 V,0,10994,11994,5,3,1,1
Sprite,Foreground,Centre,"sb\line.png",237,398 C,0,11156,,76,26,138 F,0,11156,12156,0.6,0 R,0,11156,12156,-0.1465631 V,0,11156,12156,5,3,1,1
Sprite,Foreground,Centre,"sb\line.png",317,430 C,0,11318,,76,26,138 F,0,11318,12318,0.6,0 R,0,11318,12318,-0.04280924 V,0,11318,12318,5,3,1,1
Sprite,Foreground,Centre,"sb\line.png",326,421 C,0,11399,,76,26,138 F,0,11399,12399,0.6,0 R,0,11399,12399,-0.07888908 V,0,11399,12399,5,3,1,1
Sprite,Foreground,Centre,"sb\line.png",334,415 C,0,11480,,76,26,138 F,0,11480,12480,0.6,0 R,0,11480,12480,0.1408817 V,0,11480,12480,5,3,1,1
Sprite,Foreground,Centre,"sb\line.png",341,410 C,0,11561,,76,26,138 F,0,11561,12561,0.6,0 R,0,11561,12561,0.03569865 V,0,11561,12561,5,3,1,1
Sprite,Foreground,Centre,"sb\line.png",350,401 C,0,11643,,76,26,138 F,0,11643,13129,0.6,0 R,0,11643,13129,0.04705745 V,0,11643,13129,5,3,1,1
Sprite,Foreground,Centre,"sb\line.png",480,355 C,0,12453,,76,26,138 F,0,12453,13453,0.6,0 R,0,12453,13453,-0.1372366 V,0,12453,13453,5,3,1,1
Sprite,Foreground,Centre,"sb\line.png",490,350 C,0,12534,,76,26,138 F,0,12534,13534,0.6,0 R,0,12534,13534,-0.001538764 V,0,12534,13534,5,3,1,1
Sprite,Foreground,Centre,"sb\line.png",501,345 C,0,12616,,76,26,138 F,0,12616,13859,0.6,0 R,0,12616,13859,-0.06479175 V,0,12616,13859,5,3,1,1
Sprite,Foreground,Centre,"sb\line.png",392,440 C,0,44075,,76,26,138 F,0,44075,45237,0.6,0 R,0,44075,45237,-0.06787298 V,0,44075,45237,5,3,1,1
Sprite,Foreground,Centre,"sb\line.png",459,212 C,0,44399,,76,26,138 F,0,44399,45561,0.6,0 R,0,44399,45561,-0.09519761 V,0,44399,45561,5,3,1,1
Sprite,Foreground,Centre,"sb\line.png",311,139 C,0,44724,,76,26,138 F,0,44724,45724,0.6,0 R,0,44724,45724,-0.08040681 V,0,44724,45724,5,3,1,1
Sprite,Foreground,Centre,"sb\line.png",376,93 C,0,44886,,76,26,138 F,0,44886,45886,0.6,0 R,0,44886,45886,-0.01744836 V,0,44886,45886,5,3,1,1
Sprite,Foreground,Centre,"sb\line.png",323,230 C,0,45048,,76,26,138 F,0,45048,46210,0.6,0 R,0,45048,46210,0.08819006 V,0,45048,46210,5,3,1,1
Sprite,Foreground,Centre,"sb\line.png",171,63 C,0,45372,,76,26,138 F,0,45372,46372,0.6,0 R,0,45372,46372,-0.01766544 V,0,45372,46372,5,3,1,1
Sprite,Foreground,Centre,"sb\line.png",238,103 C,0,45534,,76,26,138 F,0,45534,46534,0.6,0 R,0,45534,46534,-0.1218081 V,0,45534,46534,5,3,1,1
Sprite,Foreground,Centre,"sb\line.png",92,187 C,0,45697,,76,26,138 F,0,45697,46859,0.6,0 R,0,45697,46859,0.01734664 V,0,45697,46859,5,3,1,1
Sprite,Foreground,Centre,"sb\line.png",177,258 C,0,46021,,76,26,138 F,0,46021,47102,0.6,0 R,0,46021,47102,-0.1432649 V,0,46021,47102,5,3,1,1
Sprite,Foreground,Centre,"sb\line.png",246,301 C,0,46183,,76,26,138 F,0,46183,47264,0.6,0 R,0,46183,47264,0.06788866 V,0,46183,47264,5,3,1,1
Sprite,Foreground,Centre,"sb\line.png",91,427 C,0,46345,,76,26,138 F,0,46345,47507,0.6,0 R,0,46345,47507,0.06242811 V,0,46345,47507,5,3,1,1
Sprite,Foreground,Centre,"sb\line.png",163,147 C,0,46670,,76,26,138 F,0,46670,47670,0.6,0 R,0,46670,47670,0.00980559 V,0,46670,47670,5,3,1,1
Sprite,Foreground,Centre,"sb\line.png",89,190 C,0,46832,,76,26,138 F,0,46832,47832,0.6,0 R,0,46832,47832,-0.03979772 V,0,46832,47832,5,3,1,1
Sprite,Foreground,Centre,"sb\line.png",247,176 C,0,46994,,76,26,138 F,0,46994,48156,0.6,0 R,0,46994,48156,0.009146436 V,0,46994,48156,5,3,1,1
Sprite,Foreground,Centre,"sb\line.png",285,301 C,0,47318,,76,26,138 F,0,47318,48318,0.6,0 R,0,47318,48318,-0.1446454 V,0,47318,48318,5,3,1,1
Sprite,Foreground,Centre,"sb\line.png",212,260 C,0,47480,,76,26,138 F,0,47480,48480,0.6,0 R,0,47480,48480,0.1408899 V,0,47480,48480,5,3,1,1
Sprite,Foreground,Centre,"sb\line.png",349,213 C,0,47643,,76,26,138 F,0,47643,48643,0.6,0 R,0,47643,48643,-0.108711 V,0,47643,48643,5,3,1,1
Sprite,Foreground,Centre,"sb\line.png",374,376 C,0,47805,,76,26,138 F,0,47805,48805,0.6,0 R,0,47805,48805,-0.1486041 V,0,47805,48805,5,3,1,1
Sprite,Foreground,Centre,"sb\line.png",368,388 C,0,47886,,76,26,138 F,0,47886,48886,0.6,0 R,0,47886,48886,-0.05315435 V,0,47886,48886,5,3,1,1
Sprite,Foreground,Centre,"sb\line.png",365,400 C,0,47967,,76,26,138 F,0,47967,49048,0.6,0 R,0,47967,49048,0.05562246 V,0,47967,49048,5,3,1,1
Sprite,Foreground,Centre,"sb\line.png",235,440 C,0,48129,,76,26,138 F,0,48129,49210,0.6,0 R,0,48129,49210,-0.09507237 V,0,48129,49210,5,3,1,1
Sprite,Foreground,Centre,"sb\line.png",174,249 C,0,48291,,76,26,138 F,0,48291,49534,0.6,0 R,0,48291,49534,-0.1044155 V,0,48291,49534,5,3,1,1
Sprite,Foreground,Centre,"sb\line.png",101,174 C,0,48616,,76,26,138 F,0,48616,49859,0.6,0 R,0,48616,49859,-0.1475707 V,0,48616,49859,5,3,1,1
Sprite,Foreground,Centre,"sb\line.png",237,112 C,0,48940,,76,26,138 F,0,48940,49940,0.6,0 R,0,48940,49940,0.1402124 V,0,48940,49940,5,3,1,1
Sprite,Foreground,Centre,"sb\line.png",145,64 C,0,49102,,76,26,138 F,0,49102,50102,0.6,0 R,0,49102,50102,-0.05998259 V,0,49102,50102,5,3,1,1
//Storyboard Layer 4 (Overlay)
//Storyboard Sound Samples

[TimingPoints]
2562,324.324324324324,4,2,1,50,1,0
2562,-125,4,2,1,50,0,0
11643,-111.111111111111,4,2,1,50,0,0
12453,-90.9090909090909,4,2,1,75,0,0
12940,-100,4,2,1,90,0,0
22345,-125,4,2,1,90,0,0
22994,-166.666666666667,4,2,1,90,0,0
23318,-111.111111111111,4,2,1,80,0,0
23805,-125,4,2,1,80,0,0
44075,-111.111111111111,4,2,1,90,0,0
49264,-125,4,2,1,80,0,0
67426,-100,4,2,1,80,0,0
68724,-66.6666666666667,4,2,1,80,0,0
69372,-83.3333333333333,4,2,1,80,0,0
69697,-125,4,2,1,80,0,0
70021,-83.3333333333333,4,2,1,95,0,1
70345,-166.666666666667,4,2,1,95,0,1
70670,-125,4,2,1,95,0,1
70994,-100,4,2,1,95,0,1
71318,-83.3333333333333,4,2,1,95,0,1
71643,-71.4285714285714,4,2,1,95,0,1
72616,-83.3333333333333,4,2,1,95,0,1
72940,-166.666666666667,4,2,1,95,0,1
73264,-125,4,2,1,95,0,1
73589,-100,4,2,1,95,0,1
73913,-83.3333333333333,4,2,1,95,0,1
74237,-71.4285714285714,4,2,1,95,0,1
75210,-83.3333333333333,4,2,1,95,0,1
75534,-166.666666666667,4,2,1,95,0,1
75859,-125,4,2,1,95,0,1
76183,-100,4,2,1,95,0,1
76507,-83.3333333333333,4,2,1,95,0,1
76832,-71.4285714285714,4,2,1,95,0,1
77805,-100,4,2,1,95,0,0
80399,-83.3333333333333,4,2,1,95,0,1
80723,-166.666666666667,4,2,1,95,0,1
81048,-125,4,2,1,95,0,1
81372,-100,4,2,1,95,0,1
81696,-83.3333333333333,4,2,1,95,0,1
82021,-71.4285714285714,4,2,1,95,0,1
82994,-83.3333333333333,4,2,1,95,0,1
83318,-166.666666666667,4,2,1,95,0,1
83643,-125,4,2,1,95,0,1
83967,-100,4,2,1,95,0,1
84291,-83.3333333333333,4,2,1,95,0,1
84616,-83.3333333333333,4,2,1,95,0,1
84941,-71.4285714285714,4,2,1,95,0,1
85588,-83.3333333333333,4,2,1,95,0,1
85913,-166.666666666667,4,2,1,95,0,1
86237,-125,4,2,1,95,0,1
86561,-100,4,2,1,95,0,1
86886,-83.3333333333333,4,2,1,95,0,1
87210,-71.4285714285714,4,2,1,95,0,1
88183,-90.9090909090909,4,2,1,95,0,1
89480,-83.3333333333333,4,2,1,95,0,0
90778,-100,4,2,1,95,0,1
111534,-100,4,2,1,70,0,0
112183,-100,4,2,1,67,0,0
112832,-100,4,2,1,64,0,0
113480,-100,4,2,1,61,0,0
114129,-100,4,2,1,58,0,0
114778,-100,4,2,1,55,0,0
115426,-66.6666666666667,4,2,1,50,0,0
116237,-66.6666666666667,4,2,1,70,0,0
116399,-500,4,2,1,70,0,0
116724,-111.111111111111,4,2,1,90,0,0
142670,-111.111111111111,4,2,1,70,0,0
147859,-125,4,2,1,70,0,0
152724,-500,4,2,1,70,0,0
153048,-83.3333333333333,4,2,1,90,0,1
153372,-166.666666666667,4,2,1,90,0,1
153697,-125,4,2,1,90,0,1
154021,-100,4,2,1,90,0,1
154345,-83.3333333333333,4,2,1,90,0,1
154670,-71.4285714285714,4,2,1,90,0,1
155643,-83.3333333333333,4,2,1,90,0,1
155967,-166.666666666667,4,2,1,90,0,1
156291,-125,4,2,1,90,0,1
156616,-100,4,2,1,90,0,1
156940,-83.3333333333333,4,2,1,90,0,1
157264,-71.4285714285714,4,2,1,90,0,1
158237,-83.3333333333333,4,2,1,90,0,1
158561,-166.666666666667,4,2,1,90,0,1
158886,-125,4,2,1,90,0,1
159210,-100,4,2,1,90,0,1
159534,-83.3333333333333,4,2,1,90,0,1
159859,-71.4285714285714,4,2,1,90,0,1
160832,-100,4,2,1,90,0,1
163426,-66.6666666666667,4,2,1,90,0,1
164075,-100,4,2,1,90,0,1
184183,-100,4,2,1,90,0,0
204940,-100,4,2,1,10,0,0

[Colours]
Combo1 : 242,108,94
Combo2 : 166,142,193
Combo3 : 249,155,206
Combo4 : 139,160,235
SliderTrackOverride : 35,4,81
SliderBorder : 255,255,255

[HitObjects]
460,24,2399,5,4,0:3:0:0:
470,31,2480,1,4,0:3:0:0:
481,43,2562,6,0,B|442:43|442:43|437:46|437:46|394:44,1,70,4|2,3:2|0:3,0:0:0:0:
271,7,2886,2,0,B|319:21|319:21|300:124,1,140,8|0,0:0|3:0,0:0:0:0:
424,196,3372,1,2,0:3:0:0:
370,245,3534,2,0,B|327:212|297:233|303:244|266:273|224:247,1,140,8|0,0:0|3:0,0:0:0:0:
166,384,4021,5,2,0:3:0:0:
105,337,4183,2,0,L|119:189,1,140,8|0,0:0|3:0,0:0:0:0:
97,5,4670,1,2,0:3:0:0:
33,51,4832,2,0,P|75:88|173:54,1,140,8|0,0:0|3:0,0:0:0:0:
323,54,5318,5,2,0:3:0:0:
268,5,5480,2,0,B|234:64|234:64|264:158,1,140,8|0,0:0|3:0,0:0:0:0:
486,191,5967,1,2,0:3:0:0:
432,244,6129,2,0,B|375:230|375:230|348:267|348:267|290:280,1,140,8|0,0:0|3:0,0:0:0:0:
150,384,6616,5,2,0:3:0:0:
100,328,6778,2,0,B|181:301|181:301|230:328,1,140,8|0,0:0|3:0,0:0:0:0:
401,381,7264,1,8,0:2:0:0:
425,295,7426,1,8,0:2:0:0:
449,209,7589,1,8,0:2:0:0:
453,197,7670,1,8,0:2:0:0:
456,188,7751,6,0,P|413:186|381:210,1,70,0|2,3:0|0:0,0:0:0:0:
340,140,8075,2,0,P|314:173|313:215,1,70,8|2,0:0|0:0,0:0:0:0:
268,316,8399,1,0,3:0:0:0:
348,279,8561,1,2,0:0:0:0:
263,331,8724,1,8,0:0:0:0:
343,294,8886,1,2,0:0:0:0:
251,224,9048,6,0,L|167:207,1,70,0|2,3:0|0:0,0:0:0:0:
166,284,9372,2,0,L|82:267,1,70,8|2,0:0|0:0,0:0:0:0:
25,191,9697,1,0,3:0:0:0:
0,287,9859,1,2,0:0:0:0:
29,176,10021,1,8,0:0:0:0:
4,272,10183,1,2,0:0:0:0:
116,162,10345,6,0,P|101:122|60:106,1,70,0|2,3:0|0:0,0:0:0:0:
164,221,10670,2,0,P|191:188|184:144,1,70,8|2,0:0|0:0,0:0:0:0:
97,311,10994,1,0,3:0:0:0:
173,342,11156,1,2,0:0:0:0:
253,374,11318,1,8,0:0:0:0:
262,365,11399,1,8,0:0:0:0:
270,359,11480,1,0,3:0:0:0:
277,354,11561,1,0,3:0:0:0:
286,345,11643,6,0,B|316:312|316:312|294:223,2,118.124996395111,2|2|2,0:2|0:0|0:0,0:0:0:0:
416,299,12453,1,8,0:0:0:0:
426,294,12534,1,8,0:0:0:0:
437,289,12616,2,0,L|495:299,3,48.1250014686585,8|8|8|8,0:0|0:0|0:0|0:0,0:0:0:0:
511,329,12940,5,4,3:2:0:0:
57,13,22021,5,8,0:0:0:0:
79,38,22102,1,8,0:0:0:0:
86,62,22183,1,8,0:0:0:0:
83,79,22264,1,8,0:0:0:0:
79,91,22345,2,0,L|88:140,3,35,8|8|8|8,0:3|0:3|0:3|0:3,0:0:0:0:
167,201,22670,1,8,0:0:0:0:
166,211,22751,1,8,0:0:0:0:
164,221,22832,1,8,0:0:0:0:
162,232,22913,1,8,0:0:0:0:
159,244,22994,2,0,L|167:278,3,26.2499991989136,8|8|8|4,0:0|0:0|0:3|0:3,0:0:0:0:
116,318,23318,6,0,B|163:289|202:321|181:341|218:369|268:347,1,157.499995193482,4|8,3:2|0:0,0:0:0:0:
335,206,23805,2,0,P|296:208|274:251,2,70,2|2|2,0:0|3:2|3:2,0:0:0:0:
345,365,24291,2,0,B|357:326|357:326|340:290,1,70,10|2,0:0|0:0,0:0:0:0:
483,230,24616,5,2,3:2:0:0:
460,307,24778,1,0,3:0:0:0:
490,217,24940,2,0,P|460:190|403:201,1,70,10|2,0:0|0:0,0:0:0:0:
312,129,25264,1,0,3:2:0:0:
335,206,25426,1,0,3:2:0:0:
305,116,25588,2,0,P|335:89|392:100,1,70,8|2,3:2|0:0,0:0:0:0:
257,232,25913,6,0,B|189:218|189:218|189:224|189:224|107:205,1,140,2|10,3:2|0:0,0:0:0:0:
53,88,26399,1,2,0:0:0:0:
53,88,26561,2,0,P|88:108|101:147,1,70,0|2,3:2|3:2,0:0:0:0:
0,235,26886,2,0,P|0:194|27:163,1,70,10|0,0:0|0:0,0:0:0:0:
57,358,27210,6,0,B|99:361|107:313|107:313|147:296|170:320,1,140,2|10,3:2|0:0,0:0:0:0:
314,372,27697,2,0,P|272:374|241:345,1,70,2|0,0:0|3:0,0:0:0:0:
293,210,28021,2,0,B|315:243|315:243|297:288,2,70,8|0|2,0:0|3:0|0:2,0:0:0:0:
173,134,28507,6,0,L|249:128,1,70,6|2,3:2|0:2,0:0:0:0:
178,256,28832,2,0,L|108:247,1,70,10|2,0:2|0:2,0:0:0:0:
29,105,29156,2,0,P|15:144|24:179,1,70,2|0,3:2|0:0,0:0:0:0:
119,50,29480,1,10,0:2:0:0:
39,8,29643,1,2,0:2:0:0:
123,139,29805,6,0,B|162:150|187:120|180:109|207:74|258:100,1,140,2|10,3:2|0:2,0:0:0:0:
351,139,30291,1,2,0:2:0:0:
356,7,30453,2,0,P|316:21|298:56,1,70,2|2,3:2|0:3,0:0:0:0:
468,103,30778,2,0,P|428:89|410:54,1,70,10|2,0:2|0:3,0:0:0:0:
507,6,31102,6,0,L|484:172,1,140,0|10,3:2|0:2,0:0:0:0:
334,240,31589,2,0,B|419:209|419:209|391:224|384:246,1,140,2|2,0:2|0:2,0:0:0:0:
512,329,32075,2,0,P|479:314|460:266,1,70,8|2,0:0|0:2,0:0:0:0:
333,325,32399,6,0,B|288:338|264:308|279:292|247:259|192:273,1,140,2|8,3:2|0:0,0:0:0:0:
88,380,32886,1,0,0:0:0:0:
98,375,32967,1,0,0:0:0:0:
107,369,33048,2,0,P|141:354|161:315,1,70,2|2,3:2|0:0,0:0:0:0:
82,189,33372,1,10,0:2:0:0:
19,263,33534,1,8,0:3:0:0:
55,109,33697,6,0,B|125:91|125:91|166:109|157:157,1,140,4|8,3:2|0:0,0:0:0:0:
215,202,34183,1,2,0:0:0:0:
137,224,34345,2,0,P|98:210|76:169,1,70,2|2,3:2|3:2,0:0:0:0:
231,284,34670,2,0,P|270:270|292:229,1,70,10|2,0:0|0:0,0:0:0:0:
240,106,34994,6,0,B|292:112|292:112|318:146|318:146|382:155,1,140,2|10,3:2|0:0,0:0:0:0:
452,26,35480,2,0,B|417:45|417:45|404:83,2,70,2|0|0,0:0|3:2|3:2,0:0:0:0:
485,206,35967,2,0,P|483:171|449:134,1,70,10|2,3:2|0:0,0:0:0:0:
398,282,36291,6,0,B|312:247|312:247|342:259|347:284,1,140,2|10,3:2|0:0,0:0:0:0:
311,160,36778,1,2,0:0:0:0:
345,278,36940,2,0,P|296:293|255:268,1,70,2|0,3:2|3:2,0:0:0:0:
148,213,37264,2,0,P|182:208|213:223,1,70,10|0,0:0|0:0,0:0:0:0:
62,377,37589,6,0,B|90:317|90:317|72:265|12:290,1,140,2|10,3:2|0:0,0:0:0:0:
4,137,38075,1,2,0:0:0:0:
33,283,38237,2,0,P|62:251|63:220,1,70,0|8,3:0|0:0,0:0:0:0:
43,60,38561,2,0,L|90:69,1,35,0|0,3:0|0:0,0:0:0:0:
184,40,38724,1,2,0:2:0:0:
182,49,38805,1,0,0:0:0:0:
182,57,38886,6,0,L|168:134,1,70,6|2,3:2|0:2,0:0:0:0:
64,225,39210,2,0,L|76:156,1,70,10|2,0:2|0:2,0:0:0:0:
217,280,39534,2,0,B|177:280|177:280|144:253,1,70,2|0,3:2|0:0,0:0:0:0:
289,136,39859,1,10,0:2:0:0:
357,202,40021,1,2,0:2:0:0:
338,324,40183,6,0,B|292:339|271:304|278:295|251:260|204:285,1,140,2|10,3:2|0:2,0:0:0:0:
364,121,40670,1,2,0:2:0:0:
216,279,40832,2,0,P|259:268|277:224,1,70,2|2,3:2|0:3,0:0:0:0:
189,96,41156,2,0,L|199:174,1,70,10|2,0:2|0:3,0:0:0:0:
45,317,41480,6,0,P|59:261|152:254,2,140,0|10|0,3:2|0:2|3:0,0:0:0:0:
133,366,42291,1,2,0:2:0:0:
141,371,42372,1,0,0:0:0:0:
148,375,42453,2,0,L|236:361,1,70,8|2,0:0|0:2,0:0:0:0:
292,185,42778,5,2,3:2:0:0:
291,197,42859,1,0,0:0:0:0:
289,208,42940,1,8,0:2:0:0:
287,220,43021,1,8,0:2:0:0:
284,233,43102,2,0,L|349:229,3,35,8|8|8|8,3:2|0:2|0:2|0:2,0:0:0:0:
445,370,43426,1,10,3:2:0:0:
446,358,43507,1,8,0:2:0:0:
448,347,43588,1,10,0:2:0:0:
450,335,43669,1,8,0:2:0:0:
453,322,43750,2,0,L|388:326,3,35,10|8|8|8,3:2|0:2|0:2|0:2,0:0:0:0:
328,384,44075,6,0,P|313:344|327:301,1,78.7499975967408,6|2,3:2|0:0,0:0:0:0:
395,156,44399,2,0,P|410:196|396:239,1,78.7499975967408,8|2,0:0|0:0,0:0:0:0:
247,83,44724,1,0,3:0:0:0:
312,37,44886,1,2,0:0:0:0:
259,174,45048,2,0,B|215:174|215:174|181:141,1,78.7499975967408,8|2,0:0|0:0,0:0:0:0:
107,7,45372,5,0,3:0:0:0:
174,47,45534,1,2,0:0:0:0:
28,131,45697,2,0,P|18:87|42:49,1,78.7499975967408,8|2,0:0|0:0,0:0:0:0:
113,202,46021,2,0,L|107:243,1,39.3749987983704,2|2,3:2|0:0,0:0:0:0:
182,245,46183,2,0,L|179:286,1,39.3749987983704,2|0,0:0|0:0,0:0:0:0:
27,371,46345,2,0,B|5:330|5:330|17:278,1,78.7499975967408,8|2,0:0|0:0,0:0:0:0:
99,91,46670,5,0,3:0:0:0:
25,134,46832,1,2,0:0:0:0:
183,120,46994,2,0,P|188:72|150:31,1,78.7499975967408,8|2,0:0|0:0,0:0:0:0:
221,245,47318,1,0,3:0:0:0:
148,204,47480,1,2,0:0:0:0:
285,157,47643,1,8,0:0:0:0:
310,320,47805,1,2,3:2:0:0:
304,332,47886,1,0,3:2:0:0:
301,344,47967,6,0,L|285:384,1,39.3749987983704,8|0,0:0|0:0,0:0:0:0:
171,384,48129,2,0,L|187:344,1,39.3749987983704,8|8,0:0|0:0,0:0:0:0:
110,193,48291,2,0,L|167:209,3,39.3749987983704,8|8|8|0,0:3|0:3|0:0|0:0,0:0:0:0:
37,118,48616,2,0,L|0:128,3,39.3749987983704,8|8|8|4,0:0|0:3|0:3|0:3,0:0:0:0:
173,56,48940,1,8,0:0:0:0:
81,8,49102,1,8,0:0:0:0:
147,203,49264,6,0,B|187:184|222:208|207:230|243:250|295:229,1,140,4|8,3:2|0:0,0:0:0:0:
424,164,49751,2,0,B|331:139|331:139|360:151|363:176,1,140,2|2,0:0|3:2,0:0:0:0:
369,350,50237,2,0,P|366:308|323:278,1,70,10|2,0:0|0:0,0:0:0:0:
382,79,50561,6,0,B|443:99|443:99|463:149|415:168,1,140,2|10,3:2|0:0,0:0:0:0:
278,81,51048,2,0,P|284:30|325:4,1,70,2|0,0:0|3:2,0:0:0:0:
336,144,51372,1,0,3:2:0:0:
242,155,51534,2,0,P|200:124|198:75,1,70,10|2,0:2|0:0,0:0:0:0:
80,6,51859,5,0,3:2:0:0:
168,41,52021,1,0,3:2:0:0:
66,1,52183,2,0,L|72:84,1,70,10|2,0:0|0:0,0:0:0:0:
14,230,52507,1,0,3:2:0:0:
105,194,52669,1,2,3:2:0:0:
0,235,52831,2,0,L|6:152,1,70,10|0,0:0|0:0,0:0:0:0:
98,316,53156,6,0,B|133:284|166:308|166:308|184:352|246:345,1,140,2|10,3:2|0:0,0:0:0:0:
350,255,53643,1,2,0:0:0:0:
289,214,53805,2,0,P|252:230|236:263,1,70,0|8,3:0|0:0,0:0:0:0:
343,370,54129,2,0,L|388:360,1,35,0|0,3:0|0:0,0:0:0:0:
499,372,54291,1,2,0:2:0:0:
494,363,54372,1,0,0:0:0:0:
489,351,54453,6,0,L|496:264,1,70,6|2,3:2|0:2,0:0:0:0:
428,141,54778,2,0,L|419:211,1,70,10|2,0:2|0:2,0:0:0:0:
481,69,55102,2,0,P|453:50|412:53,1,70,2|0,3:2|0:0,0:0:0:0:
276,172,55426,1,10,0:2:0:0:
343,123,55589,1,2,0:2:0:0:
157,41,55751,6,0,B|223:14|223:14|272:28|258:75,1,140,2|10,3:2|0:2,0:0:0:0:
145,157,56237,1,2,0:2:0:0:
133,163,56318,1,0,0:0:0:0:
120,164,56399,2,0,P|76:151|61:121,1,70,2|2,3:2|0:3,0:0:0:0:
164,252,56724,2,0,P|208:239|223:209,1,70,10|2,0:2|0:3,0:0:0:0:
79,282,57048,6,0,P|142:277|165:348,1,140,0|10,3:2|0:2,0:0:0:0:
43,374,57534,2,0,B|80:398|116:368|103:349|132:329|182:342,1,140,2|2,0:2|0:2,0:0:0:0:
237,306,57940,1,0,0:0:0:0:
247,310,58021,1,8,0:0:0:0:
394,375,58183,1,2,0:2:0:0:
343,189,58345,6,0,P|312:211|307:250,1,70,2|0,3:2|0:0,0:0:0:0:
358,288,58589,1,0,0:0:0:0:
366,296,58670,2,0,L|450:280,1,70,8|0,0:0|0:0,0:0:0:0:
454,73,58994,5,2,3:2:0:0:
487,190,59156,1,2,0:0:0:0:
405,20,59318,1,10,0:2:0:0:
343,189,59480,1,8,0:3:0:0:
231,0,59643,6,0,B|271:-7|285:30|285:30|249:100,1,140,4|8,3:2|0:0,0:0:0:0:
158,180,60129,1,2,0:0:0:0:
108,124,60291,2,0,P|133:94|182:95,1,70,2|2,3:2|3:2,0:0:0:0:
37,165,60616,2,0,P|23:128|48:86,1,70,10|2,0:0|0:0,0:0:0:0:
57,351,60940,6,0,B|96:365|124:335|111:318|138:287|194:307,1,140,2|10,3:2|0:0,0:0:0:0:
10,260,61426,1,2,0:0:0:0:
178,303,61589,2,0,P|135:294|111:263,1,70,0|0,3:2|3:2,0:0:0:0:
249,373,61913,2,0,P|292:364|316:333,1,70,10|2,3:2|0:0,0:0:0:0:
258,174,62237,5,2,3:2:0:0:
176,227,62399,1,0,3:2:0:0:
271,166,62561,2,0,L|265:245,1,70,10|2,0:0|0:0,0:0:0:0:
396,376,62886,1,0,3:2:0:0:
309,346,63048,1,2,3:2:0:0:
409,384,63210,2,0,L|403:305,1,70,10|0,0:0|0:0,0:0:0:0:
506,165,63534,6,0,P|502:209|470:232,1,70,2|0,3:2|3:2,0:0:0:0:
343,177,63859,2,0,P|347:133|379:110,1,70,10|2,0:0|0:0,0:0:0:0:
451,3,64183,1,0,3:0:0:0:
496,82,64345,1,8,0:0:0:0:
423,164,64507,1,0,3:0:0:0:
490,295,64670,1,2,0:2:0:0:
478,288,64751,1,0,0:0:0:0:
466,281,64832,6,0,P|425:275|395:297,1,70,6|2,3:2|0:2,0:0:0:0:
330,375,65156,2,0,P|359:368|375:354,3,35,10|0|2|0,0:2|0:0|0:2|0:0,0:0:0:0:
268,336,65480,2,0,L|276:246,1,70,2|2,3:2|0:0,0:0:0:0:
225,118,65805,1,10,0:2:0:0:
294,151,65967,1,2,0:2:0:0:
130,153,66129,6,0,P|122:114|145:63,1,70,2|0,3:2|0:0,0:0:0:0:
222,7,66453,2,0,L|184:1,3,35,10|0|2|0,0:2|0:0|0:2|0:0,0:0:0:0:
283,57,66778,2,0,L|372:76,1,70,2|2,3:2|0:2,0:0:0:0:
512,21,67102,5,10,0:2:0:0:
506,51,67183,1,8,0:3:0:0:
503,82,67264,1,8,0:3:0:0:
497,112,67345,1,4,0:3:0:0:
493,142,67426,6,0,B|419:129|419:129|376:156|376:156|308:146,1,175,10|10,3:2|3:2,0:0:0:0:
263,182,67832,1,8,0:0:0:0:
250,194,67913,2,0,L|259:244,1,43.75,10|8,0:2|0:0,0:0:0:0:
390,364,68075,5,10,3:2:0:0:
416,346,68156,1,8,0:0:0:0:
421,315,68237,1,8,0:0:0:0:
408,285,68318,1,8,0:0:0:0:
384,271,68399,2,0,L|337:278,1,43.75,10|8,3:2|0:0,0:0:0:0:
245,356,68561,2,0,L|292:363,1,43.75,10|0,0:2|3:0,0:0:0:0:
244,205,68724,6,0,B|134:160|167:275|56:247,1,196.875007510186,10|0,3:2|0:0,0:0:0:0:
67,161,69048,2,0,B|177:116|144:231|255:203,1,196.875007510186,8|0,3:2|0:0,0:0:0:0:
299,151,69372,6,0,P|283:118|246:99,1,52.4999983978272,8|0,3:2|0:0,0:0:0:0:
283,33,69534,2,0,P|248:28|211:52,1,52.4999983978272,0|0,3:0|3:0,0:0:0:0:
104,22,69697,6,0,B|125:13|145:-8|145:-8|125:13|126:42,1,105,10|0,3:2|0:0,0:0:0:0:
20,48,70021,6,0,P|56:11|121:56,1,104.999996795654,6|0,3:2|0:0,0:0:0:0:
163,149,70345,6,0,P|134:131|122:109,1,52.4999983978272,10|2,0:2|0:2,0:0:0:0:
283,26,70670,2,0,P|240:28|217:54,1,70,2|2,3:2|0:2,0:0:0:0:
402,196,70994,2,0,P|355:202|315:158,1,87.5,10|2,0:2|0:2,0:0:0:0:
487,21,71318,2,0,P|432:22|399:89,1,104.999996795654,2|2,3:2|0:2,0:0:0:0:
502,248,71643,2,0,P|516:180|450:129,1,122.499996261597,10|2,0:2|0:2,0:0:0:0:
365,297,71967,5,2,3:2:0:0:
373,304,72048,1,2,0:0:0:0:
383,312,72129,1,2,0:0:0:0:
300,235,72291,1,10,0:2:0:0:
451,360,72453,1,2,0:2:0:0:
214,211,72616,6,0,P|233:163|299:156,1,104.999996795654,2|0,3:2|0:0,0:0:0:0:
223,327,72940,6,0,L|169:311,1,52.4999983978272,10|2,0:2|0:2,0:0:0:0:
48,253,73264,2,0,L|127:232,1,70,2|2,3:2|0:2,0:0:0:0:
280,149,73589,2,0,L|183:126,1,87.5,10|2,0:2|0:2,0:0:0:0:
13,58,73913,2,0,L|134:29,1,104.999996795654,2|2,3:2|0:2,0:0:0:0:
354,10,74237,2,0,L|206:48,1,122.499996261597,10|2,0:2|0:2,0:0:0:0:
132,152,74561,5,2,3:2:0:0:
138,162,74643,1,2,0:0:0:0:
146,174,74724,1,8,0:0:0:0:
93,80,74886,1,10,0:2:0:0:
191,247,75048,1,2,0:2:0:0:
16,130,75210,6,0,P|0:178|36:227,1,104.999996795654,6|0,3:2|0:0,0:0:0:0:
175,357,75534,6,0,B|150:363|150:363|126:353,1,52.4999983978272,10|2,0:2|0:2,0:0:0:0:
257,212,75859,2,0,B|293:200|293:200|326:212,1,70,2|2,3:2|0:2,0:0:0:0:
448,353,76183,2,0,B|403:371|403:371|342:345,1,87.5,10|2,0:2|0:2,0:0:0:0:
464,147,76507,2,0,B|495:190|495:190|467:265,1,104.999996795654,2|2,3:2|0:2,0:0:0:0:
257,212,76832,2,0,B|232:152|232:152|270:87,1,122.499996261597,10|2,0:2|0:2,0:0:0:0:
396,37,77156,5,2,3:2:0:0:
383,34,77237,1,2,0:0:0:0:
369,31,77318,1,2,0:0:0:0:
479,60,77480,1,10,0:2:0:0:
281,12,77643,1,2,0:2:0:0:
415,198,77805,6,0,P|438:166|422:114,1,87.5,6|0,3:2|0:0,0:0:0:0:
343,262,78129,2,0,P|367:292|422:290,1,87.5,10|0,0:2|0:0,0:0:0:0:
313,171,78453,2,0,P|275:183|257:234,1,87.5,2|8,3:2|0:0,0:0:0:0:
304,376,78778,5,10,0:0:0:0:
290,374,78859,1,8,0:0:0:0:
277,371,78940,1,8,0:3:0:0:
264,368,79021,1,8,0:3:0:0:
251,364,79102,6,0,L|273:312,3,43.75,10|8|8|8,0:0|0:0|0:0|0:0,0:0:0:0:
168,285,79426,2,0,L|150:325,3,43.75,8|8|8|8,0:3|0:3|0:3|0:3,0:0:0:0:
24,181,79751,2,0,L|41:221,3,43.75,8|8|8|8,0:0|0:0|0:3|0:3,0:0:0:0:
84,76,80075,5,10,0:0:0:0:
88,88,80156,1,8,0:0:0:0:
91,100,80237,1,8,0:3:0:0:
94,112,80318,1,4,0:3:0:0:
97,127,80399,6,0,L|210:98,1,104.999996795654,6|0,3:2|0:0,0:0:0:0:
322,27,80724,6,0,P|290:25|269:45,1,52.4999983978272,10|2,0:2|0:2,0:0:0:0:
313,191,81048,2,0,P|351:193|376:166,1,70,2|2,3:2|0:2,0:0:0:0:
342,16,81372,2,0,P|298:9|257:40,1,87.5,10|2,0:2|0:2,0:0:0:0:
296,210,81697,2,0,P|354:217|393:171,1,104.999996795654,2|2,3:2|0:2,0:0:0:0:
350,9,82021,2,0,P|289:3|241:46,1,122.499996261597,10|2,0:2|0:2,0:0:0:0:
330,126,82345,5,2,3:2:0:0:
327,117,82426,1,2,0:0:0:0:
324,109,82507,1,0,0:0:0:0:
226,146,82670,1,10,0:2:0:0:
409,83,82832,1,2,0:2:0:0:
360,224,82994,6,0,L|391:354,1,104.999996795654,2|0,3:2|0:0,0:0:0:0:
494,178,83318,6,0,L|437:192,1,52.4999983978272,10|2,0:2|0:2,0:0:0:0:
216,271,83643,2,0,L|289:246,1,70,2|2,3:2|0:2,0:0:0:0:
503,169,83967,2,0,L|409:196,1,87.5,10|2,0:2|0:0,0:0:0:0:
200,272,84291,2,0,L|305:234,1,104.999996795654,2|2,3:2|0:2,0:0:0:0:
512,154,84616,2,0,L|404:187,1,104.999996795654,10|2,0:2|0:2,0:0:0:0:
276,55,84940,5,2,3:2:0:0:
280,65,85021,1,2,0:0:0:0:
284,79,85102,1,8,0:0:0:0:
354,22,85264,1,10,0:2:0:0:
194,70,85426,1,2,0:2:0:0:
358,182,85589,6,0,P|323:212|264:205,1,104.999996795654,2|0,3:2|0:0,0:0:0:0:
83,153,85913,6,0,L|83:210,1,52.4999983978272,10|2,0:2|0:2,0:0:0:0:
179,306,86237,2,0,L|179:233,1,70,2|2,3:2|0:0,0:0:0:0:
71,135,86561,2,0,L|71:233,1,87.5,10|2,0:2|0:2,0:0:0:0:
192,321,86886,2,0,L|192:189,1,104.999996795654,2|2,3:2|0:2,0:0:0:0:
63,121,87210,2,0,L|62:250,1,122.499996261597,10|2,0:2|0:2,0:0:0:0:
218,49,87534,5,2,3:2:0:0:
206,44,87616,1,2,0:0:0:0:
193,39,87697,1,2,0:2:0:0:
295,77,87859,1,10,0:2:0:0:
111,12,88021,1,0,0:0:0:0:
339,183,88183,6,0,P|397:163|412:113,1,96.250002937317,2|0,3:2|0:0,0:0:0:0:
251,160,88507,2,0,P|248:209|300:256,1,96.250002937317,10|0,0:2|0:0,0:0:0:0:
295,77,88832,2,0,P|248:61|189:99,1,96.250002937317,2|0,3:2|0:0,0:0:0:0:
146,234,89156,1,10,0:2:0:0:
141,224,89237,1,0,0:0:0:0:
136,215,89318,1,0,0:0:0:0:
131,206,89399,1,0,0:0:0:0:
125,197,89480,6,0,L|69:226,3,52.4999983978272,2|0|8|8,3:2|0:0|0:0|0:0,0:0:0:0:
32,343,89805,2,0,L|22:284,1,52.4999983978272,10|8,3:2|0:0,0:0:0:0:
117,375,89967,2,0,L|107:316,1,52.4999983978272,10|8,0:2|0:0,0:0:0:0:
199,307,90129,1,10,3:2:0:0:
202,323,90210,1,8,0:0:0:0:
206,336,90291,1,10,0:2:0:0:
210,349,90372,1,8,0:0:0:0:
214,365,90453,2,0,L|270:388,1,52.4999983978272,10|8,3:2|0:0,0:0:0:0:
358,335,90616,2,0,L|302:312,1,52.4999983978272,10|8,0:2|0:0,0:0:0:0:
131,206,90778,6,0,B|176:226|219:191|198:167|239:120|309:153,1,175,6|10,3:2|0:2,0:0:0:0:
392,15,91264,1,2,0:2:0:0:
280,143,91426,2,0,P|241:133|214:91,1,87.5,0|2,3:0|3:2,0:0:0:0:
308,258,91751,2,0,P|347:247|374:205,1,87.5,8|2,0:0|0:0,0:0:0:0:
497,56,92075,6,0,B|454:72|410:91|410:91|396:152|459:163,1,175,2|10,3:2|0:2,0:0:0:0:
512,279,92561,1,2,0:2:0:0:
321,335,92724,2,0,B|296:293|296:293|312:244,1,87.5,2|2,3:2|3:2,0:0:0:0:
505,188,93048,1,10,0:2:0:0:
446,235,93210,1,2,0:2:0:0:
243,80,93372,6,0,B|359:102|359:102|320:105|304:128,1,175,2|10,3:2|0:2,0:0:0:0:
412,318,93859,1,2,0:2:0:0:
361,189,94021,1,2,3:2:0:0:
312,327,94183,1,2,3:2:0:0:
245,217,94345,2,0,P|199:206|150:238,1,87.5,8|2,0:2|0:0,0:0:0:0:
13,382,94670,6,0,B|35:354|66:348|66:348|19:228,1,175,2|10,3:2|0:2,0:0:0:0:
88,103,95156,1,2,0:2:0:0:
25,245,95318,2,0,P|68:262|112:244,1,87.5,2|2,3:2|3:2,0:0:0:0:
213,79,95643,1,10,0:2:0:0:
149,27,95805,1,2,0:2:0:0:
208,179,95967,6,0,P|222:112|325:99,1,175,2|10,3:2|0:2,0:0:0:0:
427,238,96453,2,0,B|397:196|417:147|436:161|457:113|426:67,1,175,2|2,0:2|3:2,0:0:0:0:
486,306,96940,2,0,P|446:332|394:317,1,87.5,8|2,0:0|0:2,0:0:0:0:
267,233,97264,5,0,3:0:0:0:
357,167,97426,1,0,3:0:0:0:
261,246,97589,2,0,L|280:337,1,87.5,10|2,0:2|0:2,0:0:0:0:
176,96,97913,1,2,3:2:0:0:
256,141,98075,1,2,3:2:0:0:
97,162,98237,1,10,0:2:0:0:
88,152,98318,1,0,0:0:0:0:
81,140,98399,1,10,0:2:0:0:
79,126,98480,1,8,0:0:0:0:
84,114,98561,6,0,L|81:221,1,87.5,2|0,3:2|3:0,0:0:0:0:
126,349,98886,2,0,P|83:363|35:328,1,87.5,10|0,0:2|3:0,0:0:0:0:
189,250,99210,2,0,L|301:263,1,87.5,2|0,3:2|3:0,0:0:0:0:
399,338,99534,2,0,P|418:293|404:245,1,87.5,10|0,0:2|3:0,0:0:0:0:
304,99,99859,5,10,0:2:0:0:
321,102,99940,1,0,0:0:0:0:
338,106,100021,1,0,3:0:0:0:
354,111,100102,1,0,3:0:0:0:
370,116,100183,2,0,L|281:133,1,87.5,8|2,0:2|3:2,0:0:0:0:
143,22,100507,5,10,0:2:0:0:
210,87,100670,1,10,0:2:0:0:
130,190,100832,1,10,3:2:0:0:
198,278,100994,1,10,0:2:0:0:
204,270,101075,1,8,0:0:0:0:
207,262,101156,5,2,3:2:0:0:
111,357,101318,2,0,P|63:367|20:328,1,87.5,2|8,0:2|0:0,0:0:0:0:
82,125,101643,2,0,P|123:157|120:220,1,87.5,2|0,0:2|3:0,0:0:0:0:
0,263,101967,2,0,P|10:216|47:198,1,87.5,2|8,0:2|0:0,0:0:0:0:
97,269,102291,1,2,0:2:0:0:
0,99,102453,6,0,B|39:126|89:101|66:73|124:47|175:80,1,175,2|10,3:2|0:2,0:0:0:0:
54,0,102940,1,2,0:2:0:0:
218,129,103102,2,0,P|181:113|160:65,1,87.5,2|2,3:2|0:2,0:0:0:0:
319,3,103426,2,0,P|271:12|243:47,1,87.5,10|2,0:2|0:2,0:0:0:0:
325,101,103751,5,2,3:2:0:0:
231,207,103913,2,0,B|205:165|205:165|219:123,1,87.5,2|8,0:2|0:0,0:0:0:0:
336,273,104237,2,0,B|302:308|302:308|257:306,1,87.5,2|0,0:2|3:0,0:0:0:0:
405,200,104561,2,0,B|431:241|431:241|416:284,1,87.5,2|8,0:2|0:0,0:0:0:0:
312,178,104886,1,2,0:2:0:0:
447,75,105048,6,0,B|364:46|364:46|402:59|397:116,1,131.25,2|0,3:2|0:0,0:0:0:0:
384,105,105372,1,10,0:2:0:0:
312,178,105534,2,0,B|271:196|225:161|250:135|195:94|136:131,1,175,2|10,3:2|0:2,0:0:0:0:
60,255,106021,1,2,3:2:0:0:
133,216,106183,1,10,0:2:0:0:
246,332,106345,6,0,B|165:299|165:299|102:329|146:383,1,175,2|10,3:2|0:2,0:0:0:0:
315,270,106832,2,0,B|377:265|377:265|405:218|405:218|471:205,1,175,2|2,0:2|0:2,0:0:0:0:
228,118,107318,2,0,B|206:162|206:162|238:209,1,87.5,8|2,0:0|0:2,0:0:0:0:
369,61,107643,5,0,3:0:0:0:
250,10,107805,1,0,0:0:0:0:
379,73,107967,2,0,L|489:42,1,87.5,10|2,0:2|0:2,0:0:0:0:
367,169,108291,1,2,3:2:0:0:
296,83,108453,1,2,0:2:0:0:
159,192,108616,1,10,0:2:0:0:
200,114,108778,1,2,0:2:0:0:
215,271,108940,6,0,P|176:295|124:282,1,87.5,2|0,3:2|0:0,0:0:0:0:
0,176,109264,2,0,P|42:171|78:194,1,87.5,10|0,0:2|0:0,0:0:0:0:
14,352,109589,1,2,3:2:0:0:
108,274,109751,1,8,0:0:0:0:
111,285,109832,1,8,0:0:0:0:
113,295,109913,2,0,L|106:343,3,43.75,10|8|8|8,0:2|0:0|0:3|0:3,0:0:0:0:
197,214,110237,6,0,L|150:201,3,43.75,2|8|8|8,3:2|0:0|0:0|0:0,0:0:0:0:
257,287,110561,2,0,L|304:274,3,43.75,8|8|8|8,0:3|0:3|0:3|0:3,0:0:0:0:
393,165,110886,1,10,0:2:0:0:
395,183,110967,1,8,0:0:0:0:
396,202,111048,1,8,0:3:0:0:
398,218,111129,1,8,0:3:0:0:
398,235,111210,2,0,L|396:284,3,43.75,8|8|0|0,0:0|0:0|3:0|3:0,0:0:0:0:
449,336,111534,5,6,3:2:0:0:
40,32,115102,5,10,0:0:0:0:
45,44,115183,1,2,0:0:0:0:
49,56,115264,1,2,0:0:0:0:
52,65,115345,1,2,0:0:0:0:
55,78,115426,6,0,L|124:60,1,65.6250025033952,2|0,0:0|0:0,0:0:0:0:
158,246,115670,6,0,L|103:193,1,65.6250025033952,2|0,0:0|0:0,0:0:0:0:
248,76,115913,6,0,L|230:152,1,65.6250025033952,2|0,0:0|0:0,0:0:0:0:
276,318,116237,5,0,3:0:0:0:
283,308,116318,1,0,3:0:0:0:
287,298,116399,6,0,L|317:308,1,26.25,8|0,0:0|0:0,0:0:0:0:
376,358,116724,6,0,P|393:313|376:263,1,78.7499975967408,0|2,3:0|0:0,0:0:0:0:
345,231,116967,1,2,0:0:0:0:
338,224,117048,2,0,P|321:177|346:139,1,78.7499975967408,8|2,0:0|0:0,0:0:0:0:
376,99,117291,1,2,0:0:0:0:
385,88,117372,2,0,P|400:44|358:9,1,78.7499975967408,0|2,3:0|0:0,0:0:0:0:
320,0,117616,1,2,0:0:0:0:
308,2,117697,1,8,0:0:0:0:
251,96,117859,1,2,0:0:0:0:
144,10,118021,5,2,3:2:0:0:
96,70,118183,2,0,L|106:154,1,78.7499975967408,2|8,0:2|0:0,0:0:0:0:
183,323,118507,1,2,0:2:0:0:
231,263,118669,2,0,L|221:179,1,78.7499975967408,2|0,3:2|0:0,0:0:0:0:
90,305,118994,2,0,B|77:349|77:349|104:390,1,78.7499975967408,10|2,0:2|0:2,0:0:0:0:
246,375,119318,6,0,B|293:394|319:351|310:337|345:290|406:321,1,157.499995193482,2|10,3:2|0:2,0:0:0:0:
465,186,119805,1,2,0:2:0:0:
377,312,119967,2,0,P|335:305|307:275,1,78.7499975967408,0|2,3:0|0:2,0:0:0:0:
322,114,120291,1,10,0:2:0:0:
372,197,120453,1,2,0:2:0:0:
486,11,120616,6,0,B|416:33|416:33|387:84|429:116,1,157.499995193482,2|10,3:2|0:2,0:0:0:0:
446,267,121102,1,2,0:2:0:0:
510,173,121264,2,0,P|524:130|502:83,1,78.7499975967408,0|8,3:0|0:0,0:0:0:0:
372,197,121589,1,10,0:0:0:0:
305,287,121751,1,10,0:0:0:0:
309,299,121832,1,8,0:0:0:0:
311,310,121913,6,0,L|362:301,2,52.4999983978272,2|2|2,3:2|0:0|0:0,0:0:0:0:
257,359,122237,2,0,L|189:350,2,52.4999983978272,10|2|2,0:0|0:0|0:0,0:0:0:0:
144,315,122561,5,2,3:2:0:0:
213,212,122724,1,2,0:0:0:0:
37,120,122886,1,10,0:0:0:0:
83,247,123048,1,2,0:0:0:0:
181,82,123210,6,0,P|158:63|112:58,2,52.4999983978272,2|2|2,3:2|0:0|0:0,0:0:0:0:
213,212,123534,2,0,P|236:205|253:179,2,52.4999983978272,10|2|2,0:0|0:0|0:0,0:0:0:0:
281,117,123859,5,2,3:2:0:0:
356,240,124021,1,2,0:0:0:0:
457,28,124183,1,10,0:0:0:0:
416,155,124345,1,2,0:0:0:0:
266,26,124507,6,0,B|182:7|182:7|133:26|151:83,1,157.499995193482,2|8,3:2|0:0,0:0:0:0:
196,173,124994,1,0,0:0:0:0:
66,101,125156,2,0,P|50:62|65:14,1,78.7499975967408,2|0,3:2|0:0,0:0:0:0:
136,244,125480,1,10,0:0:0:0:
21,182,125643,1,8,0:0:0:0:
158,99,125805,6,0,L|211:91,3,39.3749987983704,8|8|8|8,0:2|0:0|0:0|0:0,0:0:0:0:
267,193,126129,2,0,L|214:185,3,39.3749987983704,8|8|8|8,0:2|0:0|0:0|0:0,0:0:0:0:
357,135,126453,1,8,0:2:0:0:
361,147,126534,1,8,0:0:0:0:
365,161,126616,1,8,0:0:0:0:
369,175,126697,1,8,0:0:0:0:
374,188,126778,2,0,L|366:244,1,39.3749987983704,8|8,0:2|0:0,0:0:0:0:
440,336,126940,2,0,L|448:280,1,39.3749987983704,8|8,0:0|0:0,0:0:0:0:
337,360,127102,6,0,P|299:365|261:340,1,78.7499975967408,4|2,3:2|0:2,0:0:0:0:
196,181,127426,2,0,P|234:176|272:201,1,78.7499975967408,10|2,0:2|0:2,0:0:0:0:
150,340,127751,1,2,3:2:0:0:
220,283,127913,1,2,0:2:0:0:
46,203,128075,1,10,0:2:0:0:
92,273,128237,1,2,0:2:0:0:
109,138,128399,6,0,P|69:113|32:119,1,78.7499975967408,2|2,3:2|0:2,0:0:0:0:
244,189,128724,2,0,P|264:155|259:117,1,78.7499975967408,10|2,0:2|0:2,0:0:0:0:
150,340,129048,2,0,P|181:362|219:362,1,78.7499975967408,0|2,0:0|0:2,0:0:0:0:
397,260,129372,1,10,0:2:0:0:
335,217,129534,1,2,0:2:0:0:
503,384,129697,6,0,B|480:354|455:346|455:346|489:231,1,157.499995193482,2|10,3:2|0:2,0:0:0:0:
400,159,130183,1,2,0:2:0:0:
490,87,130345,2,0,P|515:128|504:173,1,78.7499975967408,2|0,3:2|0:0,0:0:0:0:
317,79,130670,2,0,P|316:40|339:8,1,78.7499975967408,10|0,0:0|0:0,0:0:0:0:
320,213,130994,6,0,B|285:180|230:192|244:226|201:247|151:213,1,157.499995193482,2|10,3:2|0:2,0:0:0:0:
54,61,131480,2,0,P|106:63|132:127,1,118.124996395111,2|0,3:2|0:0,0:0:0:0:
94,175,131805,1,8,0:0:0:0:
91,186,131886,1,8,0:0:0:0:
88,200,131967,2,0,L|95:240,3,39.3749987983704,8|8|8|8,0:3|0:3|0:0|0:0,0:0:0:0:
194,337,132291,6,0,B|167:289|123:313|123:313|111:361|42:349,2,157.499995193482,6|10|2,3:2|0:2|3:2,0:0:0:0:
283,376,133102,1,0,0:0:0:0:
348,285,133264,2,0,B|311:260|311:260|266:270,1,78.7499975967408,10|0,0:2|0:0,0:0:0:0:
444,372,133589,6,0,L|465:215,2,157.499995193482,2|10|2,3:2|0:2|3:2,0:0:0:0:
501,291,134399,1,0,0:0:0:0:
366,157,134561,2,0,L|370:214,3,39.3749987983704,0|0|0|0,3:0|0:0|3:0|0:0,0:0:0:0:
409,91,134886,5,8,0:0:0:0:
250,182,135048,2,0,L|242:96,1,78.7499975967408,8|0,0:0|3:0,0:0:0:0:
147,178,135372,5,8,0:0:0:0:
321,265,135534,2,0,L|329:179,1,78.7499975967408,8|0,0:0|3:0,0:0:0:0:
409,269,135859,5,8,0:0:0:0:
250,360,136021,2,0,L|242:274,1,78.7499975967408,8|0,0:0|3:0,0:0:0:0:
352,202,136345,5,8,3:2:0:0:
488,380,136507,2,0,L|495:274,1,78.7499975967408,8|0,3:2|3:0,0:0:0:0:
307,74,136832,2,0,P|369:88|376:164,1,118.124996395111,8|0,0:0|3:0,0:0:0:0:
352,202,137156,2,0,L|260:176,1,78.7499975967408,8|2,0:0|0:0,0:0:0:0:
160,16,137480,5,4,3:2:0:0:
206,79,137643,1,0,3:0:0:0:
123,137,137805,1,8,3:2:0:0:
111,135,137886,1,0,3:0:0:0:
100,132,137967,1,0,3:0:0:0:
90,129,138048,1,0,3:0:0:0:
76,125,138129,2,0,L|83:170,1,39.3749987983704,8|0,3:2|3:0,0:0:0:0:
0,264,138291,2,0,L|6:225,1,39.3749987983704,0|0,3:0|3:0,0:0:0:0:
137,335,138453,2,0,L|90:324,3,39.3749987983704,8|8|4|4,3:2|3:2|3:3|3:3,0:0:0:0:
236,198,138778,5,4,3:2:0:0:
233,213,138859,1,0,3:0:0:0:
230,225,138940,1,0,3:0:0:0:
226,237,139021,1,8,3:2:0:0:
221,249,139102,2,0,L|232:301,3,39.3749987983704,8|8|8|8,3:2|3:2|3:2|3:2,0:0:0:0:
372,334,139426,5,0,3:0:0:0:
343,320,139507,1,8,3:2:0:0:
313,319,139589,1,8,3:2:0:0:
288,331,139670,1,8,3:2:0:0:
268,353,139751,1,8,3:2:0:0:
240,367,139832,1,8,3:2:0:0:
209,378,139913,2,0,P|181:376|157:366,1,39.3749987983704,8|8,3:2|3:2,0:0:0:0:
111,214,140075,6,0,L|149:236,3,39.3749987983704,4|4|4|4,3:0|3:0|3:0|3:0,0:0:0:0:
65,143,140399,2,0,L|30:162,3,39.3749987983704,4|4|4|4,3:0|3:0|3:0|3:0,0:0:0:0:
138,65,140724,2,0,L|172:84,3,39.3749987983704,4|4|4|4,3:0|3:0|3:0|3:0,0:0:0:0:
27,13,141048,5,4,3:0:0:0:
33,51,141129,1,4,3:0:0:0:
40,89,141210,1,4,3:0:0:0:
47,127,141291,1,4,3:0:0:0:
65,143,141372,5,8,0:0:0:0:
138,65,141534,2,0,L|290:117,1,157.499995193482,0|0,3:0|3:0,0:0:0:0:
404,136,142021,2,0,P|394:177|358:199,1,78.7499975967408,0|0,0:0|3:0,0:0:0:0:
302,229,142264,1,0,3:0:0:0:
294,237,142345,2,0,P|269:279|278:326,1,78.7499975967408,8|0,0:0|0:0,0:0:0:0:
427,380,142670,5,4,3:2:0:0:
62,195,143967,5,4,3:2:0:0:
436,50,145264,5,4,3:2:0:0:
21,10,146561,5,4,3:2:0:0:
86,345,147697,5,8,0:0:0:0:
138,288,147859,2,0,B|188:270|219:301|211:308|239:336|283:320,1,140,0|2,3:2|3:2,0:0:0:0:
355,276,148345,1,2,0:2:0:0:
279,185,148507,2,0,L|288:241,3,35,2|0|2|0,3:2|0:0|0:2|0:0,0:0:0:0:
206,137,148832,2,0,L|197:193,3,35,2|0|2|0,3:2|0:0|0:2|0:0,0:0:0:0:
142,59,149156,6,0,L|151:3,3,35,2|0|2|0,3:2|0:0|0:2|0:0,0:0:0:0:
69,107,149481,2,0,L|60:51,3,35,2|0|2|0,3:2|0:0|0:2|0:0,0:0:0:0:
5,197,149805,2,0,L|-4:141,3,35,2|0|2|0,3:2|0:0|0:2|0:0,0:0:0:0:
78,245,150130,2,0,L|87:189,3,35,2|0|0|0,3:2|0:0|0:0|0:0,0:0:0:0:
0,317,150453,6,0,B|39:298|81:320|63:337|93:366|148:347,1,140,2|0,3:2|0:0,0:0:0:0:
238,239,151102,2,0,L|184:230,1,35,0|0,3:0|3:0,0:0:0:0:
229,329,151264,1,8,0:0:0:0:
249,333,151345,1,8,0:0:0:0:
269,338,151426,1,8,0:0:0:0:
290,343,151507,1,8,0:0:0:0:
310,347,151588,1,8,0:3:0:0:
331,352,151669,1,8,0:3:0:0:
353,338,151751,5,4,0:0:0:0:
264,344,152724,6,0,L|234:341,1,26.25,2|0,0:0|0:0,0:0:0:0:
163,377,153048,6,0,P|153:322|177:278,1,104.999996795654,6|0,3:2|0:0,0:0:0:0:
282,137,153372,6,0,P|277:101|261:84,1,52.4999983978272,10|2,0:2|0:2,0:0:0:0:
355,215,153697,2,0,P|357:173|381:139,1,70,2|2,3:2|0:2,0:0:0:0:
220,282,154021,2,0,P|217:232|178:188,1,87.5,10|2,0:2|0:2,0:0:0:0:
416,328,154345,2,0,P|418:272|458:220,1,104.999996795654,2|2,3:2|0:2,0:0:0:0:
143,384,154670,2,0,P|143:320|98:261,1,122.499996261597,10|2,0:2|0:2,0:0:0:0:
24,109,154994,5,2,3:2:0:0:
21,121,155075,1,2,0:0:0:0:
17,134,155156,1,2,0:0:0:0:
131,52,155318,1,10,0:2:0:0:
24,5,155480,1,2,0:2:0:0:
137,141,155643,6,0,P|200:148|240:115,1,104.999996795654,2|0,3:2|0:0,0:0:0:0:
376,11,155967,6,0,P|348:16|330:37,1,52.4999983978272,10|2,0:2|0:2,0:0:0:0:
434,163,156291,2,0,P|432:129|404:94,1,70,2|2,3:2|0:0,0:0:0:0:
315,243,156616,2,0,P|343:276|393:274,1,87.5,10|2,0:2|0:2,0:0:0:0:
232,125,156940,2,0,P|186:141|164:209,1,104.999996795654,2|2,3:2|0:2,0:0:0:0:
253,384,157264,2,0,P|247:325|189:296,1,122.499996261597,10|2,0:2|0:2,0:0:0:0:
52,377,157589,5,2,3:2:0:0:
62,373,157670,1,2,0:0:0:0:
73,368,157751,1,8,0:0:0:0:
128,231,157913,1,10,0:2:0:0:
41,270,158075,1,2,0:2:0:0:
221,256,158237,6,0,P|225:199|173:159,1,104.999996795654,2|0,3:2|0:0,0:0:0:0:
5,60,158561,6,0,L|53:92,1,52.4999983978272,10|2,0:2|0:2,0:0:0:0:
222,6,158886,2,0,L|140:22,1,70,2|2,3:2|0:2,0:0:0:0:
128,231,159210,2,0,L|150:131,1,87.5,10|2,0:2|0:2,0:0:0:0:
3,31,159534,2,0,L|101:84,1,104.999996795654,2|2,3:2|0:2,0:0:0:0:
290,3,159859,2,0,L|158:49,1,122.499996261597,10|2,0:2|0:2,0:0:0:0:
307,161,160183,5,2,3:2:0:0:
310,147,160264,1,2,0:0:0:0:
311,137,160345,1,2,0:2:0:0:
431,228,160507,1,10,0:2:0:0:
397,84,160670,1,0,0:0:0:0:
277,284,160832,6,0,B|299:243|347:258|347:258|360:322|439:314,2,175,2|10|2,3:2|0:2|3:2,0:0:0:0:
254,375,161643,1,0,0:0:0:0:
160,195,161805,1,10,0:2:0:0:
107,278,161967,1,0,3:0:0:0:
36,145,162129,6,0,L|44:197,3,43.75,10|0|8|8,3:2|0:0|0:0|0:0,0:0:0:0:
108,74,162453,2,0,L|116:22,3,43.75,10|8|10|8,3:2|0:0|0:2|0:0,0:0:0:0:
166,155,162778,2,0,P|209:175|266:159,1,87.5,10|10,3:2|0:2,0:0:0:0:
296,112,163021,1,8,0:0:0:0:
303,103,163102,2,0,P|340:85|403:106,1,87.5,10|10,3:2|0:2,0:0:0:0:
438,147,163345,1,8,0:0:0:0:
445,160,163426,6,0,B|402:94|402:94|425:310,1,262.500010013581,6|10,3:2|0:2,0:0:0:0:
311,374,163913,1,2,0:2:0:0:
421,276,164075,2,0,P|370:273|334:236,1,87.5,0|2,3:0|3:2,0:0:0:0:
182,138,164399,2,0,P|233:141|269:178,1,87.5,8|2,0:0|0:0,0:0:0:0:
223,331,164724,6,0,B|148:297|148:297|78:303|97:372,1,175,2|10,3:2|0:2,0:0:0:0:
192,232,165210,1,2,0:2:0:0:
93,355,165372,2,0,L|-2:333,1,87.5,2|2,3:2|3:2,0:0:0:0:
96,157,165697,2,0,L|181:137,1,87.5,10|2,0:2|0:2,0:0:0:0:
326,0,166021,6,0,B|295:13|268:26|268:26|282:82|294:133,1,175,2|10,3:2|0:2,0:0:0:0:
401,263,166507,1,2,0:2:0:0:
508,145,166670,2,0,P|472:110|403:112,1,87.5,2|2,3:2|3:2,0:0:0:0:
293,224,166994,2,0,P|334:213|364:181,1,87.5,8|2,0:2|0:0,0:0:0:0:
411,17,167318,6,0,L|443:231,1,175,2|10,3:2|0:2,0:0:0:0:
383,355,167805,1,2,0:2:0:0:
229,266,167967,2,0,B|253:225|253:225|310:223,1,87.5,2|2,3:2|3:2,0:0:0:0:
124,384,168291,1,10,0:2:0:0:
77,326,168453,1,2,0:2:0:0:
165,190,168616,6,0,B|77:150|77:150|37:173|48:216,1,175,2|10,3:2|0:2,0:0:0:0:
119,71,169102,1,2,0:2:0:0:
204,266,169264,2,0,P|244:236|252:185,1,87.5,0|2,3:0|3:2,0:0:0:0:
277,0,169589,2,0,P|241:23|227:64,1,87.5,8|2,0:0|0:2,0:0:0:0:
354,203,169913,6,0,B|405:213|445:181|415:152|459:112|526:129,1,175,0|10,3:0|0:2,0:0:0:0:
432,278,170399,1,2,0:2:0:0:
497,125,170561,2,0,P|446:119|412:89,1,87.5,2|2,3:2|3:2,0:0:0:0:
276,0,170886,2,0,P|329:1|360:39,1,87.5,10|10,0:2|0:2,0:0:0:0:
354,203,171210,6,0,B|291:180|291:180|247:205|247:205|165:182,1,175,2|10,3:2|0:2,0:0:0:0:
191,189,171697,1,0,3:0:0:0:
93,16,171859,2,0,L|110:114,1,87.5,2|0,3:2|3:0,0:0:0:0:
0,249,172183,2,0,L|14:162,1,87.5,10|0,0:2|3:0,0:0:0:0:
94,373,172507,6,0,B|54:346|86:299|86:299|107:295|205:274,1,175,10|8,0:2|0:2,0:0:0:0:
303,228,172994,1,2,3:2:0:0:
300,384,173156,2,0,P|257:360|252:301,1,87.5,10|10,0:2|0:2,0:0:0:0:
391,315,173480,2,0,L|341:308,3,43.75,10|8|10|8,3:2|0:0|0:2|0:0,0:0:0:0:
446,372,173805,5,2,3:2:0:0:
506,297,173967,2,0,L|490:201,1,87.5,2|8,0:2|0:0,0:0:0:0:
366,69,174291,2,0,B|418:72|418:72|441:109,1,87.5,2|0,0:2|3:0,0:0:0:0:
337,189,174616,1,2,0:2:0:0:
260,14,174778,2,0,B|208:17|208:17|185:54,1,87.5,8|2,0:0|0:2,0:0:0:0:
191,254,175102,6,0,B|239:273|276:230|257:206|292:164|354:196,1,175,2|10,3:2|0:2,0:0:0:0:
427,230,175589,1,2,0:2:0:0:
412,377,175751,2,0,P|366:349|362:300,1,87.5,2|2,3:2|0:2,0:0:0:0:
512,258,176075,2,0,P|496:297|458:316,1,87.5,10|2,0:2|0:2,0:0:0:0:
375,109,176399,5,2,3:2:0:0:
464,66,176561,2,0,L|443:173,1,87.5,2|8,0:2|0:0,0:0:0:0:
298,50,176886,2,0,P|336:16|395:25,1,87.5,2|0,0:2|3:0,0:0:0:0:
303,174,177210,2,0,P|260:168|230:138,1,87.5,2|8,0:2|0:0,0:0:0:0:
81,185,177534,1,2,0:2:0:0:
130,22,177697,6,0,B|173:-9|173:-9|146:147,1,175,2|10,3:2|0:2,0:0:0:0:
15,228,178183,2,0,B|63:196|112:233|88:253|133:293|200:266,1,175,2|10,3:2|0:2,0:0:0:0:
325,250,178670,1,2,3:2:0:0:
234,170,178832,1,10,0:2:0:0:
338,338,178994,6,0,B|425:307|425:307|435:249|389:230,1,175,2|10,3:2|0:2,0:0:0:0:
317,61,179480,2,0,P|254:72|237:174,1,175,2|2,0:2|0:2,0:0:0:0:
407,100,179967,2,0,P|421:52|398:11,1,87.5,8|2,0:0|0:2,0:0:0:0:
233,169,180291,6,0,B|184:181|142:143|172:116|124:68|57:99,1,175,0|10,3:0|0:2,0:0:0:0:
211,38,180778,1,2,0:2:0:0:
2,205,180940,2,0,P|49:201|82:152,1,87.5,2|2,3:2|0:2,0:0:0:0:
60,7,181264,2,0,P|13:39|13:100,1,87.5,10|2,0:2|0:2,0:0:0:0:
233,169,181589,5,2,3:2:0:0:
233,169,181913,2,0,L|222:271,1,87.5,10|0,0:2|0:0,0:0:0:0:
127,368,182237,2,0,P|71:369|38:345,1,87.5,2|8,3:2|0:0,0:0:0:0:
15,287,182480,1,8,0:0:0:0:
7,274,182561,2,0,L|32:176,1,87.5,10|8,0:2|0:3,0:0:0:0:
71,131,182805,1,8,0:3:0:0:
80,119,182886,6,0,L|124:138,3,43.75,2|8|8|8,3:2|0:0|0:0|0:0,0:0:0:0:
192,35,183210,2,0,L|150:47,3,43.75,8|8|8|8,0:3|0:3|0:3|0:3,0:0:0:0:
274,102,183534,5,10,0:2:0:0:
267,137,183616,1,8,0:0:0:0:
260,171,183697,1,8,0:3:0:0:
252,204,183778,1,8,0:3:0:0:
240,236,183859,2,0,B|195:225,3,43.75,8|8|0|0,0:0|0:0|3:0|3:0,0:0:0:0:
151,277,184183,5,4,3:2:0:0:
