osu file format v14

[General]
AudioFilename: audio.mp3
AudioLeadIn: 0
PreviewTime: 142264
Countdown: 0
SampleSet: Soft
StackLeniency: 0.2
Mode: 0
LetterboxInBreaks: 0
EpilepsyWarning: 1
WidescreenStoryboard: 1

[Editor]
Bookmarks: 2399,111534,115426,186778
DistanceSpacing: 1.6
BeatDivisor: 4
GridSize: 4
TimelineZoom: 2

[Metadata]
Title:Teo
TitleUnicode:テオ
Artist:Omoi
ArtistUnicode:Omoi
Creator:Shmiklak
Version:Gero's Extra
Source:osu!
Tags:marvollo m_a_r_v_o_l_l_o gero nymphe daycore wajinshu vocaloid hatsune miku synth rock first waltz japanese fa featured artist mappers' guild mpg 初音ミク j-rock ボーカロイド
BeatmapID:2702129
BeatmapSetID:1274098

[Difficulty]
HPDrainRate:6
CircleSize:4
OverallDifficulty:8
ApproachRate:9.5
SliderMultiplier:1.6
SliderTickRate:1

[Events]
//Background and Video events
0,0,"123.jpg",0,0
//Break Periods
2,111734,114901
//Storyboard Layer 0 (Background)
//Storyboard Layer 1 (Fail)
//Storyboard Layer 2 (Pass)
//Storyboard Layer 3 (Foreground)
Sprite,Foreground,Centre,"sb\credits\gero.png",320,325 S,0,15534,,0.3 F,0,15534,15859,0,1 F,0,22021,23318,1,0
Sprite,Foreground,Centre,"sb\l.png",252,248 C,0,116724,,249,155,206 F,2,116724,116924,1,0 S,2,116724,116924,1.4,0.28
Sprite,Foreground,Centre,"sb\l.png",252,248 C,0,116805,,249,155,206 F,2,116805,117005,1,0 S,2,116805,117005,1.4,0.28
Sprite,Foreground,Centre,"sb\l.png",0,0 C,0,116886,,249,155,206 M,0,116886,116926,252,248,249.0232,224.1853 F,2,116886,117167,1,0 S,2,116886,117167,1.4,0.28 M,0,116926,116967,249.0232,224.1853,251.9537,200.3707
Sprite,Foreground,Centre,"sb\l.png",320,76 C,0,117048,,139,160,235 F,2,117048,117248,1,0 S,2,117048,117248,1.4,0.28
Sprite,Foreground,Centre,"sb\l.png",320,76 C,0,117129,,139,160,235 F,2,117129,117329,1,0 S,2,117129,117329,1.4,0.28
Sprite,Foreground,Centre,"sb\l.png",0,0 C,0,117210,,139,160,235 M,0,117210,117250,320,76,322.9768,99.81467 F,2,117210,117491,1,0 S,2,117210,117491,1.4,0.28 M,0,117250,117291,322.9768,99.81467,320.0463,123.6293
Sprite,Foreground,Centre,"sb\l.png",388,248 C,0,117372,,242,108,94 F,2,117372,117572,1,0 S,2,117372,117572,1.4,0.28
Sprite,Foreground,Centre,"sb\l.png",388,248 C,0,117453,,242,108,94 F,2,117453,117653,1,0 S,2,117453,117653,1.4,0.28
Sprite,Foreground,Centre,"sb\l.png",0,0 C,0,117534,,242,108,94 M,0,117534,117574,388,248,385.0232,224.1853 F,2,117534,117815,1,0 S,2,117534,117815,1.4,0.28 M,0,117574,117615,385.0232,224.1853,387.9537,200.3707
Sprite,Foreground,Centre,"sb\l.png",456,76 C,0,117697,,166,142,193 F,2,117697,117897,1,0 S,2,117697,117897,1.4,0.28
Sprite,Foreground,Centre,"sb\l.png",456,76 C,0,117778,,166,142,193 F,2,117778,117978,1,0 S,2,117778,117978,1.4,0.28
Sprite,Foreground,Centre,"sb\l.png",0,0 C,0,117859,,166,142,193 M,0,117859,117899,456,76,458.9768,99.81467 F,2,117859,118140,1,0 S,2,117859,118140,1.4,0.28 M,0,117899,117940,458.9768,99.81467,456.0463,123.6293
Sprite,Foreground,Centre,"sb\l.png",524,248 C,0,118021,,249,155,206 F,2,118021,118221,1,0 S,2,118021,118221,1.4,0.28
Sprite,Foreground,Centre,"sb\l.png",0,0 C,0,118183,,249,155,206 M,0,118183,118223,456,420,444.5785,399.14 F,2,118183,118545,1,0 S,2,118183,118545,1.4,0.28 M,0,118223,118264,444.5785,399.14,440.426,375.8001 M,0,118264,118304,440.426,375.8001,444.4849,352.392 M,0,118304,118345,444.4849,352.392,456,332
Sprite,Foreground,Centre,"sb\l.png",544,248 C,0,118507,,249,155,206 F,2,118507,118707,1,0 S,2,118507,118707,1.4,0.28
Sprite,Foreground,Centre,"sb\l.png",0,0 C,0,118670,,249,155,206 M,0,118670,118710,476,420,464.5785,399.14 F,2,118670,119032,1,0 S,2,118670,119032,1.4,0.28 M,0,118710,118751,464.5785,399.14,460.426,375.8001 M,0,118751,118791,460.426,375.8001,464.4849,352.392 M,0,118791,118832,464.4849,352.392,476,332
Sprite,Foreground,Centre,"sb\l.png",564,248 C,0,118994,,249,155,206 F,2,118994,119194,1,0 S,2,118994,119194,1.4,0.28
Sprite,Foreground,Centre,"sb\l.png",476,76 C,0,119156,,249,155,206 F,2,119156,119356,1,0 S,2,119156,119356,1.4,0.28
Sprite,Foreground,Centre,"sb\l.png",0,0 C,0,119318,,139,160,235 M,0,119318,119358,388,248,396.0402,225.3868 F,2,119318,119680,1,0 S,2,119318,119680,1.4,0.28 M,0,119358,119399,396.0402,225.3868,403.9195,202.7737 M,0,119399,119439,403.9195,202.7737,395.8793,180.1605 M,0,119439,119480,395.8793,180.1605,388,158
Sprite,Foreground,Centre,"sb\l.png",252,248 C,0,119643,,139,160,235 F,2,119643,119843,1,0 S,2,119643,119843,1.4,0.28
Sprite,Foreground,Centre,"sb\l.png",0,0 C,0,119805,,139,160,235 M,0,119805,119845,252,248,243.9598,225.3868 F,2,119805,120167,1,0 S,2,119805,120167,1.4,0.28 M,0,119845,119886,243.9598,225.3868,236.0805,202.7737 M,0,119886,119926,236.0805,202.7737,244.1207,180.1605 M,0,119926,119967,244.1207,180.1605,252,158
Sprite,Foreground,Centre,"sb\l.png",388,248 C,0,120129,,139,160,235 F,2,120129,120329,1,0 S,2,120129,120329,1.4,0.28
Sprite,Foreground,Centre,"sb\l.png",252,338 C,0,120291,,139,160,235 F,2,120291,120491,1,0 S,2,120291,120491,1.4,0.28
Sprite,Foreground,Centre,"sb\l.png",408,248 C,0,120453,,139,160,235 F,2,120453,120653,1,0 S,2,120453,120653,1.4,0.28
Sprite,Foreground,Centre,"sb\l.png",0,0 C,0,120616,,242,108,94 M,0,120616,120656,252,158,231.14,146.5785 F,2,120616,120978,1,0 S,2,120616,120978,1.4,0.28 M,0,120656,120697,231.14,146.5785,207.8001,142.426 M,0,120697,120737,207.8001,142.426,184.392,146.4849 M,0,120737,120778,184.392,146.4849,164,158
Sprite,Foreground,Centre,"sb\l.png",320,248 C,0,120940,,242,108,94 F,2,120940,121140,1,0 S,2,120940,121140,1.4,0.28
Sprite,Foreground,Centre,"sb\l.png",0,0 C,0,121102,,242,108,94 M,0,121102,121142,164,339,184.86,350.4215 F,2,121102,121464,1,0 S,2,121102,121464,1.4,0.28 M,0,121142,121183,184.86,350.4215,208.1999,354.574 M,0,121183,121223,208.1999,354.574,231.608,350.5151 M,0,121223,121264,231.608,350.5151,252,339
Sprite,Foreground,Centre,"sb\l.png",96,248 C,0,121426,,166,142,193 F,2,121426,121626,1,0 S,2,121426,121626,1.4,0.28
Sprite,Foreground,Centre,"sb\l.png",252,158 C,0,121589,,166,142,193 F,2,121589,121789,1,0 S,2,121589,121789,1.4,0.28
Sprite,Foreground,Centre,"sb\l.png",116,248 C,0,121751,,166,142,193 F,2,121751,121951,1,0 S,2,121751,121951,1.4,0.28
Sprite,Foreground,Centre,"sb\l.png",0,0 C,0,121913,,249,155,206 M,0,121913,121953,272,158,294.3253,150.2078 F,2,121913,122329,1,0 S,2,121913,122329,1.4,0.28 M,0,121953,121994,294.3253,150.2078,317.8555,151.745 M,0,121994,122034,317.8555,151.745,325.3915,154.3929 M,0,122034,122075,325.3915,154.3929,302.198,149.5837 M,0,122075,122115,302.198,149.5837,279.2827,154.7794 M,0,122115,122129,279.2827,154.7794,272,158
Sprite,Foreground,Centre,"sb\l.png",0,0 C,0,122237,,249,155,206 M,0,122237,122277,272,338,294.3253,345.7922 F,2,122237,122653,1,0 S,2,122237,122653,1.4,0.28 M,0,122277,122318,294.3253,345.7922,317.8555,344.255 M,0,122318,122358,317.8555,344.255,325.3915,341.6071 M,0,122358,122399,325.3915,341.6071,302.198,346.4163 M,0,122399,122439,302.198,346.4163,279.2827,341.2206 M,0,122439,122453,279.2827,341.2206,272,338
Sprite,Foreground,Centre,"sb\l.png",0,0 C,0,122561,,139,160,235 M,0,122561,122601,272,145,294.3253,137.2078 F,2,122561,122977,1,0 S,2,122561,122977,1.4,0.28 M,0,122601,122642,294.3253,137.2078,317.8555,138.745 M,0,122642,122682,317.8555,138.745,325.3915,141.3929 M,0,122682,122723,325.3915,141.3929,302.198,136.5837 M,0,122723,122763,302.198,136.5837,279.2827,141.7794 M,0,122763,122777,279.2827,141.7794,272,145
Sprite,Foreground,Centre,"sb\l.png",0,0 C,0,122886,,139,160,235 M,0,122886,122926,272,351,294.3253,358.7922 F,2,122886,123302,1,0 S,2,122886,123302,1.4,0.28 M,0,122926,122967,294.3253,358.7922,317.8555,357.255 M,0,122967,123007,317.8555,357.255,325.3915,354.6071 M,0,123007,123048,325.3915,354.6071,302.198,359.4163 M,0,123048,123088,302.198,359.4163,279.2827,354.2206 M,0,123088,123102,279.2827,354.2206,272,351
Sprite,Foreground,Centre,"sb\l.png",0,0 C,0,123210,,242,108,94 M,0,123210,123250,272,132,294.3253,124.2078 F,2,123210,123626,1,0 S,2,123210,123626,1.4,0.28 M,0,123250,123291,294.3253,124.2078,317.8555,125.745 M,0,123291,123331,317.8555,125.745,325.3915,128.3929 M,0,123331,123372,325.3915,128.3929,302.198,123.5837 M,0,123372,123412,302.198,123.5837,279.2827,128.7794 M,0,123412,123426,279.2827,128.7794,272,132
Sprite,Foreground,Centre,"sb\l.png",0,0 C,0,123534,,242,108,94 M,0,123534,123574,272,364,294.3253,371.7922 F,2,123534,123950,1,0 S,2,123534,123950,1.4,0.28 M,0,123574,123615,294.3253,371.7922,317.8555,370.255 M,0,123615,123655,317.8555,370.255,325.3915,367.6071 M,0,123655,123696,325.3915,367.6071,302.198,372.4163 M,0,123696,123736,302.198,372.4163,279.2827,367.2206 M,0,123736,123750,279.2827,367.2206,272,364
Sprite,Foreground,Centre,"sb\l.png",116,248 C,0,123859,,166,142,193 F,2,123859,124059,1,0 S,2,123859,124059,1.4,0.28
Sprite,Foreground,Centre,"sb\l.png",156,248 C,0,123967,,249,155,206 F,2,123967,124167,1,0 S,2,123967,124167,1.4,0.28
Sprite,Foreground,Centre,"sb\l.png",196,248 C,0,124075,,139,160,235 F,2,124075,124275,1,0 S,2,124075,124275,1.4,0.28
Sprite,Foreground,Centre,"sb\l.png",236,248 C,0,124183,,242,108,94 F,2,124183,124383,1,0 S,2,124183,124383,1.4,0.28
Sprite,Foreground,Centre,"sb\l.png",276,248 C,0,124291,,166,142,193 F,2,124291,124491,1,0 S,2,124291,124491,1.4,0.28
Sprite,Foreground,Centre,"sb\l.png",316,248 C,0,124399,,249,155,206 F,2,124399,124599,1,0 S,2,124399,124599,1.4,0.28
Sprite,Foreground,Centre,"sb\l.png",0,0 C,0,124507,,139,160,235 M,0,124507,124547,356,248,370.8327,266.7002 F,2,124507,124950,1,0 S,2,124507,124950,1.4,0.28 M,0,124547,124588,370.8327,266.7002,380.3939,288.5123 M,0,124588,124628,380.3939,288.5123,383.6868,312.1125 M,0,124628,124669,383.6868,312.1125,380.4563,335.7412 M,0,124669,124709,380.4563,335.7412,370.9305,357.6335 M,0,124709,124750,370.9305,357.6335,356,376
Sprite,Foreground,Centre,"sb\l.png",0,0 C,0,124832,,139,160,235 M,0,124832,124872,356,376,377.8488,366.0687 F,2,124832,125194,1,0 S,2,124832,125194,1.4,0.28 M,0,124872,124913,377.8488,366.0687,399.6976,356.1375 M,0,124913,124953,399.6976,356.1375,421.5464,365.7938 M,0,124953,124994,421.5464,365.7938,443.3952,375.7251
Sprite,Foreground,Centre,"sb\l.png",0,0 C,0,125156,,139,160,235 M,0,125156,125196,356,248,370.8327,229.2998 F,2,125156,125599,1,0 S,2,125156,125599,1.4,0.28 M,0,125196,125237,370.8327,229.2998,380.3939,207.4877 M,0,125237,125277,380.3939,207.4877,383.6868,183.8875 M,0,125277,125318,383.6868,183.8875,380.4563,160.2588 M,0,125318,125358,380.4563,160.2588,370.9305,138.3665 M,0,125358,125399,370.9305,138.3665,356,120
Sprite,Foreground,Centre,"sb\l.png",0,0 C,0,125480,,139,160,235 M,0,125480,125520,356,120,377.8488,129.9313 F,2,125480,125842,1,0 S,2,125480,125842,1.4,0.28 M,0,125520,125561,377.8488,129.9313,399.6976,139.8625 M,0,125561,125601,399.6976,139.8625,421.5464,130.2062 M,0,125601,125642,421.5464,130.2062,443.3952,120.2749
Sprite,Foreground,Centre,"sb\l.png",212,248 C,0,125805,,242,108,94 F,2,125805,126005,1,0 S,2,125805,126005,1.4,0.28
Sprite,Foreground,Centre,"sb\l.png",206,248 C,0,125886,,242,108,94 F,2,125886,126086,1,0 S,2,125886,126086,1.4,0.28
Sprite,Foreground,Centre,"sb\l.png",200,248 C,0,125967,,242,108,94 F,2,125967,126167,1,0 S,2,125967,126167,1.4,0.28
Sprite,Foreground,Centre,"sb\l.png",194,248 C,0,126048,,242,108,94 F,2,126048,126248,1,0 S,2,126048,126248,1.4,0.28
Sprite,Foreground,Centre,"sb\l.png",188,248 C,0,126129,,166,142,193 F,2,126129,126329,1,0 S,2,126129,126329,1.4,0.28
Sprite,Foreground,Centre,"sb\l.png",162,287 C,0,126210,,166,142,193 F,2,126210,126410,1,0 S,2,126210,126410,1.4,0.28
Sprite,Foreground,Centre,"sb\l.png",163,334 C,0,126291,,166,142,193 F,2,126291,126491,1,0 S,2,126291,126491,1.4,0.28
Sprite,Foreground,Centre,"sb\l.png",191,372 C,0,126372,,166,142,193 F,2,126372,126572,1,0 S,2,126372,126572,1.4,0.28
Sprite,Foreground,Centre,"sb\l.png",236,387 C,0,126453,,166,142,193 F,2,126453,126653,1,0 S,2,126453,126653,1.4,0.28
Sprite,Foreground,Centre,"sb\l.png",281,372 C,0,126534,,166,142,193 F,2,126534,126734,1,0 S,2,126534,126734,1.4,0.28
Sprite,Foreground,Centre,"sb\l.png",309,334 C,0,126616,,166,142,193 F,2,126616,126816,1,0 S,2,126616,126816,1.4,0.28
Sprite,Foreground,Centre,"sb\l.png",310,287 C,0,126697,,166,142,193 F,2,126697,126897,1,0 S,2,126697,126897,1.4,0.28
Sprite,Foreground,Centre,"sb\l.png",0,0 C,0,126778,,249,155,206 M,0,126778,126818,284,248,284,224 F,2,126778,127221,1,0 S,2,126778,127221,1.4,0.28 M,0,126818,126859,284,224,284,248 M,0,126859,126899,284,248,284,224 M,0,126899,126940,284,224,284,248 M,0,126940,126980,284,248,284,224 M,0,126980,127021,284,224,284,248
Sprite,Foreground,Centre,"sb\l.png",188,248 C,0,127102,,139,160,235 F,2,127102,127302,1,0 S,2,127102,127302,1.4,0.28
Sprite,Foreground,Centre,"sb\l.png",284,138 C,0,127264,,139,160,235 F,2,127264,127464,1,0 S,2,127264,127464,1.4,0.28
Sprite,Foreground,Centre,"sb\l.png",380,248 C,0,127426,,139,160,235 F,2,127426,127626,1,0 S,2,127426,127626,1.4,0.28
Sprite,Foreground,Centre,"sb\l.png",284,122 C,0,127589,,139,160,235 F,2,127589,127789,1,0 S,2,127589,127789,1.4,0.28
Sprite,Foreground,Centre,"sb\l.png",188,248 C,0,127751,,242,108,94 F,2,127751,127951,1,0 S,2,127751,127951,1.4,0.28
Sprite,Foreground,Centre,"sb\l.png",284,106 C,0,127913,,242,108,94 F,2,127913,128113,1,0 S,2,127913,128113,1.4,0.28
Sprite,Foreground,Centre,"sb\l.png",0,0 C,0,128075,,242,108,94 M,0,128075,128115,380,248,381.9931,271.9171 F,2,128075,128437,1,0 S,2,128075,128437,1.4,0.28 M,0,128115,128156,381.9931,271.9171,383.9862,295.8342 M,0,128156,128196,383.9862,295.8342,382.0207,319.7513 M,0,128196,128237,382.0207,319.7513,380.0276,343.6684
Sprite,Foreground,Centre,"sb\l.png",284,248 C,0,128399,,166,142,193 F,2,128399,128599,1,0 S,2,128399,128599,1.4,0.28
Sprite,Foreground,Centre,"sb\l.png",380,153 C,0,128561,,166,142,193 F,2,128561,128761,1,0 S,2,128561,128761,1.4,0.28
Sprite,Foreground,Centre,"sb\l.png",476,248 C,0,128724,,166,142,193 F,2,128724,128924,1,0 S,2,128724,128924,1.4,0.28
Sprite,Foreground,Centre,"sb\l.png",0,0 C,0,128886,,166,142,193 M,0,128886,128926,380,57,378.0069,80.9171 F,2,128886,129248,1,0 S,2,128886,129248,1.4,0.28 M,0,128926,128967,378.0069,80.9171,376.0138,104.8342 M,0,128967,129007,376.0138,104.8342,377.9793,128.7513 M,0,129007,129048,377.9793,128.7513,379.9724,152.6684
Sprite,Foreground,Centre,"sb\l.png",494,248 C,0,129210,,249,155,206 F,2,129210,129410,1,0 S,2,129210,129410,1.4,0.28
Sprite,Foreground,Centre,"sb\l.png",380,343 C,0,129372,,249,155,206 F,2,129372,129572,1,0 S,2,129372,129572,1.4,0.28
Sprite,Foreground,Centre,"sb\l.png",512,248 C,0,129534,,249,155,206 F,2,129534,129734,1,0 S,2,129534,129734,1.4,0.28
Sprite,Foreground,Centre,"sb\l.png",0,0 C,0,129697,,139,160,235 M,0,129697,129737,380,153,358.1817,143.3372 F,2,129697,130221,1,0 S,2,129697,130221,1.4,0.28 M,0,129737,129778,358.1817,143.3372,334.3677,141.0359 M,0,129778,129818,334.3677,141.0359,310.6833,144.5788 M,0,129818,129859,310.6833,144.5788,288.205,152.9098 M,0,129859,129899,288.205,152.9098,265.7494,161.3055 M,0,129899,129940,265.7494,161.3055,242.08,164.9484 M,0,129940,129980,242.08,164.9484,218.2558,162.7595 M,0,129980,130021,218.2558,162.7595,196.3703,153.2521
Sprite,Foreground,Centre,"sb\l.png",284,248 C,0,130183,,139,160,235 F,2,130183,130383,1,0 S,2,130183,130383,1.4,0.28
Sprite,Foreground,Centre,"sb\l.png",0,0 C,0,130345,,139,160,235 M,0,130345,130385,196,343,183.9042,363.4739 F,2,130345,130707,1,0 S,2,130345,130707,1.4,0.28 M,0,130385,130426,183.9042,363.4739,179.4936,386.7448 M,0,130426,130466,179.4936,386.7448,183.7203,410.05 M,0,130466,130507,183.7203,410.05,195.6801,430.6012
Sprite,Foreground,Centre,"sb\l.png",0,0 C,0,130670,,139,160,235 M,0,130670,130710,176,343,163.9042,363.4739 F,2,130670,131032,1,0 S,2,130670,131032,1.4,0.28 M,0,130710,130751,163.9042,363.4739,159.4936,386.7448 M,0,130751,130791,159.4936,386.7448,163.7203,410.05 M,0,130791,130832,163.7203,410.05,175.6801,430.6012
Sprite,Foreground,Centre,"sb\l.png",0,0 C,0,130994,,242,108,94 M,0,130994,131034,444,343,456.0958,363.4739 F,2,130994,131356,1,0 S,2,130994,131356,1.4,0.28 M,0,131034,131075,456.0958,363.4739,460.5064,386.7449 M,0,131075,131115,460.5064,386.7449,456.2798,410.05 M,0,131115,131156,456.2798,410.05,444.3199,430.6012
Sprite,Foreground,Centre,"sb\l.png",464,343 C,0,131318,,242,108,94 F,2,131318,131518,1,0 S,2,131318,131518,1.4,0.28
Sprite,Foreground,Centre,"sb\l.png",0,0 C,0,131480,,242,108,94 M,0,131480,131520,464,343,476.0958,363.4739 F,2,131480,131842,1,0 S,2,131480,131842,1.4,0.28 M,0,131520,131561,476.0958,363.4739,480.5064,386.7449 M,0,131561,131601,480.5064,386.7449,476.2798,410.05 M,0,131601,131642,476.2798,410.05,464.3199,430.6012
Sprite,Foreground,Centre,"sb\l.png",320,343 C,0,131805,,242,108,94 F,2,131805,132005,1,0 S,2,131805,132005,1.4,0.28
Sprite,Foreground,Centre,"sb\l.png",320,343 C,0,131886,,242,108,94 F,2,131886,132086,1,0 S,2,131886,132086,1.4,0.28
Sprite,Foreground,Centre,"sb\l.png",320,343 C,0,131967,,242,108,94 F,2,131967,132167,1,0 S,2,131967,132167,1.4,0.28
Sprite,Foreground,Centre,"sb\l.png",176,431 C,0,132129,,166,142,193 F,2,132129,132329,1,0 S,2,132129,132329,1.4,0.28
Sprite,Foreground,Centre,"sb\l.png",176,431 C,0,132210,,166,142,193 F,2,132210,132410,1,0 S,2,132210,132410,1.4,0.28
Sprite,Foreground,Centre,"sb\l.png",0,0 C,0,132291,,166,142,193 M,0,132291,132331,176,431,168.0123,408.3682 F,2,132291,132734,1,0 S,2,132291,132734,1.4,0.28 M,0,132331,132372,168.0123,408.3682,160.0246,385.7365 M,0,132372,132412,160.0246,385.7365,152.037,363.1047 M,0,132412,132453,152.037,363.1047,159.9507,340.4729 M,0,132453,132493,159.9507,340.4729,167.9384,317.8412 M,0,132493,132534,167.9384,317.8412,175.9261,295.2094
Sprite,Foreground,Centre,"sb\l.png",0,0 C,0,132616,,166,142,193 M,0,132616,132656,176,295,187.4215,274.14 F,2,132616,132978,1,0 S,2,132616,132978,1.4,0.28 M,0,132656,132697,187.4215,274.14,191.574,250.8001 M,0,132697,132737,191.574,250.8001,187.5151,227.392 M,0,132737,132778,187.5151,227.392,176,207
Sprite,Foreground,Centre,"sb\l.png",0,0 C,0,132940,,249,155,206 M,0,132940,132980,320,411,329.4497,389.1741 F,2,132940,133383,1,0 S,2,132940,133383,1.4,0.28 M,0,132980,133021,329.4497,389.1741,329.0193,365.3343 M,0,133021,133061,329.0193,365.3343,320.0898,343.1642 M,0,133061,133102,320.0898,343.1642,311.0592,321.0318 M,0,133102,133142,311.0592,321.0318,310.4725,297.1923 M,0,133142,133183,310.4725,297.1923,319.7802,275.3031
Sprite,Foreground,Centre,"sb\l.png",0,0 C,0,133264,,249,155,206 M,0,133264,133304,320,275,320,251 F,2,133264,133626,1,0 S,2,133264,133626,1.4,0.28 M,0,133304,133345,320,251,320,227 M,0,133345,133385,320,227,320,203 M,0,133385,133426,320,203,320,179
Sprite,Foreground,Centre,"sb\l.png",0,0 C,0,133589,,139,160,235 M,0,133589,133629,464,431,471.9877,408.3682 F,2,133589,134032,1,0 S,2,133589,134032,1.4,0.28 M,0,133629,133670,471.9877,408.3682,479.9754,385.7365 M,0,133670,133710,479.9754,385.7365,487.963,363.1047 M,0,133710,133751,487.963,363.1047,480.0493,340.4729 M,0,133751,133791,480.0493,340.4729,472.0616,317.8412 M,0,133791,133832,472.0616,317.8412,464.0739,295.2094
Sprite,Foreground,Centre,"sb\l.png",0,0 C,0,133913,,139,160,235 M,0,133913,133953,464,295,452.5785,274.14 F,2,133913,134275,1,0 S,2,133913,134275,1.4,0.28 M,0,133953,133994,452.5785,274.14,448.426,250.8001 M,0,133994,134034,448.426,250.8001,452.4849,227.392 M,0,134034,134075,452.4849,227.392,464,207
Sprite,Foreground,Centre,"sb\l.png",0,0 C,0,134237,,139,160,235 M,0,134237,134277,176,295,187.4215,274.14 F,2,134237,134599,1,0 S,2,134237,134599,1.4,0.28 M,0,134277,134318,187.4215,274.14,191.574,250.8001 M,0,134318,134358,191.574,250.8001,187.5151,227.392 M,0,134358,134399,187.5151,227.392,176,207
Sprite,Foreground,Centre,"sb\l.png",0,0 C,0,134561,,242,108,94 M,0,134561,134601,320,248,320,224 F,2,134561,135004,1,0 S,2,134561,135004,1.4,0.28 M,0,134601,134642,320,224,320,248 M,0,134642,134682,320,248,320,224 M,0,134682,134723,320,224,320,248 M,0,134723,134763,320,248,320,224 M,0,134763,134804,320,224,320,248
Sprite,Foreground,Centre,"sb\l.png",392,248 C,0,134886,,166,142,193 F,2,134886,135086,1,0 S,2,134886,135086,1.4,0.28
Sprite,Foreground,Centre,"sb\l.png",248,248 C,0,135048,,166,142,193 F,2,135048,135248,1,0 S,2,135048,135248,1.4,0.28
Sprite,Foreground,Centre,"sb\l.png",457,203 C,0,135372,,249,155,206 F,2,135372,135572,1,0 S,2,135372,135572,1.4,0.28
Sprite,Foreground,Centre,"sb\l.png",183,293 C,0,135534,,249,155,206 F,2,135534,135734,1,0 S,2,135534,135734,1.4,0.28
Sprite,Foreground,Centre,"sb\l.png",522,248 C,0,135859,,139,160,235 F,2,135859,136059,1,0 S,2,135859,136059,1.4,0.28
Sprite,Foreground,Centre,"sb\l.png",118,248 C,0,136021,,139,160,235 F,2,136021,136221,1,0 S,2,136021,136221,1.4,0.28
Sprite,Foreground,Centre,"sb\l.png",457,293 C,0,136345,,242,108,94 F,2,136345,136545,1,0 S,2,136345,136545,1.4,0.28
Sprite,Foreground,Centre,"sb\l.png",183,203 C,0,136507,,242,108,94 F,2,136507,136707,1,0 S,2,136507,136707,1.4,0.28
Sprite,Foreground,Centre,"sb\l.png",457,293 C,0,136832,,166,142,193 F,2,136832,137032,1,0 S,2,136832,137032,1.4,0.28
Sprite,Foreground,Centre,"sb\l.png",183,203 C,0,137156,,166,142,193 F,2,137156,137356,1,0 S,2,137156,137356,1.4,0.28
Sprite,Foreground,Centre,"sb\ring.png",280,291 C,0,142670,,249,155,206 F,2,142670,143670,1,0 S,2,142670,143670,0,3
Sprite,Foreground,Centre,"sb\ring.png",240,368 C,0,143967,,249,155,206 F,2,143967,144967,1,0 S,2,143967,144967,0,3
Sprite,Foreground,Centre,"sb\ring.png",400,128 C,0,145264,,249,155,206 F,2,145264,146264,1,0 S,2,145264,146264,0,3
Sprite,Foreground,Centre,"sb\ring.png",280,291 C,0,146561,,249,155,206 F,2,146561,147561,1,0 S,2,146561,147561,0,3
Sprite,Foreground,Centre,"sb\line.png",525,248 C,0,2562,,76,26,138 F,0,2562,3805,0.6,0 R,0,2562,3805,-0.06787298 V,0,2562,3805,5,3,1,1
Sprite,Foreground,Centre,"sb\line.png",557,404 C,0,2886,,76,26,138 F,0,2886,4048,0.6,0 R,0,2886,4048,-0.09519761 V,0,2886,4048,5,3,1,1
Sprite,Foreground,Centre,"sb\line.png",443,248 C,0,3210,,76,26,138 F,0,3210,4453,0.6,0 R,0,3210,4453,-0.08040681 V,0,3210,4453,5,3,1,1
Sprite,Foreground,Centre,"sb\line.png",411,92 C,0,3534,,76,26,138 F,0,3534,4696,0.6,0 R,0,3534,4696,-0.01744836 V,0,3534,4696,5,3,1,1
Sprite,Foreground,Centre,"sb\line.png",361,248 C,0,3859,,76,26,138 F,0,3859,5102,0.6,0 R,0,3859,5102,0.08819006 V,0,3859,5102,5,3,1,1
Sprite,Foreground,Centre,"sb\line.png",393,404 C,0,4183,,76,26,138 F,0,4183,5345,0.6,0 R,0,4183,5345,-0.01766544 V,0,4183,5345,5,3,1,1
Sprite,Foreground,Centre,"sb\line.png",279,248 C,0,4507,,76,26,138 F,0,4507,5750,0.6,0 R,0,4507,5750,-0.1218081 V,0,4507,5750,5,3,1,1
Sprite,Foreground,Centre,"sb\line.png",247,92 C,0,4832,,76,26,138 F,0,4832,5994,0.6,0 R,0,4832,5994,0.01734664 V,0,4832,5994,5,3,1,1
Sprite,Foreground,Centre,"sb\line.png",197,248 C,0,5156,,76,26,138 F,0,5156,6399,0.6,0 R,0,5156,6399,-0.1432649 V,0,5156,6399,5,3,1,1
Sprite,Foreground,Centre,"sb\line.png",229,404 C,0,5480,,76,26,138 F,0,5480,6642,0.6,0 R,0,5480,6642,0.06788866 V,0,5480,6642,5,3,1,1
Sprite,Foreground,Centre,"sb\line.png",115,248 C,0,5805,,76,26,138 F,0,5805,7048,0.6,0 R,0,5805,7048,0.06242811 V,0,5805,7048,5,3,1,1
Sprite,Foreground,Centre,"sb\line.png",83,92 C,0,6129,,76,26,138 F,0,6129,7291,0.6,0 R,0,6129,7291,0.00980559 V,0,6129,7291,5,3,1,1
Sprite,Foreground,Centre,"sb\line.png",197,248 C,0,6453,,76,26,138 F,0,6453,7696,0.6,0 R,0,6453,7696,-0.03979772 V,0,6453,7696,5,3,1,1
Sprite,Foreground,Centre,"sb\line.png",361,248 C,0,6778,,76,26,138 F,0,6778,7778,0.6,0 R,0,6778,7778,0.009146436 V,0,6778,7778,5,3,1,1
Sprite,Foreground,Centre,"sb\line.png",320,380 C,0,6940,,76,26,138 F,0,6940,8102,0.6,0 R,0,6940,8102,-0.1446454 V,0,6940,8102,5,3,1,1
Sprite,Foreground,Centre,"sb\line.png",388,432 C,0,7264,,76,26,138 F,0,7264,8264,0.6,0 R,0,7264,8264,0.1408899 V,0,7264,8264,5,3,1,1
Sprite,Foreground,Centre,"sb\line.png",252,432 C,0,7426,,76,26,138 F,0,7426,8426,0.6,0 R,0,7426,8426,-0.108711 V,0,7426,8426,5,3,1,1
Sprite,Foreground,Centre,"sb\line.png",320,248 C,0,7589,,76,26,138 F,0,7589,8589,0.6,0 R,0,7589,8589,-0.1486041 V,0,7589,8589,5,3,1,1
Sprite,Foreground,Centre,"sb\line.png",320,248 C,0,7670,,76,26,138 F,0,7670,8670,0.6,0 R,0,7670,8670,-0.05315435 V,0,7670,8670,5,3,1,1
Sprite,Foreground,Centre,"sb\line.png",320,248 C,0,7751,,76,26,138 F,0,7751,8913,0.6,0 R,0,7751,8913,0.05562246 V,0,7751,8913,5,3,1,1
Sprite,Foreground,Centre,"sb\line.png",402,248 C,0,8075,,76,26,138 F,0,8075,9237,0.6,0 R,0,8075,9237,-0.09507237 V,0,8075,9237,5,3,1,1
Sprite,Foreground,Centre,"sb\line.png",484,248 C,0,8399,,76,26,138 F,0,8399,9561,0.6,0 R,0,8399,9561,-0.1044155 V,0,8399,9561,5,3,1,1
Sprite,Foreground,Centre,"sb\line.png",566,248 C,0,8724,,76,26,138 F,0,8724,9886,0.6,0 R,0,8724,9886,-0.1475707 V,0,8724,9886,5,3,1,1
Sprite,Foreground,Centre,"sb\line.png",320,248 C,0,9048,,76,26,138 F,0,9048,10210,0.6,0 R,0,9048,10210,0.1402124 V,0,9048,10210,5,3,1,1
Sprite,Foreground,Centre,"sb\line.png",402,248 C,0,9372,,76,26,138 F,0,9372,10534,0.6,0 R,0,9372,10534,-0.05998259 V,0,9372,10534,5,3,1,1
Sprite,Foreground,Centre,"sb\line.png",484,248 C,0,9697,,76,26,138 F,0,9697,10859,0.6,0 R,0,9697,10859,-0.007885243 V,0,9697,10859,5,3,1,1
Sprite,Foreground,Centre,"sb\line.png",566,248 C,0,10021,,76,26,138 F,0,10021,11183,0.6,0 R,0,10021,11183,-0.1302056 V,0,10021,11183,5,3,1,1
Sprite,Foreground,Centre,"sb\line.png",320,248 C,0,10345,,76,26,138 F,0,10345,11507,0.6,0 R,0,10345,11507,-0.05628609 V,0,10345,11507,5,3,1,1
Sprite,Foreground,Centre,"sb\line.png",238,248 C,0,10670,,76,26,138 F,0,10670,11832,0.6,0 R,0,10670,11832,-0.01404463 V,0,10670,11832,5,3,1,1
Sprite,Foreground,Centre,"sb\line.png",156,248 C,0,10994,,76,26,138 F,0,10994,12156,0.6,0 R,0,10994,12156,0.125667 V,0,10994,12156,5,3,1,1
Sprite,Foreground,Centre,"sb\line.png",74,248 C,0,11318,,76,26,138 F,0,11318,12318,0.6,0 R,0,11318,12318,0.09386263 V,0,11318,12318,5,3,1,1
Sprite,Foreground,Centre,"sb\line.png",74,248 C,0,11399,,76,26,138 F,0,11399,12399,0.6,0 R,0,11399,12399,0.01400184 V,0,11399,12399,5,3,1,1
Sprite,Foreground,Centre,"sb\line.png",74,248 C,0,11480,,76,26,138 F,0,11480,12480,0.6,0 R,0,11480,12480,0.06084844 V,0,11480,12480,5,3,1,1
Sprite,Foreground,Centre,"sb\line.png",156,248 C,0,11643,,76,26,138 F,0,11643,13129,0.6,0 R,0,11643,13129,-0.1465631 V,0,11643,13129,5,3,1,1
Sprite,Foreground,Centre,"sb\line.png",320,248 C,0,12453,,76,26,138 F,0,12453,13453,0.6,0 R,0,12453,13453,-0.04280924 V,0,12453,13453,5,3,1,1
Sprite,Foreground,Centre,"sb\line.png",320,248 C,0,12534,,76,26,138 F,0,12534,13534,0.6,0 R,0,12534,13534,-0.07888908 V,0,12534,13534,5,3,1,1
Sprite,Foreground,Centre,"sb\line.png",320,248 C,0,12616,,76,26,138 F,0,12616,13859,0.6,0 R,0,12616,13859,0.1408817 V,0,12616,13859,5,3,1,1
Sprite,Foreground,Centre,"sb\line.png",264,292 C,0,44075,,76,26,138 F,0,44075,45075,0.6,0 R,0,44075,45075,-0.06787298 V,0,44075,45075,5,3,1,1
Sprite,Foreground,Centre,"sb\line.png",320,420 C,0,44237,,76,26,138 F,0,44237,45237,0.6,0 R,0,44237,45237,-0.09519761 V,0,44237,45237,5,3,1,1
Sprite,Foreground,Centre,"sb\line.png",376,292 C,0,44399,,76,26,138 F,0,44399,45399,0.6,0 R,0,44399,45399,-0.08040681 V,0,44399,45399,5,3,1,1
Sprite,Foreground,Centre,"sb\line.png",320,400 C,0,44561,,76,26,138 F,0,44561,45561,0.6,0 R,0,44561,45561,-0.01744836 V,0,44561,45561,5,3,1,1
Sprite,Foreground,Centre,"sb\line.png",264,292 C,0,44724,,76,26,138 F,0,44724,45724,0.6,0 R,0,44724,45724,0.08819006 V,0,44724,45724,5,3,1,1
Sprite,Foreground,Centre,"sb\line.png",320,420 C,0,44886,,76,26,138 F,0,44886,45886,0.6,0 R,0,44886,45886,-0.01766544 V,0,44886,45886,5,3,1,1
Sprite,Foreground,Centre,"sb\line.png",376,292 C,0,45048,,76,26,138 F,0,45048,46048,0.6,0 R,0,45048,46048,-0.1218081 V,0,45048,46048,5,3,1,1
Sprite,Foreground,Centre,"sb\line.png",320,400 C,0,45210,,76,26,138 F,0,45210,46210,0.6,0 R,0,45210,46210,0.01734664 V,0,45210,46210,5,3,1,1
Sprite,Foreground,Centre,"sb\line.png",264,292 C,0,45372,,76,26,138 F,0,45372,46372,0.6,0 R,0,45372,46372,-0.1432649 V,0,45372,46372,5,3,1,1
Sprite,Foreground,Centre,"sb\line.png",320,420 C,0,45534,,76,26,138 F,0,45534,46534,0.6,0 R,0,45534,46534,0.06788866 V,0,45534,46534,5,3,1,1
Sprite,Foreground,Centre,"sb\line.png",376,292 C,0,45697,,76,26,138 F,0,45697,46697,0.6,0 R,0,45697,46697,0.06242811 V,0,45697,46697,5,3,1,1
Sprite,Foreground,Centre,"sb\line.png",320,400 C,0,45859,,76,26,138 F,0,45859,46859,0.6,0 R,0,45859,46859,0.00980559 V,0,45859,46859,5,3,1,1
Sprite,Foreground,Centre,"sb\line.png",264,292 C,0,46021,,76,26,138 F,0,46021,47021,0.6,0 R,0,46021,47021,-0.03979772 V,0,46021,47021,5,3,1,1
Sprite,Foreground,Centre,"sb\line.png",264,292 C,0,46102,,76,26,138 F,0,46102,47102,0.6,0 R,0,46102,47102,0.009146436 V,0,46102,47102,5,3,1,1
Sprite,Foreground,Centre,"sb\line.png",264,292 C,0,46183,,76,26,138 F,0,46183,47183,0.6,0 R,0,46183,47183,-0.1446454 V,0,46183,47183,5,3,1,1
Sprite,Foreground,Centre,"sb\line.png",376,292 C,0,46345,,76,26,138 F,0,46345,47345,0.6,0 R,0,46345,47345,0.1408899 V,0,46345,47345,5,3,1,1
Sprite,Foreground,Centre,"sb\line.png",320,400 C,0,46507,,76,26,138 F,0,46507,47507,0.6,0 R,0,46507,47507,-0.108711 V,0,46507,47507,5,3,1,1
Sprite,Foreground,Centre,"sb\line.png",264,204 C,0,46670,,76,26,138 F,0,46670,47670,0.6,0 R,0,46670,47670,-0.1486041 V,0,46670,47670,5,3,1,1
Sprite,Foreground,Centre,"sb\line.png",320,76 C,0,46832,,76,26,138 F,0,46832,47832,0.6,0 R,0,46832,47832,-0.05315435 V,0,46832,47832,5,3,1,1
Sprite,Foreground,Centre,"sb\line.png",376,204 C,0,46994,,76,26,138 F,0,46994,47994,0.6,0 R,0,46994,47994,0.05562246 V,0,46994,47994,5,3,1,1
Sprite,Foreground,Centre,"sb\line.png",320,96 C,0,47156,,76,26,138 F,0,47156,48156,0.6,0 R,0,47156,48156,-0.09507237 V,0,47156,48156,5,3,1,1
Sprite,Foreground,Centre,"sb\line.png",264,204 C,0,47318,,76,26,138 F,0,47318,48318,0.6,0 R,0,47318,48318,-0.1044155 V,0,47318,48318,5,3,1,1
Sprite,Foreground,Centre,"sb\line.png",320,76 C,0,47480,,76,26,138 F,0,47480,48480,0.6,0 R,0,47480,48480,-0.1475707 V,0,47480,48480,5,3,1,1
Sprite,Foreground,Centre,"sb\line.png",376,204 C,0,47643,,76,26,138 F,0,47643,48643,0.6,0 R,0,47643,48643,0.1402124 V,0,47643,48643,5,3,1,1
Sprite,Foreground,Centre,"sb\line.png",320,96 C,0,47805,,76,26,138 F,0,47805,48805,0.6,0 R,0,47805,48805,-0.05998259 V,0,47805,48805,5,3,1,1
Sprite,Foreground,Centre,"sb\line.png",320,96 C,0,47886,,76,26,138 F,0,47886,48886,0.6,0 R,0,47886,48886,-0.007885243 V,0,47886,48886,5,3,1,1
Sprite,Foreground,Centre,"sb\line.png",320,96 C,0,47967,,76,26,138 F,0,47967,48967,0.6,0 R,0,47967,48967,-0.1302056 V,0,47967,48967,5,3,1,1
Sprite,Foreground,Centre,"sb\line.png",264,204 C,0,48129,,76,26,138 F,0,48129,49129,0.6,0 R,0,48129,49129,-0.05628609 V,0,48129,49129,5,3,1,1
Sprite,Foreground,Centre,"sb\line.png",264,204 C,0,48210,,76,26,138 F,0,48210,49210,0.6,0 R,0,48210,49210,-0.01404463 V,0,48210,49210,5,3,1,1
Sprite,Foreground,Centre,"sb\line.png",264,204 C,0,48291,,76,26,138 F,0,48291,49291,0.6,0 R,0,48291,49291,0.125667 V,0,48291,49291,5,3,1,1
Sprite,Foreground,Centre,"sb\line.png",228,252 C,0,48372,,76,26,138 F,0,48372,49372,0.6,0 R,0,48372,49372,0.09386263 V,0,48372,49372,5,3,1,1
Sprite,Foreground,Centre,"sb\line.png",228,311 C,0,48453,,76,26,138 F,0,48453,49453,0.6,0 R,0,48453,49453,0.01400184 V,0,48453,49453,5,3,1,1
Sprite,Foreground,Centre,"sb\line.png",263,359 C,0,48534,,76,26,138 F,0,48534,49534,0.6,0 R,0,48534,49534,0.06084844 V,0,48534,49534,5,3,1,1
Sprite,Foreground,Centre,"sb\line.png",320,378 C,0,48616,,76,26,138 F,0,48616,49616,0.6,0 R,0,48616,49616,-0.1465631 V,0,48616,49616,5,3,1,1
Sprite,Foreground,Centre,"sb\line.png",376,359 C,0,48697,,76,26,138 F,0,48697,49697,0.6,0 R,0,48697,49697,-0.04280924 V,0,48697,49697,5,3,1,1
Sprite,Foreground,Centre,"sb\line.png",411,311 C,0,48778,,76,26,138 F,0,48778,49778,0.6,0 R,0,48778,49778,-0.07888908 V,0,48778,49778,5,3,1,1
Sprite,Foreground,Centre,"sb\line.png",411,252 C,0,48859,,76,26,138 F,0,48859,49859,0.6,0 R,0,48859,49859,0.1408817 V,0,48859,49859,5,3,1,1
Sprite,Foreground,Centre,"sb\line.png",376,204 C,0,48940,,76,26,138 F,0,48940,50021,0.6,0 R,0,48940,50021,0.03569865 V,0,48940,50021,5,3,1,1
Sprite,Foreground,Centre,"sb\line.png",248,162 C,0,49102,,76,26,138 F,0,49102,50183,0.6,0 R,0,49102,50183,0.04705745 V,0,49102,50183,5,3,1,1
//Storyboard Layer 4 (Overlay)
//Storyboard Sound Samples

[TimingPoints]
2562,324.324324324324,4,2,1,50,1,0
2562,-125,4,2,1,50,0,0
2805,-125,4,2,1,5,0,0
2886,-125,4,2,1,50,0,0
3453,-125,4,2,1,5,0,0
3534,-125,4,2,1,50,0,0
4102,-125,4,2,1,5,0,0
4183,-125,4,2,1,50,0,0
4751,-125,4,2,1,5,0,0
4832,-125,4,2,1,50,0,0
5399,-125,4,2,1,5,0,0
5480,-125,4,2,1,50,0,0
6048,-125,4,2,1,5,0,0
6129,-125,4,2,1,50,0,0
6697,-125,4,2,1,5,0,0
6778,-125,4,2,1,50,0,0
12453,-125,4,2,1,75,0,0
12940,-90.9090909090909,4,2,1,90,0,0
23318,-83.3333333333333,4,2,1,80,0,0
41724,-83.3333333333333,4,2,1,5,0,0
41805,-83.3333333333333,4,2,1,80,0,0
42372,-83.3333333333333,4,2,1,5,0,0
42453,-83.3333333333333,4,2,1,80,0,0
44075,-90.9090909090909,4,2,1,90,0,0
49264,-83.3333333333333,4,2,1,80,0,0
69697,-500,4,2,1,80,0,0
69940,-500,4,2,1,5,0,0
70021,-43.4782608695652,4,2,1,95,0,1
70264,-43.4782608695652,4,2,1,5,0,1
70345,-100,4,2,1,95,0,1
70426,-100,4,2,1,5,0,1
70507,-100,4,2,1,95,0,1
70589,-100,4,2,1,5,0,1
70670,-100,4,2,1,95,0,1
70751,-100,4,2,1,5,0,1
70832,-100,4,2,1,95,0,1
70913,-100,4,2,1,5,0,1
70994,-100,4,2,1,95,0,1
71075,-100,4,2,1,5,0,1
71156,-100,4,2,1,95,0,1
71237,-100,4,2,1,5,0,1
71318,-100,4,2,1,95,0,1
71399,-100,4,2,1,5,0,1
71480,-100,4,2,1,95,0,1
71561,-100,4,2,1,5,0,1
71643,-100,4,2,1,95,0,1
72616,-43.4782608695652,4,2,1,95,0,1
72859,-43.4782608695652,4,2,1,5,0,1
72940,-100,4,2,1,95,0,1
73021,-100,4,2,1,5,0,1
73102,-100,4,2,1,95,0,1
73183,-100,4,2,1,5,0,1
73264,-100,4,2,1,95,0,1
73345,-100,4,2,1,5,0,1
73426,-100,4,2,1,95,0,1
73507,-100,4,2,1,5,0,1
73589,-100,4,2,1,95,0,1
73670,-100,4,2,1,5,0,1
73751,-100,4,2,1,95,0,1
73832,-100,4,2,1,5,0,1
73913,-100,4,2,1,95,0,1
73994,-100,4,2,1,5,0,1
74075,-100,4,2,1,95,0,1
74156,-100,4,2,1,5,0,1
74237,-100,4,2,1,95,0,1
75210,-43.4782608695652,4,2,1,95,0,1
75453,-43.4782608695652,4,2,1,5,0,1
75534,-100,4,2,1,95,0,1
75616,-100,4,2,1,5,0,1
75697,-100,4,2,1,95,0,1
75778,-100,4,2,1,5,0,1
75859,-100,4,2,1,95,0,1
75940,-100,4,2,1,5,0,1
76021,-100,4,2,1,95,0,1
76102,-100,4,2,1,5,0,1
76183,-100,4,2,1,95,0,1
76264,-100,4,2,1,5,0,1
76345,-100,4,2,1,95,0,1
76426,-100,4,2,1,5,0,1
76507,-100,4,2,1,95,0,1
76589,-100,4,2,1,5,0,1
76670,-100,4,2,1,95,0,1
76751,-100,4,2,1,5,0,1
76832,-100,4,2,1,95,0,1
77805,-83.3333333333333,4,2,1,95,0,0
78048,-83.3333333333333,4,2,1,5,0,0
78129,-83.3333333333333,4,2,1,95,0,0
80399,-43.4782608695652,4,2,1,95,0,1
80643,-43.4782608695652,4,2,1,5,0,1
80724,-100,4,2,1,95,0,1
80805,-100,4,2,1,5,0,1
80886,-100,4,2,1,95,0,1
80967,-100,4,2,1,5,0,1
81048,-100,4,2,1,95,0,1
81129,-100,4,2,1,5,0,1
81210,-100,4,2,1,95,0,1
81291,-100,4,2,1,5,0,1
81372,-100,4,2,1,95,0,1
81453,-100,4,2,1,5,0,1
81534,-100,4,2,1,95,0,1
81616,-100,4,2,1,5,0,1
81697,-100,4,2,1,95,0,1
81778,-100,4,2,1,5,0,1
81859,-100,4,2,1,95,0,1
81940,-100,4,2,1,5,0,1
82021,-100,4,2,1,95,0,1
82102,-100,4,2,1,5,0,1
82183,-100,4,2,1,95,0,1
82264,-100,4,2,1,5,0,1
82345,-100,4,2,1,95,0,1
82589,-100,4,2,1,5,0,1
82670,-100,4,2,1,95,0,1
82994,-43.4782608695652,4,2,1,95,0,1
83237,-43.4782608695652,4,2,1,5,0,1
83318,-100,4,2,1,95,0,1
83399,-100,4,2,1,5,0,1
83480,-100,4,2,1,95,0,1
83561,-100,4,2,1,5,0,1
83643,-100,4,2,1,95,0,1
83724,-100,4,2,1,5,0,1
83805,-100,4,2,1,95,0,1
83886,-100,4,2,1,5,0,1
83967,-100,4,2,1,95,0,1
84048,-100,4,2,1,5,0,1
84129,-100,4,2,1,95,0,1
84210,-100,4,2,1,5,0,1
84291,-100,4,2,1,95,0,1
84372,-100,4,2,1,5,0,1
84453,-100,4,2,1,95,0,1
84534,-100,4,2,1,5,0,1
84615,-100,4,2,1,95,0,1
84697,-100,4,2,1,5,0,1
84778,-100,4,2,1,95,0,1
84859,-100,4,2,1,5,0,1
84940,-100,4,2,1,95,0,1
85183,-100,4,2,1,5,0,1
85264,-100,4,2,1,95,0,1
85589,-43.4782608695652,4,2,1,95,0,1
85832,-43.4782608695652,4,2,1,5,0,1
85913,-100,4,2,1,95,0,1
85994,-100,4,2,1,5,0,1
86075,-100,4,2,1,95,0,1
86156,-100,4,2,1,5,0,1
86237,-100,4,2,1,95,0,1
86318,-100,4,2,1,5,0,1
86399,-100,4,2,1,95,0,1
86480,-100,4,2,1,5,0,1
86561,-100,4,2,1,95,0,1
86643,-100,4,2,1,5,0,1
86724,-100,4,2,1,95,0,1
86805,-100,4,2,1,5,0,1
86886,-100,4,2,1,95,0,1
86967,-100,4,2,1,5,0,1
87048,-100,4,2,1,95,0,1
87129,-100,4,2,1,5,0,1
87210,-100,4,2,1,95,0,1
87291,-100,4,2,1,5,0,1
87372,-100,4,2,1,95,0,1
87453,-100,4,2,1,5,0,1
87534,-100,4,2,1,95,0,1
87616,-100,4,2,1,95,0,1
87697,-100,4,2,1,95,0,1
87778,-100,4,2,1,5,0,1
87859,-100,4,2,1,95,0,1
88102,-100,4,2,1,5,0,1
88183,-83.3333333333333,4,2,1,95,0,0
88507,-83.3333333333333,4,2,1,95,0,0
88751,-83.3333333333333,4,2,1,5,0,0
88832,-83.3333333333333,4,2,1,95,0,0
89075,-83.3333333333333,4,2,1,5,0,0
89156,-83.3333333333333,4,2,1,95,0,0
89399,-83.3333333333333,4,2,1,5,0,0
89480,-83.3333333333333,4,2,1,95,0,0
90778,-100,4,2,1,95,0,1
98561,-100,4,2,1,95,0,0
99129,-100,4,2,1,5,0,0
99210,-100,4,2,1,95,0,0
99778,-100,4,2,1,95,0,0
99859,-100,4,2,1,95,0,0
101156,-100,4,2,1,95,0,1
108940,-100,4,2,1,95,0,0
109507,-100,4,2,1,5,0,0
109589,-100,4,2,1,95,0,0
111534,-100,4,2,1,70,0,0
112183,-100,4,2,1,67,0,0
112832,-100,4,2,1,64,0,0
113480,-100,4,2,1,61,0,0
114129,-100,4,2,1,58,0,0
114778,-100,4,2,1,55,0,0
115426,-100,4,2,1,50,0,0
116237,-100,4,2,1,70,0,0
116399,-500,4,2,1,70,0,0
116643,-500,4,2,1,5,0,0
116724,-83.3333333333333,4,2,1,90,0,0
124751,-83.3333333333333,4,2,1,5,0,0
124832,-83.3333333333333,4,2,1,90,0,0
125399,-83.3333333333333,4,2,1,5,0,0
125480,-83.3333333333333,4,2,1,90,0,0
132534,-83.3333333333333,4,2,1,5,0,0
132615,-83.3333333333333,4,2,1,90,0,0
133183,-83.3333333333333,4,2,1,5,0,0
133264,-83.3333333333333,4,2,1,90,0,0
133832,-83.3333333333333,4,2,1,5,0,0
133913,-83.3333333333333,4,2,1,90,0,0
142670,-200,4,2,1,70,0,0
143805,-200,4,2,1,5,0,0
143967,-200,4,2,1,70,0,0
145102,-200,4,2,1,5,0,0
145264,-200,4,2,1,70,0,0
146399,-200,4,2,1,5,0,0
146561,-200,4,2,1,70,0,0
147859,-100,4,2,1,70,0,0
151751,-200,4,2,1,70,0,0
152724,-500,4,2,1,70,0,0
152967,-500,4,2,1,5,0,0
153048,-43.4782608695652,4,2,1,90,0,1
153291,-43.4782608695652,4,2,1,5,0,1
153372,-100,4,2,1,90,0,1
153453,-100,4,2,1,5,0,1
153534,-100,4,2,1,90,0,1
153616,-100,4,2,1,5,0,1
153697,-100,4,2,1,90,0,1
153778,-100,4,2,1,5,0,1
153859,-100,4,2,1,90,0,1
153940,-100,4,2,1,5,0,1
154021,-100,4,2,1,90,0,1
154102,-100,4,2,1,5,0,1
154183,-100,4,2,1,90,0,1
154264,-100,4,2,1,5,0,1
154345,-100,4,2,1,90,0,1
154426,-100,4,2,1,5,0,1
154507,-100,4,2,1,90,0,1
154588,-100,4,2,1,5,0,1
154670,-100,4,2,1,90,0,1
155643,-43.4782608695652,4,2,1,90,0,1
155886,-43.4782608695652,4,2,1,5,0,1
155967,-100,4,2,1,90,0,1
156048,-100,4,2,1,5,0,1
156129,-100,4,2,1,90,0,1
156210,-100,4,2,1,5,0,1
156291,-100,4,2,1,90,0,1
156372,-100,4,2,1,5,0,1
156453,-100,4,2,1,90,0,1
156534,-100,4,2,1,5,0,1
156616,-100,4,2,1,90,0,1
156697,-100,4,2,1,5,0,1
156778,-100,4,2,1,90,0,1
156859,-100,4,2,1,5,0,1
156940,-100,4,2,1,90,0,1
157021,-100,4,2,1,5,0,1
157102,-100,4,2,1,90,0,1
157183,-100,4,2,1,5,0,1
157264,-100,4,2,1,90,0,1
158237,-43.4782608695652,4,2,1,90,0,1
158480,-43.4782608695652,4,2,1,5,0,1
158561,-100,4,2,1,90,0,1
158643,-100,4,2,1,5,0,1
158724,-100,4,2,1,90,0,1
158805,-100,4,2,1,5,0,1
158886,-100,4,2,1,90,0,1
158967,-100,4,2,1,5,0,1
159048,-100,4,2,1,90,0,1
159129,-100,4,2,1,5,0,1
159210,-100,4,2,1,90,0,1
159291,-100,4,2,1,5,0,1
159372,-100,4,2,1,90,0,1
159453,-100,4,2,1,5,0,1
159534,-100,4,2,1,90,0,1
159616,-100,4,2,1,5,0,1
159697,-100,4,2,1,90,0,1
159778,-100,4,2,1,5,0,1
159859,-100,4,2,1,90,0,1
160832,-83.3333333333333,4,2,1,90,0,0
161075,-83.3333333333333,4,2,1,5,0,0
161156,-83.3333333333333,4,2,1,90,0,0
163426,-100,4,2,1,90,0,1
171210,-100,4,2,1,90,0,0
171777,-100,4,2,1,5,0,0
171858,-100,4,2,1,90,0,0
172426,-100,4,2,1,90,0,0
172507,-100,4,2,1,90,0,0
173805,-100,4,2,1,90,0,1
181589,-100,4,2,1,90,0,0
182155,-100,4,2,1,5,0,0
182237,-100,4,2,1,90,0,0
184182,-100,4,2,1,90,0,0

[Colours]
Combo1 : 242,108,94
Combo2 : 166,142,193
Combo3 : 249,155,206
Combo4 : 139,160,235
SliderTrackOverride : 35,4,81
SliderBorder : 255,255,255

[HitObjects]
461,192,2399,5,4,0:3:0:0:
461,192,2480,1,4,0:3:0:0:
461,192,2562,2,0,P|477:236|461:280,1,96,4|0,3:2|0:0,0:0:0:0:
493,348,2886,2,0,B|461:344|461:344|429:348,1,64,8|2,0:0|0:3,0:0:0:0:
379,192,3210,6,0,P|363:148|379:104,1,96,0|0,3:0|0:0,0:0:0:0:
347,36,3534,2,0,B|379:40|379:40|411:36,1,64,8|2,0:0|0:3,0:0:0:0:
297,192,3859,6,0,P|313:236|297:280,1,96,0|0,3:0|0:0,0:0:0:0:
329,348,4183,2,0,B|297:344|297:344|265:348,1,64,8|2,0:0|0:3,0:0:0:0:
215,192,4507,6,0,P|199:148|215:104,1,96,0|0,3:0|0:0,0:0:0:0:
183,36,4832,2,0,B|215:40|215:40|247:36,1,64,8|2,0:0|0:3,0:0:0:0:
133,192,5156,6,0,P|149:236|133:280,1,96,0|0,3:0|0:0,0:0:0:0:
165,348,5480,2,0,B|133:344|133:344|101:348,1,64,8|2,0:0|0:3,0:0:0:0:
51,192,5805,6,0,P|35:148|51:104,1,96,0|0,3:0|0:0,0:0:0:0:
19,36,6129,2,0,B|51:40|51:40|83:36,1,64,8|2,0:0|0:3,0:0:0:0:
133,192,6453,6,0,B|162:192|162:192|174:177|174:177|186:192|186:192|215:192,1,96,0|0,3:0|0:0,0:0:0:0:
297,192,6778,1,8,0:0:0:0:
256,324,6940,2,0,L|256:260,1,64,2|0,0:3|3:0,0:0:0:0:
324,376,7264,5,8,0:2:0:0:
188,376,7426,1,8,0:2:0:0:
256,192,7589,5,8,0:2:0:0:
256,192,7670,1,8,0:2:0:0:
256,192,7751,2,0,L|256:128,1,64,0|2,3:0|0:0,0:0:0:0:
338,192,8075,2,0,L|338:128,1,64,8|2,0:0|0:0,0:0:0:0:
420,192,8399,6,0,L|420:256,1,64,0|2,3:0|0:0,0:0:0:0:
502,192,8724,2,0,L|502:256,1,64,8|2,0:0|0:0,0:0:0:0:
256,192,9048,6,0,L|256:128,1,64,0|2,3:0|0:0,0:0:0:0:
338,192,9372,2,0,L|338:128,1,64,8|2,0:0|0:0,0:0:0:0:
420,192,9697,6,0,L|420:256,1,64,0|2,3:0|0:0,0:0:0:0:
502,192,10021,2,0,L|502:256,1,64,8|2,0:0|0:0,0:0:0:0:
256,192,10345,6,0,L|256:128,1,64,0|2,3:0|0:0,0:0:0:0:
174,192,10670,2,0,L|174:128,1,64,8|2,0:0|0:0,0:0:0:0:
92,192,10994,6,0,L|92:256,1,64,0|2,3:0|0:0,0:0:0:0:
10,192,11318,1,8,0:0:0:0:
10,192,11399,1,8,0:0:0:0:
10,192,11480,1,0,3:0:0:0:
92,192,11643,6,0,B|125:192|125:192|133:179|133:179|141:192|141:192|174:192,2,96,2|2|2,0:2|0:0|0:0,0:0:0:0:
256,192,12453,5,8,0:0:0:0:
256,192,12534,1,8,0:0:0:0:
256,192,12616,2,0,L|288:192,3,32,8|8|8|8,0:0|0:0|0:0|0:0,0:0:0:0:
322,157,12940,6,0,P|338:117|322:77,1,88.000002685547,4|0,3:2|0:0,0:0:0:0:
256,8,13264,1,8,0:0:0:0:
256,8,13426,1,0,0:0:0:0:
345,157,13589,6,0,P|361:117|345:77,1,88.000002685547,0|0,3:0|0:0,0:0:0:0:
279,8,13913,1,8,0:0:0:0:
279,8,14075,1,0,0:0:0:0:
368,157,14237,6,0,P|384:117|368:77,1,88.000002685547,0|0,3:0|0:0,0:0:0:0:
302,8,14561,1,8,0:0:0:0:
302,8,14724,1,0,0:0:0:0:
144,157,14886,5,0,3:0:0:0:
144,157,14967,1,2,0:0:0:0:
144,157,15048,1,2,0:0:0:0:
210,8,15210,1,10,0:0:0:0:
210,8,15372,1,2,0:0:0:0:
322,227,15534,6,0,P|338:267|322:307,1,88.000002685547,0|0,3:0|0:0,0:0:0:0:
256,376,15859,1,8,0:0:0:0:
256,376,16021,1,0,0:0:0:0:
345,227,16183,6,0,P|361:267|345:307,1,88.000002685547,0|0,3:0|0:0,0:0:0:0:
279,376,16507,1,8,0:0:0:0:
279,376,16670,1,0,0:0:0:0:
368,227,16832,6,0,P|384:267|368:307,1,88.000002685547,0|0,3:0|0:0,0:0:0:0:
302,376,17156,1,8,0:0:0:0:
302,376,17318,1,0,0:0:0:0:
144,227,17480,5,2,3:2:0:0:
144,227,17561,1,2,0:2:0:0:
144,227,17643,1,10,0:2:0:0:
210,376,17805,1,10,0:0:0:0:
210,376,17967,1,2,0:0:0:0:
322,157,18129,6,0,P|338:117|322:77,1,88.000002685547,4|0,3:2|0:0,0:0:0:0:
190,157,18453,2,0,P|174:117|190:77,1,88.000002685547,8|0,0:0|0:0,0:0:0:0:
345,157,18778,6,0,P|361:117|345:77,1,88.000002685547,0|0,3:0|0:0,0:0:0:0:
167,157,19102,2,0,P|151:117|167:77,1,88.000002685547,8|0,0:0|0:0,0:0:0:0:
368,157,19426,6,0,P|384:117|368:77,1,88.000002685547,0|0,3:0|0:0,0:0:0:0:
144,157,19751,2,0,P|128:117|144:77,1,88.000002685547,8|0,0:0|0:0,0:0:0:0:
305,117,20075,5,0,3:0:0:0:
305,117,20156,1,2,0:0:0:0:
305,117,20237,1,2,0:0:0:0:
207,117,20399,1,10,0:0:0:0:
207,117,20561,1,2,0:0:0:0:
322,227,20724,6,0,P|338:267|322:307,1,88.000002685547,4|0,3:2|0:0,0:0:0:0:
190,227,21048,2,0,P|174:267|190:307,1,88.000002685547,8|0,0:0|0:0,0:0:0:0:
345,227,21372,5,0,3:0:0:0:
167,227,21534,1,8,0:0:0:0:
345,227,21697,5,8,0:0:0:0:
167,227,21859,1,0,0:0:0:0:
331,40,22021,5,8,0:0:0:0:
331,40,22102,1,8,0:0:0:0:
331,40,22183,5,8,0:0:0:0:
350,79,22264,1,8,0:0:0:0:
350,122,22345,1,8,0:3:0:0:
332,162,22426,1,8,0:3:0:0:
298,189,22507,1,8,0:3:0:0:
256,199,22589,5,8,0:3:0:0:
214,189,22670,1,8,0:0:0:0:
180,162,22751,1,8,0:0:0:0:
162,122,22832,1,8,0:0:0:0:
162,79,22913,1,8,0:0:0:0:
181,40,22994,6,0,L|212:8,1,44.0000013427735,8|8,0:0|0:0,0:0:0:0:
331,40,23156,2,0,L|299:8,1,44.0000013427735,8|4,0:3|0:3,0:0:0:0:
256,100,23318,6,0,B|228:152|252:192|256:192|260:192|284:232|256:284,1,191.999994140625,4|8,3:2|0:0,0:0:0:0:
181,358,23805,1,2,0:0:0:0:
106,283,23967,2,0,B|92:237|92:237|106:191,1,95.9999970703126,2|2,3:2|3:2,0:0:0:0:
31,116,24291,1,10,0:0:0:0:
106,41,24453,1,2,0:0:0:0:
164,116,24616,6,0,B|154:153|154:153|106:121|106:121|58:153|58:153|48:116,1,191.999994140625,2|10,3:2|0:0,0:0:0:0:
222,41,25102,2,0,L|381:147,1,191.999994140625,2|0,0:0|3:2,0:0:0:0:
480,192,25589,1,8,3:2:0:0:
381,236,25751,1,2,0:0:0:0:
480,369,25913,6,0,P|496:325|480:281,1,95.9999970703126,2|0,3:2|3:2,0:0:0:0:
367,236,26237,1,10,0:0:0:0:
466,369,26399,2,0,P|482:325|466:281,1,95.9999970703126,2|0,0:0|3:2,0:0:0:0:
353,236,26724,1,2,3:2:0:0:
452,369,26886,2,0,P|468:325|452:281,1,95.9999970703126,10|0,0:0|0:0,0:0:0:0:
353,148,27210,6,0,B|268:192|268:192|353:236,1,191.999994140625,2|10,3:2|0:0,0:0:0:0:
200,148,27697,2,0,B|181:192|181:192|200:236,1,95.9999970703126,2|0,0:0|3:0,0:0:0:0:
100,148,28021,2,0,B|81:192|81:192|100:236,1,95.9999970703126,8|0,0:0|3:0,0:0:0:0:
0,148,28345,5,2,0:2:0:0:
0,148,28426,1,0,0:0:0:0:
0,148,28507,1,6,3:2:0:0:
100,64,28670,1,2,0:2:0:0:
200,148,28832,1,10,0:2:0:0:
300,64,28994,5,2,0:2:0:0:
300,64,29075,1,0,0:0:0:0:
300,64,29156,2,0,B|344:45|344:45|388:64,1,95.9999970703126,2|0,3:2|0:0,0:0:0:0:
488,148,29480,1,10,0:2:0:0:
388,232,29643,5,2,0:2:0:0:
388,232,29724,1,0,0:0:0:0:
388,232,29805,2,0,B|352:260|344:296|344:314|344:314|344:296|336:260|300:232,1,191.999994140625,2|10,3:2|0:2,0:0:0:0:
256,136,30291,1,2,0:2:0:0:
212,232,30453,2,0,B|192:276|192:276|212:320,1,95.9999970703126,2|2,3:2|0:3,0:0:0:0:
300,232,30778,2,0,B|320:276|320:276|300:320,1,95.9999970703126,10|2,0:2|0:3,0:0:0:0:
168,136,31102,6,0,B|208:124|208:124|248:136|248:136|256:140|256:140|256:132|256:132|264:136|264:136|304:124|304:124|344:136,1,191.999994140625,0|10,3:2|0:2,0:0:0:0:
388,40,31589,2,0,B|340:40|340:40|304:7,1,95.9999970703126,2|0,0:2|3:0,0:0:0:0:
124,40,31913,1,2,0:2:0:0:
124,40,31994,1,0,0:0:0:0:
124,40,32075,2,0,B|172:40|172:40|207:7,1,95.9999970703126,8|2,0:0|0:2,0:0:0:0:
256,100,32399,6,0,B|284:152|260:192|256:192|252:192|228:232|256:284,1,191.999994140625,2|8,3:2|0:0,0:0:0:0:
344,192,32886,1,0,0:0:0:0:
256,100,33048,1,2,3:2:0:0:
168,192,33210,1,2,0:0:0:0:
168,192,33291,1,0,0:0:0:0:
168,192,33372,1,10,0:2:0:0:
256,284,33534,5,8,0:3:0:0:
256,284,33616,1,4,0:3:0:0:
256,284,33697,2,0,B|284:232|260:192|256:192|252:192|228:152|256:100,1,191.999994140625,4|8,3:2|0:0,0:0:0:0:
331,26,34183,1,2,0:0:0:0:
406,101,34345,2,0,B|420:147|420:147|406:193,1,95.9999970703126,2|2,3:2|3:2,0:0:0:0:
481,268,34670,1,10,0:0:0:0:
406,343,34832,1,2,0:0:0:0:
348,268,34994,6,0,B|358:231|358:231|406:263|406:263|454:231|454:231|464:268,1,191.999994140625,2|10,3:2|0:0,0:0:0:0:
290,343,35480,2,0,L|131:237,1,191.999994140625,2|0,0:0|3:2,0:0:0:0:
32,192,35967,1,10,3:2:0:0:
131,148,36129,1,2,0:0:0:0:
32,15,36291,6,0,P|16:59|32:103,1,95.9999970703126,2|0,3:2|3:2,0:0:0:0:
145,148,36616,1,10,0:0:0:0:
46,15,36778,1,2,0:0:0:0:
159,148,36940,2,0,P|175:104|159:60,1,95.9999970703126,2|0,3:2|3:2,0:0:0:0:
60,15,37264,2,0,P|44:59|60:103,1,95.9999970703126,10|0,0:0|0:0,0:0:0:0:
159,236,37589,6,0,B|244:192|244:192|159:148,1,191.999994140625,2|10,3:2|0:0,0:0:0:0:
312,236,38075,2,0,B|331:192|331:192|312:148,1,95.9999970703126,2|0,0:0|3:0,0:0:0:0:
412,236,38399,2,0,B|431:192|431:192|412:148,1,95.9999970703126,8|0,0:0|3:0,0:0:0:0:
512,236,38724,5,2,0:2:0:0:
512,236,38805,1,0,0:0:0:0:
512,236,38886,1,6,3:2:0:0:
412,320,39048,1,2,0:2:0:0:
312,236,39210,1,10,0:2:0:0:
212,320,39372,5,2,0:2:0:0:
212,320,39453,1,0,0:0:0:0:
212,320,39534,2,0,B|168:339|168:339|124:320,1,95.9999970703126,2|0,3:2|0:0,0:0:0:0:
24,236,39859,1,10,0:2:0:0:
124,152,40021,5,2,0:2:0:0:
124,152,40102,1,0,0:0:0:0:
124,152,40183,2,0,B|160:116|160:116|160:70,1,95.9999970703126,2|0,3:2|0:0,0:0:0:0:
256,116,40507,1,10,0:2:0:0:
352,70,40670,1,2,0:2:0:0:
352,70,40751,1,0,0:0:0:0:
352,70,40832,2,0,B|352:116|352:116|388:152,1,95.9999970703126,2|2,3:2|0:3,0:0:0:0:
160,70,41156,2,0,B|160:116|160:116|124:152,1,95.9999970703126,10|2,0:2|0:3,0:0:0:0:
312,364,41480,6,0,P|340:300|312:236,1,143.999995605469,0|0,3:2|0:0,0:0:0:0:
312,236,41805,2,0,P|356:252|400:236,1,95.9999970703126,10|2,0:2|0:2,0:0:0:0:
200,364,42129,2,0,P|172:300|200:236,1,143.999995605469,0|0,3:0|0:0,0:0:0:0:
200,236,42453,2,0,P|156:252|112:236,1,95.9999970703126,8|2,0:0|0:2,0:0:0:0:
312,236,42778,6,0,L|312:284,3,47.9999985351563,2|0|8|8,3:2|0:0|0:2|0:2,0:0:0:0:
200,236,43102,2,0,L|200:284,3,47.9999985351563,8|8|8|8,3:2|0:2|0:2|0:2,0:0:0:0:
312,236,43426,5,10,3:2:0:0:
334,194,43507,1,8,0:2:0:0:
330,147,43589,1,10,0:2:0:0:
301,110,43670,1,8,0:2:0:0:
256,97,43751,1,10,3:2:0:0:
211,110,43832,1,8,0:2:0:0:
182,147,43913,1,8,0:2:0:0:
178,194,43994,1,8,0:2:0:0:
200,236,44075,5,6,3:2:0:0:
256,364,44237,1,2,0:0:0:0:
312,236,44399,1,8,0:0:0:0:
256,344,44561,1,2,0:0:0:0:
200,236,44724,5,0,3:0:0:0:
256,364,44886,1,2,0:0:0:0:
312,236,45048,1,8,0:0:0:0:
256,344,45210,1,2,0:0:0:0:
200,236,45372,5,0,3:0:0:0:
256,364,45534,1,2,0:0:0:0:
312,236,45697,1,8,0:0:0:0:
256,344,45859,1,2,0:0:0:0:
200,236,46021,5,2,3:2:0:0:
200,236,46102,1,2,0:0:0:0:
200,236,46183,1,2,0:0:0:0:
312,236,46345,1,8,0:0:0:0:
256,344,46507,1,2,0:0:0:0:
200,148,46670,5,0,3:0:0:0:
256,20,46832,1,2,0:0:0:0:
312,148,46994,1,8,0:0:0:0:
256,40,47156,1,2,0:0:0:0:
200,148,47318,5,0,3:0:0:0:
256,20,47480,1,2,0:0:0:0:
312,148,47643,1,8,0:0:0:0:
256,40,47805,5,2,3:2:0:0:
256,36,47886,1,0,3:2:0:0:
256,32,47967,1,8,0:0:0:0:
200,148,48129,5,8,0:0:0:0:
200,148,48210,1,8,0:0:0:0:
200,148,48291,5,8,0:3:0:0:
164,196,48372,1,8,0:3:0:0:
164,255,48453,1,8,0:0:0:0:
199,303,48534,1,0,0:0:0:0:
256,322,48616,1,8,0:0:0:0:
312,303,48697,1,8,0:3:0:0:
347,255,48778,1,8,0:3:0:0:
347,196,48859,1,4,0:3:0:0:
312,148,48940,6,0,L|327:106,1,44.0000013427735,8|8,0:0|0:0,0:0:0:0:
184,106,49102,2,0,L|200:148,1,44.0000013427735,8|8,0:0|0:0,0:0:0:0:
420,106,49264,6,0,B|440:64|412:8|360:8|360:8|304:8,1,191.999994140625,4|8,3:2|0:0,0:0:0:0:
92,106,49751,2,0,B|72:64|100:8|152:8|152:8|207:8,1,191.999994140625,2|2,0:0|3:2,0:0:0:0:
256,106,50237,1,10,0:0:0:0:
305,8,50399,1,2,0:0:0:0:
174,106,50561,6,0,B|154:146|178:194|178:194|170:194|170:194|194:242|174:282,1,191.999994140625,2|10,3:2|0:0,0:0:0:0:
338,106,51048,2,0,B|358:146|334:194|334:194|342:194|342:194|318:242|338:282,1,191.999994140625,2|0,0:0|3:2,0:0:0:0:
256,216,51534,1,10,0:2:0:0:
174,283,51697,1,2,0:0:0:0:
338,368,51859,6,0,P|382:384|426:368,1,95.9999970703126,0|0,3:2|3:2,0:0:0:0:
338,354,52183,2,0,P|382:370|426:354,1,95.9999970703126,10|2,0:0|0:0,0:0:0:0:
174,368,52507,2,0,P|130:384|86:368,1,95.9999970703126,0|2,3:2|3:2,0:0:0:0:
174,354,52832,2,0,P|130:370|86:354,1,95.9999970703126,10|0,0:0|0:0,0:0:0:0:
256,354,53156,6,0,B|256:281|256:281|260:273|260:273|252:273|252:273|260:265|260:265|252:265|252:265|256:257|256:257|256:184,1,191.999994140625,2|10,3:2|0:0,0:0:0:0:
174,114,53643,2,0,B|140:80|140:80|140:32,1,95.9999970703126,2|0,0:0|3:0,0:0:0:0:
338,114,53967,2,0,B|372:80|372:80|372:32,1,95.9999970703126,8|0,0:0|3:0,0:0:0:0:
174,114,54291,5,2,0:2:0:0:
174,114,54372,1,0,0:0:0:0:
174,114,54453,1,6,3:2:0:0:
256,183,54616,1,2,0:2:0:0:
338,114,54778,1,10,0:2:0:0:
256,216,54940,5,2,0:2:0:0:
256,216,55021,1,0,0:0:0:0:
256,216,55102,2,0,B|237:260|237:260|256:304,1,95.9999970703126,2|0,3:2|0:0,0:0:0:0:
338,147,55426,1,10,0:2:0:0:
174,147,55589,5,2,0:2:0:0:
174,147,55670,1,0,0:0:0:0:
174,147,55751,2,0,B|228:148|256:106|256:106|284:148|338:147,1,191.999994140625,2|10,3:2|0:2,0:0:0:0:
412,72,56237,1,2,0:2:0:0:
486,147,56399,2,0,P|503:191|486:235,1,95.9999970703126,2|2,3:2|0:3,0:0:0:0:
338,147,56724,2,0,P|321:191|338:235,1,95.9999970703126,10|2,0:2|0:3,0:0:0:0:
412,376,57048,6,0,B|384:324|408:284|412:284|416:284|440:244|412:192,1,191.999994140625,0|10,3:2|0:2,0:0:0:0:
508,376,57534,2,0,B|412:376,1,95.9999970703126,2|0,0:2|3:0,0:0:0:0:
316,192,57859,1,2,0:2:0:0:
316,192,57940,1,0,0:0:0:0:
316,192,58021,2,0,B|412:192,1,95.9999970703126,8|2,0:0|0:2,0:0:0:0:
496,348,58345,2,0,B|400:348,1,95.9999970703126,2|0,3:2|0:0,0:0:0:0:
304,164,58670,5,8,0:0:0:0:
328,164,58751,1,0,0:0:0:0:
352,164,58832,1,0,0:0:0:0:
376,164,58913,1,0,0:0:0:0:
400,164,58994,1,2,3:2:0:0:
484,320,59156,1,2,0:0:0:0:
292,136,59318,5,10,0:2:0:0:
316,136,59399,1,8,0:0:0:0:
340,136,59480,1,8,0:3:0:0:
364,136,59561,1,4,0:3:0:0:
388,136,59643,6,0,B|403:92|403:92|423:39|370:-13|323:12,1,191.999994140625,4|8,3:2|0:0,0:0:0:0:
256,92,60129,1,2,0:0:0:0:
188,12,60291,2,0,B|152:12|152:12|144:3|144:3|136:12|136:12|100:12,1,95.9999970703126,2|2,3:2|3:2,0:0:0:0:
32,92,60616,1,10,0:0:0:0:
100,172,60778,1,2,0:0:0:0:
32,340,60940,6,0,B|72:340|72:340|106:296|106:296|72:252|72:252|32:252,1,191.999994140625,2|10,3:2|0:0,0:0:0:0:
192,340,61426,2,0,B|232:340|232:340|232:312|232:312|256:296|256:296|280:312|280:312|280:340|280:340|320:340,1,191.999994140625,2|0,0:0|3:2,0:0:0:0:
376,252,61913,1,10,3:2:0:0:
432,340,62075,1,2,0:0:0:0:
375,164,62237,6,0,P|359:208|375:252,1,95.9999970703126,2|0,3:2|3:2,0:0:0:0:
361,164,62561,2,0,P|345:208|361:252,1,95.9999970703126,10|2,0:0|0:0,0:0:0:0:
137,164,62886,2,0,P|153:208|137:252,1,95.9999970703126,0|2,3:2|3:2,0:0:0:0:
151,164,63210,2,0,P|167:208|151:252,1,95.9999970703126,10|0,0:0|0:0,0:0:0:0:
300,344,63534,6,0,B|256:259|256:259|212:344,1,191.999994140625,2|10,3:2|0:0,0:0:0:0:
304,192,64021,2,0,B|323:148|323:148|304:104,1,95.9999970703126,2|0,0:0|3:0,0:0:0:0:
208,192,64345,1,8,0:0:0:0:
304,280,64507,1,0,3:0:0:0:
180,192,64670,5,2,0:2:0:0:
180,192,64751,1,0,0:0:0:0:
180,192,64832,1,6,3:2:0:0:
304,104,64994,1,2,0:2:0:0:
428,192,65156,1,10,0:2:0:0:
304,72,65318,5,2,0:2:0:0:
304,72,65399,1,0,0:0:0:0:
304,72,65480,1,2,3:2:0:0:
180,192,65643,5,2,0:0:0:0:
156,213,65724,1,0,0:0:0:0:
127,227,65805,1,10,0:2:0:0:
96,233,65886,1,0,0:0:0:0:
64,227,65967,1,2,0:2:0:0:
35,213,66048,1,0,0:0:0:0:
12,192,66129,5,2,3:2:0:0:
96,72,66291,5,0,0:0:0:0:
120,51,66372,1,0,0:0:0:0:
149,37,66453,1,10,0:2:0:0:
180,31,66534,1,0,0:0:0:0:
212,37,66616,1,2,0:2:0:0:
241,51,66697,1,0,0:0:0:0:
264,72,66778,5,2,3:2:0:0:
180,192,66940,1,2,0:2:0:0:
264,312,67102,5,10,0:2:0:0:
264,318,67183,1,8,0:3:0:0:
264,324,67264,1,8,0:3:0:0:
264,330,67345,1,4,0:3:0:0:
264,336,67426,5,10,3:2:0:0:
303,362,67507,1,0,0:0:0:0:
350,361,67589,1,8,0:0:0:0:
388,333,67670,1,8,0:0:0:0:
403,288,67751,1,10,3:2:0:0:
388,243,67832,1,8,0:0:0:0:
350,215,67913,1,10,0:2:0:0:
303,214,67994,1,8,0:0:0:0:
264,240,68075,5,10,3:2:0:0:
225,266,68156,1,8,0:0:0:0:
178,265,68237,1,8,0:0:0:0:
140,237,68318,1,8,0:0:0:0:
125,192,68399,1,10,3:2:0:0:
140,147,68480,1,8,0:0:0:0:
178,119,68561,1,10,0:2:0:0:
225,118,68643,1,0,3:0:0:0:
264,144,68724,5,10,3:2:0:0:
264,144,69048,5,8,3:2:0:0:
225,118,69129,1,0,0:0:0:0:
178,119,69210,1,0,3:0:0:0:
140,147,69291,1,0,3:0:0:0:
125,192,69372,1,8,3:2:0:0:
140,237,69453,1,0,0:0:0:0:
178,265,69534,1,0,3:0:0:0:
225,266,69616,1,0,3:0:0:0:
264,240,69697,6,0,L|288:240,1,24,10|0,3:2|0:0,0:0:0:0:
408,192,70021,6,0,B|332:192|332:192|371:240|371:240|332:288|332:288|408:288,1,276.000005264282,6|0,3:2|0:0,0:0:0:0:
484,192,70345,6,0,L|484:152,1,40,10|0,0:2|0:0,0:0:0:0:
446,40,70507,2,0,L|446:80,1,40,2|0,0:2|0:0,0:0:0:0:
408,192,70670,6,0,L|408:152,1,40,2|0,3:2|0:0,0:0:0:0:
370,40,70832,2,0,L|370:80,1,40,2|0,0:2|0:0,0:0:0:0:
332,192,70994,6,0,L|332:152,1,40,10|0,0:2|0:0,0:0:0:0:
294,40,71156,2,0,L|294:80,1,40,2|0,0:2|0:0,0:0:0:0:
256,192,71318,6,0,L|256:152,1,40,2|0,3:2|0:0,0:0:0:0:
218,40,71480,2,0,L|218:80,1,40,2|0,0:2|0:0,0:0:0:0:
180,192,71643,5,10,0:2:0:0:
104,40,71805,1,2,0:2:0:0:
28,192,71967,5,2,3:2:0:0:
28,192,72048,1,2,0:0:0:0:
28,192,72129,1,2,0:0:0:0:
180,192,72291,1,10,0:2:0:0:
104,20,72453,1,2,0:2:0:0:
104,192,72616,6,0,B|180:192|180:192|141:144|141:144|180:96|180:96|104:96,1,276.000005264282,2|0,3:2|0:0,0:0:0:0:
28,192,72940,6,0,L|28:232,1,40,10|0,0:2|0:0,0:0:0:0:
66,344,73102,2,0,L|66:304,1,40,2|0,0:2|0:0,0:0:0:0:
104,192,73264,6,0,L|104:232,1,40,2|0,3:2|0:0,0:0:0:0:
142,344,73426,2,0,L|142:304,1,40,2|0,0:2|0:0,0:0:0:0:
180,192,73589,6,0,L|180:232,1,40,10|0,0:2|0:0,0:0:0:0:
218,344,73751,2,0,L|218:304,1,40,2|0,0:2|0:0,0:0:0:0:
256,192,73913,6,0,L|256:232,1,40,2|0,3:2|0:0,0:0:0:0:
294,344,74075,2,0,L|294:304,1,40,2|0,0:2|0:0,0:0:0:0:
332,192,74237,5,10,0:2:0:0:
408,344,74399,1,2,0:2:0:0:
484,192,74561,5,2,3:2:0:0:
484,192,74643,1,2,0:0:0:0:
484,192,74724,1,8,0:0:0:0:
332,192,74886,1,10,0:2:0:0:
408,364,75048,1,2,0:2:0:0:
408,192,75210,6,0,B|408:128|408:128|408:48|308:12|256:80,1,276.000005264282,6|0,3:2|0:0,0:0:0:0:
180,192,75534,6,0,L|180:232,1,40,10|0,0:2|0:0,0:0:0:0:
332,192,75697,2,0,L|332:232,1,40,2|0,0:2|0:0,0:0:0:0:
164,192,75859,6,0,L|164:232,1,40,2|0,3:2|0:0,0:0:0:0:
348,192,76021,2,0,L|348:232,1,40,2|0,0:2|0:0,0:0:0:0:
148,192,76183,6,0,L|148:232,1,40,10|0,0:2|0:0,0:0:0:0:
364,192,76345,6,0,L|364:232,1,40,2|0,0:2|0:0,0:0:0:0:
132,192,76507,6,0,L|132:232,1,40,2|0,3:2|0:0,0:0:0:0:
380,192,76670,6,0,L|380:232,1,40,2|0,0:2|0:0,0:0:0:0:
256,136,76832,5,10,0:2:0:0:
256,248,76994,1,2,0:2:0:0:
288,104,77156,5,2,3:2:0:0:
288,104,77237,1,2,0:0:0:0:
288,104,77318,1,2,0:0:0:0:
224,280,77480,5,10,0:2:0:0:
320,136,77643,1,2,0:2:0:0:
192,248,77805,6,0,P|128:276|64:248,1,143.999995605469,6|0,3:2|0:0,0:0:0:0:
0,200,78129,2,0,L|0:296,1,95.9999970703126,10|0,0:2|0:0,0:0:0:0:
128,200,78453,1,2,3:2:0:0:
256,296,78616,6,0,L|208:296,1,47.9999985351563,8|8,0:0|0:0,0:0:0:0:
320,330,78778,5,10,0:0:0:0:
326,330,78859,1,8,0:0:0:0:
332,330,78940,1,8,0:3:0:0:
338,330,79021,1,8,0:3:0:0:
396,364,79102,5,10,0:0:0:0:
428,344,79183,1,8,0:0:0:0:
449,313,79264,1,8,0:0:0:0:
457,278,79345,1,8,0:0:0:0:
449,243,79426,1,8,0:3:0:0:
428,212,79507,1,8,0:3:0:0:
396,192,79589,5,8,0:3:0:0:
364,172,79670,1,8,0:3:0:0:
343,141,79751,1,8,0:0:0:0:
335,106,79832,1,8,0:0:0:0:
343,71,79913,1,8,0:3:0:0:
364,40,79994,1,8,0:3:0:0:
396,20,80075,6,0,L|444:20,1,47.9999985351563,10|8,0:0|0:0,0:0:0:0:
335,106,80237,2,0,L|287:106,1,47.9999985351563,8|4,0:3|0:3,0:0:0:0:
396,192,80399,6,0,P|494:252|396:312,1,276.000005264282,6|0,3:2|0:0,0:0:0:0:
287,252,80724,6,0,B|307:248|307:248|327:252,1,40,10|0,0:2|0:0,0:0:0:0:
276,240,80886,2,0,B|296:236|296:236|316:240,1,40,2|0,0:2|0:0,0:0:0:0:
176,192,81048,6,0,B|156:188|156:188|136:192,1,40,2|0,3:2|0:0,0:0:0:0:
187,180,81210,2,0,B|167:176|167:176|147:180,1,40,2|0,0:2|0:0,0:0:0:0:
287,132,81372,6,0,B|307:128|307:128|327:132,1,40,10|0,0:2|0:0,0:0:0:0:
276,120,81534,2,0,B|296:116|296:116|316:120,1,40,2|0,0:2|0:0,0:0:0:0:
176,72,81697,6,0,B|156:68|156:68|136:72,1,40,2|0,3:2|0:0,0:0:0:0:
187,60,81859,2,0,B|167:56|167:56|147:60,1,40,2|0,0:2|0:0,0:0:0:0:
287,12,82021,6,0,B|307:8|307:8|327:12,1,40,10|0,0:2|0:0,0:0:0:0:
276,1,82183,2,0,B|296:-3|296:-3|316:1,1,40,2|0,0:2|0:0,0:0:0:0:
460,136,82345,6,0,B|481:192|481:192|460:248,1,120,2|0,3:2|0:0,0:0:0:0:
396,192,82670,1,10,0:2:0:0:
256,312,82832,1,2,0:2:0:0:
116,192,82994,6,0,P|18:132|116:72,1,276.000005264282,2|0,3:2|0:0,0:0:0:0:
225,132,83318,6,0,B|205:136|205:136|185:132,1,40,10|0,0:2|0:0,0:0:0:0:
236,144,83480,2,0,B|216:148|216:148|196:144,1,40,2|0,0:2|0:0,0:0:0:0:
336,192,83643,6,0,B|356:196|356:196|376:192,1,40,2|0,3:2|0:0,0:0:0:0:
325,204,83805,2,0,B|345:208|345:208|365:204,1,40,2|0,0:2|0:0,0:0:0:0:
225,252,83967,6,0,B|205:256|205:256|185:252,1,40,10|0,0:2|0:0,0:0:0:0:
236,264,84129,2,0,B|216:268|216:268|196:264,1,40,2|0,0:2|0:0,0:0:0:0:
336,312,84291,6,0,B|356:316|356:316|376:312,1,40,2|0,3:2|0:0,0:0:0:0:
325,324,84453,2,0,B|345:328|345:328|365:324,1,40,2|0,0:2|0:0,0:0:0:0:
225,372,84616,6,0,B|205:376|205:376|185:372,1,40,10|0,0:2|0:0,0:0:0:0:
236,383,84778,2,0,B|216:387|216:387|196:383,1,40,2|0,0:2|0:0,0:0:0:0:
52,248,84940,6,0,B|31:192|31:192|52:136,1,120,2|0,3:2|0:0,0:0:0:0:
117,192,85264,1,10,0:2:0:0:
256,72,85426,1,2,0:2:0:0:
397,192,85589,6,0,P|350:292|303:192,1,276.000005264282,2|0,3:2|0:0,0:0:0:0:
489,192,85913,6,0,L|489:232,1,40,10|0,0:2|0:0,0:0:0:0:
442,128,86075,2,0,L|442:88,1,40,2|0,0:2|0:0,0:0:0:0:
397,192,86237,6,0,L|397:232,1,40,2|0,3:2|0:0,0:0:0:0:
350,128,86399,2,0,L|350:88,1,40,2|0,0:2|0:0,0:0:0:0:
303,192,86561,6,0,L|303:232,1,40,10|0,0:2|0:0,0:0:0:0:
256,128,86724,2,0,L|256:88,1,40,2|0,0:2|0:0,0:0:0:0:
209,192,86886,6,0,L|209:232,1,40,2|0,3:2|0:0,0:0:0:0:
162,128,87048,2,0,L|162:88,1,40,2|0,0:2|0:0,0:0:0:0:
115,192,87210,6,0,L|115:232,1,40,10|0,0:2|0:0,0:0:0:0:
70,128,87372,2,0,L|70:88,1,40,2|0,0:2|0:0,0:0:0:0:
23,192,87534,6,0,L|23:232,1,40,2|2,3:2|0:0,0:0:0:0:
70,128,87697,2,0,L|70:88,1,40,2|0,0:2|0:0,0:0:0:0:
115,192,87859,6,0,B|142:196|162:226|162:226|182:196|209:192,1,120,10|0,0:2|0:0,0:0:0:0:
303,192,88183,6,0,L|408:192,1,95.9999970703126,2|0,3:2|0:0,0:0:0:0:
256,128,88507,6,0,B|236:148|236:148|236:236|236:236|256:256,1,143.999995605469,10|0,0:2|0:0,0:0:0:0:
244,128,88832,6,0,B|224:148|224:148|224:236|224:236|244:256,1,143.999995605469,2|0,3:2|0:0,0:0:0:0:
232,128,89156,6,0,B|212:148|212:148|212:236|212:236|232:256,1,143.999995605469,10|0,0:2|0:0,0:0:0:0:
220,128,89480,6,0,B|186:161,1,47.9999985351563,2|0,3:2|0:0,0:0:0:0:
276,48,89643,5,8,0:0:0:0:
285,56,89724,1,8,0:0:0:0:
332,56,89805,5,10,3:2:0:0:
341,65,89886,1,8,0:0:0:0:
349,73,89967,1,10,0:2:0:0:
358,82,90048,1,8,0:0:0:0:
405,82,90129,5,10,3:2:0:0:
433,108,90210,1,8,0:0:0:0:
443,146,90291,1,10,0:2:0:0:
433,183,90372,1,8,0:0:0:0:
405,210,90453,5,10,3:2:0:0:
377,236,90534,1,8,0:0:0:0:
367,274,90616,1,10,0:2:0:0:
377,311,90697,1,8,0:0:0:0:
405,338,90778,6,0,P|369:353|333:338,1,80,6|0,3:2|3:0,0:0:0:0:
256,248,91102,1,10,0:2:0:0:
377,311,91264,6,0,P|341:326|305:311,1,80,2|0,0:2|3:0,0:0:0:0:
228,221,91589,2,0,P|264:206|300:221,1,80,2|8,3:2|0:0,0:0:0:0:
223,311,91913,1,2,0:0:0:0:
145,221,92075,2,0,B|129:184|129:184|145:147,1,80,2|0,3:2|3:0,0:0:0:0:
67,311,92399,5,10,0:2:0:0:
145,221,92561,1,2,0:2:0:0:
223,311,92724,1,2,3:2:0:0:
145,221,92886,1,2,3:2:0:0:
67,311,93048,5,10,0:2:0:0:
145,147,93210,1,2,0:2:0:0:
223,311,93372,6,0,B|255:311|255:311|267:319|267:319|300:319,1,80,2|0,3:2|3:0,0:0:0:0:
377,226,93697,1,10,0:2:0:0:
454,319,93859,1,2,0:2:0:0:
377,226,94021,1,2,3:2:0:0:
454,133,94183,2,0,P|469:97|454:61,1,80,2|8,3:2|0:2,0:0:0:0:
358,226,94507,1,2,0:0:0:0:
435,133,94670,6,0,P|450:97|435:61,1,80,2|0,3:2|3:0,0:0:0:0:
339,226,94994,1,10,0:2:0:0:
416,133,95156,2,0,P|431:97|416:61,1,80,2|2,0:2|3:2,0:0:0:0:
320,226,95480,1,2,3:2:0:0:
397,133,95643,1,10,0:2:0:0:
474,226,95805,1,2,0:2:0:0:
397,319,95967,6,0,L|340:376,1,80,2|0,3:2|3:0,0:0:0:0:
115,319,96291,1,10,0:2:0:0:
115,319,96453,2,0,L|171:376,1,80,2|0,0:2|3:0,0:0:0:0:
384,300,96778,2,0,L|327:357,1,80,2|8,3:2|0:0,0:0:0:0:
128,300,97102,1,2,0:2:0:0:
128,300,97264,2,0,L|184:357,1,80,0|0,3:0|3:0,0:0:0:0:
320,226,97589,5,10,0:2:0:0:
256,300,97751,1,2,0:2:0:0:
192,226,97913,1,2,3:2:0:0:
256,328,98075,1,2,3:2:0:0:
320,226,98237,1,10,0:2:0:0:
256,56,98399,5,10,0:2:0:0:
256,56,98480,1,8,0:0:0:0:
256,56,98561,2,0,L|256:136,1,80,2|0,3:2|3:0,0:0:0:0:
356,56,98886,6,0,B|388:56|404:26|404:26|420:56|452:56,1,120,10|0,0:2|0:0,0:0:0:0:
440,128,99210,2,0,P|404:143|368:128,1,80,2|0,3:2|3:0,0:0:0:0:
156,56,99534,6,0,B|124:56|108:26|108:26|92:56|60:56,1,120,10|0,0:2|3:0,0:0:0:0:
72,128,99859,2,0,P|108:143|144:128,1,80,10|0,0:2|3:0,0:0:0:0:
256,56,100183,1,8,0:2:0:0:
368,128,100345,1,2,3:2:0:0:
256,8,100507,1,10,0:2:0:0:
144,128,100670,5,10,0:2:0:0:
144,128,100751,1,8,0:0:0:0:
144,128,100832,5,10,3:2:0:0:
117,157,100913,1,8,0:0:0:0:
108,196,100994,1,10,0:2:0:0:
117,234,101075,1,8,0:0:0:0:
144,264,101156,5,2,3:2:0:0:
296,360,101318,2,0,L|216:360,1,80,2|8,0:2|0:0,0:0:0:0:
368,264,101643,2,0,L|448:264,1,80,2|0,0:2|3:0,0:0:0:0:
296,168,101967,2,0,L|216:168,1,80,2|8,0:2|0:0,0:0:0:0:
144,264,102291,1,2,0:2:0:0:
296,156,102453,6,0,L|216:156,1,80,2|0,3:2|0:0,0:0:0:0:
368,264,102778,1,10,0:2:0:0:
256,24,102940,1,2,0:2:0:0:
144,264,103102,1,2,3:2:0:0:
256,56,103264,1,2,0:2:0:0:
368,264,103426,1,10,0:2:0:0:
256,88,103589,1,2,0:2:0:0:
144,264,103751,5,2,3:2:0:0:
256,120,103913,2,0,P|292:105|328:120,1,80,2|8,0:2|0:0,0:0:0:0:
256,264,104237,2,0,P|220:279|184:264,1,80,2|0,0:2|3:0,0:0:0:0:
256,88,104561,2,0,P|292:73|328:88,1,80,2|8,0:2|0:0,0:0:0:0:
256,296,104886,1,2,0:2:0:0:
328,88,105048,6,0,P|364:73|400:88,1,80,2|0,3:2|0:0,0:0:0:0:
328,296,105372,1,10,0:2:0:0:
400,88,105534,2,0,P|436:73|472:88,1,80,2|0,3:2|3:2,0:0:0:0:
400,296,105859,1,10,0:2:0:0:
328,88,106021,1,2,3:2:0:0:
256,296,106183,5,10,0:2:0:0:
256,296,106264,1,2,0:0:0:0:
256,296,106345,2,0,B|224:296|224:296|220:289|220:289|216:296|216:296|184:296,1,80,2|0,3:2|0:0,0:0:0:0:
256,192,106670,1,10,0:2:0:0:
184,88,106832,2,0,B|216:88|216:88|220:95|220:95|224:88|224:88|256:88,1,80,2|0,0:2|3:0,0:0:0:0:
408,192,107156,2,0,B|376:192|376:192|372:199|372:199|368:192|368:192|336:192,1,80,2|8,0:2|0:0,0:0:0:0:
256,296,107480,1,2,0:2:0:0:
408,197,107643,2,0,B|376:197|376:197|372:204|372:204|368:197|368:197|336:197,1,80,0|0,3:0|0:0,0:0:0:0:
256,88,107967,5,10,0:2:0:0:
176,192,108129,1,2,0:2:0:0:
256,296,108291,1,2,3:2:0:0:
148,192,108453,1,2,0:2:0:0:
256,88,108616,1,10,0:2:0:0:
120,192,108778,5,2,0:2:0:0:
120,192,108859,1,2,0:0:0:0:
120,192,108940,2,0,L|40:192,1,80,2|0,3:2|0:0,0:0:0:0:
256,88,109264,6,0,L|376:88,1,120,10|0,0:2|0:0,0:0:0:0:
451,88,109589,1,2,3:2:0:0:
256,192,109751,6,0,L|216:192,1,40,8|8,0:0|0:0,0:0:0:0:
120,192,109913,5,10,0:2:0:0:
120,203,109994,1,8,0:0:0:0:
120,214,110075,1,8,0:3:0:0:
120,225,110156,1,8,0:3:0:0:
120,236,110237,5,2,3:2:0:0:
128,289,110318,1,8,0:0:0:0:
157,336,110399,1,8,0:0:0:0:
202,367,110480,1,8,0:0:0:0:
256,377,110561,5,8,0:3:0:0:
310,367,110643,1,8,0:3:0:0:
355,336,110724,1,8,0:3:0:0:
384,289,110805,1,8,0:3:0:0:
392,236,110886,6,0,L|380:197,1,40,10|8,0:2|0:0,0:0:0:0:
320,72,111048,2,0,L|308:110,1,40,8|8,0:3|0:3,0:0:0:0:
120,236,111210,6,0,L|131:197,1,40,8|8,0:0|0:0,0:0:0:0:
192,72,111372,2,0,L|203:110,1,40,0|0,3:0|3:0,0:0:0:0:
392,236,111534,5,6,3:2:0:0:
392,236,115426,5,2,0:0:0:0:
256,20,115670,1,2,0:0:0:0:
120,236,115913,1,2,0:0:0:0:
120,236,116237,5,0,3:0:0:0:
120,246,116318,1,0,3:0:0:0:
120,256,116399,2,0,L|120:280,1,24,8|0,0:0|0:0,0:0:0:0:
188,192,116724,5,0,3:0:0:0:
188,192,116805,1,2,0:0:0:0:
188,192,116886,2,0,B|185:168|185:168|188:144,1,47.9999985351563,2|2,0:0|0:0,0:0:0:0:
256,20,117048,5,8,0:0:0:0:
256,20,117129,1,2,0:0:0:0:
256,20,117210,2,0,B|259:44|259:44|256:68,1,47.9999985351563,2|2,0:0|0:0,0:0:0:0:
324,192,117372,5,0,3:0:0:0:
324,192,117453,1,2,0:0:0:0:
324,192,117534,2,0,B|321:168|321:168|324:144,1,47.9999985351563,2|2,0:0|0:0,0:0:0:0:
392,20,117697,5,8,0:0:0:0:
392,20,117778,1,2,0:0:0:0:
392,20,117859,2,0,B|395:44|395:44|392:68,1,47.9999985351563,2|2,0:0|0:0,0:0:0:0:
460,192,118021,5,2,3:2:0:0:
392,364,118183,2,0,P|376:320|392:276,1,95.9999970703126,2|8,0:2|0:0,0:0:0:0:
480,192,118507,1,2,0:2:0:0:
412,364,118670,2,0,P|396:320|412:276,1,95.9999970703126,2|0,3:2|0:0,0:0:0:0:
500,192,118994,1,10,0:2:0:0:
412,20,119156,1,2,0:2:0:0:
324,192,119318,6,0,B|340:147|340:147|324:102,1,95.9999970703126,2|0,3:2|0:0,0:0:0:0:
188,192,119643,1,10,0:2:0:0:
188,192,119805,2,0,B|172:147|172:147|188:102,1,95.9999970703126,2|0,0:2|3:0,0:0:0:0:
324,192,120129,1,2,0:2:0:0:
188,282,120291,1,10,0:2:0:0:
344,192,120453,1,2,0:2:0:0:
188,102,120616,6,0,P|144:86|100:102,1,95.9999970703126,2|0,3:2|0:0,0:0:0:0:
256,192,120940,1,10,0:2:0:0:
100,283,121102,2,0,P|144:299|188:283,1,95.9999970703126,2|0,0:2|3:0,0:0:0:0:
32,192,121426,5,8,0:0:0:0:
188,102,121589,1,10,0:0:0:0:
52,192,121751,1,10,0:0:0:0:
208,102,121913,6,0,P|238:93|268:102,2,63.9999980468751,2|2|2,3:2|0:0|0:0,0:0:0:0:
208,282,122237,2,0,P|238:291|268:282,2,63.9999980468751,10|2|2,0:0|0:0|0:0,0:0:0:0:
208,89,122561,6,0,P|238:80|268:89,2,63.9999980468751,2|2|2,3:2|0:0|0:0,0:0:0:0:
208,295,122886,2,0,P|238:304|268:295,2,63.9999980468751,10|2|2,0:0|0:0|0:0,0:0:0:0:
208,76,123210,6,0,P|238:67|268:76,2,63.9999980468751,2|2|2,3:2|0:0|0:0,0:0:0:0:
208,308,123534,2,0,P|238:317|268:308,2,63.9999980468751,10|2|2,0:0|0:0|0:0,0:0:0:0:
52,192,123859,5,2,3:2:0:0:
92,192,123967,5,2,0:0:0:0:
132,192,124075,5,2,0:0:0:0:
172,192,124183,5,10,0:0:0:0:
212,192,124291,5,2,0:0:0:0:
252,192,124399,5,2,0:0:0:0:
292,192,124507,6,0,P|320:256|292:320,1,143.999995605469,2|0,3:2|0:0,0:0:0:0:
292,320,124832,2,0,B|336:300|336:300|380:320,1,95.9999970703126,8|0,0:0|0:0,0:0:0:0:
292,192,125156,2,0,P|320:128|292:64,1,143.999995605469,2|0,3:2|0:0,0:0:0:0:
292,64,125480,2,0,B|336:84|336:84|380:64,1,95.9999970703126,10|8,0:0|0:0,0:0:0:0:
148,192,125805,5,8,0:2:0:0:
142,192,125886,1,8,0:0:0:0:
136,192,125967,1,8,0:0:0:0:
130,192,126048,1,8,0:0:0:0:
124,192,126129,5,8,0:2:0:0:
98,231,126210,1,8,0:0:0:0:
99,278,126291,1,8,0:0:0:0:
127,316,126372,1,8,0:0:0:0:
172,331,126453,1,8,0:2:0:0:
217,316,126534,1,8,0:0:0:0:
245,278,126616,1,8,0:0:0:0:
246,231,126697,1,8,0:0:0:0:
220,192,126778,6,0,L|220:168,6,23.9999992675781,8|0|8|0|8|0|8,0:2|0:0|0:0|0:0|0:0|0:0|0:0,0:0:0:0:
124,192,127102,5,4,3:2:0:0:
220,82,127264,1,2,0:2:0:0:
316,192,127426,1,10,0:2:0:0:
220,66,127589,1,2,0:2:0:0:
124,192,127751,5,2,3:2:0:0:
220,50,127913,1,2,0:2:0:0:
316,192,128075,2,0,B|320:240|320:240|316:288,1,95.9999970703126,10|2,0:2|0:2,0:0:0:0:
220,192,128399,5,2,3:2:0:0:
316,97,128561,1,2,0:2:0:0:
412,192,128724,1,10,0:2:0:0:
316,1,128886,2,0,B|312:49|312:49|316:97,1,95.9999970703126,2|0,0:2|0:0,0:0:0:0:
430,192,129210,5,2,0:2:0:0:
316,287,129372,1,10,0:2:0:0:
448,192,129534,1,2,0:2:0:0:
316,97,129697,6,0,B|276:69|224:93|224:97|224:101|172:125|132:97,1,191.999994140625,2|10,3:2|0:2,0:0:0:0:
220,192,130183,1,2,0:2:0:0:
132,287,130345,2,0,P|115:331|132:375,1,95.9999970703126,2|0,3:2|0:0,0:0:0:0:
112,287,130670,2,0,P|95:331|112:375,1,95.9999970703126,10|0,0:0|0:0,0:0:0:0:
380,287,130994,6,0,P|397:331|380:375,1,95.9999970703126,2|0,3:2|0:0,0:0:0:0:
400,287,131318,1,10,0:2:0:0:
400,287,131480,2,0,P|417:331|400:375,1,95.9999970703126,2|0,3:2|3:2,0:0:0:0:
256,287,131805,1,8,0:0:0:0:
256,287,131886,1,8,0:0:0:0:
256,287,131967,1,8,0:3:0:0:
112,375,132129,5,8,0:0:0:0:
112,375,132210,1,8,0:0:0:0:
112,375,132291,2,0,B|88:307|88:307|112:239,1,143.999995605469,6|0,3:2|0:0,0:0:0:0:
112,239,132616,2,0,P|128:195|112:151,1,95.9999970703126,10|0,0:2|0:0,0:0:0:0:
256,355,132940,6,0,B|280:323|260:287|256:287|252:287|232:251|256:219,1,143.999995605469,2|0,3:2|0:0,0:0:0:0:
256,219,133264,2,0,L|256:123,1,95.9999970703126,10|0,0:2|0:0,0:0:0:0:
400,375,133589,6,0,B|424:307|424:307|400:239,1,143.999995605469,2|0,3:2|0:0,0:0:0:0:
400,239,133913,2,0,P|384:195|400:151,1,95.9999970703126,10|0,0:2|0:0,0:0:0:0:
112,239,134237,2,0,P|128:195|112:151,1,95.9999970703126,2|0,3:2|0:0,0:0:0:0:
256,192,134561,6,0,L|256:148,6,23.9999992675781,0|0|0|0|0|0|0,3:0|0:0|0:0|0:0|3:0|0:0|0:0,0:0:0:0:
328,192,134886,5,8,0:0:0:0:
184,192,135048,1,8,0:0:0:0:
393,147,135372,5,8,0:0:0:0:
119,237,135534,1,8,0:0:0:0:
458,192,135859,5,8,0:0:0:0:
54,192,136021,1,8,0:0:0:0:
393,237,136345,5,8,3:2:0:0:
119,147,136507,1,8,3:2:0:0:
393,237,136832,5,8,0:0:0:0:
119,147,137156,1,8,0:0:0:0:
348,220,137480,6,0,B|393:237,3,47.9999985351563,4|0|0|0,3:2|0:0|3:0|3:0,0:0:0:0:
228,284,137805,2,0,B|211:329,3,47.9999985351563,8|0|0|0,3:2|3:0|3:0|3:0,0:0:0:0:
164,164,138129,2,0,B|119:147,3,47.9999985351563,8|0|0|0,3:2|3:0|3:0|3:0,0:0:0:0:
284,100,138453,2,0,B|301:55,3,47.9999985351563,8|8|4|4,3:2|3:2|3:3|3:3,0:0:0:0:
345,227,138778,6,0,B|388:248,3,47.9999985351563,4|0|0|8,3:2|3:0|3:0|3:2,0:0:0:0:
220,281,139102,2,0,B|199:324,3,47.9999985351563,8|8|8|8,3:2|3:2|3:2|3:2,0:0:0:0:
166,156,139426,2,0,B|123:135,3,47.9999985351563,0|8|8|8,3:0|3:2|3:2|3:2,0:0:0:0:
291,102,139751,2,0,B|312:59,3,47.9999985351563,8|8|8|8,3:2|3:2|3:2|3:2,0:0:0:0:
345,227,140075,5,4,3:0:0:0:
359,234,140156,1,4,3:0:0:0:
374,241,140237,1,4,3:0:0:0:
388,248,140318,1,4,3:0:0:0:
388,277,140399,5,4,3:0:0:0:
402,283,140480,1,4,3:0:0:0:
416,290,140561,1,4,3:0:0:0:
431,297,140643,1,4,3:0:0:0:
430,325,140724,5,4,3:0:0:0:
402,363,140805,1,4,3:0:0:0:
357,378,140886,1,4,3:0:0:0:
312,363,140967,1,4,3:0:0:0:
284,325,141048,1,4,3:0:0:0:
256,287,141129,1,4,3:0:0:0:
211,272,141210,1,4,3:0:0:0:
166,287,141291,1,4,3:0:0:0:
138,325,141372,5,8,0:0:0:0:
374,59,141534,1,0,3:0:0:0:
374,59,141859,5,0,3:0:0:0:
374,59,142183,5,0,3:0:0:0:
374,64,142264,1,0,3:0:0:0:
374,69,142345,1,8,0:0:0:0:
216,235,142670,6,0,P|256:133|296:235,1,280,4|0,3:2|0:0,0:0:0:0:
176,312,143967,2,0,P|115:192|176:72,1,280,4|0,3:2|0:0,0:0:0:0:
336,72,145264,2,0,P|397:192|336:312,1,280,4|0,3:2|0:0,0:0:0:0:
216,235,146561,2,0,B|256:166|256:166|296:235,1,160,4|2,3:2|0:3,0:0:0:0:
296,235,147534,5,0,0:0:0:0:
256,72,147697,1,8,0:0:0:0:
216,235,147859,1,0,3:2:0:0:
216,235,148183,5,2,3:2:0:0:
296,235,148345,1,2,0:2:0:0:
296,149,148507,1,2,3:2:0:0:
216,149,148669,1,2,0:2:0:0:
216,235,148832,5,2,3:2:0:0:
216,149,148994,1,2,0:2:0:0:
216,235,149156,5,2,3:2:0:0:
296,235,149318,1,2,0:2:0:0:
296,149,149480,1,2,3:2:0:0:
216,149,149643,5,2,0:2:0:0:
296,149,149805,1,2,3:2:0:0:
216,149,149967,1,2,0:2:0:0:
216,235,150129,2,0,L|216:314,1,80,2|0,3:2|0:0,0:0:0:0:
296,235,150453,6,0,L|296:314,1,80,2|0,3:2|0:0,0:0:0:0:
376,235,150778,2,0,L|376:314,1,80
456,235,151102,5,0,3:0:0:0:
493,227,151183,1,0,3:0:0:0:
512,192,151264,1,8,0:0:0:0:
493,156,151345,1,8,0:0:0:0:
456,149,151426,5,8,0:0:0:0:
418,141,151507,1,8,0:0:0:0:
400,106,151588,1,8,0:3:0:0:
418,70,151669,1,8,0:3:0:0:
456,63,151751,5,4,0:0:0:0:
248,144,152724,6,0,L|224:144,1,24,2|0,0:0|0:0,0:0:0:0:
104,192,153048,6,0,B|180:192|180:192|141:144|141:144|180:96|180:96|104:96,1,276.000005264282,6|0,3:2|0:0,0:0:0:0:
28,192,153372,6,0,L|28:232,1,40,10|0,0:2|0:0,0:0:0:0:
66,344,153534,2,0,L|66:304,1,40,2|0,0:2|0:0,0:0:0:0:
104,192,153697,6,0,L|104:232,1,40,2|0,3:2|0:0,0:0:0:0:
142,344,153859,2,0,L|142:304,1,40,2|0,0:2|0:0,0:0:0:0:
180,192,154021,6,0,L|180:232,1,40,10|0,0:2|0:0,0:0:0:0:
218,344,154183,2,0,L|218:304,1,40,2|0,0:2|0:0,0:0:0:0:
256,192,154345,6,0,L|256:232,1,40,2|0,3:2|0:0,0:0:0:0:
294,344,154507,2,0,L|294:304,1,40,2|0,0:2|0:0,0:0:0:0:
332,192,154670,5,10,0:2:0:0:
408,344,154832,1,2,0:2:0:0:
484,192,154994,5,2,3:2:0:0:
484,192,155075,1,2,0:0:0:0:
484,192,155156,1,2,0:0:0:0:
332,192,155318,1,10,0:2:0:0:
408,364,155480,1,2,0:2:0:0:
408,192,155643,6,0,B|332:192|332:192|371:240|371:240|332:288|332:288|408:288,1,276.000005264282,2|0,3:2|0:0,0:0:0:0:
484,192,155967,6,0,L|484:152,1,40,10|0,0:2|0:0,0:0:0:0:
446,40,156129,2,0,L|446:80,1,40,2|0,0:2|0:0,0:0:0:0:
408,192,156291,6,0,L|408:152,1,40,2|0,3:2|0:0,0:0:0:0:
370,40,156453,2,0,L|370:80,1,40,2|0,0:2|0:0,0:0:0:0:
332,192,156616,6,0,L|332:152,1,40,10|0,0:2|0:0,0:0:0:0:
294,40,156778,2,0,L|294:80,1,40,2|0,0:2|0:0,0:0:0:0:
256,192,156940,6,0,L|256:152,1,40,2|0,3:2|0:0,0:0:0:0:
218,40,157102,2,0,L|218:80,1,40,2|0,0:2|0:0,0:0:0:0:
180,192,157264,5,10,0:2:0:0:
104,40,157426,1,2,0:2:0:0:
28,192,157589,5,2,3:2:0:0:
28,192,157670,1,2,0:0:0:0:
28,192,157751,1,8,0:0:0:0:
180,192,157913,1,10,0:2:0:0:
104,20,158075,1,2,0:2:0:0:
104,192,158237,6,0,B|104:256|104:256|104:336|204:372|256:304,1,276.000005264282,2|0,3:2|0:0,0:0:0:0:
332,192,158561,6,0,L|332:152,1,40,10|0,0:2|0:0,0:0:0:0:
180,192,158724,2,0,L|180:152,1,40,2|0,0:2|0:0,0:0:0:0:
348,192,158886,6,0,L|348:152,1,40,2|0,3:2|0:0,0:0:0:0:
164,192,159048,2,0,L|164:152,1,40,2|0,0:2|0:0,0:0:0:0:
364,192,159210,6,0,L|364:152,1,40,10|0,0:2|0:0,0:0:0:0:
148,192,159372,6,0,L|148:152,1,40,2|0,0:2|0:0,0:0:0:0:
380,192,159534,6,0,L|380:152,1,40,2|0,3:2|0:0,0:0:0:0:
132,192,159697,6,0,L|132:152,1,40,2|0,0:2|0:0,0:0:0:0:
256,248,159859,5,10,0:2:0:0:
256,136,160021,1,2,0:2:0:0:
224,280,160183,5,2,3:2:0:0:
224,280,160264,1,2,0:0:0:0:
224,280,160345,1,2,0:2:0:0:
288,104,160507,5,10,0:2:0:0:
192,248,160670,1,0,0:0:0:0:
320,136,160832,6,0,P|384:108|448:136,1,143.999995605469,2|0,3:2|0:0,0:0:0:0:
512,184,161156,2,0,L|512:88,1,95.9999970703126,10|0,0:2|0:0,0:0:0:0:
384,184,161480,1,2,3:2:0:0:
256,88,161643,6,0,L|304:88,1,47.9999985351563,8|8,0:0|0:0,0:0:0:0:
192,54,161805,5,10,0:0:0:0:
186,54,161886,1,8,0:0:0:0:
180,54,161967,1,8,0:3:0:0:
174,54,162048,1,8,0:3:0:0:
127,20,162129,5,10,3:2:0:0:
95,40,162210,1,0,0:0:0:0:
74,71,162291,1,8,0:0:0:0:
66,106,162372,1,8,0:0:0:0:
74,141,162453,1,10,3:2:0:0:
95,172,162534,1,8,0:0:0:0:
127,192,162616,5,10,0:2:0:0:
159,212,162697,1,8,0:0:0:0:
180,243,162778,1,10,3:2:0:0:
188,278,162859,1,8,0:0:0:0:
180,313,162940,1,10,0:2:0:0:
159,344,163021,1,8,0:0:0:0:
127,364,163102,6,0,L|79:364,1,47.9999985351563,10|8,3:2|0:0,0:0:0:0:
188,278,163264,2,0,L|236:278,1,47.9999985351563,10|8,0:2|0:0,0:0:0:0:
127,192,163426,6,0,L|47:192,1,80,6|0,3:2|3:0,0:0:0:0:
127,73,163751,1,10,0:2:0:0:
127,73,163913,2,0,L|207:73,1,80,2|0,0:2|3:0,0:0:0:0:
284,163,164237,2,0,P|248:178|212:163,1,80,2|8,3:2|0:0,0:0:0:0:
289,73,164561,1,2,0:0:0:0:
367,163,164724,2,0,B|383:200|383:200|367:237,1,80,2|0,3:2|3:0,0:0:0:0:
445,73,165048,5,10,0:2:0:0:
367,163,165210,1,2,0:2:0:0:
289,73,165372,1,2,3:2:0:0:
367,163,165534,1,2,3:2:0:0:
445,73,165697,5,10,0:2:0:0:
367,237,165859,1,2,0:2:0:0:
289,73,166021,6,0,B|257:73|257:73|245:65|245:65|212:65,1,80,2|0,3:2|3:0,0:0:0:0:
135,158,166345,1,10,0:2:0:0:
58,65,166507,1,2,0:2:0:0:
135,158,166670,1,2,3:2:0:0:
58,251,166832,2,0,P|43:287|58:323,1,80,2|8,3:2|0:2,0:0:0:0:
154,158,167156,1,2,0:0:0:0:
77,251,167318,6,0,P|62:287|77:323,1,80,2|0,3:2|3:0,0:0:0:0:
173,158,167643,1,10,0:2:0:0:
96,251,167805,2,0,P|81:287|96:323,1,80,2|2,0:2|3:2,0:0:0:0:
192,158,168129,1,2,3:2:0:0:
115,251,168291,1,10,0:2:0:0:
38,158,168453,1,2,0:2:0:0:
115,65,168616,6,0,L|172:8,1,80,2|0,3:2|3:0,0:0:0:0:
397,65,168940,1,10,0:2:0:0:
397,65,169102,2,0,L|341:8,1,80,2|0,0:2|3:0,0:0:0:0:
128,84,169426,2,0,L|185:27,1,80,2|8,3:2|0:0,0:0:0:0:
384,84,169751,1,2,0:2:0:0:
384,84,169913,2,0,L|328:27,1,80,0|0,3:0|3:0,0:0:0:0:
192,158,170237,5,10,0:2:0:0:
256,84,170399,1,2,0:2:0:0:
320,158,170561,1,2,3:2:0:0:
256,56,170724,1,2,3:2:0:0:
192,158,170886,1,10,0:2:0:0:
256,328,171048,5,10,0:2:0:0:
256,328,171129,1,8,0:0:0:0:
256,328,171210,2,0,L|256:248,1,80,2|0,3:2|3:0,0:0:0:0:
156,328,171534,6,0,B|124:328|108:358|108:358|92:328|60:328,1,120,10|0,0:2|0:0,0:0:0:0:
72,256,171859,2,0,P|108:241|144:256,1,80,2|0,3:2|3:0,0:0:0:0:
356,328,172183,6,0,B|388:328|404:358|404:358|420:328|452:328,1,120,10|0,0:2|3:0,0:0:0:0:
440,256,172507,2,0,P|404:241|368:256,1,80,10|0,0:2|3:0,0:0:0:0:
256,328,172832,1,8,0:2:0:0:
144,256,172994,1,2,3:2:0:0:
256,376,173156,1,10,0:2:0:0:
368,256,173318,5,10,0:2:0:0:
368,256,173399,1,8,0:0:0:0:
368,256,173480,5,10,3:2:0:0:
395,227,173561,1,8,0:0:0:0:
404,188,173643,1,10,0:2:0:0:
395,150,173724,1,8,0:0:0:0:
368,120,173805,5,2,3:2:0:0:
216,24,173967,2,0,L|296:24,1,80,2|8,0:2|0:0,0:0:0:0:
144,120,174291,2,0,L|64:120,1,80,2|0,0:2|3:0,0:0:0:0:
216,216,174616,2,0,L|296:216,1,80,2|8,0:2|0:0,0:0:0:0:
368,120,174940,1,2,0:2:0:0:
216,228,175102,6,0,L|296:228,1,80,2|0,3:2|0:0,0:0:0:0:
144,120,175426,1,10,0:2:0:0:
256,360,175589,1,2,0:2:0:0:
368,120,175751,1,2,3:2:0:0:
256,328,175913,1,2,0:2:0:0:
144,120,176075,1,10,0:2:0:0:
256,296,176237,1,2,0:2:0:0:
368,120,176399,5,2,3:2:0:0:
256,264,176561,2,0,P|220:279|184:264,1,80,2|8,0:2|0:0,0:0:0:0:
256,120,176886,2,0,P|292:105|328:120,1,80,2|0,0:2|3:0,0:0:0:0:
256,296,177210,2,0,P|220:311|184:296,1,80,2|8,0:2|0:0,0:0:0:0:
256,88,177534,1,2,0:2:0:0:
184,296,177697,6,0,P|148:311|112:296,1,80,2|0,3:2|0:0,0:0:0:0:
184,88,178021,1,10,0:2:0:0:
112,296,178183,2,0,P|76:311|40:296,1,80,2|0,3:2|3:2,0:0:0:0:
112,88,178507,1,10,0:2:0:0:
184,296,178670,1,2,3:2:0:0:
256,88,178832,5,10,0:2:0:0:
256,88,178913,1,2,0:0:0:0:
256,88,178994,2,0,B|288:88|288:88|292:95|292:95|296:88|296:88|328:88,1,80,2|0,3:2|0:0,0:0:0:0:
256,192,179318,1,10,0:2:0:0:
328,296,179480,2,0,B|296:296|296:296|292:289|292:289|288:296|288:296|256:296,1,80,2|0,0:2|3:0,0:0:0:0:
104,192,179805,2,0,B|136:192|136:192|140:185|140:185|144:192|144:192|176:192,1,80,2|8,0:2|0:0,0:0:0:0:
256,88,180129,1,2,0:2:0:0:
104,187,180291,2,0,B|136:187|136:187|140:180|140:180|144:187|144:187|176:187,1,80,0|0,3:0|0:0,0:0:0:0:
256,296,180616,5,10,0:2:0:0:
336,192,180778,1,2,0:2:0:0:
256,88,180940,1,2,3:2:0:0:
364,192,181102,1,2,0:2:0:0:
256,296,181264,1,10,0:2:0:0:
392,192,181426,5,2,0:2:0:0:
392,192,181507,1,2,0:0:0:0:
392,192,181589,2,0,L|472:192,1,80,2|0,3:2|0:0,0:0:0:0:
256,296,181913,6,0,L|136:296,1,120,10|0,0:2|0:0,0:0:0:0:
61,296,182237,1,2,3:2:0:0:
256,192,182399,6,0,L|296:192,1,40,8|8,0:0|0:0,0:0:0:0:
392,192,182561,5,10,0:2:0:0:
392,181,182643,1,8,0:0:0:0:
392,170,182724,1,8,0:3:0:0:
392,159,182805,1,8,0:3:0:0:
392,148,182886,5,2,3:2:0:0:
384,95,182967,1,8,0:0:0:0:
355,48,183048,1,8,0:0:0:0:
310,17,183129,1,8,0:0:0:0:
256,7,183210,5,8,0:3:0:0:
202,17,183291,1,8,0:3:0:0:
157,48,183372,1,8,0:3:0:0:
128,95,183453,1,8,0:3:0:0:
120,148,183534,6,0,L|132:187,1,40,10|8,0:2|0:0,0:0:0:0:
192,312,183697,2,0,L|204:274,1,40,8|8,0:3|0:3,0:0:0:0:
392,148,183859,6,0,L|381:187,1,40,8|8,0:0|0:0,0:0:0:0:
320,312,184021,2,0,L|309:274,1,40,0|0,3:0|3:0,0:0:0:0:
120,148,184183,5,4,3:2:0:0:
256,192,184264,12,0,186778,3:0:0:0:
