osu file format v14

[General]
AudioFilename: audio.mp3
AudioLeadIn: 0
PreviewTime: 142264
Countdown: 0
SampleSet: Soft
StackLeniency: 0.2
Mode: 0
LetterboxInBreaks: 0
EpilepsyWarning: 1
WidescreenStoryboard: 1

[Editor]
Bookmarks: 2562,12940,23318,33697,44075,49264,59643,70021,80399,90778,101156,111534,116724,127102,137480,142670,153048,163426,173805,184183,194561,204940
DistanceSpacing: 1
BeatDivisor: 4
GridSize: 4
TimelineZoom: 2.5

[Metadata]
Title:Teo
TitleUnicode:テオ
Artist:Omoi
ArtistUnicode:Omoi
Creator:Shmiklak
Version:Daycore's Hard
Source:osu!
Tags:marvollo m_a_r_v_o_l_l_o gero nymphe daycore wajinshu vocaloid hatsune miku synth rock first waltz japanese fa featured artist mappers' guild mpg 初音ミク j-rock ボーカロイド
BeatmapID:2661061
BeatmapSetID:1274098

[Difficulty]
HPDrainRate:4
CircleSize:4.2
OverallDifficulty:6.5
ApproachRate:7.5
SliderMultiplier:1.4
SliderTickRate:1

[Events]
//Background and Video events
0,0,"123.jpg",0,0
//Break Periods
2,13140,21682
2,113194,114601
2,186978,193736
//Storyboard Layer 0 (Background)
//Storyboard Layer 1 (Fail)
//Storyboard Layer 2 (Pass)
//Storyboard Layer 3 (Foreground)
Sprite,Foreground,Centre,"sb\credits\daycore.png",320,325 S,0,15534,,0.3 F,0,15534,15859,0,1 F,0,22021,23318,1,0
Sprite,Foreground,Centre,"sb\l.png",0,0 C,0,116724,,249,155,206 M,0,116724,116764,240,179,254.1121,168.6511 F,2,116724,117167,1,0 S,2,116724,117167,1.4,0.28 M,0,116764,116805,254.1121,168.6511,271.2986,169.811 M,0,116805,116845,271.2986,169.811,254.1121,168.6511 M,0,116845,116886,254.1121,168.6511,240,179 M,0,116886,116926,240,179,254.1121,168.6511 M,0,116926,116967,254.1121,168.6511,271.2986,169.811
Sprite,Foreground,Centre,"sb\l.png",0,0 C,0,117048,,249,155,206 M,0,117048,117088,306,192,316.3489,206.1121 F,2,117048,117491,1,0 S,2,117048,117491,1.4,0.28 M,0,117088,117129,316.3489,206.1121,315.189,223.2986 M,0,117129,117169,315.189,223.2986,316.3489,206.1121 M,0,117169,117210,316.3489,206.1121,306,192 M,0,117210,117250,306,192,316.3489,206.1121 M,0,117250,117291,316.3489,206.1121,315.189,223.2986
Sprite,Foreground,Centre,"sb\l.png",0,0 C,0,117372,,249,155,206 M,0,117372,117412,292,254,277.8879,264.3489 F,2,117372,117815,1,0 S,2,117372,117815,1.4,0.28 M,0,117412,117453,277.8879,264.3489,260.7014,263.189 M,0,117453,117493,260.7014,263.189,277.8879,264.3489 M,0,117493,117534,277.8879,264.3489,292,254 M,0,117534,117574,292,254,277.8879,264.3489 M,0,117574,117615,277.8879,264.3489,260.7014,263.189
Sprite,Foreground,Centre,"sb\l.png",0,0 C,0,117696,,249,155,206 M,0,117696,117736,231,244,220.6511,229.8879 F,2,117696,118139,1,0 S,2,117696,118139,1.4,0.28 M,0,117736,117777,220.6511,229.8879,221.811,212.7014 M,0,117777,117817,221.811,212.7014,220.6511,229.8879 M,0,117817,117858,220.6511,229.8879,231,244 M,0,117858,117898,231,244,220.6511,229.8879 M,0,117898,117939,220.6511,229.8879,221.811,212.7014
Sprite,Foreground,Centre,"sb\l.png",267,219 C,0,118021,,139,160,235 F,2,118021,118221,1,0 S,2,118021,118221,1.4,0.28
Sprite,Foreground,Centre,"sb\l.png",0,0 C,0,118183,,139,160,235 M,0,118183,118223,247,147,264.1872,144.084 F,2,118183,118545,1,0 S,2,118183,118545,1.4,0.28 M,0,118223,118264,264.1872,144.084,281.5343,145.5708 M,0,118264,118304,281.5343,145.5708,297.9352,151.3556 M,0,118304,118345,297.9352,151.3556,312.5003,160.9066
Sprite,Foreground,Centre,"sb\l.png",267,219 C,0,118507,,139,160,235 F,2,118507,118707,1,0 S,2,118507,118707,1.4,0.28
Sprite,Foreground,Centre,"sb\l.png",0,0 C,0,118670,,139,160,235 M,0,118670,118710,287,290,269.686,292.1497 F,2,118670,119032,1,0 S,2,118670,119032,1.4,0.28 M,0,118710,118751,269.686,292.1497,252.3313,290.5676 M,0,118751,118791,252.3313,290.5676,235.7263,285.3331 M,0,118791,118832,235.7263,285.3331,220.6269,276.6902
Sprite,Foreground,Centre,"sb\l.png",0,0 C,0,118994,,139,160,235 M,0,118994,119034,165,213,150.4369,203.4139 F,2,118994,119356,1,0 S,2,118994,119356,1.4,0.28 M,0,119034,119075,150.4369,203.4139,134.0618,197.5012 M,0,119075,119115,134.0618,197.5012,116.7785,195.5779 M,0,119115,119156,116.7785,195.5779,99.45673,197.4514
Sprite,Foreground,Centre,"sb\l.png",0,0 C,0,119318,,242,108,94 M,0,119318,119358,64,126,65.14883,143.4622 F,2,119318,119842,1,0 S,2,119318,119842,1.4,0.28 M,0,119358,119399,65.14883,143.4622,66.29766,160.9245 M,0,119399,119439,66.29766,160.9245,67.4465,178.3867 M,0,119439,119480,67.4465,178.3867,68.59533,195.849 M,0,119480,119520,68.59533,195.849,69.74416,213.3112 M,0,119520,119561,69.74416,213.3112,70.89299,230.7735 M,0,119561,119601,70.89299,230.7735,72.04182,248.2357 M,0,119601,119642,72.04182,248.2357,73.19066,265.698
Sprite,Foreground,Centre,"sb\l.png",0,0 C,0,119805,,242,108,94 M,0,119805,119845,150,299,132.9025,302.5703 F,2,119805,120329,1,0 S,2,119805,120329,1.4,0.28 M,0,119845,119886,132.9025,302.5703,117.0931,309.9706 M,0,119886,119926,117.0931,309.9706,103.5374,320.973 M,0,119926,119967,103.5374,320.973,92.67506,334.6575 M,0,119967,120007,92.67506,334.6575,102.0535,341.8868 M,0,120007,120048,102.0535,341.8868,118.3731,348.1465 M,0,120048,120088,118.3731,348.1465,133.2146,357.3591 M,0,120088,120129,133.2146,357.3591,145.681,369.5862
Sprite,Foreground,Centre,"sb\l.png",218,410 C,0,120291,,242,108,94 F,2,120291,120491,1,0 S,2,120291,120491,1.4,0.28
Sprite,Foreground,Centre,"sb\l.png",281,354 C,0,120453,,242,108,94 F,2,120453,120653,1,0 S,2,120453,120653,1.4,0.28
Sprite,Foreground,Centre,"sb\l.png",0,0 C,0,120616,,166,142,193 M,0,120616,120656,353,396,362.3053,381.2492 F,2,120616,121140,1,0 S,2,120616,121140,1.4,0.28 M,0,120656,120697,362.3053,381.2492,367.0185,364.4568 M,0,120697,120737,367.0185,364.4568,367.3065,346.9969 M,0,120737,120778,367.3065,346.9969,364.2089,329.7934 M,0,120778,120818,364.2089,329.7934,359.7338,312.8907 M,0,120818,120859,359.7338,312.8907,358.357,295.4796 M,0,120859,120899,358.357,295.4796,361.3674,278.3015 M,0,120899,120940,361.3674,278.3015,369.3362,262.7986
Sprite,Foreground,Centre,"sb\l.png",0,0 C,0,121102,,166,142,193 M,0,121102,121142,443,301,449,284.6062 F,2,121102,121626,1,0 S,2,121102,121626,1.4,0.28 M,0,121142,121183,449,284.6062,451.486,267.3395 M,0,121183,121223,451.486,267.3395,450.3557,249.9427 M,0,121223,121264,450.3557,249.9427,445.6621,233.1635 M,0,121264,121304,445.6621,233.1635,437.6106,217.7224 M,0,121304,121345,437.6106,217.7224,426.5504,204.2816 M,0,121345,121385,426.5504,204.2816,412.9593,193.4173 M,0,121385,121426,412.9593,193.4173,397.4232,185.5949
Sprite,Foreground,Centre,"sb\l.png",326,139 C,0,121589,,166,142,193 F,2,121589,121789,1,0 S,2,121589,121789,1.4,0.28
Sprite,Foreground,Centre,"sb\l.png",271,203 C,0,121751,,166,142,193 F,2,121751,121951,1,0 S,2,121751,121951,1.4,0.28
Sprite,Foreground,Centre,"sb\l.png",271,203 C,0,121832,,166,142,193 F,2,121832,122032,1,0 S,2,121832,122032,1.4,0.28
Sprite,Foreground,Centre,"sb\l.png",0,0 C,0,121913,,249,155,206 M,0,121913,121953,271,203,253.5549,204.3845 F,2,121913,122329,1,0 S,2,121913,122329,1.4,0.28 M,0,121953,121994,253.5549,204.3845,236.1097,205.7691 M,0,121994,122034,236.1097,205.7691,230.2947,206.2306 M,0,122034,122075,230.2947,206.2306,247.7398,204.8461 M,0,122075,122115,247.7398,204.8461,265.1849,203.4615 M,0,122115,122129,265.1849,203.4615,271,203
Sprite,Foreground,Centre,"sb\l.png",0,0 C,0,122237,,249,155,206 M,0,122237,122277,276,264,258.5605,265.4533 F,2,122237,122653,1,0 S,2,122237,122653,1.4,0.28 M,0,122277,122318,258.5605,265.4533,241.1209,266.9066 M,0,122318,122358,241.1209,266.9066,235.3077,267.391 M,0,122358,122399,235.3077,267.391,252.7473,265.9377 M,0,122399,122439,252.7473,265.9377,270.1868,264.4844 M,0,122439,122453,270.1868,264.4844,276,264
Sprite,Foreground,Centre,"sb\l.png",0,0 C,0,122561,,249,155,206 M,0,122561,122601,281,326,263.5605,327.4533 F,2,122561,122977,1,0 S,2,122561,122977,1.4,0.28 M,0,122601,122642,263.5605,327.4533,246.1209,328.9066 M,0,122642,122682,246.1209,328.9066,240.3077,329.391 M,0,122682,122723,240.3077,329.391,257.7473,327.9377 M,0,122723,122763,257.7473,327.9377,275.1868,326.4844 M,0,122763,122777,275.1868,326.4844,281,326
Sprite,Foreground,Centre,"sb\l.png",0,0 C,0,122886,,249,155,206 M,0,122886,122926,344,320,361.4018,318.1487 F,2,122886,123302,1,0 S,2,122886,123302,1.4,0.28 M,0,122926,122967,361.4018,318.1487,378.8036,316.2975 M,0,122967,123007,378.8036,316.2975,384.6042,315.6804 M,0,123007,123048,384.6042,315.6804,367.2024,317.5316 M,0,123048,123088,367.2024,317.5316,349.8006,319.3829 M,0,123088,123102,349.8006,319.3829,344,320
Sprite,Foreground,Centre,"sb\l.png",0,0 C,0,123210,,139,160,235 M,0,123210,123250,384,256,366.5605,257.4533 F,2,123210,123626,1,0 S,2,123210,123626,1.4,0.28 M,0,123250,123291,366.5605,257.4533,349.1209,258.9066 M,0,123291,123331,349.1209,258.9066,343.3077,259.391 M,0,123331,123372,343.3077,259.391,360.7473,257.9377 M,0,123372,123412,360.7473,257.9377,378.1868,256.4844 M,0,123412,123426,378.1868,256.4844,384,256
Sprite,Foreground,Centre,"sb\l.png",0,0 C,0,123534,,139,160,235 M,0,123534,123574,449,250,466.4018,248.1487 F,2,123534,123950,1,0 S,2,123534,123950,1.4,0.28 M,0,123574,123615,466.4018,248.1487,483.8036,246.2975 M,0,123615,123655,483.8036,246.2975,489.6042,245.6804 M,0,123655,123696,489.6042,245.6804,472.2024,247.5317 M,0,123696,123736,472.2024,247.5317,454.8006,249.3829 M,0,123736,123750,454.8006,249.3829,449,250
Sprite,Foreground,Centre,"sb\l.png",0,0 C,0,123859,,139,160,235 M,0,123859,123899,411,196,409.1869,178.5942 F,2,123859,124275,1,0 S,2,123859,124275,1.4,0.28 M,0,123899,123940,409.1869,178.5942,407.3738,161.1884 M,0,123940,123980,407.3738,161.1884,406.7694,155.3864 M,0,123980,124021,406.7694,155.3864,408.5825,172.7922 M,0,124021,124061,408.5825,172.7922,410.3956,190.1981 M,0,124061,124075,410.3956,190.1981,411,196
Sprite,Foreground,Centre,"sb\l.png",470,182 C,0,124183,,139,160,235 F,2,124183,124383,1,0 S,2,124183,124383,1.4,0.28
Sprite,Foreground,Centre,"sb\l.png",468,168 C,0,124291,,139,160,235 F,2,124291,124491,1,0 S,2,124291,124491,1.4,0.28
Sprite,Foreground,Centre,"sb\l.png",467,153 C,0,124399,,139,160,235 F,2,124399,124599,1,0 S,2,124399,124599,1.4,0.28
Sprite,Foreground,Centre,"sb\l.png",0,0 C,0,124507,,242,108,94 M,0,124507,124547,465,139,447.852,142.3842 F,2,124507,125031,1,0 S,2,124507,125031,1.4,0.28 M,0,124547,124588,447.852,142.3842,430.4186,141.874 M,0,124588,124628,430.4186,141.874,413.9855,136.0622 M,0,124628,124669,413.9855,136.0622,399.0269,126.9906 M,0,124669,124709,399.0269,126.9906,383.6319,118.7149 M,0,124709,124750,383.6319,118.7149,366.8083,114.07 M,0,124750,124790,366.8083,114.07,349.3509,113.3851 M,0,124790,124831,349.3509,113.3851,331.9987,115.5491
Sprite,Foreground,Centre,"sb\l.png",254,148 C,0,124994,,242,108,94 F,2,124994,125194,1,0 S,2,124994,125194,1.4,0.28
Sprite,Foreground,Centre,"sb\l.png",0,0 C,0,125156,,242,108,94 M,0,125156,125196,316,191,305.1761,204.6858 F,2,125156,125518,1,0 S,2,125156,125518,1.4,0.28 M,0,125196,125237,305.1761,204.6858,291.2587,215.2023 M,0,125237,125277,291.2587,215.2023,275.1459,221.8735 M,0,125277,125318,275.1459,221.8735,257.877,224.2718
Sprite,Foreground,Centre,"sb\l.png",0,0 C,0,125480,,242,108,94 M,0,125480,125520,254,148,242.8249,134.592 F,2,125480,125842,1,0 S,2,125480,125842,1.4,0.28 M,0,125520,125561,242.8249,134.592,229.0291,123.9198 M,0,125561,125601,229.0291,123.9198,213.2651,116.4819 M,0,125601,125642,213.2651,116.4819,196.2774,112.6247
Sprite,Foreground,Centre,"sb\l.png",189,115 C,0,125724,,242,108,94 F,2,125724,125924,1,0 S,2,125724,125924,1.4,0.28
Sprite,Foreground,Centre,"sb\l.png",0,0 C,0,125805,,166,142,193 M,0,125805,125845,182,118,164.558,116.5762 F,2,125805,126248,1,0 S,2,125805,126248,1.4,0.28 M,0,125845,125886,164.558,116.5762,147.116,115.1523 M,0,125886,125926,147.116,115.1523,164.558,116.5762 M,0,125926,125967,164.558,116.5762,182,118 M,0,125967,126007,182,118,164.558,116.5762 M,0,126007,126048,164.558,116.5762,147.116,115.1523
Sprite,Foreground,Centre,"sb\l.png",0,0 C,0,126129,,166,142,193 M,0,126129,126169,135,123,117.5604,121.5467 F,2,126129,126572,1,0 S,2,126129,126572,1.4,0.28 M,0,126169,126210,117.5604,121.5467,100.1209,120.0934 M,0,126210,126250,100.1209,120.0934,117.5604,121.5467 M,0,126250,126291,117.5604,121.5467,135,123 M,0,126291,126331,135,123,117.5604,121.5467 M,0,126331,126372,117.5604,121.5467,100.1209,120.0934
Sprite,Foreground,Centre,"sb\l.png",0,0 C,0,126453,,166,142,193 M,0,126453,126493,101,152,99.60446,169.4443 F,2,126453,126896,1,0 S,2,126453,126896,1.4,0.28 M,0,126493,126534,99.60446,169.4443,98.20892,186.8885 M,0,126534,126574,98.20892,186.8885,99.60446,169.4443 M,0,126574,126615,99.60446,169.4443,101,152 M,0,126615,126655,101,152,99.60446,169.4443 M,0,126655,126696,99.60446,169.4443,98.20892,186.8885
Sprite,Foreground,Centre,"sb\l.png",0,0 C,0,126777,,166,142,193 M,0,126777,126817,107,199,105.5467,216.4395 F,2,126777,127220,1,0 S,2,126777,127220,1.4,0.28 M,0,126817,126858,105.5467,216.4395,104.0934,233.8791 M,0,126858,126898,104.0934,233.8791,105.5467,216.4395 M,0,126898,126939,105.5467,216.4395,107,199 M,0,126939,126979,107,199,105.5467,216.4395 M,0,126979,127020,105.5467,216.4395,104.0934,233.8791
Sprite,Foreground,Centre,"sb\l.png",0,0 C,0,127102,,249,155,206 M,0,127102,127142,142,293,153.1083,306.3795 F,2,127102,127464,1,0 S,2,127102,127464,1.4,0.28 M,0,127142,127183,153.1083,306.3795,159.2194,322.6254 M,0,127183,127223,159.2194,322.6254,159.6804,339.947 M,0,127223,127264,159.6804,339.947,154.4585,356.4414
Sprite,Foreground,Centre,"sb\l.png",0,0 C,0,127426,,249,155,206 M,0,127426,127466,225,312,230.8656,295.6328 F,2,127426,127788,1,0 S,2,127426,127788,1.4,0.28 M,0,127466,127507,230.8656,295.6328,241.7859,282.1478 M,0,127507,127547,241.7859,282.1478,256.5212,273.0429 M,0,127547,127588,256.5212,273.0429,273.4102,269.3229
Sprite,Foreground,Centre,"sb\l.png",0,0 C,0,127751,,249,155,206 M,0,127751,127791,352,299,363.622,311.9341 F,2,127751,128113,1,0 S,2,127751,128113,1.4,0.28 M,0,127791,127832,363.622,311.9341,370.1335,328.0287 M,0,127832,127872,370.1335,328.0287,370.7723,345.3537 M,0,127872,127913,370.7723,345.3537,365.4778,361.8379
Sprite,Foreground,Centre,"sb\l.png",0,0 C,0,128075,,249,155,206 M,0,128075,128115,442,395,459.4317,393.4554 F,2,128075,128437,1,0 S,2,128075,128437,1.4,0.28 M,0,128115,128156,459.4317,393.4554,476.8634,391.9108 M,0,128156,128196,476.8634,391.9108,494.2951,390.3662 M,0,128196,128237,494.2951,390.3662,511.7268,388.8217
Sprite,Foreground,Centre,"sb\l.png",511,308 C,0,128399,,139,160,235 F,2,128399,128599,1,0 S,2,128399,128599,1.4,0.28
Sprite,Foreground,Centre,"sb\l.png",0,0 C,0,128561,,139,160,235 M,0,128561,128601,511,308,502.666,292.6289 F,2,128561,128923,1,0 S,2,128561,128923,1.4,0.28 M,0,128601,128642,502.666,292.6289,496.434,276.2949 M,0,128642,128682,496.434,276.2949,492.4123,259.2837 M,0,128682,128723,492.4123,259.2837,490.6707,241.893
Sprite,Foreground,Centre,"sb\l.png",0,0 C,0,128886,,139,160,235 M,0,128886,128926,406,238,422.3867,243.7743 F,2,128886,129410,1,0 S,2,128886,129410,1.4,0.28 M,0,128926,128967,422.3867,243.7743,439.7154,243.808 M,0,128967,129007,439.7154,243.808,456.0447,238.1235 M,0,129007,129048,456.0447,238.1235,469.5514,227.3782 M,0,129048,129088,469.5514,227.3782,478.7315,212.7903 M,0,129088,129129,478.7315,212.7903,482.5656,196.0027 M,0,129129,129169,482.5656,196.0027,480.6313,178.9005 M,0,129169,129210,480.6313,178.9005,473.5649,163.1312
Sprite,Foreground,Centre,"sb\l.png",0,0 C,0,129372,,139,160,235 M,0,129372,129412,398,124,380.9793,127.0836 F,2,129372,129734,1,0 S,2,129372,129734,1.4,0.28 M,0,129412,129453,380.9793,127.0836,367.1252,137.3483 M,0,129453,129493,367.1252,137.3483,359.2691,152.6396 M,0,129493,129534,359.2691,152.6396,358.9954,169.7824
Sprite,Foreground,Centre,"sb\l.png",0,0 C,0,129697,,242,108,94 M,0,129697,129737,406,238,389.7982,244.5674 F,2,129697,130221,1,0 S,2,129697,130221,1.4,0.28 M,0,129737,129778,389.7982,244.5674,372.6794,248.0203 M,0,129778,129818,372.6794,248.0203,355.2354,247.3619 M,0,129818,129859,355.2354,247.3619,338.2381,243.2575 M,0,129859,129899,338.2381,243.2575,321.4209,238.4274 M,0,129899,129940,321.4209,238.4274,304.1074,236.1711 M,0,129940,129980,304.1074,236.1711,286.8124,238.4705 M,0,129980,130021,286.8124,238.4705,270.4875,244.6964
Sprite,Foreground,Centre,"sb\l.png",216,180 C,0,130183,,242,108,94 F,2,130183,130383,1,0 S,2,130183,130383,1.4,0.28
Sprite,Foreground,Centre,"sb\l.png",0,0 C,0,130345,,242,108,94 M,0,130345,130385,156,219,145.9099,204.7202 F,2,130345,130707,1,0 S,2,130345,130707,1.4,0.28 M,0,130385,130426,145.9099,204.7202,137.8481,189.2066 M,0,130426,130466,137.8481,189.2066,131.9629,172.7456 M,0,130466,130507,131.9629,172.7456,128.3624,155.6408
Sprite,Foreground,Centre,"sb\l.png",0,0 C,0,130670,,242,108,94 M,0,130670,130710,189,116,198.6047,130.6122 F,2,130670,131032,1,0 S,2,130670,131032,1.4,0.28 M,0,130710,130751,198.6047,130.6122,206.334,146.2939 M,0,130751,130791,206.334,146.2939,212.0707,162.8058 M,0,130791,130832,212.0707,162.8058,215.7282,179.8963
Sprite,Foreground,Centre,"sb\l.png",0,0 C,0,130994,,166,142,193 M,0,130994,131034,270,244,262.65,259.859 F,2,130994,131518,1,0 S,2,130994,131518,1.4,0.28 M,0,131034,131075,262.65,259.859,257.8917,276.6829 M,0,131075,131115,257.8917,276.6829,255.4579,294.0015 M,0,131115,131156,255.4579,294.0015,254.988,311.4876 M,0,131156,131196,254.988,311.4876,240.6508,302.9528 M,0,131196,131237,240.6508,302.9528,224.2737,296.8987 M,0,131237,131277,224.2737,296.8987,206.9287,294.9382 M,0,131277,131318,206.9287,294.9382,189.5973,297.0867
Sprite,Foreground,Centre,"sb\l.png",0,0 C,0,131480,,166,142,193 M,0,131480,131520,118,340,132.5077,330.3802 F,2,131480,132004,1,0 S,2,131480,132004,1.4,0.28 M,0,131520,131561,132.5077,330.3802,149.2203,325.6077 M,0,131561,131601,149.2203,325.6077,166.5692,326.1148 M,0,131601,131642,166.5692,326.1148,182.9307,331.8408 M,0,131642,131682,182.9307,331.8408,196.7766,342.238 M,0,131682,131723,196.7766,342.238,206.8165,356.3242 M,0,131723,131763,206.8165,356.3242,212.1175,372.7745 M,0,131763,131804,212.1175,372.7745,212.1904,390.0454
Sprite,Foreground,Centre,"sb\l.png",208,396 C,0,131886,,166,142,193 F,2,131886,132086,1,0 S,2,131886,132086,1.4,0.28
Sprite,Foreground,Centre,"sb\l.png",204,402 C,0,131967,,166,142,193 F,2,131967,132167,1,0 S,2,131967,132167,1.4,0.28
Sprite,Foreground,Centre,"sb\l.png",292,390 C,0,132129,,166,142,193 F,2,132129,132329,1,0 S,2,132129,132329,1.4,0.28
Sprite,Foreground,Centre,"sb\l.png",292,390 C,0,132210,,166,142,193 F,2,132210,132410,1,0 S,2,132210,132410,1.4,0.28
Sprite,Foreground,Centre,"sb\l.png",0,0 C,0,132291,,249,155,206 M,0,132291,132331,292,390,308.554,384.3243 F,2,132291,132815,1,0 S,2,132291,132815,1.4,0.28 M,0,132331,132372,308.554,384.3243,325.1081,378.6487 M,0,132372,132412,325.1081,378.6487,337.6479,379.0675 M,0,132412,132453,337.6479,379.0675,354.1696,384.837 M,0,132453,132493,354.1696,384.837,370.6912,390.6064 M,0,132493,132534,370.6912,390.6064,387.2128,396.3759 M,0,132534,132574,387.2128,396.3759,399.231,394.6397 M,0,132574,132615,399.231,394.6397,415.0245,387.102
Sprite,Foreground,Centre,"sb\l.png",453,312 C,0,132778,,249,155,206 F,2,132778,132978,1,0 S,2,132778,132978,1.4,0.28
Sprite,Foreground,Centre,"sb\l.png",0,0 C,0,132940,,249,155,206 M,0,132940,132980,534,329,529.7218,312.0772 F,2,132940,133464,1,0 S,2,132940,133464,1.4,0.28 M,0,132980,133021,529.7218,312.0772,529.7557,294.6215 M,0,133021,133061,529.7557,294.6215,533.7334,277.6117 M,0,133061,133102,533.7334,277.6117,538.4346,262.7391 M,0,133102,133142,538.4346,262.7391,531.0348,254.7819 M,0,133142,133183,531.0348,254.7819,536.0427,238.0556 M,0,133183,133223,536.0427,238.0556,537.1964,220.6265 M,0,133223,133264,537.1964,220.6265,535.0142,203.2845
Sprite,Foreground,Centre,"sb\l.png",452,219 C,0,133426,,249,155,206 F,2,133426,133626,1,0 S,2,133426,133626,1.4,0.28
Sprite,Foreground,Centre,"sb\l.png",0,0 C,0,133589,,139,160,235 M,0,133589,133629,411,145,395.9842,153.9443 F,2,133589,134113,1,0 S,2,133589,134113,1.4,0.28 M,0,133629,133670,395.9842,153.9443,382.8036,165.4193 M,0,133670,133710,382.8036,165.4193,371.8607,179.0479 M,0,133710,133751,371.8607,179.0479,363.2543,194.2662 M,0,133751,133791,363.2543,194.2662,351.5268,187.0007 M,0,133791,133832,351.5268,187.0007,337.1282,177.0954 M,0,133832,133872,337.1282,177.0954,321.2114,169.8748 M,0,133872,133913,321.2114,169.8748,304.3252,165.3478
Sprite,Foreground,Centre,"sb\l.png",348,93 C,0,134075,,139,160,235 F,2,134075,134275,1,0 S,2,134075,134275,1.4,0.28
Sprite,Foreground,Centre,"sb\l.png",0,0 C,0,134237,,139,160,235 M,0,134237,134277,264,102,249.2827,111.3262 F,2,134237,134599,1,0 S,2,134237,134599,1.4,0.28 M,0,134277,134318,249.2827,111.3262,238.0596,124.6405 M,0,134318,134358,238.0596,124.6405,231.366,140.7056 M,0,134358,134399,231.366,140.7056,229.8167,158.0308
Sprite,Foreground,Centre,"sb\l.png",257,251 C,0,134561,,139,160,235 F,2,134561,134761,1,0 S,2,134561,134761,1.4,0.28
Sprite,Foreground,Centre,"sb\l.png",0,0 C,0,134643,,139,160,235 M,0,134643,134683,260,257,258.0674,274.3929 F,2,134643,135005,1,0 S,2,134643,135005,1.4,0.28 M,0,134683,134724,258.0674,274.3929,256.1349,291.7859 M,0,134724,134764,256.1349,291.7859,258.0674,274.3929 M,0,134764,134805,258.0674,274.3929,260,257
Sprite,Foreground,Centre,"sb\l.png",294,247 C,0,134886,,242,108,94 F,2,134886,135086,1,0 S,2,134886,135086,1.4,0.28
Sprite,Foreground,Centre,"sb\l.png",374,264 C,0,135048,,242,108,94 F,2,135048,135248,1,0 S,2,135048,135248,1.4,0.28
Sprite,Foreground,Centre,"sb\l.png",264,102 C,0,135372,,166,142,193 F,2,135372,135572,1,0 S,2,135372,135572,1.4,0.28
Sprite,Foreground,Centre,"sb\l.png",344,120 C,0,135534,,166,142,193 F,2,135534,135734,1,0 S,2,135534,135734,1.4,0.28
Sprite,Foreground,Centre,"sb\l.png",492,163 C,0,135859,,249,155,206 F,2,135859,136059,1,0 S,2,135859,136059,1.4,0.28
Sprite,Foreground,Centre,"sb\l.png",412,180 C,0,136021,,249,155,206 F,2,136021,136221,1,0 S,2,136021,136221,1.4,0.28
Sprite,Foreground,Centre,"sb\l.png",294,247 C,0,136345,,139,160,235 F,2,136345,136545,1,0 S,2,136345,136545,1.4,0.28
Sprite,Foreground,Centre,"sb\l.png",374,264 C,0,136507,,139,160,235 F,2,136507,136707,1,0 S,2,136507,136707,1.4,0.28
Sprite,Foreground,Centre,"sb\l.png",0,0 C,0,136832,,242,108,94 M,0,136832,136872,535,310,533.7104,327.386 F,2,136832,137194,1,0 S,2,136832,137194,1.4,0.28 M,0,136872,136913,533.7104,327.386,528.1505,343.886 M,0,136913,136953,528.1505,343.886,518.6771,358.4719 M,0,136953,136994,518.6771,358.4719,505.8895,370.236
Sprite,Foreground,Centre,"sb\l.png",0,0 C,0,137156,,242,108,94 M,0,137156,137196,421,381,403.5562,379.5983 F,2,137156,137599,1,0 S,2,137156,137599,1.4,0.28 M,0,137196,137237,403.5562,379.5983,386.1125,378.1965 M,0,137237,137277,386.1125,378.1965,368.6687,376.7948 M,0,137277,137318,368.6687,376.7948,351.2249,375.3931 M,0,137318,137358,351.2249,375.3931,333.7811,373.9913 M,0,137358,137399,333.7811,373.9913,316.3374,372.5896
Sprite,Foreground,Centre,"sb\ring.png",208,156 C,0,142670,,166,142,193 F,2,142670,143670,1,0 S,2,142670,143670,0,3
Sprite,Foreground,Centre,"sb\ring.png",245,322 C,0,143967,,166,142,193 F,2,143967,144967,1,0 S,2,143967,144967,0,3
Sprite,Foreground,Centre,"sb\ring.png",498,216 C,0,145264,,166,142,193 F,2,145264,146264,1,0 S,2,145264,146264,0,3
Sprite,Foreground,Centre,"sb\ring.png",527,406 C,0,146561,,166,142,193 F,2,146561,147561,1,0 S,2,146561,147561,0,3
Sprite,Foreground,Centre,"sb\line.png",220,154 C,0,2562,,76,26,138 F,0,2562,3724,0.6,0 R,0,2562,3724,-0.06787298 V,0,2562,3724,5,3,1,1
Sprite,Foreground,Centre,"sb\line.png",240,268 C,0,2886,,76,26,138 F,0,2886,4210,0.6,0 R,0,2886,4210,-0.09519761 V,0,2886,4210,5,3,1,1
Sprite,Foreground,Centre,"sb\line.png",118,340 C,0,3372,,76,26,138 F,0,3372,4372,0.6,0 R,0,3372,4372,-0.08040681 V,0,3372,4372,5,3,1,1
Sprite,Foreground,Centre,"sb\line.png",131,412 C,0,3534,,76,26,138 F,0,3534,4696,0.6,0 R,0,3534,4696,-0.01744836 V,0,3534,4696,5,3,1,1
Sprite,Foreground,Centre,"sb\line.png",249,420 C,0,3859,,76,26,138 F,0,3859,5021,0.6,0 R,0,3859,5021,0.08819006 V,0,3859,5021,5,3,1,1
Sprite,Foreground,Centre,"sb\line.png",361,374 C,0,4183,,76,26,138 F,0,4183,5507,0.6,0 R,0,4183,5507,-0.01766544 V,0,4183,5507,5,3,1,1
Sprite,Foreground,Centre,"sb\line.png",520,372 C,0,4670,,76,26,138 F,0,4670,5670,0.6,0 R,0,4670,5670,-0.1218081 V,0,4670,5670,5,3,1,1
Sprite,Foreground,Centre,"sb\line.png",520,372 C,0,4832,,76,26,138 F,0,4832,5994,0.6,0 R,0,4832,5994,0.01734664 V,0,4832,5994,5,3,1,1
Sprite,Foreground,Centre,"sb\line.png",481,253 C,0,5156,,76,26,138 F,0,5156,6318,0.6,0 R,0,5156,6318,-0.1432649 V,0,5156,6318,5,3,1,1
Sprite,Foreground,Centre,"sb\line.png",413,159 C,0,5480,,76,26,138 F,0,5480,6804,0.6,0 R,0,5480,6804,0.06788866 V,0,5480,6804,5,3,1,1
Sprite,Foreground,Centre,"sb\line.png",456,75 C,0,5967,,76,26,138 F,0,5967,6967,0.6,0 R,0,5967,6967,0.06242811 V,0,5967,6967,5,3,1,1
Sprite,Foreground,Centre,"sb\line.png",383,62 C,0,6129,,76,26,138 F,0,6129,7291,0.6,0 R,0,6129,7291,0.00980559 V,0,6129,7291,5,3,1,1
Sprite,Foreground,Centre,"sb\line.png",263,80 C,0,6453,,76,26,138 F,0,6453,7615,0.6,0 R,0,6453,7615,-0.03979772 V,0,6453,7615,5,3,1,1
Sprite,Foreground,Centre,"sb\line.png",330,182 C,0,6778,,76,26,138 F,0,6778,8102,0.6,0 R,0,6778,8102,0.009146436 V,0,6778,8102,5,3,1,1
Sprite,Foreground,Centre,"sb\line.png",180,185 C,0,7264,,76,26,138 F,0,7264,8264,0.6,0 R,0,7264,8264,-0.1446454 V,0,7264,8264,5,3,1,1
Sprite,Foreground,Centre,"sb\line.png",123,231 C,0,7426,,76,26,138 F,0,7426,8588,0.6,0 R,0,7426,8588,0.1408899 V,0,7426,8588,5,3,1,1
Sprite,Foreground,Centre,"sb\line.png",135,291 C,0,7670,,76,26,138 F,0,7670,8670,0.6,0 R,0,7670,8670,-0.108711 V,0,7670,8670,5,3,1,1
Sprite,Foreground,Centre,"sb\line.png",142,298 C,0,7751,,76,26,138 F,0,7751,8913,0.6,0 R,0,7751,8913,-0.1486041 V,0,7751,8913,5,3,1,1
Sprite,Foreground,Centre,"sb\line.png",217,384 C,0,8075,,76,26,138 F,0,8075,9237,0.6,0 R,0,8075,9237,-0.05315435 V,0,8075,9237,5,3,1,1
Sprite,Foreground,Centre,"sb\line.png",317,316 C,0,8399,,76,26,138 F,0,8399,9561,0.6,0 R,0,8399,9561,0.05562246 V,0,8399,9561,5,3,1,1
Sprite,Foreground,Centre,"sb\line.png",368,230 C,0,8724,,76,26,138 F,0,8724,9886,0.6,0 R,0,8724,9886,-0.09507237 V,0,8724,9886,5,3,1,1
Sprite,Foreground,Centre,"sb\line.png",448,311 C,0,9048,,76,26,138 F,0,9048,10210,0.6,0 R,0,9048,10210,-0.1044155 V,0,9048,10210,5,3,1,1
Sprite,Foreground,Centre,"sb\line.png",537,234 C,0,9372,,76,26,138 F,0,9372,10534,0.6,0 R,0,9372,10534,-0.1475707 V,0,9372,10534,5,3,1,1
Sprite,Foreground,Centre,"sb\line.png",484,119 C,0,9697,,76,26,138 F,0,9697,10859,0.6,0 R,0,9697,10859,0.1402124 V,0,9697,10859,5,3,1,1
Sprite,Foreground,Centre,"sb\line.png",359,113 C,0,10021,,76,26,138 F,0,10021,11183,0.6,0 R,0,10021,11183,-0.05998259 V,0,10021,11183,5,3,1,1
Sprite,Foreground,Centre,"sb\line.png",242,145 C,0,10345,,76,26,138 F,0,10345,11507,0.6,0 R,0,10345,11507,-0.007885243 V,0,10345,11507,5,3,1,1
Sprite,Foreground,Centre,"sb\line.png",203,226 C,0,10670,,76,26,138 F,0,10670,11832,0.6,0 R,0,10670,11832,-0.1302056 V,0,10670,11832,5,3,1,1
Sprite,Foreground,Centre,"sb\line.png",150,112 C,0,10994,,76,26,138 F,0,10994,12156,0.6,0 R,0,10994,12156,-0.05628609 V,0,10994,12156,5,3,1,1
Sprite,Foreground,Centre,"sb\line.png",264,65 C,0,11318,,76,26,138 F,0,11318,12561,0.6,0 R,0,11318,12561,-0.01404463 V,0,11318,12561,5,3,1,1
Sprite,Foreground,Centre,"sb\line.png",298,56 C,0,11643,,76,26,138 F,0,11643,12643,0.6,0 R,0,11643,12643,0.125667 V,0,11643,12643,5,3,1,1
Sprite,Foreground,Centre,"sb\line.png",407,100 C,0,11886,,76,26,138 F,0,11886,12886,0.6,0 R,0,11886,12886,0.09386263 V,0,11886,12886,5,3,1,1
Sprite,Foreground,Centre,"sb\line.png",416,218 C,0,12129,,76,26,138 F,0,12129,13129,0.6,0 R,0,12129,13129,0.01400184 V,0,12129,13129,5,3,1,1
Sprite,Foreground,Centre,"sb\line.png",416,218 C,0,12453,,76,26,138 F,0,12453,13453,0.6,0 R,0,12453,13453,0.06084844 V,0,12453,13453,5,3,1,1
Sprite,Foreground,Centre,"sb\line.png",419,227 C,0,12534,,76,26,138 F,0,12534,13534,0.6,0 R,0,12534,13534,-0.1465631 V,0,12534,13534,5,3,1,1
Sprite,Foreground,Centre,"sb\line.png",422,236 C,0,12616,,76,26,138 F,0,12616,13859,0.6,0 R,0,12616,13859,-0.04280924 V,0,12616,13859,5,3,1,1
Sprite,Foreground,Centre,"sb\line.png",526,256 C,0,44075,,76,26,138 F,0,44075,45399,0.6,0 R,0,44075,45399,-0.06787298 V,0,44075,45399,5,3,1,1
Sprite,Foreground,Centre,"sb\line.png",342,272 C,0,44561,,76,26,138 F,0,44561,45561,0.6,0 R,0,44561,45561,-0.09519761 V,0,44561,45561,5,3,1,1
Sprite,Foreground,Centre,"sb\line.png",342,272 C,0,44724,,76,26,138 F,0,44724,45886,0.6,0 R,0,44724,45886,-0.08040681 V,0,44724,45886,5,3,1,1
Sprite,Foreground,Centre,"sb\line.png",287,194 C,0,45048,,76,26,138 F,0,45048,46210,0.6,0 R,0,45048,46210,-0.01744836 V,0,45048,46210,5,3,1,1
Sprite,Foreground,Centre,"sb\line.png",413,226 C,0,45372,,76,26,138 F,0,45372,46696,0.6,0 R,0,45372,46696,0.08819006 V,0,45372,46696,5,3,1,1
Sprite,Foreground,Centre,"sb\line.png",317,67 C,0,45859,,76,26,138 F,0,45859,46859,0.6,0 R,0,45859,46859,-0.01766544 V,0,45859,46859,5,3,1,1
Sprite,Foreground,Centre,"sb\line.png",263,120 C,0,46021,,76,26,138 F,0,46021,47183,0.6,0 R,0,46021,47183,-0.1218081 V,0,46021,47183,5,3,1,1
Sprite,Foreground,Centre,"sb\line.png",287,194 C,0,46345,,76,26,138 F,0,46345,47507,0.6,0 R,0,46345,47507,0.01734664 V,0,46345,47507,5,3,1,1
Sprite,Foreground,Centre,"sb\line.png",148,178 C,0,46670,,76,26,138 F,0,46670,47994,0.6,0 R,0,46670,47994,-0.1432649 V,0,46670,47994,5,3,1,1
Sprite,Foreground,Centre,"sb\line.png",197,306 C,0,47156,,76,26,138 F,0,47156,48156,0.6,0 R,0,47156,48156,0.06788866 V,0,47156,48156,5,3,1,1
Sprite,Foreground,Centre,"sb\line.png",158,370 C,0,47318,,76,26,138 F,0,47318,48480,0.6,0 R,0,47318,48480,0.06242811 V,0,47318,48480,5,3,1,1
Sprite,Foreground,Centre,"sb\line.png",281,333 C,0,47643,,76,26,138 F,0,47643,48805,0.6,0 R,0,47643,48805,0.00980559 V,0,47643,48805,5,3,1,1
Sprite,Foreground,Centre,"sb\line.png",350,345 C,0,47886,,76,26,138 F,0,47886,48886,0.6,0 R,0,47886,48886,-0.03979772 V,0,47886,48886,5,3,1,1
Sprite,Foreground,Centre,"sb\line.png",355,353 C,0,47967,,76,26,138 F,0,47967,48967,0.6,0 R,0,47967,48967,0.009146436 V,0,47967,48967,5,3,1,1
Sprite,Foreground,Centre,"sb\line.png",413,400 C,0,48129,,76,26,138 F,0,48129,49534,0.6,0 R,0,48129,49534,-0.1446454 V,0,48129,49534,5,3,1,1
Sprite,Foreground,Centre,"sb\line.png",431,330 C,0,48616,,76,26,138 F,0,48616,49940,0.6,0 R,0,48616,49940,0.1408899 V,0,48616,49940,5,3,1,1
Sprite,Foreground,Centre,"sb\line.png",459,264 C,0,49102,,76,26,138 F,0,49102,50102,0.6,0 R,0,49102,50102,-0.108711 V,0,49102,50102,5,3,1,1
Sprite,Foreground,Centre,"sb\line.png",459,264 C,0,49183,,76,26,138 F,0,49183,50183,0.6,0 R,0,49183,50183,-0.1486041 V,0,49183,50183,5,3,1,1
//Storyboard Layer 4 (Overlay)
//Storyboard Sound Samples

[TimingPoints]
2562,324.324324324324,4,2,1,50,1,0
2562,-133.333333333333,4,2,1,50,0,0
12453,-133.333333333333,4,2,1,75,0,0
12940,-133.333333333333,4,2,1,90,0,0
22670,-111.111111111111,4,2,1,90,0,0
23318,-111.111111111111,4,2,1,80,0,0
35480,-99.9999999999999,4,2,1,80,0,0
35967,-111.111111111111,4,2,1,80,0,0
44075,-111.111111111111,4,2,1,90,0,0
49264,-111.111111111111,4,2,1,80,0,0
66372,-111.111111111111,4,2,1,5,0,0
66453,-111.111111111111,4,2,1,80,0,0
70021,-100,4,2,1,95,0,0
111534,-100,4,2,1,70,0,0
112183,-100,4,2,1,67,0,0
112832,-100,4,2,1,64,0,0
113480,-100,4,2,1,61,0,0
114129,-100,4,2,1,58,0,0
114778,-100,4,2,1,55,0,0
115426,-100,4,2,1,50,0,0
116237,-100,4,2,1,70,0,0
116724,-100,4,2,1,90,0,0
137399,-100,4,2,1,5,0,0
137480,-100,4,2,1,90,0,0
140724,-83.3333333333333,4,2,1,90,0,0
142589,-100,4,2,1,90,0,0
142670,-222.222222222221,4,2,1,70,0,0
143805,-222.222222222221,4,2,1,70,0,0
143967,-222.222222222221,4,2,1,70,0,0
145102,-222.222222222221,4,2,1,70,0,0
145264,-222.222222222221,4,2,1,70,0,0
146399,-222.222222222221,4,2,1,70,0,0
146561,-222.222222222221,4,2,1,70,0,0
147697,-222.222222222221,4,2,1,70,0,0
147859,-117.647058823529,4,2,1,70,0,0
153048,-100,4,2,1,90,0,0
204940,-100,4,2,1,10,0,0

[Colours]
Combo1 : 242,108,94
Combo2 : 166,142,193
Combo3 : 249,155,206
Combo4 : 139,160,235
SliderTrackOverride : 35,4,81
SliderBorder : 255,255,255

[HitObjects]
156,98,2399,5,4,0:3:0:0:
156,98,2480,1,4,0:3:0:0:
156,98,2562,2,0,P|145:125|145:169,1,52.5000020027161,4|2,3:2|0:3,0:0:0:0:
176,212,2886,2,0,P|177:245|105:291,1,105.000004005432,8|0,0:0|3:0,0:0:0:0:
54,284,3372,1,2,0:3:0:0:
67,356,3534,2,0,P|112:378|132:377,1,52.5000020027161,8|2,0:0|0:3,0:0:0:0:
185,364,3859,6,0,L|253:360,1,52.5000020027161,0|2,3:0|0:3,0:0:0:0:
297,318,4183,2,0,B|360:312|333:355|406:354,1,105.000004005432,8|0,0:0|3:0,0:0:0:0:
456,316,4670,1,2,0:3:0:0:
456,316,4832,2,0,L|445:242,1,52.5000020027161,8|2,0:0|0:3,0:0:0:0:
417,197,5156,6,0,L|406:123,1,52.5000020027161,0|2,3:0|0:3,0:0:0:0:
349,103,5480,2,0,B|394:96|394:96|398:93|398:93|461:86,1,105.000004005432,8|0,0:0|3:0,0:0:0:0:
392,19,5967,1,2,0:3:0:0:
319,6,6129,2,0,P|276:26|261:46,1,52.5000020027161,8|2,0:0|0:3,0:0:0:0:
199,24,6453,6,0,L|220:94,1,52.5000020027161,0|2,3:0|0:3,0:0:0:0:
266,126,6778,2,0,B|234:127|217:113|217:113|210:143|181:155,1,105.000004005432,8|0,0:0|3:0,0:0:0:0:
116,129,7264,1,8,0:2:0:0:
59,175,7426,2,0,L|66:244,1,52.5000020027161,8|8,0:2|0:2,0:0:0:0:
71,235,7670,1,8,0:2:0:0:
78,242,7751,6,0,P|89:269|85:310,1,52.5000020027161,0|2,3:0|0:0,0:0:0:0:
153,328,8075,2,0,P|170:304|208:287,1,52.5000020027161,8|2,0:0|0:0,0:0:0:0:
253,260,8399,2,0,L|234:190,1,52.5000020027161,0|2,3:0|0:0,0:0:0:0:
304,174,8724,2,0,L|317:224,1,52.5000020027161,8|2,0:0|0:0,0:0:0:0:
384,255,9048,6,0,P|403:217|409:189,1,52.5000020027161,0|2,3:0|0:0,0:0:0:0:
473,178,9372,2,0,P|459:155|451:130,1,52.5000020027161,8|2,0:0|0:0,0:0:0:0:
420,63,9697,2,0,L|352:47,1,52.5000020027161,0|2,3:0|0:0,0:0:0:0:
295,57,10021,2,0,B|269:71|269:71|229:57,1,52.5000020027161,8|2,0:0|0:0,0:0:0:0:
178,89,10345,6,0,P|201:126|208:154,1,52.5000020027161,0|2,3:0|0:0,0:0:0:0:
139,170,10670,2,0,P|120:142|110:105,1,52.5000020027161,8|2,0:0|0:0,0:0:0:0:
86,56,10994,2,0,P|119:33|144:28,1,52.5000020027161,0|2,3:0|0:0,0:0:0:0:
200,9,11318,2,0,L|237:-1,3,26.2500010013581,8|8|0|0,0:0|0:0|3:0|3:0,0:0:0:0:
234,0,11643,5,2,0:2:0:0:
343,44,11886,1,2,0:0:0:0:
352,162,12129,1,2,0:0:0:0:
352,162,12453,5,8,0:0:0:0:
355,171,12534,1,8,0:0:0:0:
358,180,12616,2,0,L|356:217,3,26.2500010013581,8|8|8|8,0:0|0:0|0:0|0:0,0:0:0:0:
403,261,12940,5,4,3:2:0:0:
147,75,22507,5,8,0:3:0:0:
147,75,22670,2,0,P|190:119|175:200,1,125.999996154785,8|8,0:0|0:0,0:0:0:0:
126,223,23156,1,8,0:3:0:0:
173,281,23318,6,0,B|235:262|228:313|292:297,1,125.999996154785,4|8,3:2|0:0,0:0:0:0:
345,242,23805,1,2,0:0:0:0:
345,242,23967,2,0,P|369:294|365:326,1,62.9999980773926,2|2,3:2|3:2,0:0:0:0:
326,361,24291,2,0,P|268:355|243:336,1,62.9999980773926,10|2,0:0|0:0,0:0:0:0:
268,277,24616,6,0,P|305:228|328:156,1,125.999996154785,2|10,3:2|0:0,0:0:0:0:
402,155,25102,2,0,B|349:139|370:96|293:91,1,125.999996154785,2|0,0:0|3:2,0:0:0:0:
243,39,25589,2,0,B|214:26|214:26|190:45,1,62.9999980773926,8|2,3:2|0:0,0:0:0:0:
119,74,25913,6,0,B|156:58|156:58|137:171,1,125.999996154785,2|10,3:2|0:0,0:0:0:0:
200,191,26399,2,0,B|133:180|133:180|129:181|129:181|59:171,1,125.999996154785,2|2,0:0|3:2,0:0:0:0:
40,241,26886,2,0,L|112:253,1,62.9999980773926,10|0,0:0|0:0,0:0:0:0:
165,291,27210,6,0,B|240:275|221:328|291:311,1,125.999996154785,2|10,3:2|0:0,0:0:0:0:
360,310,27697,2,0,B|329:340|273:303|320:218,1,125.999996154785,2|8,0:0|0:0,0:0:0:0:
373,198,28183,1,0,3:0:0:0:
307,159,28345,1,2,0:2:0:0:
234,180,28507,6,0,L|226:109,1,62.9999980773926,6|2,3:2|0:2,0:0:0:0:
299,96,28832,2,0,L|306:160,1,62.9999980773926,10|2,0:2|0:2,0:0:0:0:
373,198,29156,2,0,P|412:196|426:114,1,125.999996154785,2|10,3:2|0:2,0:0:0:0:
382,67,29643,1,2,0:2:0:0:
309,88,29805,6,0,B|249:83|249:83|241:79|241:79|166:74,1,125.999996154785,2|10,3:2|0:2,0:0:0:0:
116,43,30291,1,2,0:2:0:0:
103,117,30453,2,0,L|92:185,2,62.9999980773926,2|2|10,3:2|0:3|0:2,0:0:0:0:
116,43,30940,1,2,0:3:0:0:
184,75,31102,6,0,L|164:208,1,125.999996154785,0|10,3:2|0:2,0:0:0:0:
206,266,31589,2,0,P|143:285|93:230,2,125.999996154785,2|2|2,0:2|0:2|0:2,0:0:0:0:
277,242,32399,6,0,B|189:211|189:211|142:226,1,125.999996154785,2|8,3:2|0:0,0:0:0:0:
86,246,32886,1,0,0:0:0:0:
43,183,33048,2,0,L|47:103,1,62.9999980773926,2|2,3:2|0:0,0:0:0:0:
121,130,33372,2,0,L|116:50,1,62.9999980773926,10|8,0:2|0:3,0:0:0:0:
113,61,33616,1,4,0:3:0:0:
109,56,33697,6,0,B|173:39|173:39|178:108,1,125.999996154785,4|8,3:2|0:0,0:0:0:0:
246,139,34183,1,2,0:0:0:0:
246,139,34345,2,0,L|316:122,1,62.9999980773926,2|2,3:2|3:2,0:0:0:0:
344,190,34670,2,0,L|280:204,1,62.9999980773926,10|2,0:0|0:0,0:0:0:0:
207,213,34994,6,0,P|222:252|312:272,1,125.999996154785,2|10,3:2|0:0,0:0:0:0:
379,261,35480,2,0,B|394:230|380:203|380:203|386:175|386:175|371:146|394:110,1,140,2|0,0:0|3:2,0:0:0:0:
455,94,35967,1,10,3:2:0:0:
386,125,36129,1,2,0:0:0:0:
392,49,36291,6,0,B|316:38|340:109|252:85,1,125.999996154785,2|10,3:2|0:0,0:0:0:0:
236,32,36778,1,2,0:0:0:0:
236,32,36940,2,0,L|241:168,1,125.999996154785,2|10,3:2|0:0,0:0:0:0:
133,264,37589,6,0,L|127:134,1,125.999996154785,2|10,3:2|0:0,0:0:0:0:
76,82,38075,2,0,B|110:74|125:45|125:45|151:78|189:80,1,125.999996154785,2|8,0:0|0:0,0:0:0:0:
236,32,38561,1,0,3:0:0:0:
271,98,38724,1,2,0:2:0:0:
323,42,38886,6,0,P|342:70|339:122,1,62.9999980773926,6|2,3:2|0:2,0:0:0:0:
365,171,39210,2,0,P|329:172|286:143,1,62.9999980773926,10|2,0:2|0:2,0:0:0:0:
271,98,39534,2,0,L|279:245,1,125.999996154785,2|10,3:2|0:2,0:0:0:0:
331,278,40021,1,2,0:2:0:0:
287,339,40183,6,0,B|356:343|334:302|414:306,1,125.999996154785,2|10,3:2|0:2,0:0:0:0:
278,224,40832,2,0,B|208:228|229:187|150:191,1,125.999996154785,2|10,3:2|0:2,0:0:0:0:
94,230,41318,1,2,0:3:0:0:
95,153,41480,6,0,B|99:121|99:121|142:91,1,62.9999980773926,0|0,3:2|0:0,0:0:0:0:
190,141,41805,2,0,B|185:172|185:172|141:201,1,62.9999980773926,10|2,0:2|0:2,0:0:0:0:
94,230,42129,2,0,L|111:320,1,62.9999980773926,0|2,3:0|0:2,0:0:0:0:
181,283,42453,2,0,L|163:373,1,62.9999980773926,8|2,0:0|0:2,0:0:0:0:
241,368,42778,6,0,P|293:367|309:337,1,62.9999980773926,2|8,3:2|0:2,0:0:0:0:
301,351,43021,1,8,0:2:0:0:
303,341,43102,2,0,L|292:284,3,31.4999990386963,8|8|8|8,3:2|0:2|0:2|0:2,0:0:0:0:
334,315,43426,2,0,L|323:258,3,31.4999990386963,10|8|10|8,3:2|0:2|0:2|0:2,0:0:0:0:
366,284,43751,2,0,L|355:227,2,31.4999990386963,10|8|8,3:2|0:2|0:2,0:0:0:0:
419,198,44075,6,0,P|366:175|299:211,1,125.999996154785,6|8,3:2|0:0,0:0:0:0:
248,247,44561,1,2,0:0:0:0:
248,247,44724,2,0,B|217:258|217:258|176:238,1,62.9999980773926,0|2,3:0|0:0,0:0:0:0:
177,170,45048,2,0,B|207:158|207:158|236:172,1,62.9999980773926,8|2,0:0|0:0,0:0:0:0:
306,200,45372,6,0,B|280:166|280:166|272:61,1,125.999996154785,0|8,3:0|0:0,0:0:0:0:
210,46,45859,1,2,0:0:0:0:
156,94,46021,2,0,L|117:87,2,31.4999990386963,2|2|2,3:2|0:0|0:0,0:0:0:0:
176,169,46345,2,0,L|109:158,1,62.9999980773926,8|2,0:0|0:0,0:0:0:0:
41,152,46670,6,0,B|64:124|64:124|53:228,1,125.999996154785,0|8,3:0|0:0,0:0:0:0:
123,243,47156,1,2,0:0:0:0:
86,309,47318,2,0,P|125:319|157:311,1,62.9999980773926,0|2,3:0|0:0,0:0:0:0:
213,279,47643,2,0,P|244:275|275:284,1,62.9999980773926,8|2,0:0|3:2,0:0:0:0:
280,291,47886,1,0,3:2:0:0:
285,299,47967,5,8,0:0:0:0:
349,344,48129,2,0,L|385:354,4,31.4999990386963,8|8|8|8|8,0:0|0:0|0:3|0:3|0:0,0:0:0:0:
367,274,48616,2,0,L|397:282,4,31.4999990386963,8|8|8|4|8,0:0|0:3|0:3|0:3|0:0,0:0:0:0:
395,208,49102,1,8,0:0:0:0:
395,208,49183,1,8,0:0:0:0:
395,208,49264,6,0,P|371:144|311:141,1,125.999996154785,4|8,3:2|0:0,0:0:0:0:
281,72,49751,2,0,B|253:85|246:125|246:125|216:96|163:107,1,125.999996154785,2|2,0:0|3:2,0:0:0:0:
197,179,50237,2,0,P|229:195|269:229,1,62.9999980773926,10|2,0:0|0:0,0:0:0:0:
309,258,50561,6,0,P|277:280|189:254,1,125.999996154785,2|10,3:2|0:0,0:0:0:0:
120,257,51048,2,0,B|153:245|153:245|144:363,1,125.999996154785,2|0,0:0|3:2,0:0:0:0:
77,340,51534,1,10,0:2:0:0:
146,335,51697,1,2,0:0:0:0:
215,331,51859,6,0,B|284:308|275:362|354:364,1,125.999996154785,0|10,3:2|0:0,0:0:0:0:
481,342,52507,2,0,B|447:335|421:358|421:358|417:317|384:286,1,125.999996154785,0|10,3:2|0:0,0:0:0:0:
321,160,53156,6,0,P|368:161|389:195,1,62.9999980773926,2|0,3:2|3:2,0:0:0:0:
453,173,53480,1,10,0:0:0:0:
402,226,53643,2,0,P|354:223|326:139,1,125.999996154785,2|8,0:0|0:0,0:0:0:0:
252,193,54129,1,0,3:0:0:0:
159,73,54453,6,0,P|175:57|154:3,1,62.9999980773926,6|2,3:2|0:2,0:0:0:0:
99,3,54778,2,0,P|83:18|103:72,1,62.9999980773926,10|2,0:2|0:2,0:0:0:0:
159,73,55102,2,0,B|207:65|218:134|171:188,1,125.999996154785,2|10,3:2|0:2,0:0:0:0:
247,213,55589,1,2,0:2:0:0:
208,277,55751,6,0,B|137:258|160:315|71:301,1,125.999996154785,2|10,3:2|0:2,0:0:0:0:
42,362,56237,1,2,0:2:0:0:
14,293,56399,1,2,3:2:0:0:
54,229,56561,2,0,L|41:153,1,62.9999980773926,2|10,0:3|0:2,0:0:0:0:
118,153,56886,1,2,0:3:0:0:
70,94,57048,6,0,P|129:80|185:126,1,125.999996154785,0|10,3:2|0:2,0:0:0:0:
247,147,57534,2,0,B|226:82|226:82|219:40|256:30,2,125.999996154785,2|2|2,0:2|0:2|0:2,0:0:0:0:
224,219,58345,6,0,P|258:223|294:204,1,62.9999980773926,2|0,3:2|0:0,0:0:0:0:
332,154,58670,2,0,L|323:283,1,125.999996154785,8|2,0:0|3:2,0:0:0:0:
373,336,59156,1,2,0:0:0:0:
442,300,59318,1,10,0:2:0:0:
442,300,59399,1,8,0:0:0:0:
442,300,59480,1,8,0:3:0:0:
398,230,59643,6,0,L|402:151,1,62.9999980773926,4|0,3:2|3:0,0:0:0:0:
396,91,59967,2,0,P|375:42|306:53,1,125.999996154785,8|2,0:0|3:2,0:0:0:0:
249,93,60453,1,2,3:2:0:0:
249,93,60616,2,0,L|167:85,1,62.9999980773926,10|2,0:0|0:0,0:0:0:0:
134,142,60940,6,0,P|149:89|98:29,1,125.999996154785,2|10,3:2|0:0,0:0:0:0:
73,99,61426,2,0,P|58:152|109:211,1,125.999996154785,2|0,0:0|3:2,0:0:0:0:
134,142,61913,1,10,3:2:0:0:
181,200,62075,1,2,0:0:0:0:
174,275,62237,6,0,B|140:272|120:243|120:243|113:279|66:294,1,125.999996154785,2|10,3:2|0:0,0:0:0:0:
181,200,62886,2,0,B|198:164|234:175|234:175|237:228|279:238,1,125.999996154785,0|10,3:2|0:0,0:0:0:0:
395,290,63534,6,0,B|361:269|361:269|381:171,1,125.999996154785,2|10,3:2|0:0,0:0:0:0:
340,126,64021,2,0,P|388:113|445:167,1,125.999996154785,2|8,0:0|0:0,0:0:0:0:
378,184,64507,1,0,3:0:0:0:
303,196,64670,1,2,0:2:0:0:
294,200,64751,1,0,0:0:0:0:
285,205,64832,6,0,L|193:190,1,62.9999980773926,6|2,3:2|0:2,0:0:0:0:
215,120,65156,2,0,L|279:129,1,62.9999980773926,10|2,0:2|0:2,0:0:0:0:
285,205,65480,2,0,L|221:195,1,62.9999980773926,2|2,3:2|0:0,0:0:0:0:
184,261,65805,2,0,L|120:270,1,62.9999980773926,10|2,0:2|0:2,0:0:0:0:
53,236,66129,6,0,L|44:137,1,94.499997116089,2|0,3:2|0:0,0:0:0:0:
52,133,66453,2,0,L|46:65,1,62.9999980773926,10|2,0:2|0:2,0:0:0:0:
121,52,66778,2,0,B|152:40|152:40|179:69,1,62.9999980773926,2|2,3:2|0:2,0:0:0:0:
235,120,67102,1,10,0:2:0:0:
235,120,67183,1,8,0:3:0:0:
235,120,67264,1,8,0:3:0:0:
301,83,67426,6,0,P|280:121|282:214,1,125.999996154785,10|10,3:2|3:2,0:0:0:0:
280,208,67832,1,8,0:0:0:0:
281,214,67913,1,10,0:2:0:0:
316,280,68075,2,0,P|291:287|274:288,3,31.4999990386963,10|8|8|8,3:2|0:0|0:0|0:0,0:0:0:0:
250,303,68399,2,0,P|225:295|208:295,3,31.4999990386963,10|8|10|0,3:2|0:0|0:2|3:0,0:0:0:0:
182,305,68724,5,10,3:2:0:0:
128,198,69048,1,8,3:2:0:0:
103,321,69372,5,8,3:2:0:0:
68,254,69534,1,0,3:0:0:0:
58,250,69616,1,0,3:0:0:0:
50,244,69697,1,10,3:2:0:0:
197,324,70021,5,6,3:2:0:0:
266,127,70345,6,0,P|280:158|317:168,1,70,10|2,0:2|0:2,0:0:0:0:
338,248,70670,2,0,P|369:234|378:196,1,70,2|2,3:2|0:2,0:0:0:0:
455,165,70994,2,0,P|441:133|403:124,1,70,10|2,0:2|0:2,0:0:0:0:
384,44,71319,2,0,P|352:57|343:96,1,70,2|2,3:2|0:2,0:0:0:0:
312,168,71643,2,0,P|279:158|266:127,1,70,10|2,0:2|0:2,0:0:0:0:
205,75,71967,2,0,B|165:71|146:38|146:38|142:75|100:107,1,140,2|10,3:2|0:2,0:0:0:0:
131,178,72453,1,2,0:2:0:0:
47,192,72616,5,2,3:2:0:0:
200,185,72940,2,0,L|110:175,1,70,10|2,0:2|0:2,0:0:0:0:
118,260,73264,2,0,L|194:267,1,70,2|2,3:2|0:2,0:0:0:0:
278,193,73589,2,0,L|347:200,1,70,10|2,0:2|0:2,0:0:0:0:
339,284,73913,2,0,L|269:277,1,70,2|2,3:2|0:2,0:0:0:0:
187,266,74237,1,10,0:2:0:0:
218,343,74399,1,2,0:2:0:0:
269,277,74561,2,0,L|423:293,1,140,2|10,3:2|0:2,0:0:0:0:
467,231,75048,1,2,0:2:0:0:
408,291,75210,5,6,3:2:0:0:
313,152,75534,2,0,L|331:80,1,70,10|2,0:2|0:2,0:0:0:0:
240,40,75859,2,0,L|259:114,1,70,2|2,3:2|0:2,0:0:0:0:
316,159,76183,2,0,L|339:68,1,70,10|2,0:2|0:2,0:0:0:0:
232,37,76508,2,0,L|252:119,1,70,2|2,3:2|0:2,0:0:0:0:
321,165,76832,2,0,L|345:66,1,70,10|2,0:2|0:2,0:0:0:0:
414,63,77156,2,0,B|458:91|454:139|426:219,1,140,2|10,3:2|0:2,0:0:0:0:
478,262,77643,1,2,0:2:0:0:
397,284,77805,5,6,3:2:0:0:
263,180,78129,2,0,P|252:216|260:253,1,70,10|0,0:2|0:0,0:0:0:0:
190,296,78453,2,0,P|164:267|126:256,1,70,2|8,3:2|0:0,0:0:0:0:
126,261,78697,1,8,0:0:0:0:
118,267,78778,2,0,L|71:295,3,35,10|8|8|8,0:0|0:0|0:3|0:3,0:0:0:0:
47,273,79102,5,10,0:0:0:0:
92,200,79264,2,0,L|68:159,5,35,8|8|8|8|8|8,0:0|0:0|0:3|0:3|0:3|0:3,0:0:0:0:
56,136,79751,2,0,L|98:112,3,35,8|8|8|8,0:0|0:0|0:3|0:3,0:0:0:0:
119,101,80075,2,0,L|160:77,3,35,10|8|8|4,0:0|0:0|0:3|0:3,0:0:0:0:
182,68,80399,5,6,3:2:0:0:
252,176,80724,2,0,P|243:128|260:104,1,70,10|2,0:2|0:2,0:0:0:0:
336,118,81048,2,0,P|344:165|327:189,1,70,2|2,3:2|0:2,0:0:0:0:
390,245,81372,2,0,L|398:333,1,70,10|2,0:2|0:2,0:0:0:0:
313,335,81697,6,0,B|280:348|280:348|245:324,1,70,2|2,3:2|0:2,0:0:0:0:
200,263,82021,2,0,B|173:241|173:241|131:255,1,70,10|2,0:2|0:2,0:0:0:0:
125,335,82345,1,2,3:2:0:0:
275,259,82670,1,10,0:2:0:0:
261,176,82832,1,2,0:2:0:0:
189,142,82994,5,2,3:2:0:0:
189,142,83318,6,0,B|156:151|156:151|120:130,1,70,10|2,0:2|0:2,0:0:0:0:
138,42,83643,2,0,B|170:33|170:33|206:54,1,70,2|2,3:2|0:2,0:0:0:0:
271,109,83967,2,0,L|347:101,1,70,10|2,0:2|0:2,0:0:0:0:
414,49,84291,6,0,B|378:39|378:39|407:142,1,140,2|10,3:2|0:2,0:0:0:0:
338,200,84778,1,2,0:2:0:0:
412,252,84940,2,0,B|340:222|341:276|271:247,1,140,2|10,3:2|0:2,0:0:0:0:
191,214,85426,1,2,0:2:0:0:
143,268,85589,5,2,3:2:0:0:
207,144,85913,2,0,L|187:226,1,70,10|2,0:2|0:2,0:0:0:0:
142,116,86237,2,0,L|122:198,1,70,2|2,3:2|0:2,0:0:0:0:
76,89,86561,2,0,L|56:171,1,70,10|2,0:2|0:2,0:0:0:0:
126,184,86886,2,0,L|142:114,1,70,2|2,3:2|0:2,0:0:0:0:
210,66,87210,2,0,P|250:74|277:103,1,70,10|2,0:2|0:2,0:0:0:0:
302,170,87534,1,2,3:2:0:0:
359,108,87697,1,2,0:2:0:0:
442,117,87859,2,0,B|403:109|366:148|399:227,1,140,10|2,0:2|3:2,0:0:0:0:
227,217,88507,6,0,B|210:208|210:208|188:260,1,70,10|0,0:2|0:0,0:0:0:0:
241,321,88832,2,0,B|257:330|257:330|280:278,1,70,2|0,3:2|0:0,0:0:0:0:
227,217,89156,2,0,B|210:208|210:208|188:260,1,70,10|0,0:2|0:0,0:0:0:0:
122,303,89480,5,2,3:2:0:0:
65,254,89643,1,8,0:0:0:0:
65,254,89724,1,8,0:0:0:0:
65,254,89805,2,0,L|55:210,3,35,10|8|10|8,3:2|0:0|0:2|0:0,0:0:0:0:
38,187,90129,2,0,L|70:156,3,35,10|8|10|8,3:2|0:0|0:2|0:0,0:0:0:0:
70,127,90453,2,0,L|112:140,2,35,10|8|10,3:2|0:0|0:2,0:0:0:0:
164,97,90778,6,0,P|209:100|241:69,1,70,6|0,3:2|3:0,0:0:0:0:
293,33,91102,2,0,B|328:21|364:35|380:92|343:145,1,140,10|0,0:2|3:0,0:0:0:0:
291,175,91589,1,2,3:2:0:0:
214,209,91751,2,0,B|222:205|229:217|229:217|231:236|220:233|222:250|222:250|226:265|242:265,1,70,8|2,0:0|0:0,0:0:0:0:
303,307,92075,6,0,B|255:302|255:302|250:305|250:305|147:295,1,140,2|10,3:2|0:2,0:0:0:0:
119,225,92561,1,2,0:2:0:0:
35,215,92724,2,0,L|51:291,1,70,2|2,3:2|3:2,0:0:0:0:
119,225,93048,2,0,L|103:154,1,70,10|2,0:2|0:2,0:0:0:0:
79,76,93372,6,0,B|140:35|194:47|197:109,1,140,2|10,3:2|0:2,0:0:0:0:
256,149,93859,2,0,P|243:187|243:229,1,70,2|2,0:2|3:2,0:0:0:0:
207,293,94183,2,0,B|279:285|243:209|344:214,1,140,2|2,3:2|0:0,0:0:0:0:
375,275,94670,6,0,B|353:201|353:201|346:151|390:129,1,140,2|10,3:2|0:2,0:0:0:0:
424,191,95156,1,2,0:2:0:0:
455,268,95318,2,0,L|478:351,2,70,2|2|10,3:2|3:2|0:2,0:0:0:0:
424,191,95805,1,2,0:2:0:0:
435,107,95967,6,0,P|403:63|316:70,1,140,2|10,3:2|0:2,0:0:0:0:
241,81,96453,2,0,B|167:74|182:126|98:121,1,140,2|2,0:2|3:2,0:0:0:0:
60,53,96940,1,8,0:0:0:0:
110,121,97102,6,0,B|76:140|78:177|78:177|90:274,1,140,2|0,0:2|3:0,0:0:0:0:
41,319,97589,1,10,0:2:0:0:
124,332,97751,2,0,B|160:336|160:336|203:314,1,70,2|2,0:2|3:2,0:0:0:0:
258,271,98075,2,0,B|288:254|288:254|325:259,1,70,2|10,3:2|0:2,0:0:0:0:
399,313,98399,1,10,0:2:0:0:
399,313,98480,1,8,0:0:0:0:
399,313,98561,6,0,P|415:263|401:215,1,70,2|0,3:2|3:0,0:0:0:0:
358,182,98886,2,0,P|354:146|368:113,1,70,10|0,0:2|3:0,0:0:0:0:
312,50,99210,2,0,L|460:96,1,140,2|10,3:2|0:2,0:0:0:0:
501,27,99697,1,0,3:0:0:0:
445,91,99859,6,0,L|452:185,1,70,10|0,0:2|3:0,0:0:0:0:
448,164,100102,1,0,3:0:0:0:
445,167,100183,1,8,0:2:0:0:
488,238,100345,2,0,L|508:278,2,35,2|0|10,3:2|3:0|0:2,0:0:0:0:
403,239,100670,2,0,L|363:259,2,35,10|8|10,0:2|0:0|3:2,0:0:0:0:
354,170,100994,1,10,0:2:0:0:
291,224,101156,5,2,3:2:0:0:
291,224,101318,2,0,B|282:204|264:200|264:200|244:212|203:206,1,70,2|8,0:2|0:0,0:0:0:0:
169,263,101643,2,0,P|147:215|161:172,1,70,2|0,0:2|3:0,0:0:0:0:
209,141,101967,2,0,L|236:218,1,70,2|8,0:2|0:0,0:0:0:0:
148,199,102291,1,2,0:2:0:0:
148,199,102453,6,0,P|126:138|183:63,1,140,2|10,3:2|0:2,0:0:0:0:
244,75,102940,1,2,0:2:0:0:
312,25,103102,2,0,L|324:112,1,70,2|2,3:2|0:2,0:0:0:0:
397,129,103426,2,0,L|385:217,1,70,10|2,0:2|0:2,0:0:0:0:
323,252,103751,5,2,3:2:0:0:
323,252,103913,2,0,B|381:253|381:253|402:242|402:242|470:244,2,140,2|2|2,0:2|0:2|0:2,0:0:0:0:
264,191,104724,1,8,0:0:0:0:
199,244,104886,1,2,0:2:0:0:
134,190,105048,6,0,B|166:202|165:246|165:246|125:279|79:240,1,140,2|10,3:2|0:2,0:0:0:0:
54,324,105534,1,2,3:2:0:0:
138,337,105697,2,0,P|164:334|212:311,1,70,0|10,3:2|0:2,0:0:0:0:
284,292,106021,2,0,P|319:297|352:311,1,70,2|10,3:2|0:2,0:0:0:0:
418,360,106345,6,0,B|370:300|417:232|470:281,1,140,2|10,3:2|0:2,0:0:0:0:
422,190,106832,2,0,P|380:203|355:227,1,70,2|0,0:2|3:0,0:0:0:0:
295,187,107156,2,0,P|305:144|295:111,1,70,2|8,0:2|0:0,0:0:0:0:
362,64,107480,6,0,B|334:37|334:37|211:65,1,140,2|0,0:2|0:0,0:0:0:0:
159,33,107967,1,10,0:2:0:0:
159,33,108129,1,2,0:2:0:0:
108,101,108291,2,0,B|120:109|120:109|97:192,1,70,2|2,3:2|0:2,0:0:0:0:
186,185,108616,2,0,B|173:193|173:193|196:275,1,70,10|2,0:2|0:2,0:0:0:0:
254,277,108940,6,0,P|206:317|125:285,1,140,2|10,3:2|0:2,0:0:0:0:
187,245,109426,1,0,0:0:0:0:
191,329,109589,1,2,3:2:0:0:
261,284,109751,1,8,0:0:0:0:
261,284,109832,1,8,0:0:0:0:
261,284,109913,2,0,L|310:290,3,35,10|8|8|8,0:2|0:0|0:3|0:3,0:0:0:0:
324,318,110237,6,0,L|353:278,3,35,2|8|8|8,3:2|0:0|0:0|0:0,0:0:0:0:
381,282,110561,2,0,L|361:237,3,35,8|8|8|8,0:3|0:3|0:3|0:3,0:0:0:0:
393,225,110886,2,0,L|344:218,3,35,10|8|8|8,0:2|0:0|0:3|0:3,0:0:0:0:
333,193,111210,2,0,L|304:232,3,35,8|8|0|0,0:0|0:0|3:0|3:0,0:0:0:0:
281,202,111534,5,6,3:2:0:0:
256,192,111697,12,0,112994,0:0:0:0:
218,79,115426,5,2,0:0:0:0:
116,196,115670,1,2,0:0:0:0:
268,223,115913,1,2,0:0:0:0:
203,163,116237,5,0,3:0:0:0:
203,163,116318,1,0,3:0:0:0:
203,163,116399,1,8,0:0:0:0:
176,123,116724,6,0,B|191:112|191:112|218:115,3,35,0|2|2|2,3:0|0:0|0:0|0:0,0:0:0:0:
242,136,117048,2,0,B|253:151|253:151|250:178,3,35,8|2|2|2,0:0|0:0|0:0|0:0,0:0:0:0:
228,198,117372,2,0,B|213:209|213:209|186:206,3,35,0|2|2|2,3:0|0:0|0:0|0:0,0:0:0:0:
167,188,117696,2,0,B|156:173|156:173|159:146,3,35,8|2|2|2,0:0|0:0|0:0|0:0,0:0:0:0:
203,163,118021,5,2,3:2:0:0:
183,91,118183,2,0,P|207:88|252:108,1,70,2|8,0:2|0:0,0:0:0:0:
203,163,118507,1,2,0:2:0:0:
223,234,118670,2,0,P|197:236|148:214,1,70,2|0,3:2|0:0,0:0:0:0:
101,157,118994,2,0,P|69:141|33:142,1,70,10|2,0:2|0:2,0:0:0:0:
0,70,119318,6,0,L|10:222,1,140,2|10,3:2|0:2,0:0:0:0:
86,243,119805,2,0,B|47:247|26:283|26:283|68:291|87:321,1,140,2|2,0:2|0:2,0:0:0:0:
154,354,120291,1,10,0:2:0:0:
217,298,120453,1,2,0:2:0:0:
289,340,120616,6,0,B|311:314|300:273|300:273|284:226|313:198,1,140,2|10,3:2|0:2,0:0:0:0:
379,245,121102,2,0,P|386:191|323:126,1,140,2|8,0:2|0:0,0:0:0:0:
262,83,121589,1,10,0:0:0:0:
207,147,121751,1,10,0:0:0:0:
207,147,121832,1,8,0:0:0:0:
207,147,121913,6,0,L|144:152,2,46.6666666666667,2|2|2,3:2|0:0|0:0,0:0:0:0:
212,208,122237,2,0,L|164:212,2,46.6666666666667,10|2|2,0:0|0:0|0:0,0:0:0:0:
217,270,122561,2,0,L|169:274,2,46.6666666666667,2|2|2,3:2|0:0|0:0,0:0:0:0:
280,264,122886,2,0,L|327:259,2,46.6666666666667,10|2|2,0:0|0:0|0:0,0:0:0:0:
320,200,123210,6,0,L|272:204,2,46.6666666666667,2|2|2,3:2|0:0|0:0,0:0:0:0:
385,194,123534,2,0,L|432:189,2,46.6666666666667,10|2|2,0:0|0:0|0:0,0:0:0:0:
347,140,123859,2,0,L|342:92,2,46.6666666666667,2|2|2,3:2|0:0|0:0,0:0:0:0:
406,126,124183,1,10,0:0:0:0:
404,102,124291,1,2,0:0:0:0:
401,83,124399,1,2,0:0:0:0:
399,59,124507,6,0,B|331:78|342:18|259:37,1,140,2|8,3:2|0:0,0:0:0:0:
196,82,124994,1,0,0:0:0:0:
258,125,125156,2,0,P|230:151|175:154,1,70,2|0,3:2|0:0,0:0:0:0:
196,82,125480,2,0,P|168:56|124:46,1,70,10|8,0:0|0:0,0:0:0:0:
131,49,125724,1,0,0:0:0:0:
124,52,125805,6,0,L|75:48,3,35,8|8|8|8,0:2|0:0|0:0|0:0,0:0:0:0:
77,57,126129,2,0,L|41:54,3,35,8|8|8|8,0:2|0:0|0:0|0:0,0:0:0:0:
43,86,126453,2,0,L|39:136,3,35,8|8|8|8,0:2|0:0|0:0|0:0,0:0:0:0:
49,133,126777,2,0,L|46:169,2,35,8|8|8,0:2|0:0|0:0,0:0:0:0:
78,237,127102,6,0,P|96:270|83:312,1,70,4|2,3:2|0:2,0:0:0:0:
161,256,127426,2,0,P|180:224|223:214,1,70,10|2,0:2|0:2,0:0:0:0:
288,243,127751,2,0,P|307:276|293:318,1,70,2|2,3:2|0:2,0:0:0:0:
378,339,128075,2,0,L|457:332,1,70,10|2,0:2|0:2,0:0:0:0:
447,252,128399,5,2,3:2:0:0:
447,252,128561,2,0,P|432:219|427:170,1,70,2|10,0:2|0:2,0:0:0:0:
342,182,128886,2,0,P|409:168|399:96,1,140,2|2,0:2|0:2,0:0:0:0:
334,68,129372,2,0,P|306:78|300:127,1,70,10|2,0:2|0:2,0:0:0:0:
342,182,129697,6,0,B|277:214|263:158|202:191,1,140,2|10,3:2|0:2,0:0:0:0:
152,124,130183,1,2,0:2:0:0:
92,163,130345,2,0,P|65:104|64:66,1,70,2|0,3:2|0:0,0:0:0:0:
125,60,130670,2,0,P|151:119|153:156,1,70,10|0,0:0|0:0,0:0:0:0:
206,188,130994,6,0,B|190:216|191:256|191:256|149:224|98:252,1,140,2|10,3:2|0:2,0:0:0:0:
54,284,131480,2,0,P|95:269|146:345,1,140,2|8,3:2|0:0,0:0:0:0:
144,340,131886,1,8,0:0:0:0:
140,346,131967,1,8,0:3:0:0:
228,334,132129,1,8,0:0:0:0:
228,334,132210,1,8,0:0:0:0:
228,334,132291,6,0,B|263:322|263:322|262:319|262:319|325:341|325:341|324:344|324:344|368:323,1,140,6|10,3:2|0:2,0:0:0:0:
389,256,132778,1,0,0:0:0:0:
470,273,132940,2,0,B|458:242|476:207|476:207|464:205|464:205|482:172|465:127,1,140,2|10,3:2|0:2,0:0:0:0:
388,163,133426,1,0,0:0:0:0:
347,89,133589,6,0,B|314:105|298:141|298:141|267:107|214:107,1,140,2|10,3:2|0:2,0:0:0:0:
284,37,134075,1,0,0:0:0:0:
200,46,134237,2,0,P|169:79|169:118,1,70,2|0,3:2|0:0,0:0:0:0:
193,195,134561,1,0,3:0:0:0:
196,201,134643,2,0,L|191:246,2,35,0|0|0,0:0|3:0|0:0,0:0:0:0:
230,191,134886,5,8,0:0:0:0:
310,208,135048,1,8,0:0:0:0:
200,46,135372,5,8,0:0:0:0:
280,64,135534,1,8,0:0:0:0:
428,107,135859,5,8,0:0:0:0:
348,124,136021,1,8,0:0:0:0:
230,191,136345,5,8,3:2:0:0:
310,208,136507,1,8,3:2:0:0:
471,254,136832,6,0,P|457:300|431:321,1,70,8|0,0:0|3:0,0:0:0:0:
357,325,137156,2,0,L|245:316,1,105,8|0,0:0|0:0,0:0:0:0:
246,311,137480,6,0,L|188:316,3,35,4|0|0|0,3:2|0:0|3:0|3:0,0:0:0:0:
224,256,137805,2,0,L|166:260,3,35,8|0|0|0,3:2|3:0|3:0|3:0,0:0:0:0:
203,200,138129,2,0,L|145:205,3,35,8|0|0|0,3:2|3:0|3:0|3:0,0:0:0:0:
180,145,138454,2,0,L|123:150,3,35,8|8|4|4,3:2|3:2|3:3|3:3,0:0:0:0:
154,86,138778,5,4,3:2:0:0:
218,31,138940,1,0,3:0:0:0:
218,31,139021,1,8,3:2:0:0:
219,34,139102,2,0,P|242:34|267:66,3,35,8|8|8|8,3:2|3:2|3:2|3:2,0:0:0:0:
260,101,139426,2,0,P|276:109|293:110,3,35,0|8|8|8,3:0|3:2|3:2|3:2,0:0:0:0:
330,58,139751,2,0,P|347:56|363:64,3,35,8|8|8|8,3:2|3:2|3:2|3:2,0:0:0:0:
364,131,140075,5,4,3:0:0:0:
425,191,140237,1,4,3:0:0:0:
366,250,140399,1,4,3:0:0:0:
304,191,140561,1,4,3:0:0:0:
248,254,140724,2,0,L|311:320,1,83.9999974365235,4|4,3:0|3:0,0:0:0:0:
241,368,141048,2,0,L|183:307,1,83.9999974365235,4|4,3:0|3:0,0:0:0:0:
103,279,141372,5,8,0:0:0:0:
90,196,141534,1,0,3:0:0:0:
90,196,141859,1,0,3:0:0:0:
90,196,142183,1,0,3:0:0:0:
87,189,142264,1,0,3:0:0:0:
85,182,142345,2,0,P|78:118|135:101,1,125.999996154785,8|0,0:0|0:0,0:0:0:0:
144,100,142670,6,0,B|224:96|269:174|269:174|224:177|208:216,1,220.499993270874,4|0,3:2|0:0,0:0:0:0:
181,266,143967,2,0,B|218:285|256:267|270:242|270:242|329:247|321:192|385:208,1,220.499993270874,4|0,3:2|0:0,0:0:0:0:
434,160,145264,2,0,B|403:182|415:224|415:224|423:270|399:304|399:304|424:270|465:270,1,220.499993270874,4|0,3:2|0:0,0:0:0:0:
463,350,146561,2,0,B|378:323|378:323|376:319|376:319|336:341|336:341|336:346|336:346|255:322,1,220.499993270874,4|8,3:2|0:0,0:0:0:0:
202,246,147859,6,0,P|177:230|129:236,1,59.5000011348725,0|0,3:2|0:0,0:0:0:0:
71,215,148183,2,0,P|77:263|91:282,1,59.5000011348725,2|2,3:2|0:2,0:0:0:0:
108,344,148507,2,0,P|147:314|156:285,1,59.5000011348725,2|2,3:2|0:2,0:0:0:0:
202,246,148832,2,0,P|177:230|129:236,1,59.5000011348725,2|2,3:2|0:2,0:0:0:0:
71,215,149156,6,0,B|82:198|82:198|67:143,1,59.5000011348725,2|2,3:2|0:2,0:0:0:0:
146,101,149480,2,0,B|136:117|136:117|146:157,1,59.5000011348725,2|2,3:2|0:2,0:0:0:0:
147,228,149805,2,0,P|177:230|202:246,1,59.5000011348725,2|2,3:2|0:2,0:0:0:0:
230,334,150129,1,2,3:2:0:0:
292,196,150453,5,2,3:2:0:0:
292,196,151102,2,0,L|279:144,3,29.7500005674362,0|0|8|8,3:0|3:0|0:0|0:0,0:0:0:0:
231,196,151426,2,0,L|218:144,3,29.7500005674362,8|8|8|8,0:0|0:0|0:3|0:3,0:0:0:0:
168,199,151751,6,0,B|127:187|80:233|91:304|157:334|212:289|212:289|263:247|321:274|326:325,1,357.000006809235,4|2,0:0|0:0,0:0:0:0:
256,192,153048,5,6,3:2:0:0:
300,55,153372,2,0,P|298:96|327:128,1,70,10|2,0:2|0:2,0:0:0:0:
395,98,153697,2,0,P|398:57|369:24,1,70,2|2,3:2|0:2,0:0:0:0:
300,55,154021,2,0,L|222:51,1,70,10|2,0:2|0:2,0:0:0:0:
227,135,154345,2,0,L|298:139,1,70,2|2,3:2|0:2,0:0:0:0:
377,112,154670,2,0,B|385:148|385:148|360:184,1,70,10|2,0:2|0:2,0:0:0:0:
290,211,154994,2,0,B|372:200|347:254|438:242,1,140,2|10,3:2|0:2,0:0:0:0:
401,324,155480,1,2,0:2:0:0:
422,243,155643,5,2,3:2:0:0:
261,194,155967,2,0,L|278:275,1,70,10|2,0:2|0:2,0:0:0:0:
196,217,156291,2,0,L|213:298,1,70,2|2,3:2|0:2,0:0:0:0:
130,240,156616,2,0,L|148:321,1,70,10|2,0:2|0:2,0:0:0:0:
64,265,156940,2,0,L|82:346,1,70,2|2,3:2|0:2,0:0:0:0:
62,251,157264,2,0,L|47:181,1,70,10|2,0:2|0:2,0:0:0:0:
121,141,157589,2,0,B|149:105|149:105|149:54|149:54|182:18,1,140,2|10,3:2|0:2,0:0:0:0:
226,90,158075,1,2,0:2:0:0:
305,62,158237,5,2,3:2:0:0:
193,188,158561,2,0,B|227:172|227:172|263:200,1,70,10|2,0:2|0:2,0:0:0:0:
248,276,158886,2,0,B|214:292|214:292|178:264,1,70,2|2,3:2|0:2,0:0:0:0:
193,194,159210,2,0,B|227:178|227:178|263:205,1,70,10|2,0:2|0:2,0:0:0:0:
248,281,159535,2,0,B|214:297|214:297|178:269,1,70,2|2,3:2|0:2,0:0:0:0:
193,200,159859,2,0,B|227:184|227:184|263:212,1,70,10|2,0:2|0:2,0:0:0:0:
325,245,160183,2,0,B|358:219|368:168|334:123|276:155,1,140,2|10,3:2|0:2,0:0:0:0:
233,95,160670,1,0,0:0:0:0:
287,30,160832,5,2,3:2:0:0:
123,67,161156,2,0,P|144:111|130:143,1,70,10|0,0:2|0:0,0:0:0:0:
151,201,161480,2,0,P|101:197|81:169,1,70,2|0,3:2|0:0,0:0:0:0:
139,130,161805,2,0,P|187:133|207:161,1,70,10|0,0:2|3:0,0:0:0:0:
204,152,162048,1,0,3:0:0:0:
207,158,162129,6,0,P|216:177|219:198,3,35,10|0|8|8,3:2|0:0|0:0|0:0,0:0:0:0:
235,217,162453,2,0,P|225:235|223:256,3,35,10|8|10|8,3:2|0:0|0:2|0:0,0:0:0:0:
204,275,162778,2,0,P|213:294|216:315,3,35,10|8|10|8,3:2|0:0|0:2|0:0,0:0:0:0:
244,319,163102,2,0,L|289:311,3,35,10|8|10|8,3:2|0:0|0:2|0:0,0:0:0:0:
309,307,163426,6,0,L|384:294,1,70,6|0,3:2|3:0,0:0:0:0:
441,239,163751,2,0,B|396:236|367:184|414:119,1,140,10|0,0:2|3:0,0:0:0:0:
362,58,164237,1,2,3:2:0:0:
289,100,164399,2,0,L|196:93,1,70,8|2,0:0|0:0,0:0:0:0:
136,79,164724,6,0,B|176:58|176:58|164:163,1,140,2|10,3:2|0:2,0:0:0:0:
111,216,165209,1,2,0:2:0:0:
28,196,165372,2,0,L|45:272,1,70,2|2,3:2|3:2,0:0:0:0:
111,216,165696,2,0,L|127:286,1,70,10|2,0:2|0:2,0:0:0:0:
199,325,166021,6,0,P|260:337|301:268,1,140,2|10,3:2|0:2,0:0:0:0:
306,196,166507,2,0,P|331:156|381:154,1,70,2|2,0:2|3:2,0:0:0:0:
407,195,166832,2,0,P|422:129|374:78,1,140,2|2,3:2|0:0,0:0:0:0:
295,58,167318,6,0,B|220:51|254:137|177:127,1,140,2|10,3:2|0:2,0:0:0:0:
224,202,167804,1,2,0:2:0:0:
154,249,167966,2,0,P|129:276|131:332,2,70,2|2|10,3:2|3:2|0:2,0:0:0:0:
231,281,168453,1,2,0:2:0:0:
299,232,168616,6,0,B|331:217|371:239|371:239|375:197|418:176,1,140,2|10,3:2|0:2,0:0:0:0:
435,107,169102,2,0,P|442:194|469:244,1,140,2|2,0:2|3:2,0:0:0:0:
445,321,169588,1,8,0:0:0:0:
357,330,169751,6,0,B|282:332|304:268|207:283,1,140,2|0,0:2|3:0,0:0:0:0:
159,324,170237,1,10,0:2:0:0:
75,288,170399,2,0,L|76:201,1,70,2|2,0:2|3:2,0:0:0:0:
154,249,170724,2,0,L|155:162,1,70,2|10,3:2|0:2,0:0:0:0:
98,116,171048,1,10,0:2:0:0:
173,71,171210,6,0,P|208:59|252:71,1,70,2|0,3:2|3:0,0:0:0:0:
281,137,171534,2,0,P|246:149|202:137,1,70,10|0,0:2|3:0,0:0:0:0:
239,64,171859,2,0,L|335:57,1,70,2|0,3:2|3:0,0:0:0:0:
281,137,172183,2,0,L|377:130,1,70,10|0,0:2|3:0,0:0:0:0:
434,136,172507,6,0,L|425:228,1,70,10|0,0:2|3:0,0:0:0:0:
424,209,172750,1,0,3:0:0:0:
421,212,172831,1,8,0:2:0:0:
452,289,172993,2,0,L|472:329,2,35,2|0|10,3:2|3:0|0:2,0:0:0:0:
368,276,173318,2,0,L|328:296,2,35,10|8|10,0:2|0:0|3:2,0:0:0:0:
322,205,173642,1,10,0:2:0:0:
248,241,173804,5,2,3:2:0:0:
248,241,173967,2,0,P|247:296|267:326,1,70,2|8,0:2|0:0,0:0:0:0:
169,302,174291,2,0,P|123:273|86:274,1,70,2|0,0:2|3:0,0:0:0:0:
154,200,174616,2,0,P|201:173|218:141,1,70,2|8,0:2|0:0,0:0:0:0:
218,80,174940,1,2,0:2:0:0:
218,80,175102,6,0,B|140:68|158:144|61:132,1,140,2|10,3:2|0:2,0:0:0:0:
85,48,175589,1,2,0:2:0:0:
93,132,175750,2,0,L|76:218,1,70,2|2,3:2|0:2,0:0:0:0:
129,268,176075,2,0,L|146:354,1,70,10|2,0:2|0:2,0:0:0:0:
229,345,176399,5,2,3:2:0:0:
229,345,176561,2,0,B|255:330|287:344|287:344|297:332|297:332|337:349|375:325,2,140,2|2|2,0:2|0:2|0:2,0:0:0:0:
142,336,177372,1,8,0:0:0:0:
129,268,177534,1,2,0:2:0:0:
51,233,177697,6,0,P|84:197|176:198,1,140,2|10,3:2|0:2,0:0:0:0:
248,166,178182,1,2,3:2:0:0:
322,204,178345,2,0,P|331:160|322:125,1,70,0|10,3:2|0:2,0:0:0:0:
397,90,178670,2,0,P|362:60|331:54,1,70,2|10,3:2|0:2,0:0:0:0:
255,55,178994,6,0,B|183:54|183:54|180:55|180:55|107:57,1,140,2|10,3:2|0:2,0:0:0:0:
62,121,179480,2,0,P|78:154|82:199,1,70,2|0,0:2|3:0,0:0:0:0:
165,203,179805,2,0,P|149:236|144:281,1,70,2|8,0:2|0:0,0:0:0:0:
84,328,180129,6,0,B|116:358|116:358|222:338,1,140,2|0,0:2|0:0,0:0:0:0:
271,282,180616,1,10,0:2:0:0:
271,282,180778,1,2,0:2:0:0:
348,313,180940,2,0,P|385:325|425:295,1,70,2|2,3:2|0:2,0:0:0:0:
445,236,181264,2,0,P|408:224|368:255,1,70,10|2,0:2|0:2,0:0:0:0:
335,164,181589,6,0,B|366:117|330:72|330:72|317:99|283:106,1,140,2|10,3:2|0:2,0:0:0:0:
218,92,182074,1,0,0:0:0:0:
172,162,182237,1,2,3:2:0:0:
113,116,182399,1,8,0:0:0:0:
113,116,182480,1,8,0:0:0:0:
113,116,182561,6,0,P|99:136|94:164,3,35,10|8|8|8,0:2|0:0|0:3|0:3,0:0:0:0:
89,192,182886,2,0,P|104:211|128:224,3,35,2|8|8|8,3:2|0:0|0:0|0:0,0:0:0:0:
142,235,183210,2,0,P|157:244|169:256,3,35,8|8|8|8,0:3|0:3|0:3|0:3,0:0:0:0:
190,284,183535,2,0,P|186:300|177:316,3,35,10|8|8|8,0:2|0:0|0:3|0:3,0:0:0:0:
147,335,183859,2,0,P|129:337|111:333,3,35,8|8|0|0,0:0|0:0|3:0|3:0,0:0:0:0:
92,305,184182,5,4,3:2:0:0:
256,192,184345,12,0,186778,3:0:0:0:
143,132,194561,6,0,B|116:100|49:139|89:228,1,140,4|8,3:2|0:0,0:0:0:0:
145,267,195048,1,0,0:0:0:0:
98,321,195210,2,0,P|137:340|181:330,1,70,0|0,3:0|0:0,0:0:0:0:
145,267,195534,2,0,P|182:263|216:283,1,70,8|0,0:0|0:0,0:0:0:0:
279,325,195859,6,0,B|248:260|248:260|236:208|299:198,1,140,0|8,3:0|0:0,0:0:0:0:
352,235,196345,1,0,0:0:0:0:
364,152,196507,2,0,L|400:137,2,35,0|2|2,3:0|0:0|0:0,0:0:0:0:
287,115,196832,2,0,L|259:46,1,70,10|2,0:0|0:0,0:0:0:0:
176,44,197156,6,0,P|169:79|63:127,1,140,0|8,3:0|0:0,0:0:0:0:
91,39,197643,1,0,0:0:0:0:
141,105,197805,2,0,P|161:157|161:192,1,70,0|0,3:0|0:0,0:0:0:0:
243,189,198129,2,0,P|222:241|222:276,1,70,8|0,0:0|0:0,0:0:0:0:
154,306,198453,6,0,B|218:282|218:282|283:329,1,140,0|8,3:0|0:0,0:0:0:0:
353,357,198940,1,0,0:0:0:0:
435,339,199102,2,0,P|434:371|417:398,2,35,2|2|10,3:2|0:2|0:2,0:0:0:0:
405,260,199426,2,0,P|396:224|401:186,1,70,10|2,0:0|0:0,0:0:0:0:
341,129,199751,6,0,P|386:119|362:35,1,140,4|8,3:2|0:0,0:0:0:0:
298,56,200237,1,0,0:0:0:0:
298,56,200399,2,0,P|244:46|214:33,1,70,0|0,3:0|0:0,0:0:0:0:
183,111,200724,2,0,P|129:121|99:134,1,70,8|0,0:0|0:0,0:0:0:0:
62,60,201048,6,0,B|27:97|27:97|50:202,1,140,0|8,3:0|0:0,0:0:0:0:
108,239,201534,1,0,0:0:0:0:
123,321,201697,2,0,L|112:366,2,35,0|2|2,3:0|0:0|0:0,0:0:0:0:
184,263,202021,2,0,P|220:259|252:275,1,70,10|2,0:0|0:0,0:0:0:0:
315,325,202345,6,0,B|288:303|306:261|306:261|328:220|296:188,1,140,0|8,3:2|0:0,0:0:0:0:
239,137,202832,1,0,0:0:0:0:
276,62,202994,2,0,P|231:53|203:64,1,70,0|8,3:0|0:0,0:0:0:0:
172,136,203318,2,0,P|218:144|245:134,1,70,8|0,0:0|0:0,0:0:0:0:
323,126,203643,5,8,0:0:0:0:
400,87,203805,1,8,0:0:0:0:
400,87,203886,1,8,0:0:0:0:
400,87,203967,2,0,P|409:121|402:140,3,35,8|8|8|8,0:3|0:3|0:3|0:3,0:0:0:0:
400,155,204291,2,0,P|400:173|408:189,3,35,8|8|8|8,0:0|0:0|0:0|0:0,0:0:0:0:
439,210,204616,5,8,0:0:0:0:
388,280,204778,1,8,0:0:0:0:
