osu file format v14

[General]
AudioFilename: audio.mp3
AudioLeadIn: 0
PreviewTime:87406
Countdown: 0
SampleSet: Normal
StackLeniency: 0.7
Mode: 1
LetterboxInBreaks: 0
WidescreenStoryboard: 1

[Editor]
DistanceSpacing: 3.7
BeatDivisor: 4
GridSize: 32
TimelineZoom: 3.299999

[Metadata]
Title:Teo (Mortis Frenchcore Edit)
TitleUnicode:テオ (Mortis Frenchcore Edit)
Artist:Omoi
ArtistUnicode:Omoi
Creator:Hivie
Version:Inner Oni
Source:
Tags:enneya kyex intpotato electronic japanese vocaloid feat. ft. hatsune miku 初音ミク remix hardcore -Mortis een persoon een_persoon arcpotato
BeatmapID:3961646
BeatmapSetID:1874112

[Difficulty]
HPDrainRate:6
CircleSize:2
OverallDifficulty:6
ApproachRate:10
SliderMultiplier:1.6
SliderTickRate:1

[Events]
//Background and Video events
0,0,"MOSHED-2022-10-25-20-8-3.jpg",0,80
//Break Periods
2,84325,85475
//Storyboard Layer 0 (Background)
//Storyboard Layer 1 (Fail)
//Storyboard Layer 2 (Pass)
//Storyboard Layer 3 (Foreground)
//Storyboard Layer 4 (Overlay)
//Storyboard Sound Samples

[TimingPoints]
-4675,300,4,1,0,100,1,0
-4675,-25,4,1,0,100,0,0
125,-125,4,1,0,100,0,0
9725,-111.111111111111,4,1,0,100,0,0
19325,-100,4,1,0,100,0,0
38522,-90.9090909090909,4,1,0,100,0,0
38672,-91.9540229885057,4,1,0,100,0,0
38822,-93.0232558139535,4,1,0,100,0,0
38972,-94.1176470588235,4,1,0,100,0,0
39122,-95.2380952380952,4,1,0,100,0,0
39272,-96.3855421686747,4,1,0,100,0,0
39422,-97.5609756097561,4,1,0,100,0,0
39572,-98.7654320987654,4,1,0,100,0,0
39722,-100,4,1,0,100,0,0
39872,-101.26582278481,4,1,0,100,0,0
40022,-102.564102564103,4,1,0,100,0,0
40172,-103.896103896104,4,1,0,100,0,0
40322,-105.263157894737,4,1,0,100,0,0
40472,-106.666666666667,4,1,0,100,0,0
40622,-108.108108108108,4,1,0,100,0,0
40772,-109.58904109589,4,1,0,100,0,0
40922,-111.111111111111,4,1,0,100,0,0
41072,-112.676056338028,4,1,0,100,0,0
41222,-114.285714285714,4,1,0,100,0,0
41372,-115.942028985507,4,1,0,100,0,0
41522,-117.647058823529,4,1,0,100,0,0
41672,-119.402985074627,4,1,0,100,0,0
41822,-121.212121212121,4,1,0,100,0,0
41972,-123.076923076923,4,1,0,100,0,0
42122,-125,4,1,0,100,0,0
42425,-2000,4,1,0,100,0,0
43325,-100,4,1,0,100,0,0
62522,-90.9090909090909,4,1,0,100,0,0
62672,-92.0245398773006,4,1,0,100,0,0
62822,-93.167701863354,4,1,0,100,0,0
62972,-94.3396226415094,4,1,0,100,0,0
63122,-95.5414012738854,4,1,0,100,0,0
63272,-96.7741935483871,4,1,0,100,0,0
63422,-98.0392156862745,4,1,0,100,0,0
63572,-99.3377483443709,4,1,0,100,0,0
63722,-100.671140939597,4,1,0,100,0,0
63872,-102.040816326531,4,1,0,100,0,0
64022,-103.448275862069,4,1,0,100,0,0
64172,-104.895104895105,4,1,0,100,0,0
64322,-106.382978723404,4,1,0,100,0,0
64472,-107.913669064748,4,1,0,100,0,0
64622,-109.489051094891,4,1,0,100,0,0
64772,-111.111111111111,4,1,0,100,0,0
64922,-112.781954887218,4,1,0,100,0,0
65072,-114.503816793893,4,1,0,100,0,0
65222,-116.279069767442,4,1,0,100,0,0
65372,-118.110236220472,4,1,0,100,0,0
65522,-120,4,1,0,100,0,0
65672,-121.951219512195,4,1,0,100,0,0
65822,-123.96694214876,4,1,0,100,0,0
65972,-126.050420168067,4,1,0,100,0,0
66122,-128.205128205128,4,1,0,100,0,0
66422,-132.743362831858,4,1,0,100,0,0
66572,-135.135135135135,4,1,0,100,0,0
66872,-140.18691588785,4,1,0,100,0,0
67022,-142.857142857143,4,1,0,100,0,0
67322,-100,4,1,0,100,0,0
77222,-98.3606557377049,4,1,0,100,0,0
77372,-97.5609756097561,4,1,0,100,0,0
77522,-96.7741935483871,4,1,0,100,0,0
77597,-96.3855421686747,4,1,0,100,0,0
77672,-96,4,1,0,100,0,0
77747,-95.6175298804781,4,1,0,100,0,0
77822,-95.2380952380952,4,1,0,100,0,0
77897,-94.8616600790514,4,1,0,100,0,0
77972,-94.488188976378,4,1,0,100,0,0
78122,-93.75,4,1,0,100,0,0
78197,-93.3852140077821,4,1,0,100,0,0
78272,-93.0232558139535,4,1,0,100,0,0
78422,-92.3076923076923,4,1,0,100,0,0
78572,-91.6030534351145,4,1,0,100,0,0
78647,-91.254752851711,4,1,0,100,0,0
78722,-90.9090909090909,4,1,0,100,0,0
78872,-90.2255639097744,4,1,0,100,0,0
79022,-89.5522388059701,4,1,0,100,0,0
79172,-88.8888888888889,4,1,0,100,0,0
79322,-88.2352941176471,4,1,0,100,0,0
79397,-87.9120879120879,4,1,0,100,0,0
79472,-87.5912408759124,4,1,0,100,0,0
79547,-87.2727272727273,4,1,0,100,0,0
79622,-86.9565217391304,4,1,0,100,0,0
79772,-86.3309352517986,4,1,0,100,0,0
79922,-85.7142857142857,4,1,0,100,0,0
79997,-85.4092526690391,4,1,0,100,0,0
80072,-85.1063829787234,4,1,0,100,0,0
80147,-84.8056537102473,4,1,0,100,0,0
80222,-84.5070422535211,4,1,0,100,0,0
80372,-83.9160839160839,4,1,0,100,0,0
80522,-83.3333333333333,4,1,0,100,0,0
80597,-83.0449826989619,4,1,0,100,0,0
80672,-82.7586206896552,4,1,0,100,0,0
80747,-82.4742268041237,4,1,0,100,0,0
80822,-82.1917808219178,4,1,0,100,0,0
80897,-81.9112627986348,4,1,0,100,0,0
80972,-81.6326530612245,4,1,0,100,0,0
81122,-81.0810810810811,4,1,0,100,0,0
81272,-80.5369127516778,4,1,0,100,0,0
81422,-80,4,1,0,100,0,0
81722,-100,4,1,0,100,0,0
82322,-94.1176470588235,4,1,0,100,0,0
82922,-88.8888888888889,4,1,0,100,0,0
83222,-86.4864864864865,4,1,0,100,0,0
83522,-84.2105263157895,4,1,0,100,0,0
83672,-83.1168831168831,4,1,0,100,0,0
83747,-82.5806451612903,4,1,0,100,0,0
83822,-82.0512820512821,4,1,0,100,0,0
83972,-81.0126582278481,4,1,0,100,0,0
84122,-71.4285714285714,4,1,0,100,0,0
84425,-125,4,1,0,100,0,0
85850,-2000,4,1,0,100,0,0
86000,-125,4,1,0,100,0,0
87725,-92.5925925925926,4,1,0,100,0,1
126125,-92.5925925925926,4,1,0,100,0,0
126425,-125,4,1,0,100,0,0
129725,-125,4,1,0,100,0,0
130022,-130.434782608696,4,1,0,100,0,0
130172,-133.333333333333,4,1,0,100,0,0
130472,-139.53488372093,4,1,0,100,0,0
130622,-142.857142857143,4,1,0,100,0,0
130925,-100,4,1,0,100,0,0
138422,-102.564102564103,4,1,0,100,0,0
138722,-105.263157894737,4,1,0,100,0,0
139022,-108.108108108108,4,1,0,100,0,0
139322,-111.111111111111,4,1,0,100,0,0
139622,-114.285714285714,4,1,0,100,0,0
139847,-116.788321167883,4,1,0,100,0,0
139922,-117.647058823529,4,1,0,100,0,0
140072,-119.402985074627,4,1,0,100,0,0
140222,-121.212121212121,4,1,0,100,0,0
140372,-123.076923076923,4,1,0,100,0,0
140522,-100,4,1,0,100,0,0
147725,-92.5925925925926,4,1,0,100,0,0
150425,-100,4,1,0,100,0,0
154925,-125,4,1,0,100,0,0
162425,-2000,4,1,0,100,0,0
163325,-83.3333333333333,4,1,0,100,0,0
164525,-92.5925925925926,4,1,0,100,0,1
182825,-92.5925925925926,4,1,0,100,0,0
183047,-99.009900990099,4,1,0,100,0,0
183122,-101.351351351351,4,1,0,100,0,0
183272,-106.382978723404,4,1,0,100,0,0
183422,-111.940298507463,4,1,0,100,0,0
183572,-118.110236220472,4,1,0,100,0,0
183725,-92.5925925925926,4,1,0,100,0,1
193325,-92.5925925925926,4,1,0,100,0,0
193472,-93.0232558139535,4,1,0,100,0,0
193622,-93.4579439252336,4,1,0,100,0,0
193772,-93.8967136150235,4,1,0,100,0,0
193922,-94.3396226415094,4,1,0,100,0,0
193997,-94.5626477541371,4,1,0,100,0,0
194072,-94.7867298578199,4,1,0,100,0,0
194147,-95.0118764845606,4,1,0,100,0,0
194222,-95.2380952380952,4,1,0,100,0,0
194372,-95.6937799043062,4,1,0,100,0,0
194522,-96.1538461538461,4,1,0,100,0,0
194672,-96.6183574879227,4,1,0,100,0,0
194747,-96.8523002421308,4,1,0,100,0,0
194822,-97.0873786407767,4,1,0,100,0,0
194972,-97.5609756097561,4,1,0,100,0,0
195122,-98.0392156862745,4,1,0,100,0,0
195197,-98.2800982800983,4,1,0,100,0,0
195272,-98.5221674876847,4,1,0,100,0,0
195347,-98.7654320987654,4,1,0,100,0,0
195422,-99.009900990099,4,1,0,100,0,0
195572,-99.5024875621891,4,1,0,100,0,0
195722,-100,4,1,0,100,0,0
207872,-100.649350649351,4,1,0,100,0,0
208022,-101.307189542484,4,1,0,100,0,0
208172,-101.973684210526,4,1,0,100,0,0
208322,-102.649006622517,4,1,0,100,0,0
208472,-103.333333333333,4,1,0,100,0,0
208622,-104.026845637584,4,1,0,100,0,0
208772,-104.72972972973,4,1,0,100,0,0
208922,-105.442176870748,4,1,0,100,0,0
209072,-106.164383561644,4,1,0,100,0,0
209222,-106.896551724138,4,1,0,100,0,0
209372,-107.638888888889,4,1,0,100,0,0
209522,-108.391608391608,4,1,0,100,0,0
209672,-109.154929577465,4,1,0,100,0,0
209822,-109.929078014184,4,1,0,100,0,0
209972,-110.714285714286,4,1,0,100,0,0
210122,-111.510791366906,4,1,0,100,0,0
210272,-112.31884057971,4,1,0,100,0,0
210422,-113.138686131387,4,1,0,100,0,0
210572,-113.970588235294,4,1,0,100,0,0
210722,-114.814814814815,4,1,0,100,0,0
210872,-115.671641791045,4,1,0,100,0,0
211022,-116.541353383459,4,1,0,100,0,0
211172,-117.424242424242,4,1,0,100,0,0
211322,-118.320610687023,4,1,0,100,0,0
211472,-119.230769230769,4,1,0,100,0,0
211622,-120.15503875969,4,1,0,100,0,0
211772,-121.09375,4,1,0,100,0,0
211922,-122.047244094488,4,1,0,100,0,0
212072,-123.015873015873,4,1,0,100,0,0
212222,-124,4,1,0,100,0,0
212372,-125,4,1,0,100,0,0
212525,-125,4,1,0,50,0,0
212526,-55.5555555555556,4,1,0,50,0,0
213725,-142.857142857143,4,1,0,50,0,0
214925,-153.846153846154,4,1,0,50,0,0

[HitObjects]
256,96,9725,5,4,0:0:0:0:
256,192,9875,1,8,0:0:0:0:
256,192,10025,1,0,0:0:0:0:
256,192,10175,1,8,0:0:0:0:
256,192,10325,1,0,0:0:0:0:
256,192,10475,1,0,0:0:0:0:
256,192,10625,1,8,0:0:0:0:
256,192,10775,1,8,0:0:0:0:
256,192,10925,1,0,0:0:0:0:
256,192,11075,1,8,0:0:0:0:
256,192,11225,1,0,0:0:0:0:
256,192,11375,1,0,0:0:0:0:
256,192,11525,1,8,0:0:0:0:
256,192,11675,1,8,0:0:0:0:
256,192,11825,1,0,0:0:0:0:
256,192,11975,1,8,0:0:0:0:
256,192,12125,1,0,0:0:0:0:
256,192,12275,1,8,0:0:0:0:
256,192,12425,1,0,0:0:0:0:
256,192,12575,1,8,0:0:0:0:
256,192,12725,1,0,0:0:0:0:
256,192,12875,1,0,0:0:0:0:
256,192,13025,1,8,0:0:0:0:
256,192,13175,1,8,0:0:0:0:
256,192,13325,1,0,0:0:0:0:
256,192,13475,1,8,0:0:0:0:
256,192,13625,1,0,0:0:0:0:
256,192,13775,1,8,0:0:0:0:
256,192,13925,1,8,0:0:0:0:
256,192,14075,1,8,0:0:0:0:
256,192,14225,1,0,0:0:0:0:
256,192,14375,1,8,0:0:0:0:
256,192,14525,1,0,0:0:0:0:
256,192,14675,1,8,0:0:0:0:
256,192,14825,1,0,0:0:0:0:
256,192,14975,1,8,0:0:0:0:
256,192,15125,1,0,0:0:0:0:
256,192,15275,1,0,0:0:0:0:
256,192,15425,1,8,0:0:0:0:
256,192,15575,1,8,0:0:0:0:
256,192,15725,1,0,0:0:0:0:
256,192,15875,1,8,0:0:0:0:
256,192,16025,1,0,0:0:0:0:
256,192,16175,1,0,0:0:0:0:
256,192,16325,1,8,0:0:0:0:
256,192,16475,1,8,0:0:0:0:
256,192,16625,1,0,0:0:0:0:
256,192,16775,1,8,0:0:0:0:
256,192,16850,1,8,0:0:0:0:
256,192,16925,1,0,0:0:0:0:
256,192,17075,1,8,0:0:0:0:
256,192,17225,1,0,0:0:0:0:
256,192,17375,1,8,0:0:0:0:
256,192,17525,1,0,0:0:0:0:
256,192,17675,1,0,0:0:0:0:
256,192,17825,1,8,0:0:0:0:
256,192,17975,1,8,0:0:0:0:
256,192,18125,1,0,0:0:0:0:
256,192,18275,1,8,0:0:0:0:
256,192,18425,1,0,0:0:0:0:
256,192,18575,1,0,0:0:0:0:
256,192,18725,1,8,0:0:0:0:
256,192,18875,1,8,0:0:0:0:
256,192,18950,1,8,0:0:0:0:
256,192,19025,1,8,0:0:0:0:
256,192,19175,1,8,0:0:0:0:
256,96,19325,1,4,0:0:0:0:
256,192,19625,1,0,0:0:0:0:
256,192,19775,1,8,0:0:0:0:
256,192,19925,1,0,0:0:0:0:
256,192,20075,1,8,0:0:0:0:
256,192,20225,1,0,0:0:0:0:
256,192,20300,1,0,0:0:0:0:
256,192,20375,1,8,0:0:0:0:
256,192,20525,1,0,0:0:0:0:
256,192,20600,1,0,0:0:0:0:
256,192,20675,1,0,0:0:0:0:
256,192,20825,1,8,0:0:0:0:
256,192,20975,1,0,0:0:0:0:
256,192,21125,1,8,0:0:0:0:
256,192,21200,1,8,0:0:0:0:
256,192,21275,1,0,0:0:0:0:
256,192,21350,1,8,0:0:0:0:
256,192,21425,1,0,0:0:0:0:
256,192,21575,1,8,0:0:0:0:
256,192,21725,1,0,0:0:0:0:
256,192,21875,1,8,0:0:0:0:
256,192,22025,1,0,0:0:0:0:
256,192,22100,1,0,0:0:0:0:
256,192,22175,1,8,0:0:0:0:
256,192,22325,1,0,0:0:0:0:
256,192,22475,1,8,0:0:0:0:
256,192,22625,1,0,0:0:0:0:
256,192,22700,1,0,0:0:0:0:
256,192,22775,1,8,0:0:0:0:
256,192,22925,1,0,0:0:0:0:
256,192,23000,1,8,0:0:0:0:
256,192,23075,1,0,0:0:0:0:
256,192,23225,1,8,0:0:0:0:
256,192,23375,1,0,0:0:0:0:
256,192,23525,1,8,0:0:0:0:
256,192,23600,1,0,0:0:0:0:
256,192,23675,1,8,0:0:0:0:
256,192,23750,1,8,0:0:0:0:
256,192,23825,1,0,0:0:0:0:
256,192,23975,1,8,0:0:0:0:
256,192,24125,1,0,0:0:0:0:
256,192,24275,1,8,0:0:0:0:
256,192,24425,1,0,0:0:0:0:
256,192,24500,1,0,0:0:0:0:
256,192,24575,1,8,0:0:0:0:
256,192,24725,1,0,0:0:0:0:
256,192,24875,1,8,0:0:0:0:
256,192,25025,1,0,0:0:0:0:
256,192,25100,1,0,0:0:0:0:
256,192,25175,1,8,0:0:0:0:
256,192,25325,1,0,0:0:0:0:
256,192,25400,1,0,0:0:0:0:
256,192,25475,1,0,0:0:0:0:
256,192,25625,1,8,0:0:0:0:
256,192,25775,1,0,0:0:0:0:
256,192,25925,1,8,0:0:0:0:
256,192,26000,1,8,0:0:0:0:
256,192,26075,1,0,0:0:0:0:
256,192,26150,1,8,0:0:0:0:
256,192,26225,1,0,0:0:0:0:
256,192,26375,1,8,0:0:0:0:
256,192,26450,1,8,0:0:0:0:
256,192,26525,1,8,0:0:0:0:
256,192,26675,1,0,0:0:0:0:
256,192,26825,1,8,0:0:0:0:
256,192,26975,1,0,0:0:0:0:
256,192,27050,1,0,0:0:0:0:
256,192,27125,1,8,0:0:0:0:
256,192,27275,1,0,0:0:0:0:
256,192,27425,1,8,0:0:0:0:
256,192,27500,1,8,0:0:0:0:
256,192,27575,1,0,0:0:0:0:
256,192,27725,1,8,0:0:0:0:
256,192,27875,1,0,0:0:0:0:
256,192,27950,1,0,0:0:0:0:
256,192,28025,1,8,0:0:0:0:
256,192,28175,1,0,0:0:0:0:
256,192,28325,1,8,0:0:0:0:
256,192,28475,1,8,0:0:0:0:
256,192,28550,1,8,0:0:0:0:
256,192,28625,1,8,0:0:0:0:
256,192,28775,1,8,0:0:0:0:
256,96,28925,1,4,0:0:0:0:
256,192,29075,1,8,0:0:0:0:
256,192,29225,1,0,0:0:0:0:
256,192,29375,1,8,0:0:0:0:
256,192,29525,1,0,0:0:0:0:
256,192,29600,1,0,0:0:0:0:
256,192,29675,1,8,0:0:0:0:
256,192,29750,1,8,0:0:0:0:
256,192,29825,1,0,0:0:0:0:
256,192,29975,1,8,0:0:0:0:
256,192,30125,1,0,0:0:0:0:
256,192,30275,1,8,0:0:0:0:
256,192,30350,1,0,0:0:0:0:
256,192,30425,1,8,0:0:0:0:
256,192,30575,1,0,0:0:0:0:
256,192,30725,1,8,0:0:0:0:
256,192,30800,1,8,0:0:0:0:
256,192,30875,1,0,0:0:0:0:
256,192,30950,1,8,0:0:0:0:
256,192,31025,1,0,0:0:0:0:
256,192,31175,1,8,0:0:0:0:
256,192,31325,1,0,0:0:0:0:
256,192,31475,1,8,0:0:0:0:
256,192,31625,1,0,0:0:0:0:
256,192,31700,1,0,0:0:0:0:
256,192,31775,1,8,0:0:0:0:
256,192,31925,1,0,0:0:0:0:
256,192,32075,1,8,0:0:0:0:
256,192,32150,1,8,0:0:0:0:
256,192,32225,1,0,0:0:0:0:
256,192,32300,1,8,0:0:0:0:
256,192,32375,1,0,0:0:0:0:
256,192,32525,1,8,0:0:0:0:
256,192,32675,1,0,0:0:0:0:
256,192,32750,1,0,0:0:0:0:
256,192,32825,1,8,0:0:0:0:
256,192,32975,1,0,0:0:0:0:
256,192,33125,1,8,0:0:0:0:
256,192,33200,1,0,0:0:0:0:
256,192,33275,1,8,0:0:0:0:
256,192,33350,1,8,0:0:0:0:
256,192,33425,1,0,0:0:0:0:
256,192,33575,1,8,0:0:0:0:
256,192,33725,1,0,0:0:0:0:
256,192,33875,1,8,0:0:0:0:
256,192,34025,1,0,0:0:0:0:
256,192,34175,1,8,0:0:0:0:
256,192,34325,1,0,0:0:0:0:
256,192,34400,1,0,0:0:0:0:
256,192,34475,1,8,0:0:0:0:
256,192,34550,1,8,0:0:0:0:
256,192,34625,1,0,0:0:0:0:
256,192,34775,1,8,0:0:0:0:
256,192,34925,1,0,0:0:0:0:
256,192,35075,1,0,0:0:0:0:
256,192,35225,1,8,0:0:0:0:
256,192,35300,1,8,0:0:0:0:
256,192,35375,1,0,0:0:0:0:
256,192,35525,1,8,0:0:0:0:
256,192,35600,1,8,0:0:0:0:
256,192,35675,1,0,0:0:0:0:
256,192,35750,1,8,0:0:0:0:
256,192,35825,1,0,0:0:0:0:
256,192,35975,1,8,0:0:0:0:
256,192,36125,1,0,0:0:0:0:
256,192,36275,1,8,0:0:0:0:
256,192,36425,1,0,0:0:0:0:
256,192,36500,1,0,0:0:0:0:
256,192,36575,1,8,0:0:0:0:
256,192,36725,1,0,0:0:0:0:
256,192,36875,1,8,0:0:0:0:
256,192,37025,1,0,0:0:0:0:
256,192,37100,1,0,0:0:0:0:
256,192,37175,1,8,0:0:0:0:
256,192,37325,1,0,0:0:0:0:
256,192,37475,1,8,0:0:0:0:
256,192,37625,1,0,0:0:0:0:
256,192,37700,1,0,0:0:0:0:
256,192,37775,1,8,0:0:0:0:
256,192,37925,1,8,0:0:0:0:
256,192,38000,1,8,0:0:0:0:
256,192,38075,1,0,0:0:0:0:
256,192,38150,1,8,0:0:0:0:
256,192,38225,1,0,0:0:0:0:
256,192,38375,1,8,0:0:0:0:
256,96,38525,5,4,0:0:0:0:
256,192,38675,1,8,0:0:0:0:
256,192,38825,1,0,0:0:0:0:
256,192,38975,1,8,0:0:0:0:
256,192,39125,1,0,0:0:0:0:
256,192,39275,1,0,0:0:0:0:
256,192,39425,1,8,0:0:0:0:
256,192,39575,1,8,0:0:0:0:
256,192,39725,1,0,0:0:0:0:
256,192,39875,1,8,0:0:0:0:
256,192,40025,1,0,0:0:0:0:
256,192,40175,1,0,0:0:0:0:
256,192,40325,1,8,0:0:0:0:
256,192,40475,1,8,0:0:0:0:
256,192,40625,1,0,0:0:0:0:
256,192,40775,1,8,0:0:0:0:
256,192,40925,1,0,0:0:0:0:
256,192,41075,1,8,0:0:0:0:
256,192,41225,1,0,0:0:0:0:
256,192,41375,1,8,0:0:0:0:
256,192,41525,1,0,0:0:0:0:
256,192,41675,1,0,0:0:0:0:
256,192,41825,1,8,0:0:0:0:
256,192,41975,1,0,0:0:0:0:
256,192,42125,1,8,0:0:0:0:
256,192,42425,12,0,43175,0:0:0:0:
256,96,43325,5,12,0:0:0:0:
256,192,43625,1,8,0:0:0:0:
256,192,43775,1,0,0:0:0:0:
256,192,43925,1,8,0:0:0:0:
256,192,44000,1,0,0:0:0:0:
256,192,44075,1,8,0:0:0:0:
256,192,44150,1,8,0:0:0:0:
256,192,44225,1,0,0:0:0:0:
256,192,44375,1,8,0:0:0:0:
256,192,44525,1,0,0:0:0:0:
256,192,44600,1,0,0:0:0:0:
256,192,44675,1,0,0:0:0:0:
256,192,44825,1,8,0:0:0:0:
256,192,44975,1,0,0:0:0:0:
256,192,45050,1,8,0:0:0:0:
256,192,45125,1,8,0:0:0:0:
256,192,45200,1,8,0:0:0:0:
256,192,45275,1,0,0:0:0:0:
256,192,45425,1,8,0:0:0:0:
256,192,45575,1,0,0:0:0:0:
256,192,45650,1,8,0:0:0:0:
256,192,45725,1,0,0:0:0:0:
256,192,45875,1,0,0:0:0:0:
256,192,46025,1,8,0:0:0:0:
256,192,46175,1,0,0:0:0:0:
256,192,46250,1,0,0:0:0:0:
256,192,46325,1,8,0:0:0:0:
256,192,46475,1,0,0:0:0:0:
256,192,46625,1,8,0:0:0:0:
256,192,46700,1,8,0:0:0:0:
256,192,46775,1,0,0:0:0:0:
256,192,46925,1,8,0:0:0:0:
256,192,47075,1,0,0:0:0:0:
256,192,47150,1,0,0:0:0:0:
256,192,47225,1,8,0:0:0:0:
256,192,47300,1,0,0:0:0:0:
256,192,47375,1,8,0:0:0:0:
256,192,47450,1,8,0:0:0:0:
256,192,47525,1,0,0:0:0:0:
256,192,47675,1,0,0:0:0:0:
256,192,47750,1,0,0:0:0:0:
256,192,47825,1,8,0:0:0:0:
256,192,47975,1,0,0:0:0:0:
256,192,48125,1,8,0:0:0:0:
256,192,48200,1,0,0:0:0:0:
256,192,48275,1,8,0:0:0:0:
256,192,48350,1,8,0:0:0:0:
256,192,48425,1,0,0:0:0:0:
256,192,48500,1,8,0:0:0:0:
256,192,48575,1,0,0:0:0:0:
256,192,48725,1,8,0:0:0:0:
256,192,48800,1,8,0:0:0:0:
256,192,48875,1,0,0:0:0:0:
256,192,49025,1,8,0:0:0:0:
256,192,49175,1,0,0:0:0:0:
256,192,49250,1,0,0:0:0:0:
256,192,49325,1,8,0:0:0:0:
256,192,49400,1,0,0:0:0:0:
256,192,49475,1,0,0:0:0:0:
256,192,49625,1,8,0:0:0:0:
256,192,49775,1,0,0:0:0:0:
256,192,49850,1,0,0:0:0:0:
256,192,49925,1,8,0:0:0:0:
256,192,50000,1,0,0:0:0:0:
256,192,50075,1,8,0:0:0:0:
256,192,50150,1,8,0:0:0:0:
256,192,50225,1,0,0:0:0:0:
256,192,50375,1,8,0:0:0:0:
256,192,50525,1,0,0:0:0:0:
256,192,50825,1,8,0:0:0:0:
256,192,50900,1,0,0:0:0:0:
256,192,50975,1,8,0:0:0:0:
256,192,51050,1,8,0:0:0:0:
256,192,51125,1,0,0:0:0:0:
256,192,51275,1,8,0:0:0:0:
256,192,51350,1,8,0:0:0:0:
256,192,51500,1,0,0:0:0:0:
256,192,51575,1,8,0:0:0:0:
256,192,51725,1,0,0:0:0:0:
256,192,51875,1,0,0:0:0:0:
256,192,52025,1,8,0:0:0:0:
256,192,52175,1,0,0:0:0:0:
256,192,52325,1,8,0:0:0:0:
256,192,52400,1,0,0:0:0:0:
256,192,52475,1,8,0:0:0:0:
256,192,52550,1,0,0:0:0:0:
256,192,52625,1,8,0:0:0:0:
256,192,52700,1,8,0:0:0:0:
256,192,52775,1,0,0:0:0:0:
256,96,52925,1,12,0:0:0:0:
256,192,53225,1,8,0:0:0:0:
256,192,53375,1,0,0:0:0:0:
256,192,53525,1,8,0:0:0:0:
256,192,53600,1,8,0:0:0:0:
256,192,53675,1,0,0:0:0:0:
256,192,53750,1,8,0:0:0:0:
256,192,53825,1,0,0:0:0:0:
256,192,53975,1,8,0:0:0:0:
256,192,54125,1,8,0:0:0:0:
256,192,54200,1,8,0:0:0:0:
256,192,54275,1,0,0:0:0:0:
256,192,54425,1,8,0:0:0:0:
256,192,54575,1,0,0:0:0:0:
256,192,54650,1,0,0:0:0:0:
256,192,54725,1,8,0:0:0:0:
256,192,54875,1,0,0:0:0:0:
256,192,55025,1,8,0:0:0:0:
256,192,55175,1,0,0:0:0:0:
256,192,55325,1,8,0:0:0:0:
256,192,55400,1,0,0:0:0:0:
256,192,55475,1,0,0:0:0:0:
256,192,55550,1,0,0:0:0:0:
256,192,55625,1,8,0:0:0:0:
256,192,55775,1,0,0:0:0:0:
256,192,55925,1,8,0:0:0:0:
256,192,56000,1,8,0:0:0:0:
256,192,56075,1,0,0:0:0:0:
256,192,56225,1,8,0:0:0:0:
256,192,56375,1,0,0:0:0:0:
256,192,56525,1,8,0:0:0:0:
256,192,56600,1,8,0:0:0:0:
256,192,56675,1,8,0:0:0:0:
256,192,56750,1,8,0:0:0:0:
256,192,56825,1,0,0:0:0:0:
256,192,56975,1,8,0:0:0:0:
256,192,57125,1,0,0:0:0:0:
256,192,57275,1,8,0:0:0:0:
256,192,57350,1,8,0:0:0:0:
256,192,57425,1,8,0:0:0:0:
256,192,57575,1,0,0:0:0:0:
256,192,57725,1,8,0:0:0:0:
256,192,57800,1,0,0:0:0:0:
256,192,57875,1,8,0:0:0:0:
256,192,57950,1,0,0:0:0:0:
256,192,58025,1,8,0:0:0:0:
256,192,58100,1,8,0:0:0:0:
256,192,58175,1,0,0:0:0:0:
256,192,58325,1,8,0:0:0:0:
256,192,58475,1,0,0:0:0:0:
256,192,58625,1,8,0:0:0:0:
256,192,58775,1,0,0:0:0:0:
256,192,58850,1,0,0:0:0:0:
256,192,58925,1,8,0:0:0:0:
256,192,59075,1,0,0:0:0:0:
256,192,59225,1,8,0:0:0:0:
256,192,59300,1,8,0:0:0:0:
256,192,59375,1,0,0:0:0:0:
256,192,59450,1,0,0:0:0:0:
256,192,59525,1,8,0:0:0:0:
256,192,59675,1,0,0:0:0:0:
256,192,59825,1,8,0:0:0:0:
256,192,59900,1,8,0:0:0:0:
256,192,59975,1,8,0:0:0:0:
256,192,60050,1,8,0:0:0:0:
256,192,60125,1,0,0:0:0:0:
256,192,60275,1,0,0:0:0:0:
256,192,60425,1,8,0:0:0:0:
256,192,60500,1,0,0:0:0:0:
256,192,60575,1,0,0:0:0:0:
256,192,60650,1,0,0:0:0:0:
256,192,60725,1,8,0:0:0:0:
256,192,60800,1,8,0:0:0:0:
256,192,60875,1,0,0:0:0:0:
256,192,61025,1,8,0:0:0:0:
256,192,61175,1,0,0:0:0:0:
256,192,61325,1,8,0:0:0:0:
256,192,61400,1,0,0:0:0:0:
256,192,61475,1,0,0:0:0:0:
256,192,61550,1,0,0:0:0:0:
256,192,61625,1,8,0:0:0:0:
256,192,61775,1,0,0:0:0:0:
256,192,61925,1,8,0:0:0:0:
256,192,62000,1,0,0:0:0:0:
256,192,62075,1,8,0:0:0:0:
256,192,62150,5,8,0:0:0:0:
256,192,62225,1,0,0:0:0:0:
256,192,62300,1,0,0:0:0:0:
256,192,62375,1,8,0:0:0:0:
256,96,62525,5,4,0:0:0:0:
256,192,62675,1,8,0:0:0:0:
256,192,62825,1,0,0:0:0:0:
256,192,62975,1,8,0:0:0:0:
256,192,63125,1,0,0:0:0:0:
256,192,63275,1,0,0:0:0:0:
256,192,63425,1,8,0:0:0:0:
256,192,63575,1,8,0:0:0:0:
256,192,63725,1,0,0:0:0:0:
256,192,63875,1,8,0:0:0:0:
256,192,64025,1,0,0:0:0:0:
256,192,64175,1,0,0:0:0:0:
256,192,64325,1,8,0:0:0:0:
256,192,64475,1,8,0:0:0:0:
256,192,64625,1,0,0:0:0:0:
256,192,64775,1,8,0:0:0:0:
256,192,64925,1,0,0:0:0:0:
256,192,65075,1,8,0:0:0:0:
256,192,65225,1,0,0:0:0:0:
256,192,65375,1,8,0:0:0:0:
256,192,65525,1,0,0:0:0:0:
256,192,65675,1,0,0:0:0:0:
256,192,65825,1,8,0:0:0:0:
256,192,65975,1,0,0:0:0:0:
256,192,66125,1,8,0:0:0:0:
256,192,66425,1,8,0:0:0:0:
256,192,66575,1,0,0:0:0:0:
256,192,66875,1,0,0:0:0:0:
256,192,67025,1,0,0:0:0:0:
256,96,67325,5,12,0:0:0:0:
256,192,67625,1,8,0:0:0:0:
256,192,67775,1,0,0:0:0:0:
256,192,67850,1,8,0:0:0:0:
256,192,67925,1,0,0:0:0:0:
256,192,68000,1,0,0:0:0:0:
256,192,68075,1,8,0:0:0:0:
256,192,68225,1,8,0:0:0:0:
256,192,68375,1,0,0:0:0:0:
256,192,68525,1,8,0:0:0:0:
256,192,68600,1,0,0:0:0:0:
256,192,68675,1,0,0:0:0:0:
256,192,68825,1,8,0:0:0:0:
256,192,68975,1,0,0:0:0:0:
256,192,69050,1,8,0:0:0:0:
256,192,69125,1,8,0:0:0:0:
256,192,69200,1,8,0:0:0:0:
256,192,69275,1,0,0:0:0:0:
256,192,69425,1,8,0:0:0:0:
256,192,69575,1,0,0:0:0:0:
256,192,69650,1,8,0:0:0:0:
256,192,69725,1,0,0:0:0:0:
256,192,69875,1,0,0:0:0:0:
256,192,70025,1,8,0:0:0:0:
256,192,70175,1,0,0:0:0:0:
256,192,70325,1,8,0:0:0:0:
256,192,70400,1,8,0:0:0:0:
256,192,70475,1,0,0:0:0:0:
256,192,70550,1,0,0:0:0:0:
256,192,70625,1,8,0:0:0:0:
256,192,70775,1,0,0:0:0:0:
256,192,70925,1,8,0:0:0:0:
256,192,71075,1,0,0:0:0:0:
256,192,71150,1,0,0:0:0:0:
256,192,71225,1,8,0:0:0:0:
256,192,71300,1,0,0:0:0:0:
256,192,71375,1,8,0:0:0:0:
256,192,71450,1,8,0:0:0:0:
256,192,71525,1,0,0:0:0:0:
256,192,71675,1,0,0:0:0:0:
256,192,71750,1,0,0:0:0:0:
256,192,71825,1,8,0:0:0:0:
256,192,71975,1,0,0:0:0:0:
256,192,72125,1,8,0:0:0:0:
256,192,72275,1,0,0:0:0:0:
256,192,72350,1,0,0:0:0:0:
256,192,72425,1,8,0:0:0:0:
256,192,72500,1,0,0:0:0:0:
256,192,72575,1,8,0:0:0:0:
256,192,72650,1,0,0:0:0:0:
256,192,72725,1,8,0:0:0:0:
256,192,72800,1,8,0:0:0:0:
256,192,72875,1,0,0:0:0:0:
256,192,73025,1,8,0:0:0:0:
256,192,73175,1,0,0:0:0:0:
256,192,73250,1,0,0:0:0:0:
256,192,73325,1,8,0:0:0:0:
256,192,73475,1,0,0:0:0:0:
256,192,73625,1,8,0:0:0:0:
256,192,73700,1,8,0:0:0:0:
256,192,73775,1,0,0:0:0:0:
256,192,73850,1,8,0:0:0:0:
256,192,73925,1,0,0:0:0:0:
256,192,74000,1,0,0:0:0:0:
256,192,74075,1,8,0:0:0:0:
256,192,74150,1,0,0:0:0:0:
256,192,74225,1,8,0:0:0:0:
256,192,74375,1,8,0:0:0:0:
256,192,74525,1,0,0:0:0:0:
256,192,74825,1,8,0:0:0:0:
256,192,74900,1,0,0:0:0:0:
256,192,74975,1,8,0:0:0:0:
256,192,75050,1,8,0:0:0:0:
256,192,75125,1,0,0:0:0:0:
256,192,75275,1,8,0:0:0:0:
256,192,75350,1,8,0:0:0:0:
256,192,75500,1,0,0:0:0:0:
256,192,75575,1,8,0:0:0:0:
256,192,75725,1,0,0:0:0:0:
256,192,75875,1,0,0:0:0:0:
256,192,76025,1,8,0:0:0:0:
256,192,76175,1,0,0:0:0:0:
256,192,76325,1,8,0:0:0:0:
256,192,76400,1,0,0:0:0:0:
256,192,76475,1,8,0:0:0:0:
256,192,76550,1,0,0:0:0:0:
256,192,76625,1,8,0:0:0:0:
256,192,76700,1,8,0:0:0:0:
256,192,76775,1,0,0:0:0:0:
256,96,76925,1,12,0:0:0:0:
256,192,77225,1,8,0:0:0:0:
256,192,77375,1,0,0:0:0:0:
256,192,77525,1,8,0:0:0:0:
256,192,77600,1,8,0:0:0:0:
256,192,77675,1,0,0:0:0:0:
256,192,77750,1,8,0:0:0:0:
256,192,77825,1,0,0:0:0:0:
256,192,77900,1,0,0:0:0:0:
256,192,77975,1,8,0:0:0:0:
256,192,78125,1,0,0:0:0:0:
256,192,78200,1,0,0:0:0:0:
256,192,78275,1,0,0:0:0:0:
256,192,78425,1,8,0:0:0:0:
256,192,78575,1,0,0:0:0:0:
256,192,78650,1,8,0:0:0:0:
256,192,78725,1,0,0:0:0:0:
256,192,78875,1,0,0:0:0:0:
256,192,79025,1,8,0:0:0:0:
256,192,79175,1,0,0:0:0:0:
256,192,79325,1,8,0:0:0:0:
256,192,79400,1,0,0:0:0:0:
256,192,79475,1,0,0:0:0:0:
256,192,79550,1,0,0:0:0:0:
256,192,79625,1,8,0:0:0:0:
256,192,79775,1,0,0:0:0:0:
256,192,79925,1,8,0:0:0:0:
256,192,80000,1,8,0:0:0:0:
256,192,80075,1,0,0:0:0:0:
256,192,80150,1,0,0:0:0:0:
256,192,80225,1,8,0:0:0:0:
256,192,80375,1,0,0:0:0:0:
256,192,80525,1,8,0:0:0:0:
256,192,80600,1,8,0:0:0:0:
256,192,80675,1,8,0:0:0:0:
256,192,80750,1,8,0:0:0:0:
256,192,80825,1,0,0:0:0:0:
256,192,80900,1,0,0:0:0:0:
256,192,80975,1,8,0:0:0:0:
256,192,81125,1,0,0:0:0:0:
256,192,81275,1,8,0:0:0:0:
256,192,81425,1,8,0:0:0:0:
256,96,81725,1,4,0:0:0:0:
256,96,82325,1,4,0:0:0:0:
256,96,82925,1,4,0:0:0:0:
256,96,83225,1,4,0:0:0:0:
256,192,83525,1,0,0:0:0:0:
256,192,83675,1,0,0:0:0:0:
256,192,83750,1,0,0:0:0:0:
256,192,83825,1,0,0:0:0:0:
256,192,83975,1,0,0:0:0:0:
256,96,84125,1,12,0:0:0:0:
256,192,85925,12,0,87425,0:0:0:0:
256,96,87725,5,12,0:0:0:0:
256,192,88025,1,0,0:0:0:0:
256,192,88100,1,0,0:0:0:0:
256,192,88175,1,8,0:0:0:0:
256,192,88325,1,0,0:0:0:0:
256,192,88475,1,8,0:0:0:0:
256,192,88550,1,8,0:0:0:0:
256,192,88625,1,0,0:0:0:0:
256,192,88700,1,0,0:0:0:0:
256,192,88775,1,8,0:0:0:0:
256,192,88850,1,8,0:0:0:0:
256,192,88925,1,0,0:0:0:0:
256,192,89075,1,8,0:0:0:0:
256,192,89150,1,8,0:0:0:0:
256,192,89225,1,0,0:0:0:0:
256,192,89300,1,0,0:0:0:0:
256,192,89375,1,8,0:0:0:0:
256,192,89450,1,0,0:0:0:0:
256,192,89525,1,8,0:0:0:0:
256,192,89600,1,8,0:0:0:0:
256,192,89675,1,0,0:0:0:0:
256,192,89825,1,8,0:0:0:0:
256,192,89900,1,8,0:0:0:0:
256,192,89975,1,0,0:0:0:0:
256,192,90050,1,0,0:0:0:0:
256,192,90125,1,8,0:0:0:0:
256,192,90425,1,8,0:0:0:0:
256,192,90500,1,8,0:0:0:0:
256,192,90575,1,0,0:0:0:0:
256,192,90725,1,8,0:0:0:0:
256,192,90875,1,0,0:0:0:0:
256,192,90950,1,0,0:0:0:0:
256,192,91025,1,8,0:0:0:0:
256,192,91100,1,8,0:0:0:0:
256,192,91175,1,0,0:0:0:0:
256,192,91250,1,0,0:0:0:0:
256,192,91325,1,8,0:0:0:0:
256,192,91475,1,0,0:0:0:0:
256,192,91550,1,0,0:0:0:0:
256,192,91625,1,8,0:0:0:0:
256,192,91700,1,0,0:0:0:0:
256,192,91775,1,8,0:0:0:0:
256,192,91850,1,0,0:0:0:0:
256,192,91925,1,8,0:0:0:0:
256,192,92000,1,8,0:0:0:0:
256,192,92075,1,0,0:0:0:0:
256,192,92225,1,0,0:0:0:0:
256,192,92300,1,0,0:0:0:0:
256,192,92375,1,8,0:0:0:0:
256,192,92450,1,8,0:0:0:0:
256,192,92525,1,0,0:0:0:0:
256,192,92825,1,0,0:0:0:0:
256,192,92900,1,0,0:0:0:0:
256,192,92975,1,8,0:0:0:0:
256,192,93125,1,0,0:0:0:0:
256,192,93275,1,8,0:0:0:0:
256,192,93350,1,8,0:0:0:0:
256,192,93425,1,0,0:0:0:0:
256,192,93500,1,0,0:0:0:0:
256,192,93575,1,8,0:0:0:0:
256,192,93650,1,8,0:0:0:0:
256,192,93725,1,0,0:0:0:0:
256,192,93875,1,8,0:0:0:0:
256,192,93950,1,8,0:0:0:0:
256,192,94025,1,0,0:0:0:0:
256,192,94100,1,0,0:0:0:0:
256,192,94175,1,8,0:0:0:0:
256,192,94250,1,0,0:0:0:0:
256,192,94325,1,8,0:0:0:0:
256,192,94400,1,8,0:0:0:0:
256,192,94475,1,0,0:0:0:0:
256,192,94625,1,8,0:0:0:0:
256,192,94700,1,8,0:0:0:0:
256,192,94775,1,0,0:0:0:0:
256,192,94850,1,0,0:0:0:0:
256,192,94925,1,8,0:0:0:0:
256,192,95075,1,0,0:0:0:0:
256,192,95225,1,8,0:0:0:0:
256,192,95300,1,8,0:0:0:0:
256,192,95375,1,8,0:0:0:0:
256,192,95450,1,8,0:0:0:0:
256,192,95525,1,0,0:0:0:0:
256,192,95675,1,0,0:0:0:0:
256,192,95825,1,8,0:0:0:0:
256,192,95900,1,8,0:0:0:0:
256,192,95975,1,8,0:0:0:0:
256,192,96050,1,8,0:0:0:0:
256,192,96125,1,0,0:0:0:0:
256,192,96200,1,0,0:0:0:0:
256,192,96275,1,0,0:0:0:0:
256,192,96425,1,8,0:0:0:0:
256,192,96575,1,0,0:0:0:0:
256,192,96725,1,8,0:0:0:0:
256,192,96875,1,0,0:0:0:0:
256,192,96950,1,0,0:0:0:0:
256,192,97025,1,8,0:0:0:0:
256,192,97100,1,8,0:0:0:0:
256,192,97175,1,0,0:0:0:0:
256,96,97325,1,12,0:0:0:0:
256,192,97625,1,0,0:0:0:0:
256,192,97775,1,8,0:0:0:0:
256,192,97850,1,8,0:0:0:0:
256,192,97925,1,0,0:0:0:0:
256,192,98000,1,0,0:0:0:0:
256,192,98075,1,8,0:0:0:0:
256,192,98150,1,0,0:0:0:0:
256,192,98225,1,8,0:0:0:0:
256,192,98300,1,8,0:0:0:0:
256,192,98375,1,0,0:0:0:0:
256,192,98525,1,8,0:0:0:0:
256,192,98675,1,0,0:0:0:0:
256,192,98750,1,0,0:0:0:0:
256,192,98825,1,8,0:0:0:0:
256,192,98900,1,0,0:0:0:0:
256,192,98975,1,8,0:0:0:0:
256,192,99050,1,0,0:0:0:0:
256,192,99125,1,8,0:0:0:0:
256,192,99200,1,8,0:0:0:0:
256,192,99275,1,0,0:0:0:0:
256,192,99425,1,8,0:0:0:0:
256,192,99500,1,8,0:0:0:0:
256,192,99575,1,0,0:0:0:0:
256,192,99650,1,0,0:0:0:0:
256,192,99725,1,8,0:0:0:0:
256,192,100025,1,8,0:0:0:0:
256,192,100175,1,0,0:0:0:0:
256,192,100250,1,0,0:0:0:0:
256,192,100325,1,8,0:0:0:0:
256,192,100400,1,0,0:0:0:0:
256,192,100475,1,8,0:0:0:0:
256,192,100550,1,8,0:0:0:0:
256,192,100625,1,0,0:0:0:0:
256,192,100700,1,0,0:0:0:0:
256,192,100775,1,8,0:0:0:0:
256,192,100925,1,0,0:0:0:0:
256,192,101075,1,8,0:0:0:0:
256,192,101150,1,0,0:0:0:0:
256,192,101225,1,8,0:0:0:0:
256,192,101300,1,8,0:0:0:0:
256,192,101375,1,0,0:0:0:0:
256,192,101450,1,0,0:0:0:0:
256,192,101525,1,8,0:0:0:0:
256,192,101600,1,8,0:0:0:0:
256,192,101675,1,0,0:0:0:0:
256,192,101825,1,0,0:0:0:0:
256,192,101900,1,0,0:0:0:0:
256,192,101975,1,8,0:0:0:0:
256,192,102050,1,8,0:0:0:0:
256,192,102125,1,0,0:0:0:0:
256,192,102425,1,0,0:0:0:0:
256,192,102575,1,8,0:0:0:0:
256,192,102650,1,8,0:0:0:0:
256,192,102725,1,0,0:0:0:0:
256,192,102800,1,0,0:0:0:0:
256,192,102875,1,8,0:0:0:0:
256,192,102950,1,0,0:0:0:0:
256,192,103025,1,8,0:0:0:0:
256,192,103100,1,8,0:0:0:0:
256,192,103175,1,0,0:0:0:0:
256,192,103325,1,8,0:0:0:0:
256,192,103475,1,0,0:0:0:0:
256,192,103550,1,0,0:0:0:0:
256,192,103625,1,8,0:0:0:0:
256,192,103700,1,0,0:0:0:0:
256,192,103775,1,8,0:0:0:0:
256,192,103850,1,0,0:0:0:0:
256,192,103925,1,8,0:0:0:0:
256,192,104000,1,8,0:0:0:0:
256,192,104075,1,0,0:0:0:0:
256,192,104150,1,0,0:0:0:0:
256,192,104225,1,8,0:0:0:0:
256,192,104300,1,8,0:0:0:0:
256,192,104375,1,8,0:0:0:0:
256,192,104450,1,8,0:0:0:0:
256,192,104525,1,0,0:0:0:0:
256,192,104675,1,0,0:0:0:0:
256,192,104825,1,8,0:0:0:0:
256,192,104900,1,8,0:0:0:0:
256,192,104975,1,8,0:0:0:0:
256,192,105050,1,8,0:0:0:0:
256,192,105125,1,0,0:0:0:0:
256,192,105275,1,0,0:0:0:0:
256,192,105425,1,8,0:0:0:0:
256,192,105500,1,8,0:0:0:0:
256,192,105575,1,0,0:0:0:0:
256,192,105650,1,0,0:0:0:0:
256,192,105725,1,8,0:0:0:0:
256,192,105875,1,0,0:0:0:0:
256,192,106025,1,8,0:0:0:0:
256,192,106100,1,0,0:0:0:0:
256,192,106175,1,8,0:0:0:0:
256,192,106250,1,0,0:0:0:0:
256,192,106325,1,8,0:0:0:0:
256,192,106400,1,8,0:0:0:0:
256,192,106475,1,0,0:0:0:0:
256,192,106625,1,8,0:0:0:0:
256,192,106700,1,0,0:0:0:0:
256,192,106775,1,8,0:0:0:0:
256,96,106925,1,4,0:0:0:0:
256,192,107225,1,8,0:0:0:0:
256,192,107375,1,0,0:0:0:0:
256,192,107525,1,0,0:0:0:0:
256,192,107675,1,8,0:0:0:0:
256,192,107750,1,8,0:0:0:0:
256,192,107825,1,0,0:0:0:0:
256,192,107900,1,8,0:0:0:0:
256,192,107975,1,0,0:0:0:0:
256,192,108050,1,0,0:0:0:0:
256,192,108125,1,8,0:0:0:0:
256,192,108275,1,0,0:0:0:0:
256,192,108425,1,8,0:0:0:0:
256,192,108500,1,0,0:0:0:0:
256,192,108575,1,8,0:0:0:0:
256,192,108650,1,8,0:0:0:0:
256,192,108725,1,0,0:0:0:0:
256,192,108800,1,8,0:0:0:0:
256,192,108875,1,0,0:0:0:0:
256,192,109025,1,8,0:0:0:0:
256,192,109175,1,0,0:0:0:0:
256,192,109250,1,0,0:0:0:0:
256,192,109325,1,8,0:0:0:0:
256,192,109625,1,8,0:0:0:0:
256,192,109775,1,0,0:0:0:0:
256,192,109925,1,8,0:0:0:0:
256,192,110075,1,0,0:0:0:0:
256,192,110150,1,8,0:0:0:0:
256,192,110225,1,8,0:0:0:0:
256,192,110300,1,8,0:0:0:0:
256,192,110375,1,0,0:0:0:0:
256,192,110450,1,0,0:0:0:0:
256,192,110525,1,8,0:0:0:0:
256,192,110675,1,0,0:0:0:0:
256,192,110825,1,8,0:0:0:0:
256,192,110900,1,8,0:0:0:0:
256,192,110975,1,0,0:0:0:0:
256,192,111050,1,8,0:0:0:0:
256,192,111125,1,0,0:0:0:0:
256,192,111200,1,0,0:0:0:0:
256,192,111275,1,8,0:0:0:0:
256,192,111425,1,0,0:0:0:0:
256,192,111575,1,8,0:0:0:0:
256,192,111650,1,8,0:0:0:0:
256,192,111725,1,0,0:0:0:0:
256,192,112025,1,8,0:0:0:0:
256,192,112175,1,0,0:0:0:0:
256,192,112325,1,0,0:0:0:0:
256,192,112475,1,8,0:0:0:0:
256,192,112550,1,8,0:0:0:0:
256,192,112625,1,8,0:0:0:0:
256,192,112700,1,8,0:0:0:0:
256,192,112775,1,0,0:0:0:0:
256,192,112850,1,0,0:0:0:0:
256,192,112925,1,8,0:0:0:0:
256,192,113075,1,0,0:0:0:0:
256,192,113225,1,8,0:0:0:0:
256,192,113300,1,0,0:0:0:0:
256,192,113375,1,8,0:0:0:0:
256,192,113450,1,0,0:0:0:0:
256,192,113525,1,8,0:0:0:0:
256,192,113600,1,8,0:0:0:0:
256,192,113675,1,0,0:0:0:0:
256,192,113750,1,0,0:0:0:0:
256,192,113825,1,8,0:0:0:0:
256,192,113975,1,0,0:0:0:0:
256,192,114125,1,8,0:0:0:0:
256,192,114275,1,0,0:0:0:0:
256,192,114425,1,8,0:0:0:0:
256,192,114500,1,8,0:0:0:0:
256,192,114575,1,8,0:0:0:0:
256,192,114650,1,8,0:0:0:0:
256,192,114725,1,0,0:0:0:0:
256,192,114875,1,0,0:0:0:0:
256,192,115025,1,8,0:0:0:0:
256,192,115100,1,8,0:0:0:0:
256,192,115175,1,8,0:0:0:0:
256,192,115250,1,8,0:0:0:0:
256,192,115325,1,0,0:0:0:0:
256,192,115475,1,0,0:0:0:0:
256,192,115625,1,8,0:0:0:0:
256,192,115775,1,0,0:0:0:0:
256,192,115850,1,0,0:0:0:0:
256,192,115925,1,8,0:0:0:0:
256,192,116000,1,0,0:0:0:0:
256,192,116075,1,8,0:0:0:0:
256,192,116150,1,8,0:0:0:0:
256,192,116225,1,0,0:0:0:0:
256,192,116300,1,0,0:0:0:0:
256,192,116375,1,8,0:0:0:0:
256,96,116525,1,4,0:0:0:0:
256,192,116675,1,8,0:0:0:0:
256,192,116750,1,8,0:0:0:0:
256,192,116825,1,0,0:0:0:0:
256,192,116975,1,8,0:0:0:0:
256,192,117125,1,0,0:0:0:0:
256,192,117200,1,0,0:0:0:0:
256,192,117275,1,8,0:0:0:0:
256,192,117350,1,8,0:0:0:0:
256,192,117425,1,0,0:0:0:0:
256,192,117500,1,8,0:0:0:0:
256,192,117575,1,0,0:0:0:0:
256,192,117725,1,8,0:0:0:0:
256,192,117875,1,0,0:0:0:0:
256,192,118025,1,8,0:0:0:0:
256,192,118100,1,0,0:0:0:0:
256,192,118175,1,8,0:0:0:0:
256,192,118250,1,0,0:0:0:0:
256,192,118325,1,8,0:0:0:0:
256,192,118400,1,8,0:0:0:0:
256,192,118475,1,0,0:0:0:0:
256,192,118625,1,8,0:0:0:0:
256,192,118700,1,0,0:0:0:0:
256,192,118775,1,0,0:0:0:0:
256,192,118850,1,0,0:0:0:0:
256,192,118925,1,8,0:0:0:0:
256,192,119075,1,0,0:0:0:0:
256,192,119150,1,0,0:0:0:0:
256,192,119225,1,0,0:0:0:0:
256,192,119375,1,8,0:0:0:0:
256,192,119525,1,0,0:0:0:0:
256,192,119675,1,8,0:0:0:0:
256,192,119750,1,8,0:0:0:0:
256,192,119825,1,8,0:0:0:0:
256,192,119900,1,8,0:0:0:0:
256,192,119975,1,0,0:0:0:0:
256,192,120050,1,0,0:0:0:0:
256,192,120125,1,8,0:0:0:0:
256,192,120275,1,0,0:0:0:0:
256,192,120425,1,8,0:0:0:0:
256,192,120500,1,0,0:0:0:0:
256,192,120575,1,8,0:0:0:0:
256,192,120650,1,8,0:0:0:0:
256,192,120725,1,0,0:0:0:0:
256,192,120800,1,0,0:0:0:0:
256,192,120875,1,8,0:0:0:0:
256,192,121025,1,8,0:0:0:0:
256,192,121175,1,0,0:0:0:0:
256,192,121250,1,0,0:0:0:0:
256,192,121325,1,8,0:0:0:0:
256,192,121625,1,8,0:0:0:0:
256,192,121775,1,0,0:0:0:0:
256,192,121850,1,0,0:0:0:0:
256,192,121925,1,0,0:0:0:0:
256,192,122000,1,0,0:0:0:0:
256,192,122075,1,8,0:0:0:0:
256,192,122225,1,0,0:0:0:0:
256,192,122375,1,8,0:0:0:0:
256,192,122450,1,8,0:0:0:0:
256,192,122525,1,0,0:0:0:0:
256,192,122675,1,0,0:0:0:0:
256,192,122825,1,8,0:0:0:0:
256,192,122900,1,0,0:0:0:0:
256,192,122975,1,8,0:0:0:0:
256,192,123050,1,8,0:0:0:0:
256,192,123125,1,0,0:0:0:0:
256,192,123200,1,8,0:0:0:0:
256,192,123275,1,0,0:0:0:0:
256,192,123425,1,8,0:0:0:0:
256,192,123500,1,8,0:0:0:0:
256,192,123575,1,0,0:0:0:0:
256,192,123650,1,0,0:0:0:0:
256,192,123725,1,8,0:0:0:0:
256,192,123875,1,0,0:0:0:0:
256,192,124025,1,8,0:0:0:0:
256,192,124100,1,8,0:0:0:0:
256,192,124175,1,8,0:0:0:0:
256,192,124250,1,8,0:0:0:0:
256,192,124325,1,0,0:0:0:0:
256,192,124475,1,0,0:0:0:0:
256,192,124625,1,8,0:0:0:0:
256,192,124700,1,8,0:0:0:0:
256,192,124775,1,8,0:0:0:0:
256,192,124850,1,8,0:0:0:0:
256,192,124925,1,0,0:0:0:0:
256,192,125075,1,0,0:0:0:0:
256,192,125225,1,8,0:0:0:0:
256,192,125375,1,0,0:0:0:0:
256,192,125525,1,8,0:0:0:0:
256,192,125600,1,8,0:0:0:0:
256,192,125675,1,8,0:0:0:0:
256,192,125750,1,8,0:0:0:0:
256,192,125825,1,0,0:0:0:0:
256,192,125900,1,0,0:0:0:0:
256,192,125975,1,0,0:0:0:0:
256,192,126050,1,0,0:0:0:0:
256,192,126125,1,8,0:0:0:0:
256,192,129725,1,8,0:0:0:0:
256,192,130025,1,8,0:0:0:0:
256,192,130175,1,0,0:0:0:0:
256,192,130475,1,0,0:0:0:0:
256,192,130625,1,0,0:0:0:0:
256,192,130925,1,0,0:0:0:0:
256,192,131000,1,8,0:0:0:0:
256,192,131075,1,8,0:0:0:0:
256,192,131225,1,0,0:0:0:0:
256,192,131300,1,8,0:0:0:0:
256,192,131375,1,8,0:0:0:0:
256,192,131525,1,0,0:0:0:0:
256,192,131600,1,8,0:0:0:0:
256,192,131675,1,8,0:0:0:0:
256,192,131825,1,0,0:0:0:0:
256,192,131900,1,8,0:0:0:0:
256,192,131975,1,8,0:0:0:0:
256,192,132125,1,0,0:0:0:0:
256,192,132275,1,8,0:0:0:0:
256,192,132350,1,8,0:0:0:0:
256,192,132425,1,0,0:0:0:0:
256,192,132575,1,8,0:0:0:0:
256,192,132725,1,0,0:0:0:0:
256,192,132800,1,0,0:0:0:0:
256,192,132875,1,8,0:0:0:0:
256,192,132950,1,0,0:0:0:0:
256,192,133025,1,0,0:0:0:0:
256,192,133175,1,8,0:0:0:0:
256,192,133325,1,0,0:0:0:0:
256,192,133625,1,8,0:0:0:0:
256,192,133775,1,0,0:0:0:0:
256,192,133850,1,0,0:0:0:0:
256,192,133925,1,0,0:0:0:0:
256,192,134075,1,8,0:0:0:0:
256,192,134225,1,0,0:0:0:0:
256,192,134300,1,0,0:0:0:0:
256,192,134375,1,8,0:0:0:0:
256,192,134450,1,0,0:0:0:0:
256,192,134525,1,8,0:0:0:0:
256,192,134600,1,8,0:0:0:0:
256,192,134675,1,0,0:0:0:0:
256,192,134825,1,8,0:0:0:0:
256,192,134975,1,0,0:0:0:0:
256,192,135125,1,8,0:0:0:0:
256,192,135275,1,8,0:0:0:0:
256,192,135350,1,8,0:0:0:0:
256,192,135425,1,8,0:0:0:0:
256,192,135575,1,8,0:0:0:0:
256,192,135725,1,0,0:0:0:0:
256,192,135825,1,0,0:0:0:0:
256,192,135925,1,0,0:0:0:0:
256,192,136025,1,8,0:0:0:0:
256,192,136125,1,0,0:0:0:0:
256,192,136225,1,0,0:0:0:0:
256,192,136325,1,8,0:0:0:0:
256,192,136425,1,8,0:0:0:0:
256,192,136525,1,0,0:0:0:0:
256,192,136625,1,8,0:0:0:0:
256,192,136825,1,0,0:0:0:0:
256,192,136925,1,8,0:0:0:0:
256,192,137025,1,0,0:0:0:0:
256,192,137125,1,0,0:0:0:0:
256,192,137225,1,8,0:0:0:0:
256,192,137325,1,8,0:0:0:0:
256,192,137425,1,0,0:0:0:0:
256,192,137525,1,8,0:0:0:0:
256,192,137725,1,0,0:0:0:0:
256,192,137825,1,8,0:0:0:0:
256,192,137925,1,0,0:0:0:0:
256,192,138025,1,0,0:0:0:0:
256,192,138125,1,8,0:0:0:0:
256,192,138425,1,0,0:0:0:0:
256,192,138725,1,8,0:0:0:0:
256,192,139025,1,0,0:0:0:0:
256,192,139325,1,8,0:0:0:0:
256,192,139625,1,8,0:0:0:0:
256,192,139850,1,0,0:0:0:0:
256,192,139925,1,8,0:0:0:0:
256,192,140075,1,0,0:0:0:0:
256,192,140225,1,0,0:0:0:0:
256,192,140375,1,0,0:0:0:0:
256,96,140525,1,12,0:0:0:0:
256,192,140675,1,0,0:0:0:0:
256,192,140825,1,8,0:0:0:0:
256,192,140900,1,0,0:0:0:0:
256,192,140975,1,8,0:0:0:0:
256,192,141125,1,0,0:0:0:0:
256,192,141275,1,8,0:0:0:0:
256,192,141425,1,8,0:0:0:0:
256,192,141575,1,0,0:0:0:0:
256,192,141650,1,0,0:0:0:0:
256,192,141725,1,8,0:0:0:0:
256,192,141800,1,8,0:0:0:0:
256,192,141875,1,0,0:0:0:0:
256,192,142025,1,8,0:0:0:0:
256,192,142100,1,0,0:0:0:0:
256,192,142175,1,8,0:0:0:0:
256,192,142250,1,8,0:0:0:0:
256,192,142325,1,0,0:0:0:0:
256,192,142475,1,0,0:0:0:0:
256,192,142625,1,8,0:0:0:0:
256,192,142775,1,8,0:0:0:0:
256,192,142925,1,0,0:0:0:0:
256,192,143225,1,8,0:0:0:0:
256,192,143375,1,0,0:0:0:0:
256,192,143450,1,0,0:0:0:0:
256,192,143525,1,8,0:0:0:0:
256,192,143675,1,0,0:0:0:0:
256,192,143825,1,8,0:0:0:0:
256,192,143900,1,8,0:0:0:0:
256,192,143975,1,0,0:0:0:0:
256,192,144125,1,8,0:0:0:0:
256,192,144275,1,0,0:0:0:0:
256,192,144350,1,0,0:0:0:0:
256,192,144425,1,8,0:0:0:0:
256,192,144500,1,8,0:0:0:0:
256,192,144575,1,0,0:0:0:0:
256,192,144725,1,8,0:0:0:0:
256,192,144875,1,8,0:0:0:0:
256,192,145025,1,8,0:0:0:0:
256,192,145100,1,8,0:0:0:0:
256,192,145175,1,8,0:0:0:0:
256,192,145325,1,0,0:0:0:0:
256,192,145625,1,8,0:0:0:0:
256,192,145775,1,0,0:0:0:0:
256,192,145925,1,8,0:0:0:0:
256,192,146000,1,0,0:0:0:0:
256,192,146075,1,0,0:0:0:0:
256,192,146150,1,0,0:0:0:0:
256,192,146225,1,8,0:0:0:0:
256,192,146375,1,0,0:0:0:0:
256,192,146525,1,8,0:0:0:0:
256,192,146600,1,0,0:0:0:0:
256,192,146675,1,0,0:0:0:0:
256,192,146825,1,8,0:0:0:0:
256,192,146975,1,0,0:0:0:0:
256,192,147050,1,8,0:0:0:0:
256,192,147125,1,0,0:0:0:0:
256,192,147275,1,0,0:0:0:0:
256,192,147425,1,8,0:0:0:0:
256,192,147500,1,8,0:0:0:0:
256,192,147575,1,0,0:0:0:0:
256,192,147725,5,8,0:0:0:0:
256,192,147800,1,0,0:0:0:0:
256,192,147875,1,8,0:0:0:0:
256,192,147950,1,8,0:0:0:0:
256,192,148025,5,0,0:0:0:0:
256,192,148175,5,8,0:0:0:0:
256,192,148250,1,0,0:0:0:0:
256,192,148325,1,8,0:0:0:0:
256,192,148400,1,8,0:0:0:0:
256,192,148475,5,0,0:0:0:0:
256,192,148625,5,8,0:0:0:0:
256,192,148700,1,0,0:0:0:0:
256,192,148775,1,8,0:0:0:0:
256,192,148850,1,8,0:0:0:0:
256,192,148925,5,0,0:0:0:0:
256,192,149075,5,8,0:0:0:0:
256,192,149150,1,0,0:0:0:0:
256,192,149225,1,8,0:0:0:0:
256,192,149300,1,8,0:0:0:0:
256,192,149375,5,0,0:0:0:0:
256,192,149525,1,8,0:0:0:0:
256,192,149675,1,8,0:0:0:0:
256,192,149750,1,8,0:0:0:0:
256,192,149825,1,8,0:0:0:0:
256,192,149975,1,8,0:0:0:0:
256,96,150125,1,4,0:0:0:0:
256,192,151325,1,8,0:0:0:0:
256,192,152525,1,0,0:0:0:0:
256,192,153125,1,0,0:0:0:0:
256,192,153725,1,8,0:0:0:0:
256,192,154925,1,12,0:0:0:0:
256,192,155225,1,0,0:0:0:0:
256,192,155375,1,8,0:0:0:0:
256,192,155525,1,0,0:0:0:0:
256,192,155675,1,0,0:0:0:0:
256,192,155825,1,8,0:0:0:0:
256,192,155975,1,0,0:0:0:0:
256,192,156125,1,8,0:0:0:0:
256,192,156275,1,8,0:0:0:0:
256,192,156425,1,0,0:0:0:0:
256,192,156575,1,0,0:0:0:0:
256,192,156725,1,8,0:0:0:0:
256,192,157025,1,8,0:0:0:0:
256,192,157175,1,8,0:0:0:0:
256,192,157325,1,0,0:0:0:0:
256,192,157625,1,8,0:0:0:0:
256,192,157775,1,8,0:0:0:0:
256,192,157925,1,0,0:0:0:0:
256,192,158075,1,8,0:0:0:0:
256,192,158225,1,0,0:0:0:0:
256,192,158375,1,8,0:0:0:0:
256,192,158525,1,0,0:0:0:0:
256,192,158675,1,0,0:0:0:0:
256,192,158825,1,8,0:0:0:0:
256,192,158975,1,0,0:0:0:0:
256,192,159125,1,8,0:0:0:0:
256,192,159425,1,0,0:0:0:0:
256,192,159575,1,8,0:0:0:0:
256,192,159725,1,0,0:0:0:0:
256,192,160025,1,0,0:0:0:0:
256,192,160175,1,8,0:0:0:0:
256,192,160325,1,0,0:0:0:0:
256,192,160475,1,8,0:0:0:0:
256,192,160625,1,0,0:0:0:0:
256,192,160775,1,0,0:0:0:0:
256,192,160925,1,8,0:0:0:0:
256,192,161075,1,8,0:0:0:0:
256,192,161225,1,0,0:0:0:0:
256,192,161375,1,0,0:0:0:0:
256,192,161525,1,8,0:0:0:0:
256,192,161675,1,0,0:0:0:0:
256,192,161825,1,0,0:0:0:0:
256,192,162125,1,8,0:0:0:0:
256,192,162425,12,8,163325,0:0:0:0:
256,96,164525,5,12,0:0:0:0:
256,192,164825,1,0,0:0:0:0:
256,192,164900,1,0,0:0:0:0:
256,192,164975,1,8,0:0:0:0:
256,192,165125,1,0,0:0:0:0:
256,192,165275,1,8,0:0:0:0:
256,192,165350,1,8,0:0:0:0:
256,192,165425,1,0,0:0:0:0:
256,192,165500,1,0,0:0:0:0:
256,192,165575,1,8,0:0:0:0:
256,192,165650,1,8,0:0:0:0:
256,192,165725,1,0,0:0:0:0:
256,192,165875,1,8,0:0:0:0:
256,192,165950,1,8,0:0:0:0:
256,192,166025,1,0,0:0:0:0:
256,192,166100,1,0,0:0:0:0:
256,192,166175,1,8,0:0:0:0:
256,192,166250,1,0,0:0:0:0:
256,192,166325,1,8,0:0:0:0:
256,192,166400,1,8,0:0:0:0:
256,192,166475,1,0,0:0:0:0:
256,192,166625,1,8,0:0:0:0:
256,192,166700,1,8,0:0:0:0:
256,192,166775,1,0,0:0:0:0:
256,192,166850,1,0,0:0:0:0:
256,192,166925,1,8,0:0:0:0:
256,192,167225,1,8,0:0:0:0:
256,192,167300,1,8,0:0:0:0:
256,192,167375,1,0,0:0:0:0:
256,192,167525,1,8,0:0:0:0:
256,192,167675,1,0,0:0:0:0:
256,192,167750,1,0,0:0:0:0:
256,192,167825,1,8,0:0:0:0:
256,192,167900,1,8,0:0:0:0:
256,192,167975,1,0,0:0:0:0:
256,192,168050,1,0,0:0:0:0:
256,192,168125,1,8,0:0:0:0:
256,192,168275,1,0,0:0:0:0:
256,192,168350,1,0,0:0:0:0:
256,192,168425,1,8,0:0:0:0:
256,192,168500,1,0,0:0:0:0:
256,192,168575,1,8,0:0:0:0:
256,192,168650,1,0,0:0:0:0:
256,192,168725,1,8,0:0:0:0:
256,192,168800,1,8,0:0:0:0:
256,192,168875,1,0,0:0:0:0:
256,192,169025,1,0,0:0:0:0:
256,192,169100,1,0,0:0:0:0:
256,192,169175,1,8,0:0:0:0:
256,192,169250,1,8,0:0:0:0:
256,192,169325,1,0,0:0:0:0:
256,192,169625,1,0,0:0:0:0:
256,192,169700,1,0,0:0:0:0:
256,192,169775,1,8,0:0:0:0:
256,192,169925,1,0,0:0:0:0:
256,192,170075,1,8,0:0:0:0:
256,192,170150,1,8,0:0:0:0:
256,192,170225,1,0,0:0:0:0:
256,192,170300,1,0,0:0:0:0:
256,192,170375,1,8,0:0:0:0:
256,192,170450,1,8,0:0:0:0:
256,192,170525,1,0,0:0:0:0:
256,192,170675,1,8,0:0:0:0:
256,192,170750,1,8,0:0:0:0:
256,192,170825,1,0,0:0:0:0:
256,192,170900,5,0,0:0:0:0:
256,192,170975,1,8,0:0:0:0:
256,192,171050,1,0,0:0:0:0:
256,192,171125,1,8,0:0:0:0:
256,192,171275,1,8,0:0:0:0:
256,96,171425,1,4,0:0:0:0:
256,192,171575,1,8,0:0:0:0:
256,192,171725,1,8,0:0:0:0:
256,192,171875,1,0,0:0:0:0:
256,192,172025,1,8,0:0:0:0:
256,192,172100,1,8,0:0:0:0:
256,192,172175,1,8,0:0:0:0:
256,192,172250,1,8,0:0:0:0:
256,192,172325,1,0,0:0:0:0:
256,192,172475,1,0,0:0:0:0:
256,192,172625,1,8,0:0:0:0:
256,192,172700,1,8,0:0:0:0:
256,192,172775,1,8,0:0:0:0:
256,192,172850,1,8,0:0:0:0:
256,192,172925,1,0,0:0:0:0:
256,192,173000,1,0,0:0:0:0:
256,192,173075,1,0,0:0:0:0:
256,192,173150,1,0,0:0:0:0:
256,192,173225,1,8,0:0:0:0:
256,192,173375,1,0,0:0:0:0:
256,192,173450,1,0,0:0:0:0:
256,192,173525,1,8,0:0:0:0:
256,192,173600,1,0,0:0:0:0:
256,192,173675,1,8,0:0:0:0:
256,192,173750,1,8,0:0:0:0:
256,192,173825,1,0,0:0:0:0:
256,192,173975,1,0,0:0:0:0:
256,96,174125,1,12,0:0:0:0:
256,192,174425,1,8,0:0:0:0:
256,192,174575,1,0,0:0:0:0:
256,192,174725,1,0,0:0:0:0:
256,192,174875,1,8,0:0:0:0:
256,192,174950,1,8,0:0:0:0:
256,192,175025,1,0,0:0:0:0:
256,192,175100,1,8,0:0:0:0:
256,192,175175,1,0,0:0:0:0:
256,192,175250,1,0,0:0:0:0:
256,192,175325,1,8,0:0:0:0:
256,192,175475,1,0,0:0:0:0:
256,192,175625,1,8,0:0:0:0:
256,192,175700,1,0,0:0:0:0:
256,192,175775,1,8,0:0:0:0:
256,192,175850,1,8,0:0:0:0:
256,192,175925,1,0,0:0:0:0:
256,192,176000,1,8,0:0:0:0:
256,192,176075,1,0,0:0:0:0:
256,192,176225,1,8,0:0:0:0:
256,192,176375,1,0,0:0:0:0:
256,192,176450,1,0,0:0:0:0:
256,192,176525,1,8,0:0:0:0:
256,192,176825,1,8,0:0:0:0:
256,192,176975,1,0,0:0:0:0:
256,192,177125,1,0,0:0:0:0:
256,192,177275,1,8,0:0:0:0:
256,192,177350,1,8,0:0:0:0:
256,192,177425,1,8,0:0:0:0:
256,192,177500,1,8,0:0:0:0:
256,192,177575,1,0,0:0:0:0:
256,192,177650,1,0,0:0:0:0:
256,192,177725,1,8,0:0:0:0:
256,192,177875,1,0,0:0:0:0:
256,192,178025,1,8,0:0:0:0:
256,192,178100,1,0,0:0:0:0:
256,192,178175,1,8,0:0:0:0:
256,192,178250,1,8,0:0:0:0:
256,192,178325,1,0,0:0:0:0:
256,192,178400,1,0,0:0:0:0:
256,192,178475,1,8,0:0:0:0:
256,192,178625,1,0,0:0:0:0:
256,192,178775,1,8,0:0:0:0:
256,192,178850,1,8,0:0:0:0:
256,192,178925,1,0,0:0:0:0:
256,192,179225,1,8,0:0:0:0:
256,192,179375,1,0,0:0:0:0:
256,192,179525,1,0,0:0:0:0:
256,192,179675,1,8,0:0:0:0:
256,192,179750,1,8,0:0:0:0:
256,192,179825,1,8,0:0:0:0:
256,192,179900,1,8,0:0:0:0:
256,192,179975,1,0,0:0:0:0:
256,192,180050,1,0,0:0:0:0:
256,192,180125,1,8,0:0:0:0:
256,192,180275,1,0,0:0:0:0:
256,192,180425,1,8,0:0:0:0:
256,192,180500,1,0,0:0:0:0:
256,192,180575,1,8,0:0:0:0:
256,192,180650,1,0,0:0:0:0:
256,192,180725,1,8,0:0:0:0:
256,192,180800,1,8,0:0:0:0:
256,192,180875,1,0,0:0:0:0:
256,192,181025,1,8,0:0:0:0:
256,192,181175,1,0,0:0:0:0:
256,192,181250,1,0,0:0:0:0:
256,192,181325,1,8,0:0:0:0:
256,192,181475,1,0,0:0:0:0:
256,192,181625,1,8,0:0:0:0:
256,192,181700,1,8,0:0:0:0:
256,192,181775,1,8,0:0:0:0:
256,192,181850,1,8,0:0:0:0:
256,192,181925,1,0,0:0:0:0:
256,192,182075,1,0,0:0:0:0:
256,192,182225,1,8,0:0:0:0:
256,192,182300,1,8,0:0:0:0:
256,192,182375,1,8,0:0:0:0:
256,192,182450,5,8,0:0:0:0:
256,192,182525,1,0,0:0:0:0:
256,192,182675,1,0,0:0:0:0:
256,192,182825,1,8,0:0:0:0:
256,192,183050,1,0,0:0:0:0:
256,192,183125,1,0,0:0:0:0:
256,192,183275,1,0,0:0:0:0:
256,192,183425,1,8,0:0:0:0:
256,192,183575,1,0,0:0:0:0:
256,96,183725,1,12,0:0:0:0:
256,192,183875,1,0,0:0:0:0:
256,192,183950,1,0,0:0:0:0:
256,192,184025,1,0,0:0:0:0:
256,192,184175,1,8,0:0:0:0:
256,192,184325,1,0,0:0:0:0:
256,192,184400,1,0,0:0:0:0:
256,192,184475,1,8,0:0:0:0:
256,192,184550,1,8,0:0:0:0:
256,192,184625,1,8,0:0:0:0:
256,192,184700,1,8,0:0:0:0:
256,192,184775,1,0,0:0:0:0:
256,192,184925,1,8,0:0:0:0:
256,192,185075,1,0,0:0:0:0:
256,192,185225,1,8,0:0:0:0:
256,192,185300,1,0,0:0:0:0:
256,192,185375,1,8,0:0:0:0:
256,192,185450,1,0,0:0:0:0:
256,192,185525,1,8,0:0:0:0:
256,192,185600,1,8,0:0:0:0:
256,192,185675,1,0,0:0:0:0:
256,192,185825,1,8,0:0:0:0:
256,192,185975,1,0,0:0:0:0:
256,192,186050,1,0,0:0:0:0:
256,192,186125,1,8,0:0:0:0:
256,192,186275,1,0,0:0:0:0:
256,192,186350,1,0,0:0:0:0:
256,192,186425,1,0,0:0:0:0:
256,192,186575,1,8,0:0:0:0:
256,192,186725,1,0,0:0:0:0:
256,192,186875,1,8,0:0:0:0:
256,192,186950,1,8,0:0:0:0:
256,192,187025,1,8,0:0:0:0:
256,192,187100,1,8,0:0:0:0:
256,192,187175,1,0,0:0:0:0:
256,192,187325,1,8,0:0:0:0:
256,192,187475,1,0,0:0:0:0:
256,192,187625,1,8,0:0:0:0:
256,192,187700,1,0,0:0:0:0:
256,192,187775,1,8,0:0:0:0:
256,192,187850,1,8,0:0:0:0:
256,192,187925,1,0,0:0:0:0:
256,192,188000,1,0,0:0:0:0:
256,192,188075,1,8,0:0:0:0:
256,192,188225,1,8,0:0:0:0:
256,192,188375,1,0,0:0:0:0:
256,192,188450,1,0,0:0:0:0:
256,192,188525,1,8,0:0:0:0:
256,192,188825,1,8,0:0:0:0:
256,192,188975,1,0,0:0:0:0:
256,192,189050,1,0,0:0:0:0:
256,192,189125,1,0,0:0:0:0:
256,192,189200,1,0,0:0:0:0:
256,192,189275,1,8,0:0:0:0:
256,192,189425,1,0,0:0:0:0:
256,192,189575,1,8,0:0:0:0:
256,192,189650,1,8,0:0:0:0:
256,192,189725,1,0,0:0:0:0:
256,192,189875,1,0,0:0:0:0:
256,192,190025,1,8,0:0:0:0:
256,192,190100,1,0,0:0:0:0:
256,192,190175,1,8,0:0:0:0:
256,192,190250,1,8,0:0:0:0:
256,192,190325,1,0,0:0:0:0:
256,192,190400,1,8,0:0:0:0:
256,192,190475,1,0,0:0:0:0:
256,192,190625,1,8,0:0:0:0:
256,192,190700,1,8,0:0:0:0:
256,192,190775,1,0,0:0:0:0:
256,192,190850,1,0,0:0:0:0:
256,192,190925,1,8,0:0:0:0:
256,192,191075,1,0,0:0:0:0:
256,192,191225,1,8,0:0:0:0:
256,192,191300,1,8,0:0:0:0:
256,192,191375,1,8,0:0:0:0:
256,192,191450,1,8,0:0:0:0:
256,192,191525,1,0,0:0:0:0:
256,192,191675,1,0,0:0:0:0:
256,192,191825,1,8,0:0:0:0:
256,192,191900,1,8,0:0:0:0:
256,192,191975,1,8,0:0:0:0:
256,192,192050,1,8,0:0:0:0:
256,192,192125,1,0,0:0:0:0:
256,192,192275,1,0,0:0:0:0:
256,192,192425,1,8,0:0:0:0:
256,192,192575,1,0,0:0:0:0:
256,192,192725,1,8,0:0:0:0:
256,192,192800,1,8,0:0:0:0:
256,192,192875,1,8,0:0:0:0:
256,192,192950,1,8,0:0:0:0:
256,192,193025,1,0,0:0:0:0:
256,192,193100,1,0,0:0:0:0:
256,192,193175,1,0,0:0:0:0:
256,192,193250,1,0,0:0:0:0:
256,192,193325,1,8,0:0:0:0:
256,192,193475,1,8,0:0:0:0:
256,192,193625,1,0,0:0:0:0:
256,192,193775,1,8,0:0:0:0:
256,192,193925,1,0,0:0:0:0:
256,192,194000,1,0,0:0:0:0:
256,192,194075,1,8,0:0:0:0:
256,192,194150,1,8,0:0:0:0:
256,192,194225,1,0,0:0:0:0:
256,192,194375,1,8,0:0:0:0:
256,192,194525,1,0,0:0:0:0:
256,192,194675,1,8,0:0:0:0:
256,192,194750,1,0,0:0:0:0:
256,192,194825,1,8,0:0:0:0:
256,192,194975,1,0,0:0:0:0:
256,192,195125,1,8,0:0:0:0:
256,192,195200,1,8,0:0:0:0:
256,192,195275,1,0,0:0:0:0:
256,192,195350,1,8,0:0:0:0:
256,192,195425,1,0,0:0:0:0:
256,192,195575,1,8,0:0:0:0:
256,192,195725,1,0,0:0:0:0:
256,192,195875,1,8,0:0:0:0:
256,192,196025,1,0,0:0:0:0:
256,192,196100,1,0,0:0:0:0:
256,192,196175,1,8,0:0:0:0:
256,192,196325,1,0,0:0:0:0:
256,192,196475,1,8,0:0:0:0:
256,192,196550,1,8,0:0:0:0:
256,192,196625,1,0,0:0:0:0:
256,192,196700,1,8,0:0:0:0:
256,192,196775,1,0,0:0:0:0:
256,192,196925,1,8,0:0:0:0:
256,192,197075,1,0,0:0:0:0:
256,192,197150,1,0,0:0:0:0:
256,192,197225,1,8,0:0:0:0:
256,192,197375,1,0,0:0:0:0:
256,192,197525,1,8,0:0:0:0:
256,192,197600,1,0,0:0:0:0:
256,192,197675,1,8,0:0:0:0:
256,192,197750,1,8,0:0:0:0:
256,192,197825,1,0,0:0:0:0:
256,192,197975,1,8,0:0:0:0:
256,192,198125,1,0,0:0:0:0:
256,192,198275,1,8,0:0:0:0:
256,192,198425,1,0,0:0:0:0:
256,192,198575,1,8,0:0:0:0:
256,192,198725,1,0,0:0:0:0:
256,192,198800,1,0,0:0:0:0:
256,192,198875,1,8,0:0:0:0:
256,192,198950,1,8,0:0:0:0:
256,192,199025,1,0,0:0:0:0:
256,192,199175,1,8,0:0:0:0:
256,192,199325,1,0,0:0:0:0:
256,192,199475,1,0,0:0:0:0:
256,192,199625,1,8,0:0:0:0:
256,192,199700,1,8,0:0:0:0:
256,192,199775,1,0,0:0:0:0:
256,192,199925,1,8,0:0:0:0:
256,192,200000,1,8,0:0:0:0:
256,192,200075,1,0,0:0:0:0:
256,192,200150,1,8,0:0:0:0:
256,192,200225,1,0,0:0:0:0:
256,192,200375,1,8,0:0:0:0:
256,192,200525,1,0,0:0:0:0:
256,192,200675,1,8,0:0:0:0:
256,192,200825,1,0,0:0:0:0:
256,192,200900,1,0,0:0:0:0:
256,192,200975,1,8,0:0:0:0:
256,192,201125,1,0,0:0:0:0:
256,192,201275,1,8,0:0:0:0:
256,192,201425,1,0,0:0:0:0:
256,192,201500,1,0,0:0:0:0:
256,192,201575,1,8,0:0:0:0:
256,192,201725,1,0,0:0:0:0:
256,192,201875,1,8,0:0:0:0:
256,192,202025,1,0,0:0:0:0:
256,192,202100,1,0,0:0:0:0:
256,192,202175,1,8,0:0:0:0:
256,192,202325,1,8,0:0:0:0:
256,192,202400,1,8,0:0:0:0:
256,192,202475,1,0,0:0:0:0:
256,192,202550,5,8,0:0:0:0:
256,192,202625,1,0,0:0:0:0:
256,192,202700,1,0,0:0:0:0:
256,192,202775,1,8,0:0:0:0:
256,96,202925,1,4,0:0:0:0:
256,192,203075,1,8,0:0:0:0:
256,192,203225,1,0,0:0:0:0:
256,192,203375,1,8,0:0:0:0:
256,192,203525,1,0,0:0:0:0:
256,192,203600,1,0,0:0:0:0:
256,192,203675,1,8,0:0:0:0:
256,192,203750,1,8,0:0:0:0:
256,192,203825,1,0,0:0:0:0:
256,192,203900,1,8,0:0:0:0:
256,192,203975,1,0,0:0:0:0:
256,192,204125,1,8,0:0:0:0:
256,192,204275,1,0,0:0:0:0:
256,192,204350,1,0,0:0:0:0:
256,192,204425,1,8,0:0:0:0:
256,192,204575,1,0,0:0:0:0:
256,192,204725,1,8,0:0:0:0:
256,192,204800,1,8,0:0:0:0:
256,192,204875,1,0,0:0:0:0:
256,192,204950,1,8,0:0:0:0:
256,192,205025,1,0,0:0:0:0:
256,192,205100,1,0,0:0:0:0:
256,192,205175,1,8,0:0:0:0:
256,192,205325,1,0,0:0:0:0:
256,192,205475,1,8,0:0:0:0:
256,192,205625,1,0,0:0:0:0:
256,192,205700,1,0,0:0:0:0:
256,192,205775,1,8,0:0:0:0:
256,192,205925,1,0,0:0:0:0:
256,192,206075,1,8,0:0:0:0:
256,192,206150,1,8,0:0:0:0:
256,192,206225,1,0,0:0:0:0:
256,192,206300,1,8,0:0:0:0:
256,192,206375,1,0,0:0:0:0:
256,192,206525,1,8,0:0:0:0:
256,192,206675,1,8,0:0:0:0:
256,192,206750,1,0,0:0:0:0:
256,192,206825,1,8,0:0:0:0:
256,192,206900,1,8,0:0:0:0:
256,192,206975,1,0,0:0:0:0:
256,192,207050,1,0,0:0:0:0:
256,192,207125,1,8,0:0:0:0:
256,192,207275,1,8,0:0:0:0:
256,192,207350,1,8,0:0:0:0:
256,192,207425,1,8,0:0:0:0:
256,192,207575,1,8,0:0:0:0:
256,192,207725,1,0,0:0:0:0:
256,192,207875,1,8,0:0:0:0:
256,192,208025,1,0,0:0:0:0:
256,192,208175,1,8,0:0:0:0:
256,192,208325,1,0,0:0:0:0:
256,192,208475,1,0,0:0:0:0:
256,192,208625,1,8,0:0:0:0:
256,192,208775,1,8,0:0:0:0:
256,192,208925,1,0,0:0:0:0:
256,192,209075,1,8,0:0:0:0:
256,192,209225,1,0,0:0:0:0:
256,192,209375,1,0,0:0:0:0:
256,192,209525,1,8,0:0:0:0:
256,192,209675,1,8,0:0:0:0:
256,192,209825,1,0,0:0:0:0:
256,192,209975,1,8,0:0:0:0:
256,192,210125,1,0,0:0:0:0:
256,192,210275,1,8,0:0:0:0:
256,192,210425,1,0,0:0:0:0:
256,192,210575,1,8,0:0:0:0:
256,192,210725,1,0,0:0:0:0:
256,192,210875,1,0,0:0:0:0:
256,192,211025,1,8,0:0:0:0:
256,192,211175,1,8,0:0:0:0:
256,192,211325,1,0,0:0:0:0:
256,192,211475,1,8,0:0:0:0:
256,192,211625,1,0,0:0:0:0:
256,192,211775,1,8,0:0:0:0:
256,192,211925,1,8,0:0:0:0:
256,192,212075,1,8,0:0:0:0:
256,192,212225,1,0,0:0:0:0:
256,192,212375,1,8,0:0:0:0:
256,192,212526,12,0,214926,0:0:0:0:
