osu file format v14

[General]
AudioFilename: audio.mp3
AudioLeadIn: 0
PreviewTime: 69787
Countdown: 0
SampleSet: None
StackLeniency: 0.2
Mode: 0
LetterboxInBreaks: 0
WidescreenStoryboard: 0

[Editor]
DistanceSpacing: 0.6
BeatDivisor: 4
GridSize: 4
TimelineZoom: 2.899999

[Metadata]
Title:Teo
TitleUnicode:Teo
Artist:Omoi
ArtistUnicode:Omoi
Creator:MaddaFakka-sama
Version:xd
Source:
Tags:
BeatmapID:1943070
BeatmapSetID:930453

[Difficulty]
HPDrainRate:5
CircleSize:3.7
OverallDifficulty:8.5
ApproachRate:9.5
SliderMultiplier:1.4
SliderTickRate:1

[Events]
//Background and Video events
0,0,"maxresdefault.jpg",0,0
//Break Periods
//Storyboard Layer 0 (Background)
//Storyboard Layer 1 (Fail)
//Storyboard Layer 2 (Pass)
//Storyboard Layer 3 (Foreground)
//Storyboard Sound Samples

[TimingPoints]
2652,324.324324324324,4,2,0,50,1,0
7841,-83.3333333333333,4,2,0,55,0,0
12543,-57.1428571428571,4,2,0,70,0,0
13030,-83.3333333333333,4,2,0,70,0,1
23408,-83.3333333333333,4,2,0,55,0,0
33787,-76.9230769230769,4,2,0,60,0,0
59733,-71.4285714285714,4,2,0,65,0,0
64354,-71.4285714285714,4,2,0,5,0,0
64435,-71.4285714285714,4,2,0,65,0,0
64922,-71.4285714285714,4,2,0,70,0,0
69787,-133.333333333333,4,2,0,70,0,0
70030,-62.5,4,2,0,5,0,0
70111,-62.5,4,2,0,80,0,1
78138,-62.5,4,2,0,5,0,1
78219,-62.5,4,2,0,80,0,1
78462,-62.5,4,2,0,5,0,1
78543,-62.5,4,2,0,80,0,1
80165,-62.5,4,2,0,80,0,0
80408,-62.5,4,2,0,5,0,1
80489,-62.5,4,2,0,80,0,1
80733,-62.5,4,2,0,5,0,1
80814,-62.5,4,2,0,80,0,1
83327,-62.5,4,2,0,5,0,1
83408,-62.5,4,2,0,80,0,1
90868,-62.5,4,2,0,70,0,0
96057,-62.5,4,2,0,80,0,1
111624,-62.5,4,2,0,60,0,0
116814,-62.5,4,2,0,70,0,0
127192,-62.5,4,2,0,75,0,0
132381,-71.4285714285714,4,2,0,70,0,0
137570,-62.5,4,2,0,75,0,0
142273,-62.5,4,2,0,60,0,0
142435,-100,4,2,0,60,0,0
147949,-100,4,2,0,70,0,0
150543,-100,4,2,0,60,0,0
150787,-100,4,2,0,5,0,0
150868,-100,4,2,0,60,0,0
151111,-100,4,2,0,5,0,0
151192,-83.3333333333333,4,2,0,60,0,0
151435,-83.3333333333333,4,2,0,5,0,0
151516,-83.3333333333333,4,2,0,60,0,0
151760,-83.3333333333333,4,2,0,5,0,0
151841,-83.3333333333333,4,2,0,60,0,0
152814,-133.333333333333,4,2,0,75,0,0
153057,-83.3333333333333,4,2,0,5,0,0
153138,-62.5,4,2,0,85,0,1
163516,-100,4,2,0,70,0,0
168706,-62.5,4,2,0,90,0,1
184273,-100,4,2,0,80,0,0
194651,-100,4,2,0,70,0,0

[HitObjects]
92,112,2489,5,0,0:0:0:0:
120,92,2570,1,0,0:0:0:0:
152,80,2652,2,0,P|192:76|240:88,1,70
304,204,2976,2,0,P|264:208|216:196,1,70
209,46,3300,2,0,P|247:59|285:90,1,70
294,223,3624,2,0,P|256:209|218:178,1,70
274,40,3949,6,0,P|303:68|325:112,1,70
277,236,4273,2,0,P|248:208|227:163,1,70
337,62,4597,2,0,P|351:100|352:149,1,70
256,241,4922,2,0,P|242:203|241:154,1,70
125,134,5246,6,0,P|105:163|94:196,1,70
239,174,5570,2,0,P|258:144|269:111,1,70
111,137,5895,2,0,P|105:171|110:206,1,70
234,123,6219,2,0,P|239:88|234:53,1,70
105,144,6543,6,0,P|114:177|133:207,1,70
210,80,6868,2,0,P|200:46|181:16,1,70
101,152,7192,1,0,0:0:0:0:
224,212,7354,1,0,0:0:0:0:
168,49,7516,2,0,P|133:46|99:54,1,70
28,162,7760,1,0,0:0:0:0:
20,173,7841,6,0,P|68:165|115:142,1,83.9999974365235
168,49,8165,1,0,0:0:0:0:
140,224,8327,1,0,0:0:0:0:
336,148,8489,6,0,P|293:171|257:209,1,83.9999974365235
239,314,8814,1,0,0:0:0:0:
206,141,8976,1,0,0:0:0:0:
324,272,9138,6,0,P|370:285|423:284,1,83.9999974365235
509,223,9462,1,0,0:0:0:0:
410,369,9624,1,0,0:0:0:0:
384,172,9787,5,0,0:0:0:0:
376,24,9949,1,0,0:0:0:0:
301,201,10111,5,0,0:0:0:0:
468,144,10273,1,0,0:0:0:0:
268,84,10435,2,0,P|215:89|180:111,1,83.9999974365235
317,224,10760,5,0,0:0:0:0:
489,257,10922,1,0,0:0:0:0:
346,105,11084,2,0,P|297:83|256:85,1,83.9999974365235
319,252,11408,5,0,0:0:0:0:
451,366,11570,1,0,0:0:0:0:
403,163,11733,2,0,P|371:120|335:100,1,83.9999974365235
226,45,11976,2,0,P|192:67|168:102,1,83.9999974365235,0|0,2:0|2:0,2:0:0:0:
109,221,12219,2,0,P|140:263|176:283,1,83.9999974365235,0|0,2:0|2:0,2:0:0:0:
354,224,12543,6,0,P|353:263|332:294,1,61.2500005841255,0|0,2:0|2:0,2:0:0:0:
224,290,12706,2,0,P|185:290|154:269,1,61.2500005841255,0|0,2:0|2:0,2:0:0:0:
158,160,12868,2,0,P|158:122|179:91,1,61.2500005841255,0|0,2:0|2:0,2:0:0:0:
428,160,13030,6,0,P|445:197|447:239,1,83.9999974365235
212,212,13354,1,0,0:0:0:0:
304,100,13516,1,0,0:0:0:0:
268,288,13679,6,0,P|230:305|188:307,1,83.9999974365235
228,68,14003,1,0,0:0:0:0:
312,185,14165,1,0,0:0:0:0:
128,112,14327,6,0,P|110:74|108:32,1,83.9999974365235
348,72,14651,1,0,0:0:0:0:
231,156,14814,1,0,0:0:0:0:
432,184,14976,2,0,L|456:169,2,20.9999993591309
268,288,15138,1,0,0:0:0:0:
428,308,15300,1,0,0:0:0:0:
241,167,15462,1,0,0:0:0:0:
452,384,15624,6,0,P|490:355|506:316,1,83.9999974365235
208,80,15949,2,0,P|169:108|153:147,1,83.9999974365235
464,212,16273,2,0,P|471:164|454:125,1,83.9999974365235
76,169,16597,2,0,P|68:216|85:255,1,83.9999974365235
350,81,16922,6,0,P|321:42|282:26,1,83.9999974365235
46,325,17246,2,0,P|74:363|113:379,1,83.9999974365235
136,104,17570,2,0,P|120:92|104:80,2,20.9999993591309
264,196,17733,1,0,0:0:0:0:
56,44,17895,1,0,0:0:0:0:
332,248,18057,1,0,0:0:0:0:
72,168,18219,6,0,B|64:255,1,83.9999974365235
244,88,18543,2,0,P|226:42|187:20,1,83.9999974365235
72,216,18868,2,0,B|87:303,1,83.9999974365235
217,94,19192,2,0,P|189:55|145:44,1,83.9999974365235
84,263,19516,6,0,B|121:342,1,83.9999974365235
193,107,19841,2,0,P|156:77|110:77,1,83.9999974365235
276,212,20165,2,0,L|292:196,2,20.9999993591309
140,356,20327,1,0,0:0:0:0:
348,140,20489,1,0,0:0:0:0:
128,160,20651,1,0,0:0:0:0:
349,312,20814,6,0,P|385:315|443:296,1,83.9999974365235
244,120,21138,1,0,0:0:0:0:
188,280,21300,1,0,0:0:0:0:
384,88,21462,5,0,0:0:0:0:
120,56,21624,1,0,0:0:0:0:
256,216,21787,1,0,0:0:0:0:
120,344,21949,2,0,L|167:348,1,41.9999987182618
300,337,22111,5,0,0:0:0:0:
324,321,22192,1,0,0:0:0:0:
344,297,22273,1,0,0:0:0:0:
356,269,22354,1,0,0:0:0:0:
360,241,22435,5,0,0:0:0:0:
308,213,22516,1,0,0:0:0:0:
280,161,22597,1,0,0:0:0:0:
284,101,22679,1,0,0:0:0:0:
320,53,22760,5,0,0:0:0:0:
344,72,22841,1,0,0:0:0:0:
368,88,22922,1,0,0:0:0:0:
392,105,23003,1,0,0:0:0:0:
416,120,23084,1,0,0:0:0:0:
440,136,23165,1,0,0:0:0:0:
464,156,23246,1,0,0:0:0:0:
488,172,23327,1,0,0:0:0:0:
512,188,23408,5,0,0:0:0:0:
420,324,23570,1,0,0:0:0:0:
368,204,23733,1,0,0:0:0:0:
504,280,23895,1,0,0:0:0:0:
256,216,24057,1,0,0:0:0:0:
160,340,24219,1,0,0:0:0:0:
240,112,24381,1,0,0:0:0:0:
272,312,24543,1,0,0:0:0:0:
132,108,24706,5,0,0:0:0:0:
95,285,24868,1,0,0:0:0:0:
267,227,25030,1,0,0:0:0:0:
175,23,25192,2,0,P|94:21|37:79,1,167.999994873047
278,238,25679,1,0,0:0:0:0:
296,92,25841,1,0,0:0:0:0:
204,324,26003,6,0,P|284:346|360:316,1,167.999994873047
168,236,26489,2,0,P|112:287|121:376,1,167.999994873047
404,240,26976,2,0,P|404:198|390:158,1,83.9999974365235
108,144,27300,6,0,P|107:185|121:225,1,83.9999974365235
320,212,27624,1,0,0:0:0:0:
164,76,27787,1,0,0:0:0:0:
216,224,27949,1,0,0:0:0:0:
372,56,28111,1,0,0:0:0:0:
272,276,28273,1,0,0:0:0:0:
144,56,28435,1,0,0:0:0:0:
380,280,28597,6,0,P|405:231|399:181,1,83.9999974365235
132,328,28922,2,0,P|180:353|230:347,1,83.9999974365235
172,148,29246,2,0,P|92:124|42:58,1,167.999994873047
264,92,29733,1,0,0:0:0:0:
156,168,29895,6,0,P|76:144|26:78,1,167.999994873047
280,80,30381,1,0,0:0:0:0:
140,187,30543,2,0,P|100:184|60:164,1,83.9999974365235
296,68,30868,2,0,P|336:71|376:91,1,83.9999974365235
416,220,31192,5,0,0:0:0:0:
264,284,31354,1,0,0:0:0:0:
436,212,31516,1,0,0:0:0:0:
240,296,31679,2,0,B|172:312|116:272|116:272|152:248,1,167.999994873047
368,340,32165,1,0,0:0:0:0:
304,112,32327,1,0,0:0:0:0:
147,251,32489,5,0,0:0:0:0:
105,45,32651,1,0,0:0:0:0:
208,136,32814,1,0,0:0:0:0:
12,104,32976,1,0,0:0:0:0:
236,44,33138,1,0,0:0:0:0:
116,228,33300,1,0,0:0:0:0:
146,250,33381,1,0,0:0:0:0:
181,261,33462,1,0,0:0:0:0:
136,80,33624,1,0,0:0:0:0:
76,296,33787,6,0,P|108:328|168:332,1,90.9999958343508
352,224,34111,1,0,0:0:0:0:
264,304,34273,1,0,0:0:0:0:
236,44,34435,6,0,P|190:40|142:75,1,90.9999958343508
70,276,34760,1,0,0:0:0:0:
86,158,34922,1,0,0:0:0:0:
181,227,35084,6,0,B|217:211|217:211|241:215|241:215|279:198,1,90.9999958343508
356,64,35408,1,0,0:0:0:0:
172,244,35570,2,0,B|196:260|208:280|208:280|268:312|344:276,1,181.999991668702
456,176,36057,1,0,0:0:0:0:
304,122,36219,1,0,0:0:0:0:
468,260,36381,6,0,P|508:236|536:192,1,90.9999958343508
220,92,36706,2,0,P|220:138|244:184,1,90.9999958343508
468,64,37030,2,0,P|429:37|377:31,1,90.9999958343508
300,232,37354,2,0,P|338:258|390:264,1,90.9999958343508
220,92,37679,6,0,B|174:92|174:92|134:112,1,90.9999958343508
300,232,38003,1,0,0:0:0:0:
260,64,38165,2,0,B|169:64|169:64|84:104,1,181.999991668702
312,240,38651,1,0,0:0:0:0:
456,68,38814,1,0,0:0:0:0:
472,88,38895,1,0,0:0:0:0:
480,116,38976,5,0,0:0:0:0:
277,158,39138,1,0,0:0:0:0:
428,297,39300,1,0,0:0:0:0:
316,72,39462,1,0,0:0:0:0:
235,284,39624,2,0,P|287:264|323:220,1,90.9999958343508
90,222,39949,1,0,0:0:0:0:
277,158,40111,1,0,0:0:0:0:
40,152,40273,6,0,P|8:198|4:254,1,90.9999958343508
308,72,40597,2,0,P|350:108|368:162,1,90.9999958343508
84,48,40922,2,0,P|29:58|-13:95,1,90.9999958343508
364,4,41246,2,0,P|419:5|468:34,1,90.9999958343508
160,184,41570,6,0,P|212:224|272:228,1,90.9999958343508
180,80,41895,1,0,0:0:0:0:
208,300,42057,1,0,0:0:0:0:
296,9,42219,1,0,0:0:0:0:
160,184,42381,1,0,0:0:0:0:
400,53,42543,1,0,0:0:0:0:
180,80,42706,1,0,0:0:0:0:
471,146,42868,5,0,0:0:0:0:
456,172,42949,1,0,0:0:0:0:
432,196,43030,1,0,0:0:0:0:
400,208,43111,1,0,0:0:0:0:
364,208,43192,5,0,0:0:0:0:
332,184,43273,1,0,0:0:0:0:
288,176,43354,1,0,0:0:0:0:
244,184,43435,1,0,0:0:0:0:
200,212,43516,5,0,0:0:0:0:
248,240,43597,1,0,0:0:0:0:
300,228,43679,1,0,0:0:0:0:
332,184,43760,1,0,0:0:0:0:
332,129,43841,5,0,0:0:0:0:
296,87,43922,1,0,0:0:0:0:
239,70,44003,1,0,0:0:0:0:
182,88,44084,1,0,0:0:0:0:
147,141,44165,5,0,0:0:0:0:
92,328,44327,1,0,0:0:0:0:
252,160,44489,1,0,0:0:0:0:
32,252,44651,1,0,0:0:0:0:
137,170,44814,5,0,0:0:0:0:
165,378,44976,1,0,0:0:0:0:
230,155,45138,1,0,0:0:0:0:
73,319,45300,1,0,0:0:0:0:
136,202,45462,5,0,0:0:0:0:
181,391,45624,1,0,0:0:0:0:
248,176,45787,1,0,0:0:0:0:
90,346,45949,1,0,0:0:0:0:
341,184,46111,1,0,0:0:0:0:
340,140,46192,1,0,0:0:0:0:
320,100,46273,1,0,0:0:0:0:
276,324,46435,1,0,0:0:0:0:
420,134,46597,1,0,0:0:0:0:
188,96,46760,6,0,P|154:149|156:217,1,90.9999958343508
292,352,47084,1,0,0:0:0:0:
436,108,47246,1,0,0:0:0:0:
156,108,47408,2,0,P|122:161|124:229,1,90.9999958343508
465,191,47733,2,0,P|451:129|401:82,1,90.9999958343508
412,100,47976,1,0,0:0:0:0:
376,96,48057,5,0,0:0:0:0:
416,284,48219,1,0,0:0:0:0:
256,104,48381,1,0,0:0:0:0:
216,124,48462,1,0,0:0:0:0:
172,132,48543,1,0,0:0:0:0:
128,124,48624,1,0,0:0:0:0:
88,100,48706,5,0,0:0:0:0:
40,136,48787,1,0,0:0:0:0:
28,192,48868,1,0,0:0:0:0:
32,252,48949,1,0,0:0:0:0:
56,308,49030,5,0,0:0:0:0:
96,288,49111,1,0,0:0:0:0:
140,276,49192,1,0,0:0:0:0:
184,280,49273,1,0,0:0:0:0:
224,300,49354,6,0,P|261:327|280:385,1,90.9999958343508
156,352,49679,1,0,0:0:0:0:
244,216,49841,1,0,0:0:0:0:
392,224,50003,6,0,P|433:242|493:229,1,90.9999958343508
312,168,50327,1,0,0:0:0:0:
386,312,50489,1,0,0:0:0:0:
444,156,50651,2,0,B|432:100|432:100|304:56,1,181.999991668702
68,228,51138,2,0,B|80:284|80:284|120:272|152:288|152:288|172:320|208:328,1,181.999991668702
116,40,51624,2,0,P|99:85|110:130,1,90.9999958343508
228,196,51949,5,0,0:0:0:0:
312,96,52111,1,0,0:0:0:0:
252,320,52273,1,0,0:0:0:0:
88,156,52435,1,0,0:0:0:0:
352,232,52597,1,0,0:0:0:0:
136,280,52760,1,0,0:0:0:0:
202,68,52922,1,0,0:0:0:0:
252,320,53084,1,0,0:0:0:0:
312,96,53246,6,0,B|328:44|328:44|193:69,1,181.999991668702
252,320,53733,2,0,B|236:372|236:372|371:347,1,181.999991668702
167,195,54219,2,0,P|142:244|134:292,1,90.9999958343508
352,232,54543,5,0,0:0:0:0:
409,116,54706,1,0,0:0:0:0:
240,238,54868,1,0,0:0:0:0:
408,313,55030,1,0,0:0:0:0:
264,83,55192,6,0,P|176:75|115:139,1,181.999991668702
254,259,55679,1,0,0:0:0:0:
256,56,55841,2,0,P|168:48|107:112,1,181.999991668702
268,280,56327,1,0,0:0:0:0:
248,29,56489,2,0,P|160:21|127:43,1,90.9999958343508
282,369,56814,2,0,P|322:348|349:312,1,90.9999958343508
2,208,57138,6,0,P|9:295|36:324,1,90.9999958343508
142,350,57462,1,0,0:0:0:0:
104,95,57624,2,0,P|52:71|97:118,1,181.999991668702
197,19,58111,1,0,0:0:0:0:
240,158,58273,1,0,0:0:0:0:
283,297,58435,6,0,P|335:321|290:274,1,181.999991668702
179,341,58922,1,0,0:0:0:0:
341,146,59084,5,0,0:0:0:0:
149,192,59246,1,0,0:0:0:0:
370,108,59408,5,0,0:0:0:0:
72,63,59570,1,0,0:0:0:0:
332,188,59733,2,0,L|427:230,1,97.9999970092774
155,163,60057,2,0,L|60:205,1,97.9999970092774
370,108,60381,2,0,L|465:150,1,97.9999970092774
89,37,60706,2,0,L|-6:79,1,97.9999970092774
315,185,61030,6,0,P|420:185|464:87,1,195.999994018555
174,264,61516,2,0,P|74:228|54:122,1,195.999994018555
370,107,62003,2,0,P|390:64|385:17,1,97.9999970092774
256,204,62327,5,0,0:0:0:0:
412,296,62489,1,0,0:0:0:0:
300,308,62651,1,0,0:0:0:0:
452,184,62814,1,0,0:0:0:0:
240,192,62976,5,0,0:0:0:0:
428,308,63138,1,0,0:0:0:0:
288,320,63300,1,0,0:0:0:0:
464,172,63462,1,0,0:0:0:0:
176,136,63624,6,0,P|156:188|180:248,1,97.9999970092774
476,160,63949,1,0,0:0:0:0:
140,116,64111,2,0,P|122:187|137:259,1,146.999995513916
152,265,64435,1,0,0:0:0:0:
336,104,64597,1,0,0:0:0:0:
294,367,64760,1,0,0:0:0:0:
332,372,64841,1,0,0:0:0:0:
372,368,64922,5,0,0:0:0:0:
76,257,65084,1,0,0:0:0:0:
348,96,65246,2,0,B|410:101|410:101|440:132,1,97.9999970092774
164,288,65570,2,0,B|101:282|101:282|72:252,1,97.9999970092774
380,88,65895,2,0,B|438:109|438:109|459:146,1,97.9999970092774
132,296,66219,6,0,B|73:274|73:274|52:237,1,97.9999970092774
412,87,66543,2,0,B|463:123|463:123|473:164,1,97.9999970092774
100,297,66868,2,0,B|48:260|48:260|38:219,1,97.9999970092774
443,94,67192,2,0,B|483:142|483:142|482:184,1,97.9999970092774
460,232,67435,1,0,0:0:0:0:
440,212,67516,5,0,0:0:0:0:
412,200,67597,1,0,0:0:0:0:
384,196,67679,1,0,0:0:0:0:
356,196,67760,1,0,0:0:0:0:
328,204,67841,1,0,0:0:0:0:
300,216,67922,1,0,0:0:0:0:
276,232,68003,1,0,0:0:0:0:
256,252,68084,1,0,0:0:0:0:
240,276,68165,5,0,0:0:0:0:
200,256,68246,1,0,0:0:0:0:
180,216,68327,1,0,0:0:0:0:
172,172,68408,1,0,0:0:0:0:
180,128,68489,1,0,0:0:0:0:
204,92,68570,1,0,0:0:0:0:
240,68,68651,1,0,0:0:0:0:
284,60,68733,1,0,0:0:0:0:
328,68,68814,5,0,0:0:0:0:
328,68,69138,1,0,0:0:0:0:
328,68,69462,2,0,L|399:74,3,48.9999985046387
244,112,69787,2,0,L|156:119,1,78.7500030040742
304,184,70111,6,0,L|419:194,1,112
176,296,70435,1,0,0:0:0:0:
343,281,70597,1,0,0:0:0:0:
162,297,70760,1,0,0:0:0:0:
357,280,70922,1,0,0:0:0:0:
148,298,71084,1,0,0:0:0:0:
371,279,71246,1,0,0:0:0:0:
134,299,71408,5,0,0:0:0:0:
385,278,71570,1,0,0:0:0:0:
120,300,71733,1,0,0:0:0:0:
399,277,71895,1,0,0:0:0:0:
106,302,72057,1,0,0:0:0:0:
413,275,72219,1,0,0:0:0:0:
250,290,72381,5,0,0:0:0:0:
401,140,72543,1,0,0:0:0:0:
193,84,72706,1,0,0:0:0:0:
193,84,73030,5,0,0:0:0:0:
385,246,73192,1,0,0:0:0:0:
182,74,73354,1,0,0:0:0:0:
395,255,73516,1,0,0:0:0:0:
171,66,73679,1,0,0:0:0:0:
407,264,73841,1,0,0:0:0:0:
160,58,74003,5,0,0:0:0:0:
419,273,74165,1,0,0:0:0:0:
149,50,74327,1,0,0:0:0:0:
431,282,74489,1,0,0:0:0:0:
287,166,74651,5,0,0:0:0:0:
244,350,74814,1,0,0:0:0:0:
106,220,74976,1,0,0:0:0:0:
310,276,75138,1,0,0:0:0:0:
370,286,75219,1,0,0:0:0:0:
431,282,75300,1,0,0:0:0:0:
431,282,75624,5,0,0:0:0:0:
470,62,75787,1,0,0:0:0:0:
370,286,75949,1,0,0:0:0:0:
262,47,76111,1,0,0:0:0:0:
310,276,76273,1,0,0:0:0:0:
393,16,76435,1,0,0:0:0:0:
258,244,76597,5,0,0:0:0:0:
115,27,76760,1,0,0:0:0:0:
228,191,76922,1,0,0:0:0:0:
452,68,77084,1,0,0:0:0:0:
162,264,77246,2,0,P|100:251|28:103,1,224
249,51,77733,1,0,0:0:0:0:
143,282,77895,6,0,P|43:240|15:156,1,168
31,52,78219,2,0,B|59:47|81:32|81:32|124:78|196:90,1,168
350,189,78543,2,0,B|336:194|319:190|319:190|333:242|295:274,1,112
264,286,78787,1,0,0:0:0:0:
227,271,78868,1,0,0:0:0:0:
202,240,78949,1,0,0:0:0:0:
189,202,79030,1,0,0:0:0:0:
190,162,79111,1,0,0:0:0:0:
206,126,79192,5,0,0:0:0:0:
274,150,79273,1,0,0:0:0:0:
345,138,79354,1,0,0:0:0:0:
393,83,79435,1,0,0:0:0:0:
398,10,79516,5,0,0:0:0:0:
348,19,79597,1,0,0:0:0:0:
297,28,79679,1,0,0:0:0:0:
247,37,79760,1,0,0:0:0:0:
197,46,79841,1,0,0:0:0:0:
147,55,79922,1,0,0:0:0:0:
97,65,80003,1,0,0:0:0:0:
47,73,80084,1,0,0:0:0:0:
0,82,80165,2,0,B|43:110|43:110|59:193|59:193|32:244,1,168
154,304,80489,6,0,B|182:261|182:261|265:245|265:245|316:272,1,168
361,195,80814,1,0,0:0:0:0:
151,189,80976,1,0,0:0:0:0:
378,166,81138,1,0,0:0:0:0:
134,218,81300,1,0,0:0:0:0:
391,135,81462,1,0,0:0:0:0:
121,249,81624,1,0,0:0:0:0:
401,102,81787,1,0,0:0:0:0:
111,282,81949,1,0,0:0:0:0:
406,69,82111,1,0,0:0:0:0:
106,315,82273,1,0,0:0:0:0:
491,87,82435,6,0,P|485:32|330:27,1,224
446,220,82922,1,0,0:0:0:0:
176,52,83084,2,0,P|139:149|181:197,1,168
304,248,83408,5,0,0:0:0:0:
390,105,83570,1,0,0:0:0:0:
208,248,83733,1,0,0:0:0:0:
122,105,83895,1,0,0:0:0:0:
338,276,84057,1,0,0:0:0:0:
440,69,84219,1,0,0:0:0:0:
174,276,84381,1,0,0:0:0:0:
72,69,84543,1,0,0:0:0:0:
372,304,84706,5,0,0:0:0:0:
22,33,84868,1,0,0:0:0:0:
140,304,85030,1,0,0:0:0:0:
490,33,85192,1,0,0:0:0:0:
409,235,85354,1,0,0:0:0:0:
275,63,85516,1,0,0:0:0:0:
228,55,85598,1,0,0:0:0:0:
184,73,85679,1,0,0:0:0:0:
184,73,86003,5,0,0:0:0:0:
341,223,86165,1,0,0:0:0:0:
96,200,86327,1,0,0:0:0:0:
404,120,86489,1,0,0:0:0:0:
108,184,86651,5,0,0:0:0:0:
312,136,86813,1,0,0:0:0:0:
164,296,86975,1,0,0:0:0:0:
280,40,87137,1,0,0:0:0:0:
152,280,87300,5,0,0:0:0:0:
236,108,87462,1,0,0:0:0:0:
252,356,87624,1,0,0:0:0:0:
152,48,87786,1,0,0:0:0:0:
360,308,87949,1,0,0:0:0:0:
36,192,88111,1,0,0:0:0:0:
364,0,88273,6,0,P|412:42|415:151,1,168
260,112,88597,2,0,P|188:101|84:144,1,168
252,272,88922,2,0,B|322:291|322:291|418:273,1,168
146,226,89246,2,0,B|131:265|82:275|82:275|103:314|88:356,1,168
366,158,89570,6,0,B|379:142|379:124|379:124|420:114|450:86,1,112
431,47,89814,1,0,0:0:0:0:
386,40,89895,1,0,0:0:0:0:
341,43,89976,1,0,0:0:0:0:
299,60,90057,1,0,0:0:0:0:
263,87,90138,1,0,0:0:0:0:
235,122,90219,5,0,0:0:0:0:
288,187,90300,1,0,0:0:0:0:
279,270,90381,1,0,0:0:0:0:
220,329,90462,1,0,0:0:0:0:
136,336,90543,1,0,0:0:0:0:
66,288,90624,1,0,0:0:0:0:
41,206,90706,1,0,0:0:0:0:
75,129,90787,1,0,0:0:0:0:
153,99,90868,1,0,0:0:0:0:
153,99,91192,5,0,0:0:0:0:
355,132,91354,1,0,0:0:0:0:
215,193,91516,5,0,0:0:0:0:
289,48,91679,1,0,0:0:0:0:
75,129,91841,5,0,0:0:0:0:
318,356,92003,1,0,0:0:0:0:
394,32,92165,1,0,0:0:0:0:
394,32,92489,5,0,0:0:0:0:
472,154,92651,1,0,0:0:0:0:
320,147,92814,5,0,0:0:0:0:
242,269,92976,1,0,0:0:0:0:
66,256,93138,5,0,0:0:0:0:
144,378,93300,1,0,0:0:0:0:
185,127,93462,6,0,B|176:80|135:61|135:61|115:84|86:96|86:96|48:69|-2:79,1,224
145,222,93949,1,0,0:0:0:0:
340,94,94111,1,0,0:0:0:0:
64,183,94273,2,0,P|67:267|193:301,1,224
419,138,94760,6,0,P|416:54|290:20,1,224
344,278,95246,2,0,B|376:289|399:281|399:281|427:298|454:295,1,112
172,200,95570,2,0,B|146:202|119:186|119:186|95:194|63:182,1,112
254,82,95895,1,0,0:0:0:0:
105,284,96057,5,0,0:0:0:0:
271,236,96219,1,0,0:0:0:0:
79,311,96381,1,0,0:0:0:0:
156,97,96543,1,0,0:0:0:0:
53,338,96706,1,0,0:0:0:0:
380,211,96868,1,0,0:0:0:0:
27,365,97030,1,0,0:0:0:0:
170,10,97192,1,0,0:0:0:0:
27,365,97354,2,0,L|116:273,1,112
422,99,97679,6,0,P|366:104|314:85,1,112
79,188,98003,2,0,P|134:193|186:174,1,112
424,291,98327,2,0,P|368:296|316:277,1,112
77,380,98651,6,0,P|132:385|184:366,1,112
378,209,98976,1,0,0:0:0:0:
134,175,99138,1,0,0:0:0:0:
378,175,99300,1,0,0:0:0:0:
134,209,99462,1,0,0:0:0:0:
449,129,99624,5,0,0:0:0:0:
63,255,99787,1,0,0:0:0:0:
449,255,99949,1,0,0:0:0:0:
63,129,100112,1,0,0:0:0:0:
85,97,100192,1,0,0:0:0:0:
117,73,100273,1,0,0:0:0:0:
276,108,100435,1,0,0:0:0:0:
264,108,100516,1,0,0:0:0:0:
253,109,100597,5,0,0:0:0:0:
201,133,100679,1,0,0:0:0:0:
158,169,100760,1,0,0:0:0:0:
128,216,100841,1,0,0:0:0:0:
119,271,100922,5,0,0:0:0:0:
169,227,101003,1,0,0:0:0:0:
230,200,101084,1,0,0:0:0:0:
295,187,101165,1,0,0:0:0:0:
361,194,101246,5,0,0:0:0:0:
339,357,101408,1,0,0:0:0:0:
454,223,101570,2,0,P|457:160|424:118,1,112
266,100,101895,5,0,0:0:0:0:
429,122,102057,1,0,0:0:0:0:
295,7,102219,2,0,P|232:4|190:37,1,112
79,165,102543,5,0,0:0:0:0:
79,165,102867,2,0,P|76:228|109:270,1,112
361,194,103192,5,0,0:0:0:0:
286,265,103354,1,0,0:0:0:0:
266,100,103516,5,0,0:0:0:0:
79,165,103679,1,0,0:0:0:0:
287,2,103841,5,0,0:0:0:0:
2,129,104003,1,0,0:0:0:0:
255,313,104165,2,0,P|319:311|377:286,1,112
117,22,104489,5,0,0:0:0:0:
84,332,104651,1,0,0:0:0:0:
369,204,104813,2,0,P|399:147|406:84,1,112
255,313,105138,5,0,0:0:0:0:
197,132,105300,1,0,0:0:0:0:
152,316,105462,5,0,0:0:0:0:
123,98,105624,1,0,0:0:0:0:
70,280,105787,5,0,0:0:0:0:
194,49,105949,1,0,0:0:0:0:
342,283,106111,5,0,0:0:0:0:
126,180,106273,1,0,0:0:0:0:
369,204,106435,2,0,P|426:171|457:113,1,112
415,32,106760,1,0,0:0:0:0:
232,290,106922,2,0,P|269:236|273:170,1,112
204,50,107247,1,0,0:0:0:0:
97,356,107408,1,0,0:0:0:0:
24,113,107570,1,0,0:0:0:0:
232,290,107733,6,0,P|269:236|273:170,1,112
97,356,108057,1,0,0:0:0:0:
369,204,108219,2,0,P|426:170|456:113,1,112
190,209,108543,1,0,0:0:0:0:
357,312,108706,1,0,0:0:0:0:
363,116,108868,1,0,0:0:0:0:
159,227,109030,5,0,0:0:0:0:
416,192,109192,1,0,0:0:0:0:
87,259,109354,5,0,0:0:0:0:
404,96,109516,1,0,0:0:0:0:
23,296,109679,5,0,0:0:0:0:
296,24,109841,1,0,0:0:0:0:
320,40,109922,1,0,0:0:0:0:
332,70,110003,5,0,0:0:0:0:
333,120,110084,1,0,0:0:0:0:
303,160,110165,1,0,0:0:0:0:
256,178,110246,1,0,0:0:0:0:
206,170,110327,5,0,0:0:0:0:
207,102,110408,1,0,0:0:0:0:
168,47,110489,1,0,0:0:0:0:
100,49,110570,1,0,0:0:0:0:
49,93,110651,1,0,0:0:0:0:
43,160,110733,1,0,0:0:0:0:
87,210,110814,1,0,0:0:0:0:
153,215,110895,1,0,0:0:0:0:
206,170,110976,5,0,0:0:0:0:
258,104,111057,1,0,0:0:0:0:
340,86,111138,1,0,0:0:0:0:
411,129,111219,1,0,0:0:0:0:
424,211,111300,1,0,0:0:0:0:
378,281,111381,1,0,0:0:0:0:
296,301,111462,1,0,0:0:0:0:
228,250,111543,1,0,0:0:0:0:
206,170,111624,5,0,0:0:0:0:
208,32,111787,1,0,0:0:0:0:
194,168,111949,1,0,0:0:0:0:
219,33,112112,1,0,0:0:0:0:
182,165,112273,1,0,0:0:0:0:
231,36,112436,1,0,0:0:0:0:
171,160,112597,1,0,0:0:0:0:
242,41,112760,1,0,0:0:0:0:
280,244,112922,5,0,0:0:0:0:
142,246,113084,1,0,0:0:0:0:
278,232,113246,1,0,0:0:0:0:
143,257,113408,1,0,0:0:0:0:
275,220,113570,1,0,0:0:0:0:
146,269,113733,1,0,0:0:0:0:
270,209,113895,1,0,0:0:0:0:
151,280,114057,1,0,0:0:0:0:
351,100,114219,5,0,0:0:0:0:
389,232,114382,1,0,0:0:0:0:
340,105,114544,1,0,0:0:0:0:
399,229,114707,1,0,0:0:0:0:
329,111,114868,1,0,0:0:0:0:
410,223,115031,1,0,0:0:0:0:
320,120,115192,1,0,0:0:0:0:
345,144,115273,1,0,0:0:0:0:
370,168,115354,1,0,0:0:0:0:
395,192,115435,1,0,0:0:0:0:
420,216,115516,5,0,0:0:0:0:
152,321,115760,1,0,0:0:0:0:
195,36,116003,1,0,0:0:0:0:
320,312,116327,1,0,0:0:0:0:
332,336,116408,1,0,0:0:0:0:
344,360,116489,1,0,0:0:0:0:
108,108,116814,6,0,P|144:40|180:28,1,112
404,276,117057,1,0,0:0:0:0:
404,276,117138,2,0,P|368:344|332:356,1,112
404,108,117381,1,0,0:0:0:0:
404,108,117462,2,0,P|368:40|332:28,1,112
108,276,117705,1,0,0:0:0:0:
108,276,117787,2,0,P|144:344|180:356,1,112
108,108,118030,1,0,0:0:0:0:
108,108,118111,6,0,P|40:144|28:180,1,112
240,80,118435,2,0,P|204:12|168:0,1,112
268,212,118760,2,0,P|336:176|348:140,1,112
136,240,119084,2,0,P|172:308|208:320,1,112
164,72,119408,6,0,B|118:88|82:66|82:66|60:152|-24:196,1,224
256,192,119895,2,0,B|301:208|337:186|337:186|360:272|444:316,1,224
224,276,120381,2,0,P|172:228|168:184,1,112
280,100,120706,2,0,P|332:148|336:192,1,112
204,296,121030,2,0,P|152:248|148:204,1,112
308,84,121354,2,0,P|360:132|364:176,1,112
147,209,121679,1,0,0:0:0:0:
152,52,121841,1,0,0:0:0:0:
292,280,122003,6,0,P|272:237|235:212,2,74.6666666666667
232,92,122327,2,0,P|251:134|288:159,2,74.6666666666667
256,292,122651,2,0,P|260:245|240:204,2,74.6666666666667
267,79,122976,2,0,P|262:125|282:166,2,74.6666666666667
160,268,123300,6,0,L|88:332,2,74.6666666666667
344,104,123624,2,0,L|399:54,2,74.6666666666667
142,146,123949,2,0,L|50:116,2,74.6666666666667
376,224,124273,2,0,L|447:247,2,74.6666666666667
136,60,124597,6,0,P|-5:75|84:216,1,336
376,324,125246,2,0,P|448:280|428:200,1,168
416,192,125570,1,0,0:0:0:0:
268,296,125733,1,0,0:0:0:0:
292,56,125895,5,0,0:0:0:0:
264,48,125976,1,0,0:0:0:0:
236,44,126057,1,0,0:0:0:0:
208,44,126138,1,0,0:0:0:0:
180,48,126219,1,0,0:0:0:0:
152,40,126300,1,0,0:0:0:0:
124,40,126381,1,0,0:0:0:0:
96,44,126462,1,0,0:0:0:0:
68,52,126543,5,0,0:0:0:0:
40,88,126624,1,0,0:0:0:0:
40,132,126706,1,0,0:0:0:0:
64,168,126787,1,0,0:0:0:0:
108,184,126868,1,0,0:0:0:0:
152,180,126949,1,0,0:0:0:0:
192,156,127030,1,0,0:0:0:0:
232,140,127111,1,0,0:0:0:0:
276,144,127192,6,0,B|327:164|327:164|365:205,1,112
448,20,127516,2,0,B|409:60|409:60|358:81,1,112
184,304,127841,2,0,B|235:283|235:283|273:242,1,112
232,140,128165,2,0,B|193:99|193:99|142:78,1,112
56,104,128489,5,0,0:0:0:0:
100,272,128651,1,0,0:0:0:0:
56,192,128814,1,0,0:0:0:0:
184,304,128976,1,0,0:0:0:0:
100,272,129138,1,0,0:0:0:0:
271,296,129300,1,0,0:0:0:0:
184,304,129462,1,0,0:0:0:0:
344,244,129624,1,0,0:0:0:0:
312,8,129787,6,0,B|248:40|248:40|300:88|280:168,1,168
268,136,130111,1,0,0:0:0:0:
144,72,130273,1,0,0:0:0:0:
108,340,130435,6,0,B|172:308|172:308|120:260|140:180,1,168
152,212,130759,1,0,0:0:0:0:
276,276,130922,1,0,0:0:0:0:
144,72,131084,6,0,B|95:43|35:68|35:68|79:126|85:195,1,224
276,276,131570,2,0,B|324:304|384:279|384:279|340:221|334:152,1,224
336,156,131976,1,0,0:0:0:0:
336,132,132057,1,0,0:0:0:0:
340,112,132138,1,0,0:0:0:0:
348,92,132219,1,0,0:0:0:0:
360,72,132300,1,0,0:0:0:0:
376,55,132381,6,0,P|424:58|465:84,1,97.9999970092774
135,328,132706,2,0,P|87:325|46:299,1,97.9999970092774
384,152,133030,2,0,P|408:178|423:245,1,97.9999970092774
124,212,133354,2,0,P|99:185|81:121,1,97.9999970092774
321,225,133679,6,0,P|319:261|282:318,1,97.9999970092774
197,121,134003,2,0,P|198:84|231:27,1,97.9999970092774
224,232,134327,2,0,P|197:256|130:271,1,97.9999970092774
313,109,134651,1,0,0:0:0:0:
328,92,134732,1,0,0:0:0:0:
350,78,134813,1,0,0:0:0:0:
373,69,134894,1,0,0:0:0:0:
397,66,134975,5,0,0:0:0:0:
321,225,135138,1,0,0:0:0:0:
114,66,135462,5,0,0:0:0:0:
191,225,135625,1,0,0:0:0:0:
424,56,135949,5,0,0:0:0:0:
331,246,136112,1,0,0:0:0:0:
88,56,136435,5,0,0:0:0:0:
181,246,136598,1,0,0:0:0:0:
450,45,136922,5,0,0:0:0:0:
62,339,137246,1,0,0:0:0:0:
256,192,137570,6,0,P|219:138|164:109,1,112
256,192,137895,2,0,P|268:127|249:68,1,112
256,192,138219,2,0,P|310:155|339:99,1,112
256,192,138543,2,0,P|320:204|379:185,1,112
256,192,138868,6,0,P|202:229|173:284,1,112
256,192,139193,2,0,P|191:179|132:198,1,112
256,192,139517,2,0,P|219:138|163:109,1,112
256,192,139841,2,0,P|268:127|249:68,1,112
72,248,140165,5,0,0:0:0:0:
68,228,140246,1,0,0:0:0:0:
68,208,140327,1,0,0:0:0:0:
76,188,140408,1,0,0:0:0:0:
88,172,140489,1,0,0:0:0:0:
96,156,140570,1,0,0:0:0:0:
96,136,140651,1,0,0:0:0:0:
88,120,140733,1,0,0:0:0:0:
80,104,140814,5,0,0:0:0:0:
92,56,140895,1,0,0:0:0:0:
136,36,140976,1,0,0:0:0:0:
184,40,141057,1,0,0:0:0:0:
224,64,141138,1,0,0:0:0:0:
260,96,141219,1,0,0:0:0:0:
304,112,141300,1,0,0:0:0:0:
352,100,141381,1,0,0:0:0:0:
388,64,141462,5,0,0:0:0:0:
124,320,142273,1,0,0:0:0:0:
108,300,142354,1,0,0:0:0:0:
96,280,142435,2,0,P|88:236|108:172,1,105
116,168,142760,5,0,0:0:0:0:
396,216,144057,5,0,0:0:0:0:
206,58,145354,5,0,0:0:0:0:
305,325,146651,5,0,0:0:0:0:
346,82,147949,5,0,0:0:0:0:
232,108,148111,1,0,0:0:0:0:
360,184,148273,2,0,L|436:168,1,70
364,60,148597,1,0,0:0:0:0:
227,91,148759,1,0,0:0:0:0:
380,182,148921,2,0,L|472:163,1,70
125,349,149246,5,0,0:0:0:0:
290,313,149408,1,0,0:0:0:0:
105,204,149570,2,0,L|11:220,1,70
102,376,149895,5,0,0:0:0:0:
296,334,150057,1,0,0:0:0:0:
80,206,150219,2,0,L|-16:220,1,70
304,356,150543,6,0,P|368:336|408:304,1,105
400,288,150868,2,0,P|336:268|296:236,1,105
304,220,151192,2,0,P|368:200|416:164,1,125.999996154785
424,148,151517,2,0,P|360:128|308:88,1,125.999996154785
304,76,151841,6,0,P|164:20|256:164,1,419.999987182618
218,86,152814,2,0,L|119:94,1,78.7500030040742
243,168,153138,6,0,L|382:180,1,112
121,263,153462,5,0,0:0:0:0:
121,103,153624,1,0,0:0:0:0:
42,102,153787,1,0,0:0:0:0:
202,102,153949,1,0,0:0:0:0:
121,280,154111,5,0,0:0:0:0:
121,87,154273,1,0,0:0:0:0:
26,87,154435,1,0,0:0:0:0:
218,87,154597,1,0,0:0:0:0:
121,298,154760,5,0,0:0:0:0:
121,66,154922,1,0,0:0:0:0:
10,72,155084,1,0,0:0:0:0:
234,72,155246,1,0,0:0:0:0:
121,316,155408,5,0,0:0:0:0:
250,57,155570,1,0,0:0:0:0:
0,57,155733,1,0,0:0:0:0:
293,316,156057,5,0,0:0:0:0:
293,68,156219,1,0,0:0:0:0:
293,342,156381,1,0,0:0:0:0:
293,44,156543,1,0,0:0:0:0:
293,342,156706,5,0,0:0:0:0:
507,342,156868,1,0,0:0:0:0:
289,192,157030,5,0,0:0:0:0:
503,192,157192,1,0,0:0:0:0:
293,44,157354,5,0,0:0:0:0:
507,44,157516,1,0,0:0:0:0:
289,192,157679,5,0,0:0:0:0:
503,192,157841,1,0,0:0:0:0:
293,342,158003,5,0,0:0:0:0:
507,342,158165,1,0,0:0:0:0:
256,342,158327,1,0,0:0:0:0:
256,342,158651,5,0,0:0:0:0:
256,42,158814,1,0,0:0:0:0:
181,321,158975,5,0,0:0:0:0:
331,62,159138,1,0,0:0:0:0:
126,267,159300,5,0,0:0:0:0:
385,117,159463,1,0,0:0:0:0:
30,192,159624,5,0,0:0:0:0:
481,192,159787,1,0,0:0:0:0:
61,79,159949,5,0,0:0:0:0:
450,304,160112,1,0,0:0:0:0:
143,0,160273,5,0,0:0:0:0:
368,386,160436,1,0,0:0:0:0:
368,0,160597,5,0,0:0:0:0:
143,386,160760,1,0,0:0:0:0:
481,192,160922,5,0,0:0:0:0:
30,192,161085,1,0,0:0:0:0:
450,304,161246,6,0,P|369:288|315:225,1,168
355,115,161570,2,0,P|267:104|213:171,1,168
109,260,161895,2,0,P|171:304|270:298,1,168
30,192,162219,6,0,P|96:163|115:128,1,112
127,77,162462,1,0,0:0:0:0:
112,23,162543,1,0,0:0:0:0:
57,8,162624,1,0,0:0:0:0:
10,40,162706,1,0,0:0:0:0:
14,95,162787,1,0,0:0:0:0:
56,131,162868,5,0,0:0:0:0:
114,131,162949,1,0,0:0:0:0:
162,103,163030,1,0,0:0:0:0:
215,85,163111,1,0,0:0:0:0:
270,77,163192,1,0,0:0:0:0:
325,84,163273,1,0,0:0:0:0:
376,106,163354,1,0,0:0:0:0:
431,114,163435,1,0,0:0:0:0:
482,100,163516,5,0,0:0:0:0:
482,100,163841,1,0,0:0:0:0:
384,233,164003,1,0,0:0:0:0:
318,1,164165,1,0,0:0:0:0:
416,134,164327,1,0,0:0:0:0:
161,183,164489,1,0,0:0:0:0:
259,316,164651,1,0,0:0:0:0:
325,84,164813,5,0,0:0:0:0:
325,84,165138,1,0,0:0:0:0:
161,183,165300,1,0,0:0:0:0:
337,75,165462,1,0,0:0:0:0:
328,275,165624,1,0,0:0:0:0:
151,7,165787,1,0,0:0:0:0:
349,66,165949,1,0,0:0:0:0:
161,183,166111,6,0,P|108:209|72:221,2,70
351,183,166597,2,0,P|403:209|439:221,2,70
256,102,167084,2,0,L|256:1,1,70
256,282,167408,6,0,L|256:383,2,70
256,102,167895,2,0,L|256:1,2,70
256,282,168381,2,0,L|256:383,1,70
148,116,168706,5,0,0:0:0:0:
364,116,168868,1,0,0:0:0:0:
169,270,169030,1,0,0:0:0:0:
256,56,169192,1,0,0:0:0:0:
343,270,169354,1,0,0:0:0:0:
128,100,169516,5,0,0:0:0:0:
384,100,169679,1,0,0:0:0:0:
156,284,169841,1,0,0:0:0:0:
256,36,170003,6,0,B|304:56|332:40|332:40|377:6|432:17|454:54|463:88,1,224
334,220,170489,1,0,0:0:0:0:
166,190,170651,1,0,0:0:0:0:
224,350,170814,1,0,0:0:0:0:
263,137,170976,1,0,0:0:0:0:
131,293,171139,1,0,0:0:0:0:
333,330,171300,6,0,P|382:297|443:294,1,112
263,137,171624,1,0,0:0:0:0:
131,293,171787,1,0,0:0:0:0:
379,193,171949,2,0,P|374:122|407:57,1,112
136,149,172273,1,0,0:0:0:0:
219,380,172436,1,0,0:0:0:0:
241,368,172516,1,0,0:0:0:0:
263,356,172597,5,0,0:0:0:0:
47,172,172760,1,0,0:0:0:0:
59,194,172840,1,0,0:0:0:0:
71,216,172921,1,0,0:0:0:0:
254,1,173084,2,0,L|199:31,1,56
105,94,173245,5,0,0:0:0:0:
127,133,173327,1,0,0:0:0:0:
166,154,173408,1,0,0:0:0:0:
210,158,173489,1,0,0:0:0:0:
253,146,173570,1,0,0:0:0:0:
288,119,173651,1,0,0:0:0:0:
325,94,173733,1,0,0:0:0:0:
369,85,173814,1,0,0:0:0:0:
411,99,173895,5,0,0:0:0:0:
384,230,174057,1,0,0:0:0:0:
497,116,174219,2,0,P|481:45|446:16,1,112
302,259,174543,5,0,0:0:0:0:
343,384,174705,1,0,0:0:0:0:
384,230,174867,2,0,P|334:176|289:168,1,112
214,357,175192,1,0,0:0:0:0:
214,357,175516,5,0,0:0:0:0:
110,226,175679,1,0,0:0:0:0:
135,316,175841,5,0,0:0:0:0:
322,149,176004,1,0,0:0:0:0:
265,277,176165,5,0,0:0:0:0:
78,39,176328,1,0,0:0:0:0:
110,226,176489,6,0,P|186:208|215:176,1,112
208,52,176814,1,0,0:0:0:0:
208,185,176976,2,0,P|282:207|323:194,1,112
379,83,177301,1,0,0:0:0:0:
313,199,177462,2,0,P|366:255|408:264,1,112
512,196,177787,1,0,0:0:0:0:
512,196,178111,5,0,0:0:0:0:
397,264,178273,2,0,L|294:326,2,112
217,141,178760,2,0,L|320:203,1,112
368,92,179084,5,0,0:0:0:0:
368,92,179408,1,0,0:0:0:0:
312,198,179570,2,0,P|241:225|193:213,1,112
411,243,179895,1,0,0:0:0:0:
296,278,180057,2,0,P|226:246|201:204,1,112
335,380,180381,5,0,0:0:0:0:
335,380,180706,1,0,0:0:0:0:
207,218,180868,2,0,P|154:200|100:211,1,112
242,321,181192,1,0,0:0:0:0:
266,115,181354,2,0,P|241:65|195:34,1,112
207,218,181679,6,0,P|259:235|313:224,1,112
163,115,182003,1,0,0:0:0:0:
293,311,182165,1,0,0:0:0:0:
197,33,182327,1,0,0:0:0:0:
217,362,182489,1,0,0:0:0:0:
288,0,182651,1,0,0:0:0:0:
238,8,182733,1,0,0:0:0:0:
197,33,182814,1,0,0:0:0:0:
170,76,182895,1,0,0:0:0:0:
158,125,182976,5,0,0:0:0:0:
185,131,183057,1,0,0:0:0:0:
212,138,183138,1,0,0:0:0:0:
239,145,183219,1,0,0:0:0:0:
266,152,183300,1,0,0:0:0:0:
293,159,183381,1,0,0:0:0:0:
320,166,183462,1,0,0:0:0:0:
347,173,183543,1,0,0:0:0:0:
374,179,183624,5,0,0:0:0:0:
433,221,183706,1,0,0:0:0:0:
448,291,183787,1,0,0:0:0:0:
407,351,183868,1,0,0:0:0:0:
336,367,183949,1,0,0:0:0:0:
270,335,184030,1,0,0:0:0:0:
244,266,184111,1,0,0:0:0:0:
179,232,184192,1,0,0:0:0:0:
110,255,184273,5,0,0:0:0:0:
224,117,184435,1,0,0:0:0:0:
83,217,184597,5,0,0:0:0:0:
250,154,184759,1,0,0:0:0:0:
78,171,184921,5,0,0:0:0:0:
255,200,185083,1,0,0:0:0:0:
98,129,185246,5,0,0:0:0:0:
236,243,185408,1,0,0:0:0:0:
135,102,185570,5,0,0:0:0:0:
198,269,185732,1,0,0:0:0:0:
181,97,185895,5,0,0:0:0:0:
152,274,186057,1,0,0:0:0:0:
233,126,186219,1,0,0:0:0:0:
233,126,186300,1,0,0:0:0:0:
233,126,186381,1,0,0:0:0:0:
83,217,186543,5,0,0:0:0:0:
250,154,186705,1,0,0:0:0:0:
390,255,186868,5,0,0:0:0:0:
276,117,187030,1,0,0:0:0:0:
417,217,187192,5,0,0:0:0:0:
250,154,187354,1,0,0:0:0:0:
422,171,187516,5,0,0:0:0:0:
245,200,187678,1,0,0:0:0:0:
402,129,187841,5,0,0:0:0:0:
264,243,188003,1,0,0:0:0:0:
365,102,188165,5,0,0:0:0:0:
302,269,188327,1,0,0:0:0:0:
319,97,188490,5,0,0:0:0:0:
348,274,188652,1,0,0:0:0:0:
267,126,188814,1,0,0:0:0:0:
267,126,188895,1,0,0:0:0:0:
267,126,188976,1,0,0:0:0:0:
417,217,189138,5,0,0:0:0:0:
250,154,189300,1,0,0:0:0:0:
125,254,189462,5,0,0:0:0:0:
85,154,189624,1,0,0:0:0:0:
210,254,189787,1,0,0:0:0:0:
250,154,189949,1,0,0:0:0:0:
117,266,190111,5,0,0:0:0:0:
68,146,190273,1,0,0:0:0:0:
219,266,190436,1,0,0:0:0:0:
267,146,190598,1,0,0:0:0:0:
108,281,190760,5,0,0:0:0:0:
49,136,190922,1,0,0:0:0:0:
230,281,191084,1,0,0:0:0:0:
288,136,191247,1,0,0:0:0:0:
108,281,191408,5,0,0:0:0:0:
97,299,191489,1,0,0:0:0:0:
89,318,191570,1,0,0:0:0:0:
126,104,191733,2,0,P|89:64|45:55,1,70
230,281,192057,5,0,0:0:0:0:
359,269,192219,1,0,0:0:0:0:
214,269,192381,1,0,0:0:0:0:
368,254,192543,1,0,0:0:0:0:
264,131,192706,5,0,0:0:0:0:
135,119,192868,1,0,0:0:0:0:
280,119,193030,1,0,0:0:0:0:
126,104,193192,1,0,0:0:0:0:
286,225,193354,5,0,0:0:0:0:
440,210,193516,1,0,0:0:0:0:
266,210,193678,1,0,0:0:0:0:
451,192,193840,1,0,0:0:0:0:
243,200,194003,1,0,0:0:0:0:
224,189,194084,1,0,0:0:0:0:
205,180,194165,1,0,0:0:0:0:
336,111,194327,1,0,0:0:0:0:
354,296,194489,1,0,0:0:0:0:
180,105,194651,6,0,P|141:135|125:173,1,70
332,279,194976,2,0,P|371:249|387:211,1,70
233,78,195300,2,0,P|184:85|152:110,1,70
278,305,195625,2,0,P|327:298|359:273,1,70
293,82,195949,6,0,P|247:63|206:69,1,70
218,301,196274,2,0,P|264:320|305:314,1,70
343,116,196597,2,0,P|312:85|302:82,2,35
216,316,196922,2,0,P|187:297|169:268,1,70
227,64,197246,5,0,0:0:0:0:
168,267,197408,1,0,0:0:0:0:
308,171,197570,2,0,L|212:176,1,70
221,42,197895,5,0,0:0:0:0:
150,285,198057,1,0,0:0:0:0:
323,157,198219,2,0,L|227:162,1,70
161,174,198543,5,0,0:0:0:0:
220,377,198705,1,0,0:0:0:0:
80,281,198867,2,0,L|176:286,1,70
255,45,199192,2,0,L|218:41,2,35
315,224,199516,1,0,0:0:0:0:
161,174,199679,1,0,0:0:0:0:
378,98,199841,5,0,0:0:0:0:
256,324,200003,1,0,0:0:0:0:
256,153,200165,1,0,0:0:0:0:
404,238,200327,1,0,0:0:0:0:
109,79,200489,5,0,0:0:0:0:
256,350,200651,1,0,0:0:0:0:
256,132,200813,1,0,0:0:0:0:
78,247,200975,1,0,0:0:0:0:
431,56,201138,5,0,0:0:0:0:
256,382,201300,1,0,0:0:0:0:
256,111,201462,1,0,0:0:0:0:
469,258,201624,1,0,0:0:0:0:
125,209,201787,1,0,0:0:0:0:
101,225,201868,1,0,0:0:0:0:
78,247,201949,1,0,0:0:0:0:
372,272,202111,1,0,0:0:0:0:
332,80,202273,1,0,0:0:0:0:
164,96,202435,5,0,0:0:0:0:
164,288,202597,1,0,0:0:0:0:
356,288,202759,1,0,0:0:0:0:
356,96,202921,1,0,0:0:0:0:
71,195,203084,5,0,0:0:0:0:
259,383,203246,1,0,0:0:0:0:
447,195,203408,1,0,0:0:0:0:
259,7,203570,1,0,0:0:0:0:
128,324,203733,5,0,0:0:0:0:
384,60,203895,1,0,0:0:0:0:
369,74,203976,1,0,0:0:0:0:
354,89,204057,1,0,0:0:0:0:
339,104,204138,1,0,0:0:0:0:
324,119,204219,1,0,0:0:0:0:
309,134,204300,1,0,0:0:0:0:
294,149,204381,1,0,0:0:0:0:
279,164,204462,1,0,0:0:0:0:
264,179,204543,1,0,0:0:0:0:
249,194,204624,1,0,0:0:0:0:
234,209,204706,1,0,0:0:0:0:
219,224,204787,1,0,0:0:0:0:
204,239,204868,1,0,0:0:0:0:
189,254,204949,1,0,0:0:0:0:
174,269,205030,5,0,0:0:0:0:
